osu file format v14

[General]
AudioFilename: audio.mp3
AudioLeadIn: 0
PreviewTime: 253632
Countdown: 1
SampleSet: Soft
StackLeniency: 0.7
Mode: 0
LetterboxInBreaks: 0
WidescreenStoryboard: 0

[Editor]
Bookmarks: 105442,134252,252462,297024,342827
DistanceSpacing: 0.7
BeatDivisor: 4
GridSize: 8
TimelineZoom: 3

[Metadata]
Title:Songs Compilation
TitleUnicode:Songs Compilation
Artist:Imperial Circus Dead Decadence
ArtistUnicode:Imperial Circus Dead Decadence
Creator:bobbybenny12
Version:Hell
Source:
Tags:Symphonic Black Metal ICDD KIMI BRIDEAR Symphonic Black Metal DoKoLP Unknown Anon icdd fushoku symphonic black death metal japanese rock j-rock リブユウキ rib:y rib:y(uhki) nanomortis extol ou song declare express lolcubes Ode To The Dreadful Sacrament 惨劇の血に赫く染まった愛と絶望の黒い死とが紡ぐ最期の物語 Sangeki no Chi ni Kagayaku Somatta Ai to Zetsubou no Kuroi Shitoga Tsumugu Saigo no Monogatari Rib:y(uhki) L.G.C. KIM Kylie Hull VAGUEDGE Another Stream Kimiko PEATH2 TOME あにょ REINO Hellnear 狂おしく咲いた凄惨な骸は奏で、愛おしく裂いた少女は聖餐の詞を謳う。 japanese rsi deathstream melodic symphonic black metal icdd daiyouseii- unknown anon kaikō shōjo
BeatmapID:2039510
BeatmapSetID:974349

[Difficulty]
HPDrainRate:5.2
CircleSize:4.2
OverallDifficulty:9.3
ApproachRate:9.7
SliderMultiplier:1.6
SliderTickRate:1

[Events]
//Background and Video events
0,0,"good bg.jpg",0,0
//Break Periods
2,100676,104947
2,125487,129408
2,238088,251967
//Storyboard Layer 0 (Background)
//Storyboard Layer 1 (Fail)
//Storyboard Layer 2 (Pass)
//Storyboard Layer 3 (Foreground)
//Storyboard Sound Samples

[TimingPoints]
35,285.714285714286,3,2,1,60,1,0
35,-106.382978723404,3,2,1,60,0,0
2177,-98.0392156862745,3,2,1,60,0,0
3677,-98.0392156862745,3,2,1,5,0,0
3749,-98.0392156862745,3,2,1,68,0,1
6892,-106.382978723404,3,2,1,64,0,1
7749,300,3,2,1,60,1,0
7749,-106.382978723404,3,2,1,60,0,1
8041,292.682926829268,3,2,1,60,1,1
8354,288.461538461538,3,2,1,60,1,1
8652,288.461538461538,3,2,1,60,1,1
8940,272.727272727273,3,2,1,60,1,1
9212,277.777777777778,3,2,1,60,1,1
9778,283.018867924528,3,2,1,60,1,1
10344,283.018867924528,3,2,1,60,1,0
10344,-87.719298245614,3,2,1,60,0,1
10558,-87.719298245614,3,2,1,5,0,0
10627,272.727272727273,3,2,1,60,1,0
10627,-87.719298245614,3,2,1,68,0,1
10899,283.018867924528,3,2,1,60,1,1
11182,283.018867924528,3,2,1,60,1,1
11748,287.081339712919,3,2,1,60,1,1
12895,279.06976744186,3,2,1,60,1,1
13313,292.682926829268,3,2,1,60,1,1
13598,315.789473684211,3,2,1,60,1,1
13751,300,3,2,1,60,1,0
13751,-94.3396226415094,3,2,1,60,0,0
14201,285.714285714286,3,2,1,60,1,0
14629,285.714285714286,3,2,1,60,1,0
15486,279.06976744186,3,2,1,60,1,0
16323,307.692307692308,3,2,1,60,1,0
16630,260.869565217391,3,2,1,60,1,0
16751,285.714285714286,3,2,1,60,1,0
17105,-94.3396226415094,3,2,1,5,0,0
17177,285.714285714286,3,2,1,60,1,0
17179,-94.3396226415094,3,2,1,60,0,0
21462,-94.3396226415094,3,2,1,34,0,0
22034,-94.3396226415094,3,2,1,60,0,0
22391,-94.3396226415094,3,2,1,5,0,0
22462,-94.3396226415094,3,2,1,82,0,0
23762,285.714285714286,3,2,1,60,1,0
24053,285.714285714286,3,2,1,60,1,0
24053,-74.6268656716418,3,2,1,60,0,0
24267,-74.6268656716418,3,2,1,5,0,0
24338,-94.3396226415094,3,2,1,60,0,0
24642,285.714285714286,3,2,1,60,1,0
24910,285.714285714286,3,2,1,60,1,0
26624,260.869565217391,3,2,1,60,1,0
27052,285.714285714286,3,2,1,60,1,0
27463,285.714285714286,3,2,1,60,1,0
28320,-250,3,2,1,60,0,0
31761,260.869565217391,4,2,1,60,1,0
31761,-96.1538461538461,4,2,1,60,0,0
31891,285.714285714286,4,2,1,60,1,0
32033,285.714285714286,4,2,1,60,1,0
32033,-108.695652173913,4,2,1,34,0,0
32175,-108.695652173913,4,2,1,5,0,0
32318,-108.695652173913,4,2,1,34,0,0
32461,-108.695652173913,4,2,1,5,0,0
32604,-108.695652173913,4,2,1,34,0,0
32747,-108.695652173913,4,2,1,5,0,0
32916,281.69014084507,4,2,1,60,1,0
34034,285.714285714286,4,2,1,60,1,0
34319,-108.695652173913,4,2,1,34,0,0
34462,-108.695652173913,4,2,1,5,0,0
34605,-108.695652173913,4,2,1,34,0,0
34748,-108.695652173913,4,2,1,5,0,0
34891,-108.695652173913,4,2,1,34,0,0
35034,-108.695652173913,4,2,1,5,0,0
35176,-108.695652173913,4,2,1,60,0,0
36319,287.081339712919,4,2,1,60,1,0
38615,285.714285714286,4,2,1,60,1,0
40211,285.714285714286,4,2,1,60,1,0
40314,285.714285714286,4,2,1,60,1,0
40885,-104.166666666667,4,2,1,60,0,0
41061,285.714285714286,4,2,1,60,1,0
41319,285.714285714286,4,2,1,60,1,0
41319,-104.166666666667,4,2,1,60,0,0
41604,-104.166666666667,4,2,1,60,0,0
41819,-104.166666666667,4,2,1,60,0,0
42034,285.714285714286,4,2,1,60,1,0
44319,-80.6451612903226,4,2,1,60,0,0
45176,-104.166666666667,4,2,1,60,0,0
59176,-87.719298245614,4,2,1,60,0,0
59391,-87.719298245614,4,2,1,5,0,0
59462,-87.719298245614,4,2,1,60,0,1
65748,272.727272727273,4,2,1,60,1,1
66060,285.714285714286,4,2,1,60,1,0
66611,285.714285714286,4,2,1,60,1,0
67177,285.714285714286,4,2,1,60,1,1
67177,-80.6451612903226,4,2,1,60,0,0
67391,-80.6451612903226,4,2,1,5,0,1
67462,-80.6451612903226,4,2,1,60,0,0
67677,-80.6451612903226,4,2,1,5,0,0
67748,-80.6451612903226,4,2,1,60,0,0
68319,-87.719298245614,4,2,1,60,0,0
76605,272.727272727273,4,2,1,60,1,0
76877,300,4,2,1,60,1,0
77177,280.373831775701,4,2,1,60,1,0
77462,285.714285714286,4,2,1,60,1,0
80890,-75.7575757575758,4,2,1,60,0,0
82033,-87.719298245614,4,2,1,60,0,0
86606,300,3,2,1,60,1,0
86606,-98.0392156862745,3,2,1,60,0,0
87206,285.714285714286,3,2,1,60,1,0
87777,214.285714285714,3,2,1,60,1,0
87884,285.714285714286,3,2,1,60,1,0
88034,285.714285714286,3,2,1,60,1,0
88320,285.714285714286,3,2,1,60,1,0
90034,-102.040816326531,3,2,1,60,0,0
90904,285.714285714286,3,2,1,60,1,0
91748,285.714285714286,3,2,1,60,1,0
92890,-108.695652173913,3,2,1,60,0,0
93105,-108.695652173913,3,2,1,5,0,0
93176,-87.719298245614,3,2,1,60,0,0
98628,285.714285714286,3,2,1,60,1,0
99505,291.26213592233,3,2,1,60,1,0
99796,280.373831775701,3,2,1,60,1,0
99796,-84.7457627118644,3,2,1,60,0,0
100334,285.714285714286,4,2,1,60,1,0
100476,-100,4,2,1,5,0,0
105442,307.692307692308,3,2,1,60,1,0
105442,-86.2068965517241,3,2,1,60,0,0
110365,-75.7575757575758,3,2,1,60,0,0
115288,-81.9672131147541,3,2,1,60,0,0
119903,-78.125,3,2,1,60,0,0
122365,-87.719298245614,3,2,1,60,0,0
124134,-87.719298245614,3,2,1,5,0,0
124211,-87.719298245614,3,2,1,60,0,0
124442,-87.719298245614,3,2,1,5,0,0
124518,-87.719298245614,3,2,1,40,0,0
124672,-87.719298245614,3,2,1,60,0,0
125288,-87.719298245614,3,2,1,5,0,0
134252,272.727272727273,3,2,1,60,1,0
134252,-89.2857142857143,3,2,1,60,0,0
135342,-73.5294117647059,3,2,1,60,0,0
136706,-89.2857142857143,3,2,1,60,0,0
137524,-73.5294117647059,3,2,1,60,0,0
138888,-86.2068965517241,3,2,1,60,0,0
139706,-73.5294117647059,3,2,1,60,0,0
140797,-89.2857142857143,3,2,1,60,0,0
142706,-80.6451612903226,3,2,1,60,0,0
142911,-80.6451612903226,3,2,1,5,0,0
142979,-78.125,3,2,1,60,0,1
151706,-72.463768115942,3,2,1,64,0,1
156070,-67.5675675675676,3,2,1,68,0,1
158252,-80.6451612903226,3,2,1,60,0,0
159888,-84.7457627118644,3,2,1,60,0,0
160433,-104.166666666667,3,2,1,60,0,0
165820,-104.166666666667,3,2,1,5,0,0
165888,-104.166666666667,3,2,1,60,0,0
168888,-87.719298245614,3,2,1,60,0,0
169092,-87.719298245614,3,2,1,5,0,0
169161,-80.6451612903226,3,2,1,60,0,1
177888,-87.719298245614,3,2,1,60,0,0
195342,-92.5925925925926,3,2,1,60,0,0
205092,-92.5925925925926,3,2,1,5,0,0
205161,-92.5925925925926,3,2,1,60,0,0
209524,-192.307692307692,3,2,1,60,0,0
210615,-128.205128205128,3,2,1,60,0,0
211570,-78.1249999999999,3,2,1,60,0,0
226365,-78.1249999999999,3,2,1,5,0,0
226433,-78.1249999999999,3,2,1,60,0,0
228070,-78.1249999999999,3,2,1,5,0,0
228206,-78.1249999999999,3,2,1,60,0,0
237888,-78.1249999999999,3,2,1,15,0,0
252462,292.682926829268,3,2,1,60,1,0
253632,-75.187969924812,3,2,1,60,0,0
273535,-107.52688172043,3,2,1,60,0,0
278218,-84.7457627118644,3,2,1,60,0,0
287803,-84.7457627118644,3,2,1,5,0,0
287876,-84.7457627118644,3,2,1,60,0,0
297024,267.857142857143,3,2,1,60,1,0
297024,-102.040816326531,3,2,1,60,0,0
297157,-102.040816326531,3,2,1,15,0,0
298095,-102.040816326531,3,2,1,60,0,0
311756,-92.5925925925929,3,2,1,60,0,0
312024,-84.7457627118647,3,2,1,60,0,0
314166,-72.463768115942,3,2,1,60,0,0
322738,-67.5675675675676,3,2,1,60,0,0
329166,-64.9350649350649,3,2,1,60,0,0
330238,-64.9350649350649,3,2,1,84,0,0
330774,-64.9350649350649,3,2,1,100,0,0
331309,-227.272727272727,3,2,1,100,0,0
331376,-227.272727272727,3,2,1,60,0,0
336399,-227.272727272727,3,2,1,40,0,0
338809,-227.272727272727,3,2,1,20,0,0
339881,-227.272727272727,3,2,1,10,0,0
342827,-227.272727272727,3,2,1,5,0,0

[HitObjects]
107,67,35,6,0,L|110:118,2,50.1333325683594
189,144,320,2,0,L|187:195,2,50.1333325683594
112,253,606,2,0,L|115:304,2,50.1333325683594
189,358,892,5,2,0:0:0:0:
180,129,1035,1,0,0:0:0:0:
382,235,1177,5,2,0:0:0:0:
382,205,1248,1,0,0:0:0:0:
382,176,1319,1,0,0:0:0:0:
383,146,1391,1,0,0:0:0:0:
383,117,1463,5,2,0:0:0:0:
354,132,1534,1,0,0:0:0:0:
325,148,1605,1,0,0:0:0:0:
296,164,1677,1,0,0:0:0:0:
268,181,1749,5,2,0:0:0:0:
295,198,1820,1,0,0:0:0:0:
324,215,1891,1,0,0:0:0:0:
352,231,1963,1,0,0:0:0:0:
381,247,2035,5,2,0:0:0:0:
384,263,2106,1,0,0:0:0:0:
387,279,2177,2,0,B|349:304|349:304|340:319|340:319|292:348,1,81.6000004980469
236,361,2463,1,0,0:0:0:0:
234,66,2606,5,14,0:0:0:0:
442,82,3177,5,0,0:0:0:0:
454,120,3463,6,0,B|426:202|426:202|422:175|392:144,1,122.40000074707,14|0,0:0|0:0,0:0:0:0:
354,98,3749,5,10,0:0:0:0:
322,72,3820,1,0,0:0:0:0:
283,62,3891,1,8,0:0:0:0:
243,71,3963,1,0,0:0:0:0:
212,96,4035,1,10,0:0:0:0:
194,133,4106,1,0,0:0:0:0:
195,173,4177,1,8,0:0:0:0:
213,209,4249,1,0,0:0:0:0:
245,234,4320,5,10,0:0:0:0:
283,220,4391,1,0,0:0:0:0:
324,218,4462,1,8,0:0:0:0:
363,229,4534,1,0,0:0:0:0:
396,252,4606,6,0,L|412:302,1,40.8000002490234,10|0,0:0|0:0,0:0:0:0:
274,357,4749,2,0,L|223:345,1,40.8000002490234,10|0,0:0|0:0,0:0:0:0:
244,198,4892,2,0,L|279:159,3,40.8000002490234,10|0|8|0,0:0|0:0|0:0|0:0,0:0:0:0:
171,271,5177,5,10,0:0:0:0:
146,302,5248,1,0,0:0:0:0:
108,317,5319,1,8,0:0:0:0:
69,311,5391,1,0,0:0:0:0:
38,285,5462,1,8,0:0:0:0:
24,247,5534,1,0,0:0:0:0:
32,208,5605,1,8,0:0:0:0:
59,178,5677,1,0,0:0:0:0:
97,166,5749,5,10,0:0:0:0:
134,180,5820,1,0,0:0:0:0:
174,174,5891,1,8,0:0:0:0:
205,149,5963,1,0,0:0:0:0:
219,111,6034,1,10,0:0:0:0:
212,71,6106,1,0,0:0:0:0:
185,41,6177,1,8,0:0:0:0:
147,29,6249,1,0,0:0:0:0:
108,38,6320,5,0,0:0:0:0:
107,78,6391,1,0,0:0:0:0:
107,119,6462,1,0,0:0:0:0:
106,160,6534,1,0,0:0:0:0:
106,208,6605,5,8,0:1:0:0:
106,240,6677,1,8,0:1:0:0:
106,273,6749,2,0,L|106:325,1,40.8000002490234
203,352,6892,5,14,0:0:0:0:
222,340,6963,1,0,0:0:0:0:
243,332,7034,1,8,0:0:0:0:
265,328,7106,1,0,0:0:0:0:
287,328,7177,1,10,0:0:0:0:
309,333,7249,1,0,0:0:0:0:
330,343,7320,1,8,0:0:0:0:
355,358,7392,1,0,0:0:0:0:
384,365,7463,1,10,0:0:0:0:
414,366,7534,1,0,0:0:0:0:
443,358,7606,1,8,0:0:0:0:
469,343,7677,1,0,0:0:0:0:
488,319,7749,5,10,0:0:0:0:
487,285,7824,1,0,0:0:0:0:
486,251,7899,1,8,0:0:0:0:
486,217,7974,1,0,0:0:0:0:
485,183,8041,6,0,B|482:138,3,40,14|0|8|0,0:0|0:0|0:0|0:0,0:0:0:0:
397,75,8354,2,0,B|392:119,3,40,10|0|8|0,0:0|0:0|0:0|0:0,0:0:0:0:
376,210,8652,5,10,0:0:0:0:
344,211,8724,1,0,0:0:0:0:
313,202,8796,1,8,0:0:0:0:
288,183,8868,1,0,0:0:0:0:
270,157,8940,6,0,L|249:109,3,40,10|0|8|0,0:0|0:0|0:0|0:0,0:0:0:0:
177,53,9212,2,0,L|171:105,3,40,10|0|8|0,0:0|0:0|0:0|0:0,0:0:0:0:
176,198,9489,5,10,0:0:0:0:
181,232,9558,1,0,0:0:0:0:
170,266,9627,1,8,0:0:0:0:
144,290,9697,1,0,0:0:0:0:
109,300,9778,6,0,L|57:301,3,40,10|0|8|0,0:0|0:0|0:0|0:0,0:0:0:0:
188,347,10061,5,10,0:0:0:0:
226,357,10131,1,0,0:0:0:0:
266,358,10202,1,8,0:0:0:0:
305,351,10273,1,0,0:0:0:0:
342,334,10344,6,0,B|348:304|328:275|328:275|335:258|335:258|320:231|331:197,1,136.799998330078,14|0,0:0|0:0,0:0:0:0:
320,107,10627,5,10,0:0:0:0:
325,61,10695,1,0,0:0:0:0:
365,39,10763,1,8,0:0:0:0:
407,55,10831,1,0,0:0:0:0:
417,92,10899,1,8,0:0:0:0:
404,129,10969,1,0,0:0:0:0:
367,145,11040,1,8,0:0:0:0:
327,137,11111,1,0,0:0:0:0:
287,143,11182,5,10,0:0:0:0:
250,159,11252,1,0,0:0:0:0:
225,189,11323,1,8,0:0:0:0:
215,227,11394,1,0,0:0:0:0:
223,266,11465,1,10,0:0:0:0:
247,298,11535,1,0,0:0:0:0:
283,315,11606,1,8,0:0:0:0:
322,316,11677,1,0,0:0:0:0:
360,303,11748,5,10,0:0:0:0:
328,278,11819,1,0,0:0:0:0:
291,265,11891,1,8,0:0:0:0:
251,264,11963,1,0,0:0:0:0:
213,276,12035,1,10,0:0:0:0:
181,300,12106,1,0,0:0:0:0:
144,313,12178,1,8,0:0:0:0:
104,314,12250,1,0,0:0:0:0:
66,302,12322,5,8,0:0:0:0:
32,281,12393,1,0,0:0:0:0:
18,244,12465,1,8,0:0:0:0:
29,207,12537,1,0,0:0:0:0:
60,183,12609,1,8,0:0:0:0:
99,184,12680,1,0,0:0:0:0:
130,208,12752,1,8,0:0:0:0:
141,246,12824,1,0,0:0:0:0:
128,284,12895,5,10,0:0:0:0:
167,291,12964,1,0,0:0:0:0:
206,283,13034,1,8,0:0:0:0:
239,261,13104,1,0,0:0:0:0:
261,228,13174,1,8,0:0:0:0:
270,189,13243,1,0,0:0:0:0:
272,150,13313,6,0,L|272:103,1,40,10|0,0:0|0:0,0:0:0:0:
351,57,13459,1,10,0:3:0:0:
354,96,13532,1,8,0:3:0:0:
364,128,13598,1,8,0:3:0:0:
367,167,13676,1,8,0:3:0:0:
371,207,13751,6,0,L|371:315,1,84.8000001293945,14|0,0:0|0:0,0:0:0:0:
262,348,14051,1,8,0:0:0:0:
164,157,14201,6,0,L|272:157,1,80,2|0,0:0|0:0,0:0:0:0:
305,266,14486,1,8,0:0:0:0:
386,68,14629,6,0,B|406:70|406:70|349:123,1,80,2|8,0:0|0:0,0:0:0:0:
371,346,14914,2,0,B|351:344|351:344|408:291,1,80,2|8,0:0|0:0,0:0:0:0:
470,117,15200,2,0,B|472:229,1,80,2|8,0:0|0:0,0:0:0:0:
418,376,15486,6,0,B|402:360|402:360|391:285,1,80,2|8,0:0|0:0,0:0:0:0:
373,166,15765,1,8,0:0:0:0:
187,242,15904,6,0,B|208:247|208:247|279:219,1,80,2|8,0:0|0:0,0:0:0:0:
391,175,16183,1,8,0:0:0:0:
162,73,16323,2,0,P|156:95|184:165,1,80,2|8,0:0|0:0,0:0:0:0:
288,304,16630,5,8,0:0:0:0:
288,304,16695,1,8,0:0:0:0:
288,304,16751,2,0,B|254:318|219:298|219:298|183:283|146:302|146:302|130:275|81:268,1,200,10|0,0:1|0:0,0:0:0:0:
47,176,17177,6,0,P|82:162|155:176,1,80,14|0,0:0|0:0,0:0:0:0:
249,182,17462,1,0,0:0:0:0:
341,344,17605,6,0,P|311:320|287:250,1,84.8000001293945,14|0,0:0|0:0,0:0:0:0:
245,166,17890,1,0,0:0:0:0:
393,25,18034,6,0,B|413:27|413:27|356:80,1,84.8000001293945,2|8,0:0|0:0,0:0:0:0:
368,270,18319,2,0,B|348:268|348:268|405:215,1,84.8000001293945,2|8,0:0|0:0,0:0:0:0:
241,151,18605,2,0,B|239:263,1,84.8000001293945,2|8,0:0|0:0,0:0:0:0:
239,338,18819,1,0,0:0:0:0:
243,342,18891,6,0,P|192:333|151:285,1,84.8000001293945,2|0,0:0|0:0,0:0:0:0:
151,121,19177,1,0,0:0:0:0:
76,261,19319,6,0,P|109:221|171:209,1,84.8000001293945,2|0,0:0|0:0,0:0:0:0:
312,292,19605,1,0,0:0:0:0:
312,125,19748,6,0,L|309:233,1,84.8000001293945,2|0,0:0|0:0,0:0:0:0:
395,354,20034,2,0,L|401:245,1,84.8000001293945,2|0,0:0|0:0,0:0:0:0:
476,129,20319,5,2,0:0:0:0:
476,171,20390,1,0,0:0:0:0:
477,213,20462,1,0,0:0:0:0:
477,256,20533,1,0,0:0:0:0:
478,298,20605,6,0,P|396:348|321:294,1,169.600000258789,14|0,0:1|0:0,0:0:0:0:
329,129,21177,5,0,0:0:0:0:
329,150,21248,1,0,0:0:0:0:
329,171,21319,1,0,0:0:0:0:
330,192,21391,1,0,0:0:0:0:
330,213,21462,6,0,L|331:264,1,42.4000000646973,14|0,0:1|0:0,0:0:0:0:
252,141,21605,2,0,L|253:89,1,42.4000000646973,2|0,0:0|0:0,0:0:0:0:
174,213,21748,2,0,L|173:264,1,42.4000000646973,2|0,0:0|0:0,0:0:0:0:
96,141,21891,2,0,L|95:89,1,42.4000000646973
22,264,22034,6,0,P|56:286|114:285,1,84.8000001293945,10|0,0:0|0:0,0:0:0:0:
82,156,22319,6,0,L|82:235,1,42.4000000646973,2|0,0:0|0:0,0:0:0:0:
94,307,22462,5,0,0:0:0:0:
131,340,22533,1,0,0:0:0:0:
180,351,22604,1,0,0:0:0:0:
228,337,22676,1,0,0:0:0:0:
263,300,22747,1,0,0:0:0:0:
275,251,22819,1,0,0:0:0:0:
261,203,22891,5,0,0:0:0:0:
250,153,22962,1,0,0:0:0:0:
265,105,23033,1,0,0:0:0:0:
302,71,23105,1,0,0:0:0:0:
350,59,23177,5,0,0:0:0:0:
400,67,23248,1,0,0:0:0:0:
440,98,23319,1,0,0:0:0:0:
462,143,23391,1,0,0:0:0:0:
459,194,23462,1,0,0:0:0:0:
434,237,23534,1,0,0:0:0:0:
391,264,23605,1,0,0:0:0:0:
341,267,23677,1,0,0:0:0:0:
295,247,23762,5,0,0:0:0:0:
61,115,24053,6,0,B|123:99|151:61|151:61|167:88|157:116,1,160.799992393799,14|0,0:0|0:0,0:0:0:0:
154,215,24338,1,0,0:0:0:0:
285,107,24481,1,0,0:0:0:0:
164,233,24642,2,0,L|92:292,1,80
316,234,24910,5,2,0:0:0:0:
147,94,25052,1,0,0:0:0:0:
310,249,25195,2,0,L|382:308,1,80,2|0,0:0|0:0,0:0:0:0:
394,114,25481,2,0,L|378:205,1,80,2|0,0:0|0:0,0:0:0:0:
460,45,25767,6,0,P|418:27|368:29,1,80,2|0,0:0|0:0,0:0:0:0:
274,76,26052,1,0,0:0:0:0:
306,262,26195,1,0,0:0:0:0:
168,79,26338,1,0,0:0:0:0:
136,265,26481,1,0,0:0:0:0:
102,70,26624,5,2,0:0:0:0:
201,332,26754,1,2,0:0:0:0:
379,116,26884,1,2,0:0:0:0:
109,43,27052,5,2,0:0:0:0:
61,333,27194,1,2,0:0:0:0:
325,206,27337,1,2,0:0:0:0:
122,19,27463,5,2,0:0:0:0:
0,286,27605,1,2,0:0:0:0:
282,207,27748,1,2,0:0:0:0:
132,0,27891,5,0,0:0:0:0:
342,241,28034,1,0,0:0:0:0:
62,214,28177,1,0,0:0:0:0:
279,335,28320,6,0,B|450:345|465:203|465:203|341:100|241:197|241:197|226:65|353:78,1,704,14|0,0:0|0:0,0:0:0:0:
72,329,31761,5,2,0:0:0:0:
142,84,31891,1,2,0:0:0:0:
204,343,32033,2,0,P|243:327|275:280,1,73.599997529297,2|0,0:0|0:0,0:0:0:0:
375,342,32318,2,0,P|381:299|356:248,1,73.599997529297
291,119,32604,2,0,L|292:214,1,73.599997529297
197,262,32916,5,10,0:2:0:0:
231,282,32986,1,0,0:2:0:0:
269,293,33056,1,0,0:2:0:0:
309,292,33127,1,0,0:2:0:0:
347,281,33197,1,0,0:2:0:0:
381,260,33268,1,0,0:2:0:0:
419,249,33338,1,0,0:2:0:0:
459,250,33409,1,0,0:2:0:0:
497,261,33479,5,10,0:2:0:0:
465,285,33549,1,0,0:2:0:0:
427,295,33619,1,0,0:2:0:0:
388,289,33690,1,0,0:2:0:0:
354,268,33760,1,0,0:2:0:0:
332,235,33831,1,0,0:2:0:0:
325,196,33901,1,0,0:2:0:0:
333,158,33971,1,0,0:2:0:0:
357,126,34034,5,6,0:2:0:0:
264,335,34176,1,2,0:0:0:0:
166,129,34319,2,0,P|205:145|237:192,1,73.599997529297,2|0,0:0|0:1,0:1:0:0:
328,248,34605,2,0,P|294:273|237:277,1,73.599997529297,0|0,0:1|0:1,0:1:0:0:
143,328,34891,2,0,P|137:286|162:235,1,73.599997529297,0|0,0:1|0:1,0:1:0:0:
225,165,35176,5,10,0:0:0:0:
259,146,35247,1,0,0:0:0:0:
299,139,35318,1,0,0:0:0:0:
338,147,35390,1,0,0:0:0:0:
371,168,35461,1,0,0:0:0:0:
394,201,35533,1,0,0:0:0:0:
404,239,35604,1,0,0:0:0:0:
398,279,35676,1,0,0:0:0:0:
379,313,35748,5,10,0:0:0:0:
342,298,35819,1,0,0:0:0:0:
303,293,35890,1,0,0:0:0:0:
263,300,35962,1,0,0:0:0:0:
228,317,36033,1,0,0:0:0:0:
191,332,36105,1,0,0:0:0:0:
151,337,36176,1,0,0:0:0:0:
112,330,36248,1,0,0:0:0:0:
76,313,36319,6,0,L|76:197,1,80,10|0,0:0|0:0,0:0:0:0:
76,109,36606,1,10,0:0:0:0:
122,98,36893,1,10,0:0:0:0:
168,87,37180,1,10,0:0:0:0:
214,76,37467,6,0,L|214:192,1,80,10|0,0:0|0:0,0:0:0:0:
211,297,37754,1,10,0:0:0:0:
257,308,38041,1,10,0:0:0:0:
303,319,38328,1,10,0:0:0:0:
428,345,38615,5,10,0:0:0:0:
441,299,38686,1,0,0:0:0:0:
445,251,38757,2,0,L|436:184,1,40
357,122,38900,2,0,L|362:178,1,40,10|0,0:0|0:0,0:0:0:0:
327,240,39043,5,10,0:0:0:0:
280,228,39114,1,0,0:0:0:0:
237,208,39186,1,0,0:0:0:0:
199,178,39257,1,0,0:0:0:0:
168,141,39329,2,0,L|171:80,1,40,10|0,0:0|0:0,0:0:0:0:
241,31,39472,5,10,0:0:0:0:
191,314,39615,1,10,0:0:0:0:
70,54,39757,1,14,0:0:0:0:
276,55,40211,5,0,0:0:0:0:
276,55,40258,1,0,0:0:0:0:
276,55,40314,6,0,B|278:93|278:93|274:112|274:112|279:165,2,106.666666666667,2|2|2,0:0|0:0|0:0,0:0:0:0:
430,350,40885,5,0,0:0:0:0:
203,267,41061,6,0,B|186:278|186:278|262:296,1,80,2|8,0:0|0:0,0:0:0:0:
376,215,41319,2,0,B|392:226|392:226|316:244,1,76.800001875,2|8,0:0|0:0,0:0:0:0:
203,163,41604,2,0,B|186:174|186:174|262:192,1,76.800001875,2|8,0:0|0:0,0:0:0:0:
376,111,41819,1,0,0:0:0:0:
376,111,41890,2,0,B|392:122|392:122|316:140,1,76.800001875,2|8,0:0|0:0,0:0:0:0:
218,40,42176,6,0,B|206:100|206:100|217:138,1,80,2|8,0:0|0:0,0:0:0:0:
256,310,42462,2,0,B|244:250|244:250|255:212,1,80,2|8,0:0|0:0,0:0:0:0:
414,111,42748,2,0,P|382:144|328:159,1,80,2|8,0:0|0:0,0:0:0:0:
268,161,42962,1,0,0:0:0:0:
268,161,43034,2,0,B|216:147|216:147|170:161,1,80,2|8,0:0|0:0,0:0:0:0:
183,270,43319,5,2,0:0:0:0:
120,75,43462,2,0,P|172:60|218:75,1,80,8|2,0:0|0:0,0:0:0:0:
339,81,43748,1,8,0:0:0:0:
55,137,43891,2,0,P|68:189|104:221,1,80,2|8,0:0|0:0,0:0:0:0:
181,280,44105,1,0,0:0:0:0:
181,280,44176,1,2,0:0:0:0:
420,311,44319,5,8,0:0:0:0:
296,173,44462,1,2,0:0:0:0:
247,310,44605,5,8,0:0:0:0:
477,134,44748,1,2,0:0:0:0:
274,51,44891,5,8,0:0:0:0:
423,293,45034,1,2,0:0:0:0:
441,40,45176,5,8,0:0:0:0:
438,78,45247,1,0,0:0:0:0:
435,116,45318,1,2,0:0:0:0:
433,154,45390,1,0,0:0:0:0:
430,193,45462,6,0,L|426:251,1,38.4000009375,8|0,0:0|0:0,0:0:0:0:
367,315,45605,6,0,B|384:326|384:326|308:344,1,76.800001875,6|8,0:0|0:0,0:0:0:0:
179,226,45891,2,0,B|162:237|162:237|238:255,1,76.800001875,2|8,0:0|0:0,0:0:0:0:
367,137,46176,2,0,B|384:148|384:148|308:166,1,76.800001875,2|8,0:0|0:0,0:0:0:0:
179,48,46391,1,0,0:0:0:0:
179,48,46462,2,0,B|184:131,1,76.800001875,2|8,0:0|0:0,0:0:0:0:
201,322,46748,5,2,0:0:0:0:
319,74,46891,1,8,0:0:0:0:
182,348,47034,5,2,0:0:0:0:
441,168,47177,1,8,0:0:0:0:
164,371,47319,5,2,0:0:0:0:
137,56,47462,1,8,0:0:0:0:
20,239,47605,5,2,0:0:0:0:
335,212,47748,2,0,B|333:232|333:232|280:175,1,76.800001875,8|2,0:0|0:0,0:0:0:0:
137,56,48034,2,0,B|138:35|138:35|191:92,1,76.800001875,8|2,0:0|0:0,0:0:0:0:
288,301,48319,2,0,B|286:321|286:321|233:264,1,76.800001875,8|2,0:0|0:0,0:0:0:0:
90,145,48605,2,0,B|91:124|91:124|144:181,1,76.800001875,8|2,0:0|0:0,0:0:0:0:
222,371,48891,5,8,0:0:0:0:
213,97,49034,1,2,0:0:0:0:
24,215,49176,5,8,0:0:0:0:
322,265,49319,1,2,0:0:0:0:
157,34,49462,5,8,0:0:0:0:
107,332,49605,1,2,0:0:0:0:
269,39,49748,5,8,0:0:0:0:
271,341,49891,2,0,L|272:287,1,38.4000009375,2|0,0:0|0:0,0:0:0:0:
396,30,50034,6,0,P|411:82|396:128,1,76.800001875,12|2,0:0|0:0,0:0:0:0:
200,193,50319,2,0,B|183:204|183:204|259:222,1,76.800001875,8|2,0:0|0:0,0:0:0:0:
400,227,50605,2,0,B|416:238|416:238|340:256,1,76.800001875,8|2,0:0|0:0,0:0:0:0:
232,316,50891,2,0,B|215:327|215:327|291:345,1,76.800001875,8|2,0:0|0:0,0:0:0:0:
442,351,51105,1,0,0:0:0:0:
442,351,51176,6,0,B|390:365|390:365|344:351,1,76.800001875,8|2,0:0|0:0,0:0:0:0:
333,177,51462,5,8,0:0:0:0:
392,296,51605,1,2,0:0:0:0:
266,288,51748,5,8,0:0:0:0:
434,227,51891,1,2,0:0:0:0:
365,357,52034,5,8,0:0:0:0:
308,152,52176,1,2,0:0:0:0:
484,289,52319,6,0,P|432:304|386:289,1,76.800001875,8|2,0:0|0:0,0:0:0:0:
321,128,52605,2,0,P|306:180|321:226,1,76.800001875,8|2,0:0|0:0,0:0:0:0:
439,44,52891,2,0,P|454:96|439:142,1,76.800001875,8|2,0:0|0:0,0:0:0:0:
270,30,53176,2,0,L|368:30,1,76.800001875,8|2,0:0|0:0,0:0:0:0:
387,164,53462,5,8,0:0:0:0:
256,339,53605,1,2,0:0:0:0:
247,99,53748,5,8,0:0:0:0:
350,339,53891,1,2,0:0:0:0:
150,278,54034,5,8,0:0:0:0:
419,162,54177,1,2,0:0:0:0:
255,375,54319,5,8,0:0:0:0:
235,60,54462,1,2,0:0:0:0:
375,376,54605,5,8,0:0:0:0:
382,60,54748,2,0,L|382:158,1,76.800001875,2|0,0:0|0:0,0:0:0:0:
386,234,55034,2,0,P|333:220|301:185,1,76.800001875,2|8,0:0|0:0,0:0:0:0:
188,178,55319,2,0,L|278:132,1,76.800001875,2|0,0:0|0:0,0:0:0:0:
364,84,55605,2,0,P|378:136|364:182,1,76.800001875,2|8,0:0|0:0,0:0:0:0:
487,111,55891,6,0,L|392:159,1,76.800001875,2|0,0:0|0:0,0:0:0:0:
285,218,56177,2,0,P|269:161|285:111,1,76.800001875,2|8,0:0|0:0,0:0:0:0:
363,92,56462,2,0,L|330:192,1,76.800001875,2|0,0:0|0:0,0:0:0:0:
268,311,56676,1,0,0:0:0:0:
268,311,56748,2,0,P|217:281|192:235,1,76.800001875,2|8,0:0|0:0,0:0:0:0:
100,77,57034,6,0,L|200:109,1,76.800001875,2|0,0:0|0:0,0:0:0:0:
354,149,57319,1,2,0:0:0:0:
227,341,57462,1,8,0:0:0:0:
219,111,57605,1,2,0:0:0:0:
354,308,57748,1,8,0:0:0:0:
354,308,57819,1,0,0:0:0:0:
354,308,57891,6,0,L|357:240,1,38.4000009375,2|0,0:0|0:0,0:0:0:0:
402,73,58034,5,10,0:0:0:0:
138,203,58176,1,10,0:0:0:0:
356,269,58319,5,10,0:0:0:0:
143,66,58461,1,10,0:0:0:0:
129,290,58605,5,10,0:0:0:0:
247,19,58747,1,10,0:0:0:0:
47,86,58891,5,10,0:0:0:0:
342,104,59033,1,10,0:0:0:0:
66,265,59176,6,0,B|114:256|136:211|136:211|152:237|195:248,1,136.799998330078,14|0,0:0|0:0,0:0:0:0:
264,264,59462,5,14,0:0:0:0:
303,275,59533,1,0,0:0:0:0:
344,275,59604,1,10,0:0:0:0:
382,261,59676,1,0,0:0:0:0:
415,237,59748,5,10,0:0:0:0:
444,202,59819,1,0,0:0:0:0:
460,160,59890,1,10,0:0:0:0:
461,114,59962,1,0,0:0:0:0:
447,71,60034,5,10,0:0:0:0:
410,44,60105,1,0,0:0:0:0:
366,32,60176,1,10,0:0:0:0:
321,34,60248,1,0,0:0:0:0:
279,53,60319,1,10,0:0:0:0:
246,84,60391,1,0,0:0:0:0:
225,124,60462,1,10,0:0:0:0:
220,169,60534,1,0,0:0:0:0:
230,213,60605,5,10,0:0:0:0:
241,256,60676,1,0,0:0:0:0:
235,301,60747,1,10,0:0:0:0:
212,341,60819,1,0,0:0:0:0:
177,369,60890,1,10,0:0:0:0:
133,381,60962,1,0,0:0:0:0:
88,376,61033,1,10,0:0:0:0:
48,354,61105,1,0,0:0:0:0:
19,318,61176,6,0,P|52:201|126:192,1,182.399997773438,14|14,0:0|0:0,0:0:0:0:
229,189,61605,5,8,0:0:0:0:
295,82,61748,1,10,0:0:0:0:
271,44,61819,1,0,0:0:0:0:
231,24,61891,1,10,0:0:0:0:
186,27,61962,1,0,0:0:0:0:
150,54,62034,1,10,0:0:0:0:
171,93,62105,1,0,0:0:0:0:
168,138,62177,1,10,0:0:0:0:
143,175,62248,1,0,0:0:0:0:
102,194,62320,1,10,0:0:0:0:
57,188,62391,1,0,0:0:0:0:
23,157,62462,5,10,0:0:0:0:
67,146,62533,1,0,0:0:0:0:
111,154,62604,1,10,0:0:0:0:
149,179,62676,1,0,0:0:0:0:
174,217,62748,1,10,0:0:0:0:
207,247,62819,1,0,0:0:0:0:
249,263,62890,1,10,0:0:0:0:
294,260,62962,1,0,0:0:0:0:
335,240,63034,5,10,0:0:0:0:
359,202,63105,1,0,0:0:0:0:
365,157,63176,1,10,0:0:0:0:
351,114,63248,1,0,0:0:0:0:
320,81,63319,1,10,0:0:0:0:
277,66,63391,1,0,0:0:0:0:
232,70,63462,1,10,0:0:0:0:
194,93,63534,1,0,0:0:0:0:
169,131,63605,1,10,0:0:0:0:
163,176,63676,1,0,0:0:0:0:
177,218,63748,6,0,P|208:296|150:382,1,182.399997773438,14|14,0:0|0:0,0:0:0:0:
67,284,64176,5,8,0:0:0:0:
199,264,64319,1,10,0:0:0:0:
243,277,64391,1,0,0:0:0:0:
285,293,64462,1,10,0:0:0:0:
330,299,64534,1,0,0:0:0:0:
375,296,64605,1,10,0:0:0:0:
419,283,64676,1,0,0:0:0:0:
456,256,64748,1,10,0:0:0:0:
458,210,64819,1,0,0:0:0:0:
460,164,64891,5,10,0:0:0:0:
415,173,64962,1,0,0:0:0:0:
371,161,65033,1,10,0:0:0:0:
336,133,65105,1,0,0:0:0:0:
317,92,65176,1,10,0:0:0:0:
291,54,65247,1,0,0:0:0:0:
252,31,65318,1,10,0:0:0:0:
207,27,65390,1,0,0:0:0:0:
164,42,65462,5,10,0:0:0:0:
132,74,65533,1,0,0:0:0:0:
118,117,65604,1,10,0:0:0:0:
125,162,65676,1,0,0:0:0:0:
150,200,65748,5,10,0:0:0:0:
149,243,65816,1,0,0:0:0:0:
148,287,65884,2,0,L|147:339,1,40,10|0,0:0|0:0,0:0:0:0:
223,244,66060,6,0,L|281:253,3,40,14|0|0|0,0:0|0:0|0:0|0:0,0:0:0:0:
353,243,66345,6,0,B|305:250|305:250|290:243|290:243|225:250,1,106.666666666667,10|0,0:0|0:0,0:0:0:0:
81,226,66611,6,0,L|103:188,3,40,10|0|0|0,0:0|0:0|0:0|0:0,0:0:0:0:
183,156,66896,2,0,L|173:118,3,40,10|0|0|0,0:0|0:0|0:0|0:0,0:0:0:0:
72,103,67177,6,0,P|138:40|221:32,1,148.79999409668,14|0,0:0|0:0,0:0:0:0:
231,73,67462,2,0,B|259:66|290:78|290:78|315:66|315:66|344:81|381:73,1,148.79999409668,10|0,0:0|0:0,0:0:0:0:
455,171,67748,1,2,0:0:0:0:
455,171,67819,1,8,0:0:0:0:
455,171,67891,1,2,0:0:0:0:
258,315,68034,6,0,B|212:286|173:301|173:301|144:287|144:287|98:299|52:268,1,198.399992128907,14|2,0:0|0:0,0:0:0:0:
116,149,68462,2,0,B|97:139|97:139|120:214,1,91.1999988867188,8|2,0:0|0:0,0:0:0:0:
210,366,68748,2,0,B|228:375|228:375|205:300,1,91.1999988867188,8|2,0:0|0:0,0:0:0:0:
54,304,69034,2,0,B|44:323|44:323|119:300,1,91.1999988867188,8|2,0:0|0:0,0:0:0:0:
271,210,69248,1,0,0:0:0:0:
271,210,69320,6,0,B|263:105,1,91.1999988867188,8|2,0:0|0:0,0:0:0:0:
314,42,69605,2,0,B|262:28|262:28|216:42,1,91.1999988867188,8|8,0:0|0:0,0:0:0:0:
85,134,69891,2,0,B|137:148|137:148|183:134,1,91.1999988867188,2|8,0:0|0:0,0:0:0:0:
264,119,70177,2,0,B|300:157|300:157|313:203,1,91.1999988867188,2|8,0:0|0:0,0:0:0:0:
251,292,70391,1,0,0:0:0:0:
251,292,70462,6,0,L|349:292,1,91.1999988867188,8|2,0:0|0:0,0:0:0:0:
439,178,70748,5,10,0:0:0:0:
352,123,70891,2,0,P|301:111|254:123,1,91.1999988867188,10|8,0:0|0:0,0:0:0:0:
166,207,71177,1,0,0:0:0:0:
51,159,71319,2,0,P|39:210|51:257,1,91.1999988867188,8|0,0:0|0:0,0:0:0:0:
160,354,71534,1,0,0:0:0:0:
160,354,71605,6,0,L|162:292,1,45.5999994433594,2|0,0:0|0:0,0:0:0:0:
167,82,71748,5,8,0:0:0:0:
384,236,71891,1,2,0:0:0:0:
200,282,72034,5,8,0:0:0:0:
418,130,72177,1,2,0:0:0:0:
374,345,72319,5,8,0:0:0:0:
327,82,72462,1,2,0:0:0:0:
160,354,72605,5,8,0:0:0:0:
182,87,72748,1,2,0:0:0:0:
376,353,72891,5,8,0:0:0:0:
351,86,73034,2,0,B|362:67|362:67|380:144,1,91.1999988867188,2|8,0:0|0:0,0:0:0:0:
271,288,73319,2,0,B|282:306|282:306|300:229,1,91.1999988867188,2|8,0:0|0:0,0:0:0:0:
223,77,73605,2,0,B|234:58|234:58|252:135,1,91.1999988867188,2|8,0:0|0:0,0:0:0:0:
183,221,73819,1,0,0:0:0:0:
183,221,73891,6,0,B|176:111,1,91.1999988867188,2|8,0:0|0:0,0:0:0:0:
123,34,74177,5,2,0:0:0:0:
108,294,74319,1,8,0:0:0:0:
113,19,74462,5,2,0:0:0:0:
235,262,74605,1,8,0:0:0:0:
103,4,74748,5,2,0:0:0:0:
83,329,74891,1,8,0:0:0:0:
221,57,75034,5,2,0:0:0:0:
242,332,75177,2,0,B|253:351|253:351|271:274,1,91.1999988867188,8|2,0:0|0:0,0:0:0:0:
293,140,75462,1,8,0:0:0:0:
79,177,75605,2,0,B|67:197|67:197|148:172,1,91.1999988867188,2|8,0:0|0:0,0:0:0:0:
285,120,75891,1,2,0:0:0:0:
71,47,76034,2,0,L|154:88,1,91.1999988867188,8|2,0:0|0:0,0:0:0:0:
277,100,76319,5,8,0:0:0:0:
125,298,76462,1,2,0:0:0:0:
131,12,76605,5,8,0:0:0:0:
265,222,76741,1,2,0:0:0:0:
10,112,76877,5,8,0:0:0:0:
253,57,77027,2,0,L|206:83,1,40,2|0,0:0|0:0,0:0:0:0:
105,149,77177,5,8,0:0:0:0:
93,187,77247,1,0,0:0:0:0:
92,226,77317,1,2,0:0:0:0:
104,265,77387,1,0,0:0:0:0:
125,298,77462,6,0,B|165:274|210:283|210:283|246:317|296:310,1,160,14|14,0:0|0:0,0:0:0:0:
366,316,77890,5,10,0:0:0:0:
371,276,77961,1,0,0:0:0:0:
377,236,78033,2,0,L|377:187,1,40,10|0,0:0|0:0,0:0:0:0:
276,71,78176,5,10,0:0:0:0:
281,110,78247,1,0,0:0:0:0:
287,150,78319,2,0,L|286:199,1,40,10|0,0:0|0:0,0:0:0:0:
183,333,78462,5,10,0:0:0:0:
188,294,78533,1,0,0:0:0:0:
194,254,78605,2,0,L|193:204,1,40,10|0,0:0|0:0,0:0:0:0:
134,35,78747,2,0,L|133:84,1,40,10|0,0:0|0:0,0:0:0:0:
66,181,78890,5,10,0:0:0:0:
110,199,78961,1,0,0:0:0:0:
157,199,79032,1,10,0:0:0:0:
201,181,79104,1,0,0:0:0:0:
235,146,79176,1,10,0:0:0:0:
279,127,79247,1,0,0:0:0:0:
326,127,79318,1,10,0:0:0:0:
370,145,79390,1,0,0:0:0:0:
409,174,79462,5,10,0:0:0:0:
409,222,79533,1,0,0:0:0:0:
409,270,79604,2,0,L|409:329,1,40,10|0,0:0|0:0,0:0:0:0:
323,354,79747,5,10,0:0:0:0:
281,377,79818,1,0,0:0:0:0:
234,376,79889,1,10,0:0:0:0:
194,350,79961,1,0,0:0:0:0:
174,307,80032,1,10,0:0:0:0:
179,260,80104,1,0,0:0:0:0:
207,223,80175,1,10,0:0:0:0:
252,206,80246,1,0,0:0:0:0:
298,214,80319,6,0,L|357:194,1,40,10|0,0:0|0:0,0:0:0:0:
424,105,80462,5,10,0:0:0:0:
398,75,80533,1,0,0:0:0:0:
359,67,80604,1,10,0:0:0:0:
321,79,80675,1,0,0:0:0:0:
284,67,80747,6,0,L|236:83,1,40
163,159,80890,6,0,P|242:217|287:216,1,105.599999677734,14|0,0:0|0:0,0:0:0:0:
398,157,81176,2,0,P|319:215|274:214,1,105.599999677734,14|0,0:0|0:0,0:0:0:0:
133,276,81462,5,8,0:0:0:0:
298,107,81604,1,2,0:0:0:0:
111,291,81747,5,8,0:0:0:0:
347,209,81890,2,0,B|316:153|316:153|276:132,1,105.599999677734,10|0,0:0|0:0,0:0:0:0:
161,197,82176,6,0,P|213:211|259:197,1,91.1999988867188,8|2,0:0|0:0,0:0:0:0:
257,52,82462,2,0,L|207:136,1,91.1999988867188,8|2,0:0|0:0,0:0:0:0:
123,301,82747,6,0,P|161:262|172:216,1,91.1999988867188,8|2,0:0|0:0,0:0:0:0:
14,180,83033,2,0,L|98:230,1,91.1999988867188,8|2,0:0|0:0,0:0:0:0:
277,352,83319,6,0,P|291:300|277:254,1,91.1999988867188,8|2,0:0|0:0,0:0:0:0:
124,347,83605,2,0,L|209:299,1,91.1999988867188,8|2,0:0|0:0,0:0:0:0:
284,172,83890,6,0,P|245:133|199:123,1,91.1999988867188,8|2,0:0|0:0,0:0:0:0:
163,286,84176,2,0,L|213:202,1,91.1999988867188,8|2,0:0|0:0,0:0:0:0:
170,41,84462,6,0,P|116:55|85:90,1,91.1999988867188,8|2,0:0|0:0,0:0:0:0:
91,172,84676,1,0,0:0:0:0:
91,172,84748,2,0,L|188:173,1,91.1999988867188,8|2,0:0|0:0,0:0:0:0:
287,173,85033,1,8,0:0:0:0:
193,351,85176,1,2,0:0:0:0:
64,155,85319,1,8,0:0:0:0:
189,364,85462,5,0,0:0:0:0:
217,84,85604,1,8,0:0:0:0:
217,84,85676,1,8,0:0:0:0:
217,84,85747,5,8,0:0:0:0:
319,336,85890,1,8,0:0:0:0:
283,67,86033,1,2,0:0:0:0:
186,374,86176,1,8,0:0:0:0:
308,73,86319,5,10,0:3:0:0:
339,74,86390,1,8,0:3:0:0:
370,67,86461,1,8,0:3:0:0:
398,52,86533,1,8,0:3:0:0:
421,30,86606,6,0,B|384:107|430:107|402:196|402:196|422:193|449:192|469:210|487:232|491:257|496:292|475:319|443:343|410:338|389:332|389:332|371:348|371:348|326:346,1,489.600002988281,14|10,0:0|0:0,0:0:0:0:
224,350,87777,6,0,P|230:308|258:263,1,80,2|0,0:0|0:0,0:0:0:0:
312,181,88034,2,0,P|273:166|219:167,1,80,2|0,0:0|0:0,0:0:0:0:
35,92,88320,6,0,B|241:117|160:257|445:328,1,480,10|10,0:0|0:0,0:0:0:0:
483,200,89462,6,0,P|476:158|448:113,1,80,2|0,0:0|0:0,0:0:0:0:
387,190,89748,2,0,P|393:231|421:276,1,80,2|0,0:0|0:0,0:0:0:0:
462,326,90034,6,0,B|355:339|313:240|313:240|158:293|112:138|257:90|263:190,1,480,10|10,0:0|0:0,0:0:0:0:
314,43,91189,6,0,L|316:142,1,80
421,229,91475,2,0,L|423:130,1,80
422,47,91748,6,10,P|287:98|289:206,1,240,10|0,0:0|0:0,0:0:0:0:
287,273,92319,2,10,P|193:237|194:162,1,160
270,110,92890,6,10,P|223:71|172:72,1,110.399996293945,14|0,0:0|0:0,0:0:0:0:
117,133,93176,1,8,0:3:0:0:
115,174,93247,1,8,0:3:0:0:
107,219,93318,1,8,0:3:0:0:
106,260,93390,1,8,0:3:0:0:
105,301,93462,6,0,P|142:345|204:357,1,91.1999988867188,14|8,0:1|0:0,0:0:0:0:
270,341,93748,1,2,0:0:0:0:
190,150,93890,1,8,0:0:0:0:
180,343,94033,5,2,0:0:0:0:
277,157,94176,1,8,0:0:0:0:
356,336,94319,6,0,P|400:299|412:237,1,91.1999988867188,8|8,0:1|0:0,0:0:0:0:
419,124,94605,1,2,0:0:0:0:
252,183,94748,1,8,0:0:0:0:
414,253,94890,5,2,0:0:0:0:
270,47,95033,1,8,0:0:0:0:
422,12,95176,6,0,L|421:120,1,91.1999988867188,10|8,0:0|0:0,0:0:0:0:
399,307,95462,5,2,0:0:0:0:
378,96,95605,1,8,0:0:0:0:
268,307,95748,5,2,0:0:0:0:
283,95,95891,1,8,0:0:0:0:
152,304,96033,6,0,L|151:196,1,91.1999988867188,10|8,0:0|0:0,0:0:0:0:
143,45,96319,1,2,0:0:0:0:
332,214,96462,1,8,0:0:0:0:
93,166,96605,5,2,0:0:0:0:
256,20,96748,1,8,0:0:0:0:
89,263,96890,5,2,0:0:0:0:
96,78,97033,1,8,0:0:0:0:
195,231,97176,6,0,P|239:194|251:132,1,91.1999988867188,8|8,0:1|0:0,0:0:0:0:
256,41,97462,1,2,0:0:0:0:
159,136,97605,1,8,0:0:0:0:
172,288,97748,5,2,0:1:0:0:
342,320,97890,1,8,0:1:0:0:
285,159,98033,6,0,L|264:270,1,91.1999988867188,2|8,0:1|0:1,0:1:0:0:
245,375,98248,1,0,0:0:0:0:
245,375,98319,6,0,P|196:364|167:327,1,91.1999988867188,2|8,0:0|0:0,0:0:0:0:
144,277,98628,6,0,B|190:267|219:297|219:297|261:326|322:300,1,160,14|10,0:1|0:0,0:0:0:0:
396,267,99199,6,0,L|425:218,1,40,10|0,0:0|0:0,0:0:0:0:
327,181,99342,2,0,L|308:127,1,40,10|0,0:0|0:0,0:0:0:0:
401,45,99505,5,14,0:0:0:0:
468,137,99796,5,0,0:0:0:0:
457,175,99866,1,0,0:0:0:0:
453,215,99936,1,0,0:0:0:0:
456,255,100006,1,0,0:0:0:0:
465,293,100076,5,0,0:0:0:0:
429,322,100146,1,0,0:0:0:0:
383,331,100216,1,0,0:0:0:0:
339,316,100286,1,0,0:0:0:0:
308,281,100334,6,0,L|199:261,1,80
73,162,105442,5,10,0:0:0:0:
109,110,105518,1,0,0:0:0:0:
168,87,105595,1,8,0:0:0:0:
230,99,105672,1,0,0:0:0:0:
276,143,105749,1,8,0:0:0:0:
290,204,105826,1,0,0:0:0:0:
269,264,105903,1,8,0:0:0:0:
220,303,105980,1,0,0:0:0:0:
156,307,106057,5,10,0:0:0:0:
171,253,106134,1,0,0:0:0:0:
224,236,106211,1,8,0:0:0:0:
272,263,106288,1,0,0:0:0:0:
282,317,106365,5,8,0:0:0:0:
298,361,106442,1,0,0:0:0:0:
338,384,106518,1,10,0:0:0:0:
385,376,106595,1,0,0:0:0:0:
420,333,106672,5,10,0:0:0:0:
371,316,106749,1,0,0:0:0:0:
342,274,106826,1,8,0:0:0:0:
344,223,106903,1,0,0:0:0:0:
376,183,106980,1,8,0:0:0:0:
425,170,107057,1,0,0:0:0:0:
473,189,107134,1,8,0:0:0:0:
499,233,107211,1,0,0:0:0:0:
479,290,107288,5,10,0:0:0:0:
425,263,107365,1,0,0:0:0:0:
365,257,107442,1,8,0:0:0:0:
307,271,107518,1,0,0:0:0:0:
266,320,107595,1,8,0:0:0:0:
209,349,107672,1,0,0:0:0:0:
145,342,107749,2,0,L|145:287,1,46.4000014160157,10|0,0:0|0:0,0:0:0:0:
107,106,107903,5,10,0:0:0:0:
149,47,107979,1,0,0:0:0:0:
222,39,108056,1,8,0:0:0:0:
275,88,108133,1,0,0:0:0:0:
275,161,108210,1,8,0:0:0:0:
221,209,108287,1,0,0:0:0:0:
149,201,108365,2,0,P|120:187|94:169,1,46.4000014160157,10|0,0:0|0:0,0:0:0:0:
194,125,108518,5,10,0:0:0:0:
248,76,108594,1,0,0:0:0:0:
320,80,108671,1,8,0:0:0:0:
370,133,108748,1,0,0:0:0:0:
368,206,108826,1,8,0:0:0:0:
320,260,108903,1,0,0:0:0:0:
323,333,108980,2,0,P|336:351|354:365,1,46.4000014160157,10|0,0:0|0:0,0:0:0:0:
423,298,109134,5,10,0:0:0:0:
366,267,109210,1,0,0:0:0:0:
302,268,109287,1,8,0:0:0:0:
247,302,109364,1,0,0:0:0:0:
184,330,109442,1,8,0:0:0:0:
116,327,109518,1,0,0:0:0:0:
65,283,109595,1,8,0:0:0:0:
52,217,109672,1,0,0:0:0:0:
84,158,109749,5,8,0:0:0:0:
114,137,109825,1,0,0:0:0:0:
150,127,109902,1,8,0:0:0:0:
186,130,109979,1,0,0:0:0:0:
220,145,110057,5,10,0:0:0:0:
242,161,110133,1,0,0:0:0:0:
268,171,110210,1,8,0:0:0:0:
295,175,110287,1,0,0:0:0:0:
323,170,110365,6,0,L|321:78,1,70.3999997851563,14|2,0:0|0:0,0:0:0:0:
422,43,110570,2,0,L|424:135,1,70.3999997851563,10|2,0:0|0:0,0:0:0:0:
423,242,110775,2,0,L|331:244,1,70.3999997851563,10|2,0:0|0:0,0:0:0:0:
260,325,110980,2,0,L|352:327,2,70.3999997851563,10|2|10,0:0|0:0|0:0,0:0:0:0:
451,215,111288,2,0,L|359:217,1,70.3999997851563,10|2,0:0|0:0,0:0:0:0:
261,215,111493,1,2,0:0:0:0:
323,108,111595,6,0,P|388:57|498:137,1,211.199999355469,10|10,0:0|0:0,0:0:0:0:
408,161,112108,1,2,0:0:0:0:
410,277,112211,2,0,P|376:300|301:300,1,105.599999677734,10|0,0:0|0:0,0:0:0:0:
230,281,112518,1,0,0:0:0:0:
225,105,112724,5,10,0:0:0:0:
334,202,112826,1,10,0:0:0:0:
189,188,112929,1,10,0:0:0:0:
319,115,113031,1,10,0:0:0:0:
256,255,113134,6,2,P|243:296|240:349,1,70.3999997851563,10|2,0:0|0:0,0:0:0:0:
322,384,113339,1,2,0:0:0:0:
408,274,113442,6,10,L|392:180,1,70.3999997851563,10|2,0:0|0:0,0:0:0:0:
369,68,113647,1,10,0:0:0:0:
319,197,113749,1,10,0:0:0:0:
232,29,113852,1,10,0:0:0:0:
176,173,113954,1,10,0:0:0:0:
111,40,114057,6,0,B|97:159|67:104|80:248,1,211.199999355469,14|0,0:0|0:0,0:0:0:0:
163,353,114672,6,0,L|228:328,1,52.7999998388672,2|0,0:0|0:0,0:0:0:0:
297,221,114826,2,0,L|232:246,1,52.7999998388672,8|0,0:0|0:0,0:0:0:0:
154,356,114980,6,0,L|225:331,1,52.7999998388672,2|0,0:0|0:0,0:0:0:0:
305,217,115134,2,0,L|233:241,1,52.7999998388672,8|0,0:0|0:0,0:0:0:0:
138,271,115288,6,0,B|225:273|225:273|255:304|255:304|328:307,1,195.199991958008,14|8,0:0|0:0,0:0:0:0:
417,290,115749,1,2,0:0:0:0:
225,365,115903,6,0,P|202:331|202:256,1,97.5999959790041,8|2,0:0|0:0,0:0:0:0:
263,118,116211,1,8,0:0:0:0:
294,292,116365,1,2,0:0:0:0:
337,42,116518,6,0,P|360:76|360:151,1,97.5999959790041,8|2,0:0|0:0,0:0:0:0:
182,237,116826,1,8,0:0:0:0:
392,150,116980,1,2,0:0:0:0:
182,48,117134,6,0,L|182:176,1,97.5999959790041,8|2,0:0|0:0,0:0:0:0:
181,340,117442,1,8,0:0:0:0:
297,191,117595,1,2,0:0:0:0:
298,358,117749,6,0,L|298:230,1,97.5999959790041,8|2,0:0|0:0,0:0:0:0:
298,124,117980,1,0,0:0:0:0:
298,124,118057,1,8,0:0:0:0:
390,307,118211,1,2,0:0:0:0:
475,126,118365,6,0,P|434:130|376:178,1,97.5999959790041,8|2,0:0|0:0,0:0:0:0:
425,302,118672,2,0,B|449:268|449:268|457:195,1,97.5999959790041,8|2,0:0|0:0,0:0:0:0:
436,41,118980,6,0,L|418:114,1,48.799997989502,12|0,0:3|0:0,0:0:0:0:
369,237,119134,5,2,0:3:0:0:
340,281,119210,1,0,0:3:0:0:
291,300,119288,1,8,0:3:0:0:
239,287,119364,1,0,0:3:0:0:
205,247,119442,1,2,0:3:0:0:
199,195,119518,1,0,0:3:0:0:
214,143,119595,5,8,0:3:0:0:
260,129,119671,1,0,0:3:0:0:
291,92,119748,1,2,0:3:0:0:
296,44,119825,1,0,0:3:0:0:
274,1,119903,6,0,L|265:110,1,68.2666666666667,6|2,0:0|0:0,0:0:0:0:
360,127,120108,2,10,L|276:196,1,68.2666666666667
331,275,120313,2,10,L|222:265,1,68.2666666666667
205,359,120518,2,10,L|135:275,1,68.2666666666667
137,196,120724,1,10,0:0:0:0:
161,86,120826,1,10,0:0:0:0:
387,27,121134,5,14,0:0:0:0:
302,211,121288,6,0,L|351:141,1,51.2,2|2,0:0|0:0,0:0:0:0:
468,235,121442,2,8,L|422:136,1,68.2666666666667,10|10,0:0|0:0,0:0:0:0:
279,293,121647,2,8,L|332:216,1,68.2666666666667,10|10,0:0|0:0,0:0:0:0:
459,319,121852,2,8,L|408:211,1,68.2666666666667,10|10,0:0|0:0,0:0:0:0:
357,382,122057,1,10,0:0:0:0:
386,104,122365,5,14,0:0:0:0:
373,278,122570,1,2,0:0:0:0:
373,278,122672,6,0,B|281:241|281:313|175:271,1,182.399997773438,2|2,0:0|0:0,0:0:0:0:
130,154,123185,1,2,0:0:0:0:
130,154,123288,2,2,P|215:136|231:222,1,182.399997773438
320,342,123800,1,2,0:0:0:0:
320,342,123903,6,2,B|341:255|341:255|336:180,1,136.799998330078
270,131,124211,2,2,P|361:107|419:145,1,136.799998330078
455,206,124518,6,0,L|454:268,3,45.5999994433594,2|0|8|0,0:0|0:0|0:0|0:0,0:0:0:0:
367,289,124826,2,0,L|366:351,3,45.5999994433594,10|0|8|0,0:0|0:0|0:0|0:0,0:0:0:0:
345,175,125134,6,0,L|347:61,1,91.1999988867188,14|0,0:0|0:0,0:0:0:0:
256,192,129903,12,0,134252,0:0:0:0:
92,117,134524,5,0,0:0:0:0:
110,129,134592,1,0,0:0:0:0:
130,138,134660,1,0,0:0:0:0:
152,144,134728,1,0,0:0:0:0:
174,147,134796,1,0,0:0:0:0:
197,146,134864,1,0,0:0:0:0:
218,141,134933,1,0,0:0:0:0:
239,133,135001,1,0,0:0:0:0:
259,122,135069,1,0,0:0:0:0:
276,108,135137,1,0,0:0:0:0:
291,91,135205,1,0,0:0:0:0:
303,72,135274,1,0,0:0:0:0:
311,51,135342,6,0,P|365:146|282:226,1,217.600001328125,14|0,0:0|0:0,0:0:0:0:
356,301,135752,2,0,P|246:300|218:188,1,217.600001328125,14|0,0:0|0:0,0:0:0:0:
116,215,136161,2,0,P|171:120|282:152,1,217.600001328125,14|0,0:0|0:0,0:0:0:0:
305,220,136706,5,0,0:0:0:0:
329,208,136774,1,0,0:0:0:0:
349,191,136842,1,0,0:0:0:0:
364,169,136910,1,0,0:0:0:0:
371,143,136978,1,0,0:0:0:0:
371,116,137046,1,0,0:0:0:0:
363,90,137115,1,0,0:0:0:0:
349,68,137183,1,0,0:0:0:0:
328,51,137251,1,0,0:0:0:0:
304,40,137319,1,0,0:0:0:0:
277,36,137387,1,0,0:0:0:0:
251,41,137456,1,0,0:0:0:0:
227,53,137524,6,0,L|246:278,1,217.600001328125,14|0,0:0|0:0,0:0:0:0:
347,231,137933,2,0,L|125:127,1,217.600001328125,14|0,0:0|0:0,0:0:0:0:
131,244,138342,2,0,L|323:108,1,217.600001328125,14|0,0:0|0:0,0:0:0:0:
347,231,138888,5,0,0:0:0:0:
337,266,138956,1,0,0:0:0:0:
317,297,139024,1,0,0:0:0:0:
289,321,139092,1,0,0:0:0:0:
255,336,139160,1,0,0:0:0:0:
218,340,139228,1,0,0:0:0:0:
182,334,139297,1,0,0:0:0:0:
149,317,139365,1,0,0:0:0:0:
122,291,139433,1,0,0:0:0:0:
99,258,139502,1,0,0:0:0:0:
88,223,139570,1,0,0:0:0:0:
88,187,139638,1,0,0:0:0:0:
99,151,139706,6,2,B|222:231|222:231|306:232,1,217.600001328125,14|2,0:0|0:0,0:0:0:0:
374,160,140115,2,2,B|242:226|242:226|200:298,1,217.600001328125,14|2,0:0|0:0,0:0:0:0:
233,383,140524,2,2,B|241:236|241:236|199:163,1,217.600001328125,14|2,0:0|0:0,0:0:0:0:
113,89,140933,5,8,0:0:0:0:
113,89,141002,1,0,0:0:0:0:
113,89,141070,1,8,0:0:0:0:
149,303,141206,1,8,0:3:0:0:
276,75,141342,6,0,L|282:129,1,44.800000546875,10|0,0:0|0:0,0:0:0:0:
324,324,141479,2,0,L|330:270,1,44.800000546875,8|0,0:0|0:0,0:0:0:0:
375,74,141615,2,0,L|381:128,1,44.800000546875,10|0,0:0|0:0,0:0:0:0:
423,325,141752,2,0,L|429:271,1,44.800000546875,8|0,0:0|0:0,0:0:0:0:
474,73,141888,6,0,L|480:127,3,44.800000546875,10|0|0|0,0:0|0:0|0:0|0:0,0:0:0:0:
494,147,142161,5,2,0:3:0:0:
474,176,142229,1,0,0:3:0:0:
444,195,142297,1,2,0:3:0:0:
409,201,142365,1,0,0:3:0:0:
374,192,142433,1,2,0:3:0:0:
334,173,142501,1,0,0:3:0:0:
289,171,142569,1,2,0:3:0:0:
248,188,142637,1,0,0:3:0:0:
217,219,142706,6,0,P|200:285|289:346,1,148.79999409668,14|0,0:0|0:0,0:0:0:0:
312,266,142979,5,14,0:2:0:0:
341,207,143047,1,0,0:2:0:0:
337,141,143115,1,10,0:2:0:0:
300,87,143183,1,0,0:2:0:0:
240,59,143252,1,10,0:2:0:0:
175,66,143320,1,0,0:2:0:0:
122,105,143388,1,10,0:2:0:0:
96,165,143456,1,0,0:2:0:0:
105,231,143524,5,10,0:0:0:0:
154,247,143592,1,0,0:0:0:0:
204,252,143660,1,10,0:0:0:0:
255,245,143728,1,0,0:0:0:0:
303,227,143796,1,10,0:0:0:0:
351,210,143865,1,0,0:0:0:0:
402,206,143933,1,10,0:0:0:0:
453,212,144001,1,0,0:0:0:0:
500,230,144070,5,14,0:0:0:0:
452,212,144138,1,0,0:0:0:0:
418,174,144206,1,10,0:0:0:0:
407,125,144274,1,0,0:0:0:0:
421,76,144342,1,10,0:0:0:0:
388,37,144410,1,0,0:0:0:0:
340,20,144478,1,10,0:0:0:0:
290,29,144546,1,0,0:0:0:0:
252,61,144614,5,10,0:0:0:0:
252,97,144683,1,0,0:0:0:0:
252,133,144752,1,10,0:0:0:0:
253,169,144819,1,0,0:0:0:0:
253,205,144888,6,0,L|254:270,3,51.2,10|0|10|0,0:0|0:0|0:0|0:0,0:0:0:0:
349,290,145161,5,14,0:0:0:0:
319,331,145229,1,0,0:0:0:0:
273,352,145297,1,10,0:0:0:0:
223,347,145365,1,0,0:0:0:0:
182,317,145433,1,10,0:0:0:0:
162,270,145501,1,0,0:0:0:0:
169,220,145570,1,10,0:0:0:0:
198,178,145638,1,0,0:0:0:0:
247,164,145706,5,10,0:0:0:0:
223,209,145774,1,0,0:0:0:0:
186,244,145842,1,10,0:0:0:0:
139,264,145910,1,0,0:0:0:0:
88,267,145979,1,10,0:0:0:0:
43,245,146047,1,0,0:0:0:0:
17,202,146115,1,10,0:0:0:0:
22,152,146183,1,0,0:0:0:0:
55,113,146251,5,14,0:0:0:0:
102,131,146320,1,0,0:0:0:0:
153,130,146388,1,10,0:0:0:0:
199,110,146456,1,0,0:0:0:0:
235,74,146524,6,0,L|262:23,3,51.2,10|0|10|0,0:0|0:0|0:0|0:0,0:0:0:0:
326,122,146797,2,0,L|328:179,3,51.2,10|0|10|0,0:0|0:0|0:0|0:0,0:0:0:0:
249,261,147070,5,10,0:0:0:0:
282,272,147138,1,0,0:0:0:0:
318,277,147206,1,10,0:0:0:0:
353,276,147274,1,0,0:0:0:0:
388,267,147342,5,14,0:0:0:0:
345,241,147410,1,0,0:0:0:0:
316,199,147478,1,10,0:0:0:0:
308,149,147546,1,0,0:0:0:0:
320,100,147614,1,10,0:0:0:0:
352,60,147682,1,0,0:0:0:0:
397,37,147751,1,10,0:0:0:0:
448,34,147819,1,0,0:0:0:0:
495,53,147888,5,10,0:0:0:0:
509,102,147956,1,0,0:0:0:0:
498,151,148024,1,10,0:0:0:0:
466,190,148092,1,0,0:0:0:0:
419,210,148160,1,10,0:0:0:0:
392,253,148229,1,0,0:0:0:0:
390,303,148297,1,10,0:0:0:0:
410,349,148365,1,0,0:0:0:0:
451,380,148433,5,14,0:0:0:0:
410,348,148501,1,0,0:0:0:0:
362,332,148569,1,10,0:0:0:0:
311,334,148637,1,0,0:0:0:0:
264,353,148706,1,10,0:0:0:0:
213,360,148774,1,0,0:0:0:0:
163,349,148842,1,10,0:0:0:0:
120,322,148910,1,0,0:0:0:0:
89,282,148979,5,10,0:0:0:0:
139,285,149047,1,0,0:0:0:0:
189,273,149115,1,10,0:0:0:0:
231,245,149183,1,0,0:0:0:0:
263,205,149252,1,10,0:0:0:0:
305,176,149320,1,0,0:0:0:0:
354,162,149388,1,10,0:0:0:0:
405,165,149456,1,0,0:0:0:0:
452,184,149524,6,0,L|452:247,7,51.2,14|0|10|0|10|0|10|0,0:0|0:0|0:0|0:0|0:0|0:0|0:0|0:0,0:0:0:0:
364,118,150070,2,0,L|363:55,7,51.2,14|0|10|0|10|0|10|0,0:0|0:0|0:0|0:0|0:0|0:0|0:0|0:0,0:0:0:0:
364,266,150615,2,8,L|363:328,7,51.2,6|0|2|0|10|8|10|8,0:3|0:3|0:3|0:3|0:3|0:3|0:3|0:3,0:3:0:0:
339,161,151161,5,10,0:3:0:0:
293,155,151229,1,8,0:3:0:0:
247,150,151297,1,10,0:3:0:0:
201,145,151365,1,8,0:3:0:0:
155,140,151433,6,0,L|88:133,3,51.2,10|8|10|8,0:0|0:0|0:0|0:0,0:0:0:0:
13,197,151706,5,14,0:0:0:0:
58,250,151774,1,0,0:0:0:0:
124,273,151842,1,10,0:0:0:0:
194,260,151910,1,0,0:0:0:0:
248,212,151979,1,10,0:0:0:0:
314,187,152047,1,0,0:0:0:0:
383,201,152115,1,10,0:0:0:0:
437,248,152183,1,0,0:0:0:0:
459,315,152252,5,10,0:0:0:0:
414,282,152320,1,0,0:0:0:0:
388,234,152388,1,10,0:0:0:0:
384,179,152456,1,0,0:0:0:0:
403,128,152524,1,10,0:0:0:0:
418,76,152592,1,0,0:0:0:0:
394,28,152660,1,10,0:0:0:0:
343,8,152728,1,0,0:0:0:0:
293,28,152797,5,14,0:0:0:0:
267,76,152865,1,0,0:0:0:0:
223,108,152933,1,10,0:0:0:0:
168,115,153001,1,0,0:0:0:0:
117,97,153069,1,10,0:0:0:0:
64,118,153138,1,0,0:0:0:0:
29,159,153206,1,10,0:0:0:0:
17,213,153274,1,0,0:0:0:0:
30,266,153342,5,10,0:0:0:0:
76,294,153410,1,0,0:0:0:0:
130,295,153478,1,10,0:0:0:0:
177,267,153546,1,0,0:0:0:0:
202,218,153614,1,10,0:0:0:0:
186,165,153683,1,0,0:0:0:0:
199,113,153752,1,10,0:0:0:0:
239,75,153819,1,0,0:0:0:0:
292,63,153888,5,14,0:0:0:0:
327,122,153956,1,0,0:0:0:0:
303,188,154024,1,10,0:0:0:0:
238,212,154092,1,0,0:0:0:0:
178,177,154161,1,10,0:0:0:0:
144,117,154229,1,0,0:0:0:0:
75,104,154297,1,10,0:0:0:0:
22,148,154365,1,0,0:0:0:0:
22,218,154433,5,10,0:0:0:0:
39,269,154501,1,0,0:0:0:0:
83,301,154569,1,10,0:0:0:0:
137,301,154637,1,0,0:0:0:0:
181,269,154706,1,10,0:0:0:0:
210,223,154774,1,0,0:0:0:0:
261,203,154842,1,10,0:0:0:0:
313,217,154910,1,0,0:0:0:0:
348,259,154979,5,14,0:0:0:0:
384,218,155047,1,0,0:0:0:0:
397,165,155115,1,10,0:0:0:0:
385,111,155183,1,0,0:0:0:0:
349,70,155252,1,10,0:0:0:0:
300,45,155320,1,0,0:0:0:0:
245,43,155388,1,10,0:0:0:0:
194,62,155456,1,0,0:0:0:0:
154,100,155524,5,10,0:0:0:0:
134,150,155592,1,0,0:0:0:0:
150,201,155660,1,10,0:0:0:0:
196,231,155728,1,0,0:0:0:0:
249,225,155797,1,10,0:0:0:0:
292,192,155865,1,0,0:0:0:0:
346,195,155933,1,10,0:0:0:0:
386,231,156001,1,0,0:0:0:0:
394,285,156070,5,14,0:0:0:0:
319,283,156138,1,0,0:0:0:0:
258,238,156206,1,10,0:0:0:0:
233,167,156274,1,0,0:0:0:0:
254,94,156342,1,10,0:0:0:0:
313,46,156410,1,0,0:0:0:0:
388,41,156479,1,10,0:0:0:0:
453,80,156547,1,0,0:0:0:0:
484,149,156615,5,10,0:0:0:0:
444,192,156683,1,0,0:0:0:0:
389,214,156751,1,10,0:0:0:0:
330,212,156819,1,0,0:0:0:0:
277,187,156888,1,10,0:0:0:0:
237,144,156956,1,0,0:0:0:0:
182,121,157024,1,10,0:0:0:0:
122,123,157092,1,0,0:0:0:0:
70,148,157161,5,14,0:0:0:0:
85,222,157229,1,0,0:0:0:0:
138,276,157297,1,10,0:0:0:0:
212,291,157365,1,0,0:0:0:0:
283,264,157433,1,10,0:0:0:0:
327,202,157501,1,0,0:0:0:0:
329,126,157570,1,10,0:0:0:0:
290,61,157638,1,0,0:0:0:0:
221,29,157706,5,14,0:3:0:0:
128,41,157774,1,14,0:3:0:0:
57,101,157842,1,14,0:3:0:0:
29,190,157910,1,14,0:3:0:0:
54,280,157978,1,14,0:3:0:0:
124,342,158046,1,14,0:3:0:0:
216,357,158115,1,14,0:3:0:0:
302,319,158183,1,14,0:3:0:0:
353,241,158252,6,0,L|397:37,1,198.399992128907,14|0,0:0|0:0,0:0:0:0:
335,252,158797,2,0,L|379:48,1,198.399992128907,2|0,0:0|0:0,0:0:0:0:
317,263,159342,5,2,0:0:0:0:
169,129,159615,1,2,0:0:0:0:
358,69,159888,6,0,L|359:134,1,47.1999983435059,14|0,0:0|0:0,0:0:0:0:
355,301,160433,6,0,B|232:216|232:336|128:280|128:280|214:244|212:163|212:163|251:179|258:234,1,460.80001125,6|2,0:0|0:0,0:0:0:0:
73,344,161524,6,0,B|70:300|32:254|32:254|119:231|139:136|139:136|136:95,1,307.2000075,6|0,0:0|0:0,0:0:0:0:
290,52,162342,1,2,0:0:0:0:
252,210,162479,1,2,0:0:0:0:
402,165,162615,5,14,0:0:0:0:
402,165,163161,1,8,0:0:0:0:
402,312,163706,1,8,0:0:0:0:
274,238,163842,1,8,0:3:0:0:
274,238,163911,1,8,0:3:0:0:
274,238,163979,1,10,0:3:0:0:
348,110,164115,1,0,0:0:0:0:
136,188,164252,5,10,0:0:0:0:
298,313,164388,1,10,0:0:0:0:
118,157,164524,5,10,0:0:0:0:
144,359,164660,1,10,0:0:0:0:
108,122,164797,6,0,L|81:277,1,153.60000375,6|8,0:0|0:0,0:0:0:0:
166,286,165206,2,0,P|242:316|317:301,1,153.60000375,2|8,0:2|0:2,0:2:0:0:
374,103,165615,2,0,L|397:236,1,115.2000028125,10|0,0:0|0:0,0:0:0:0:
275,49,165888,2,8,L|257:150,1,76.800001875,10|8,0:0|0:0,0:0:0:0:
323,205,166161,2,8,P|266:229|222:232,1,76.800001875,2|0,0:2|0:2,0:2:0:0:
163,168,166433,5,10,0:0:0:0:
163,168,166570,1,8,0:0:0:0:
151,276,166706,1,10,0:0:0:0:
139,384,166979,6,0,B|198:374|198:374|238:380|238:380|295:369,1,153.60000375,6|8,0:0|0:0,0:0:0:0:
365,303,167388,1,8,0:0:0:0:
289,183,167524,6,0,L|302:105,1,76.800001875,2|0,0:0|0:0,0:0:0:0:
434,205,167797,2,0,L|420:127,1,76.800001875,10|8,0:0|0:0,0:0:0:0:
289,243,168070,6,0,L|307:67,1,153.60000375,10|8,0:0|0:0,0:0:0:0:
358,32,168615,1,8,0:0:0:0:
358,32,168752,1,8,0:0:0:0:
351,142,168888,6,0,B|284:122|285:187|192:167,1,136.799998330078
191,186,169161,5,14,0:0:0:0:
134,54,169297,1,8,0:0:0:0:
177,277,169433,5,10,0:0:0:0:
260,86,169570,1,8,0:0:0:0:
302,332,169706,5,10,0:0:0:0:
225,138,169843,1,8,0:0:0:0:
184,370,169979,5,10,0:0:0:0:
266,178,170116,1,8,0:0:0:0:
114,228,170252,5,10,0:0:0:0:
306,310,170389,1,8,0:0:0:0:
222,167,170524,5,10,0:0:0:0:
210,375,170661,1,8,0:0:0:0:
219,126,170797,5,10,0:0:0:0:
104,300,170934,1,8,0:0:0:0:
216,80,171070,5,10,0:0:0:0:
263,319,171207,1,8,0:0:0:0:
61,181,171342,5,10,0:0:0:0:
295,134,171479,1,8,0:0:0:0:
93,171,171615,5,10,0:0:0:0:
319,247,171752,1,8,0:0:0:0:
125,161,171888,5,10,0:0:0:0:
376,109,172025,1,8,0:0:0:0:
155,151,172161,5,10,0:0:0:0:
419,237,172298,1,8,0:0:0:0:
308,42,172433,5,10,0:0:0:0:
316,317,172570,1,8,0:0:0:0:
197,40,172706,5,8,0:0:0:0:
181,314,172843,1,8,0:0:0:0:
66,41,172979,6,8,P|61:92|70:144,1,99.1999960644533,10|8,0:0|0:0,0:0:0:0:
100,344,173252,2,8,B|114:284|114:284|112:241,1,99.1999960644533,14|8,0:0|0:0,0:0:0:0:
171,134,173524,5,14,0:3:0:0:
186,114,173592,1,8,0:3:0:0:
206,100,173660,1,8,0:3:0:0:
230,93,173728,1,8,0:3:0:0:
254,93,173797,1,8,0:3:0:0:
278,101,173864,1,8,0:3:0:0:
297,116,173933,1,8,0:3:0:0:
312,136,174001,1,8,0:3:0:0:
319,159,174069,1,8,0:3:0:0:
319,184,174137,1,8,0:3:0:0:
312,208,174205,1,8,0:3:0:0:
298,228,174274,1,8,0:3:0:0:
278,242,174342,5,10,0:3:0:0:
266,279,174410,1,8,0:3:0:0:
274,318,174478,1,8,0:3:0:0:
299,348,174546,1,8,0:3:0:0:
335,362,174615,5,10,0:3:0:0:
382,352,174683,1,8,0:3:0:0:
416,316,174751,1,8,0:3:0:0:
422,268,174819,1,8,0:3:0:0:
399,225,174887,1,8,0:3:0:0:
355,203,174955,1,8,0:3:0:0:
307,211,175024,5,10,0:3:0:0:
271,244,175092,1,8,0:3:0:0:
223,251,175160,1,8,0:3:0:0:
180,228,175228,1,8,0:3:0:0:
158,185,175296,1,8,0:3:0:0:
165,136,175364,1,8,0:3:0:0:
199,102,175433,5,10,0:3:0:0:
261,98,175501,1,8,0:3:0:0:
307,141,175569,1,8,0:3:0:0:
308,204,175637,1,8,0:3:0:0:
263,247,175705,5,14,0:2:0:0:
440,54,177888,6,0,L|417:178,1,91.1999988867188,6|8,0:0|0:0,0:0:0:0:
391,302,178161,1,0,0:0:0:0:
267,180,178297,1,8,0:0:0:0:
401,320,178433,5,0,0:0:0:0:
231,275,178570,1,8,0:0:0:0:
411,338,178706,5,0,0:0:0:0:
242,384,178842,1,8,0:0:0:0:
325,130,178979,6,0,L|326:256,1,91.1999988867188,2|8,0:0|0:0,0:0:0:0:
328,364,179252,5,0,0:0:0:0:
452,239,179388,1,8,0:0:0:0:
165,193,179524,6,0,P|209:178|291:191,1,91.1999988867188,2|8,0:0|0:0,0:0:0:0:
359,269,179797,2,0,L|358:208,1,45.5999994433594,2|0,0:0|0:0,0:0:0:0:
397,30,179933,2,0,L|396:91,1,45.5999994433594,8|0,0:0|0:0,0:0:0:0:
441,175,180070,5,2,0:0:0:0:
410,155,180138,1,0,0:0:0:0:
375,146,180206,1,8,0:0:0:0:
338,146,180274,1,0,0:0:0:0:
304,157,180342,1,0,0:0:0:0:
273,177,180410,1,0,0:0:0:0:
250,204,180479,1,8,0:0:0:0:
235,249,180546,1,0,0:0:0:0:
233,285,180615,5,2,0:0:0:0:
232,248,180683,1,0,0:0:0:0:
217,216,180751,1,8,0:0:0:0:
189,192,180819,1,0,0:0:0:0:
154,183,180887,1,0,0:0:0:0:
119,189,180955,1,0,0:0:0:0:
89,209,181024,1,8,0:0:0:0:
70,240,181092,1,0,0:0:0:0:
64,273,181161,5,2,0:0:0:0:
46,247,181229,1,0,0:0:0:0:
38,216,181297,1,0,0:0:0:0:
41,185,181365,1,0,0:0:0:0:
56,157,181433,1,0,0:0:0:0:
74,131,181502,1,0,0:0:0:0:
81,100,181570,1,0,0:0:0:0:
78,68,181638,1,0,0:0:0:0:
63,40,181706,6,0,B|64:115|64:115|59:157|59:157|61:247,1,182.399997773438,10|0,0:0|0:0,0:0:0:0:
73,352,182115,1,8,0:0:0:0:
304,234,182252,1,14,0:0:0:0:
132,111,182388,1,10,0:0:0:0:
132,111,182456,1,0,0:0:0:0:
132,111,182524,1,0,0:0:0:0:
167,365,182661,1,8,0:0:0:0:
269,117,182797,1,0,0:0:0:0:
311,384,182933,1,8,0:0:0:0:
89,222,183070,1,0,0:0:0:0:
365,228,183206,1,8,0:0:0:0:
161,362,183342,6,0,L|173:230,1,91.1999988867188,2|8,0:0|0:0,0:0:0:0:
187,55,183615,1,2,0:0:0:0:
360,249,183752,1,10,0:0:0:0:
111,195,183888,1,2,0:0:0:0:
355,344,184024,1,10,0:0:0:0:
101,356,184160,1,2,0:0:0:0:
217,130,184297,1,10,0:0:0:0:
355,344,184433,6,0,L|355:211,1,91.1999988867188,2|8,0:0|0:0,0:0:0:0:
359,29,184706,1,2,0:0:0:0:
265,310,184842,1,10,0:0:0:0:
206,20,184979,1,2,0:0:0:0:
113,301,185115,1,10,0:0:0:0:
423,148,185252,1,2,0:0:0:0:
79,126,185388,1,10,0:0:0:0:
460,44,185524,6,0,P|411:36|363:53,1,91.1999988867188,2|8,0:0|0:0,0:0:0:0:
184,168,185797,2,0,P|233:176|281:159,1,91.1999988867188,2|8,0:0|0:0,0:0:0:0:
423,132,186070,1,8,0:3:0:0:
426,164,186138,1,8,0:3:0:0:
428,195,186206,1,8,0:3:0:0:
430,226,186274,1,8,0:3:0:0:
431,256,186342,6,0,P|413:321|298:294,1,182.399997773438,6|0,0:0|0:0,0:0:0:0:
237,145,186752,5,8,0:0:0:0:
239,167,186820,1,0,0:0:0:0:
241,190,186888,2,0,L|250:277,1,45.5999994433594
210,375,187024,5,8,0:0:0:0:
180,362,187092,1,0,0:0:0:0:
151,349,187161,2,0,L|77:317,1,45.5999994433594
56,232,187297,5,8,0:0:0:0:
70,198,187365,1,0,0:0:0:0:
84,164,187433,2,0,L|107:107,1,45.5999994433594
161,42,187570,5,8,0:0:0:0:
198,26,187638,1,0,0:0:0:0:
239,29,187706,2,0,P|273:34|307:63,1,45.5999994433594
293,163,187842,5,8,0:0:0:0:
311,204,187910,1,0,0:0:0:0:
347,231,187979,2,0,P|382:244|428:236,1,45.5999994433594
480,196,188115,5,8,0:0:0:0:
482,150,188183,1,0,0:0:0:0:
485,104,188252,2,0,L|490:23,1,45.5999994433594
390,13,188388,5,8,0:0:0:0:
347,29,188456,1,0,0:0:0:0:
314,60,188524,2,0,P|294:87|291:128,1,45.5999994433594
275,259,188661,2,0,L|252:190,1,45.5999994433594,8|0,0:0|0:0,0:0:0:0:
182,97,188797,5,0,0:0:0:0:
144,72,188865,1,0,0:0:0:0:
99,71,188933,1,8,0:0:0:0:
60,94,189001,1,0,0:0:0:0:
40,134,189069,1,0,0:0:0:0:
44,179,189137,1,0,0:0:0:0:
71,215,189206,1,8,0:0:0:0:
115,224,189274,1,0,0:0:0:0:
147,255,189342,1,0,0:0:0:0:
158,298,189410,1,0,0:0:0:0:
144,341,189479,1,8,0:0:0:0:
109,370,189546,1,0,0:0:0:0:
65,376,189615,5,0,0:0:0:0:
95,342,189683,1,0,0:0:0:0:
135,320,189751,1,8,0:0:0:0:
180,314,189819,1,0,0:0:0:0:
224,323,189887,1,0,0:0:0:0:
270,350,189956,1,0,0:0:0:0:
324,357,190024,1,8,0:0:0:0:
376,342,190092,1,0,0:0:0:0:
418,307,190160,1,0,0:0:0:0:
442,258,190228,1,0,0:0:0:0:
444,204,190297,1,8,0:0:0:0:
425,153,190365,1,0,0:0:0:0:
376,120,190433,5,0,0:0:0:0:
343,162,190501,1,0,0:0:0:0:
291,178,190569,1,8,0:0:0:0:
240,161,190637,1,0,0:0:0:0:
208,118,190705,1,0,0:0:0:0:
207,64,190773,1,0,0:0:0:0:
237,20,190842,1,8,0:0:0:0:
288,1,190910,1,0,0:0:0:0:
340,15,190979,6,0,B|339:73|339:73|331:120|331:120|326:216,1,182.399997773438,14|8,0:0|0:0,0:0:0:0:
318,345,191388,1,2,0:0:0:0:
146,257,191524,5,8,0:0:0:0:
315,186,191661,1,2,0:0:0:0:
122,132,191797,5,8,0:0:0:0:
317,156,191934,1,2,0:0:0:0:
178,38,192070,2,0,B|231:52|231:52|279:80,1,91.1999988867188,8|2,0:0|0:0,0:0:0:0:
347,230,192342,6,0,P|310:207|280:143,1,91.1999988867188,8|2,0:0|0:0,0:0:0:0:
368,78,192615,1,8,0:0:0:0:
354,295,192752,1,2,0:0:0:0:
214,141,192888,5,8,0:0:0:0:
405,74,193024,1,2,0:0:0:0:
225,102,193161,6,0,L|157:124,1,45.5999994433594,14|0,0:0|0:0,0:0:0:0:
111,157,193297,1,0,0:0:0:0:
73,181,193365,1,0,0:0:0:0:
55,222,193433,1,0,0:0:0:0:
64,266,193501,1,0,0:0:0:0:
95,298,193569,1,0,0:0:0:0:
139,307,193637,1,0,0:0:0:0:
181,289,193706,5,0,0:0:0:0:
199,248,193774,1,0,0:0:0:0:
232,216,193842,1,8,0:0:0:0:
274,200,193910,1,0,0:0:0:0:
320,200,193978,1,8,0:0:0:0:
361,217,194046,1,0,0:0:0:0:
394,249,194115,1,0,0:0:0:0:
412,291,194183,1,0,0:0:0:0:
413,336,194252,6,0,P|372:368|307:376,1,91.1999988867188,6|0,0:0|0:0,0:0:0:0:
298,297,194456,1,0,0:0:0:0:
298,297,194524,2,0,B|300:253|300:253|296:225|296:225|296:177,1,91.1999988867188
396,197,194729,1,0,0:0:0:0:
396,197,194797,2,0,B|398:153|398:153|394:125|394:125|394:77,1,91.1999988867188
338,32,195070,5,0,0:0:0:0:
293,26,195138,1,0,0:0:0:0:
251,43,195206,1,0,0:0:0:0:
223,78,195274,1,0,0:0:0:0:
216,123,195342,6,0,L|216:236,1,86.4000021093751,2|8,0:0|0:0,0:0:0:0:
165,307,195615,2,8,P|216:312|268:303,1,86.4000021093751,2|8,0:0|0:0,0:0:0:0:
315,226,195888,1,2,0:0:0:0:
277,109,196024,2,0,P|328:104|436:188,1,172.80000421875,10|10,0:0|0:0,0:0:0:0:
382,317,196433,6,8,P|334:335|281:339,1,86.4000021093751,2|8,0:0|0:0,0:0:0:0:
185,354,196706,2,8,P|193:303|215:255,1,86.4000021093751,2|8,0:0|0:0,0:0:0:0:
312,224,196979,2,8,P|284:190|251:164,1,86.4000021093751,2|8,0:0|0:0,0:0:0:0:
381,316,197252,2,8,B|401:345|401:345|441:378,1,86.4000021093751,2|8,0:0|0:0,0:0:0:0:
428,211,197524,5,2,0:0:0:0:
209,191,197661,1,10,0:0:0:0:
472,190,197797,2,0,L|470:79,1,86.4000021093751,2|0,0:0|0:0,0:0:0:0:
368,65,198070,2,2,P|317:75|232:42,2,129.600003164063,2|2|10,0:0|0:0|0:0,0:0:0:0:
387,174,198615,2,0,P|378:224|269:307,1,172.80000421875,2|8,0:0|0:0,0:0:0:0:
151,251,199024,5,8,0:0:0:0:
293,196,199161,2,0,L|246:191,1,43.2000010546875,2|0,0:0|0:0,0:0:0:0:
92,130,199297,2,0,L|139:135,1,43.2000010546875,10|0,0:0|0:0,0:0:0:0:
335,103,199433,2,0,L|280:97,1,43.2000010546875,2|0,0:0|0:0,0:0:0:0:
99,25,199569,2,0,L|153:30,1,43.2000010546875,10|0,0:0|0:0,0:0:0:0:
359,14,199706,6,2,L|359:127,1,86.4000021093751,2|10,0:0|0:0,0:0:0:0:
406,230,199979,2,0,P|355:235|303:226,1,86.4000021093751,2|0,0:0|0:0,0:0:0:0:
225,131,200252,1,0,0:0:0:0:
180,301,200388,2,2,P|223:327|357:299,1,172.80000421875,10|10,0:0|0:0,0:0:0:0:
358,109,200797,5,2,0:0:0:0:
427,285,200933,1,8,0:0:0:0:
450,72,201070,2,0,L|339:74,1,86.4000021093751,2|8,0:0|0:0,0:0:0:0:
249,183,201342,5,2,0:0:0:0:
437,178,201479,1,8,0:0:0:0:
224,141,201615,2,8,L|216:251,1,86.4000021093751,2|0,0:0|0:0,0:0:0:0:
305,334,201888,5,2,0:0:0:0:
329,80,202024,1,10,0:0:0:0:
446,342,202161,2,0,L|446:230,1,86.4000021093751,2|8,0:0|0:0,0:0:0:0:
445,82,202433,2,2,L|445:214,2,129.600003164063
327,54,202979,5,2,0:2:0:0:
331,310,203115,1,2,0:2:0:0:
104,339,204888,2,0,L|120:199,1,129.600003164063,10|0,0:0|0:0,0:0:0:0:
138,130,205161,5,10,0:0:0:0:
213,345,205297,1,10,0:0:0:0:
402,288,207342,5,10,0:0:0:0:
185,276,207479,1,10,0:0:0:0:
431,270,207615,2,0,L|430:169,1,86.4000021093751,10|0,0:0|0:0,0:0:0:0:
148,254,207888,2,0,L|149:153,1,86.4000021093751,10|0,0:0|0:0,0:0:0:0:
292,18,208161,6,0,L|291:119,1,86.4000021093751,10|0,0:0|0:0,0:0:0:0:
294,315,208433,5,10,0:0:0:0:
303,108,208570,1,10,0:0:0:0:
308,334,208706,2,0,L|409:333,1,86.4000021093751,10|0,0:0|0:0,0:0:0:0:
319,92,208979,2,0,L|420:93,1,86.4000021093751,10|0,0:0|0:0,0:0:0:0:
504,199,209252,6,0,L|403:200,1,86.4000021093751,10|0,0:0|0:0,0:0:0:0:
225,209,209524,6,0,B|210:152|161:138|121:151|121:151|75:171|31:158|7:113,1,249.599998476563,14|0,0:0|0:0,0:0:0:0:
82,83,210479,1,8,0:0:0:0:
301,336,210615,5,8,0:0:0:0:
359,90,210752,1,8,0:0:0:0:
435,331,211161,5,8,0:0:0:0:
358,76,211298,1,8,0:0:0:0:
195,342,211570,6,2,L|198:288,1,51.2
205,127,211706,1,10,0:0:0:0:
319,331,211842,1,8,0:0:0:0:
332,138,211979,1,10,0:0:0:0:
124,221,212115,1,8,0:0:0:0:
399,267,212252,1,10,0:0:0:0:
128,318,212388,1,10,0:0:0:0:
416,200,212524,1,10,0:0:0:0:
118,95,212661,6,8,P|101:149|116:208,1,102.4,10|8,0:0|0:0,0:0:0:0:
391,44,212933,1,8,0:0:0:0:
180,153,213070,1,10,0:0:0:0:
424,145,213206,1,8,0:0:0:0:
126,32,213342,1,10,0:0:0:0:
315,292,213479,1,8,0:0:0:0:
333,34,213615,1,10,0:0:0:0:
204,280,213752,1,8,0:0:0:0:
230,24,213888,6,8,L|228:137,1,102.4,10|8,0:0|0:0,0:0:0:0:
211,347,214161,1,8,0:0:0:0:
301,90,214297,1,8,0:0:0:0:
402,343,214433,1,10,0:0:0:0:
143,185,214570,1,10,0:0:0:0:
453,182,214706,1,10,0:0:0:0:
194,325,214842,6,8,L|192:212,1,102.4,10|8,0:0|0:0,0:0:0:0:
389,321,215115,2,8,L|391:208,1,102.4,10|8,0:0|0:0,0:0:0:0:
369,45,215388,1,8,0:0:0:0:
252,171,215524,6,8,P|302:207|365:191,1,102.4,10|8,0:0|0:0,0:0:0:0:
468,96,215797,1,8,0:0:0:0:
512,275,215933,1,8,0:0:0:0:
338,306,216070,6,0,L|340:188,1,102.4,14|0,0:0|0:0,0:0:0:0:
360,96,216342,5,8,0:3:0:0:
321,63,216410,1,8,0:3:0:0:
271,53,216478,1,8,0:3:0:0:
222,67,216546,1,8,0:3:0:0:
187,103,216615,6,8,L|188:176,1,51.2,10|8,0:3|0:3,0:3:0:0:
200,346,216752,2,8,L|200:273,1,51.2,10|8,0:3|0:3,0:3:0:0:
273,106,216888,2,8,L|274:184,1,51.2,10|8,0:3|0:3,0:3:0:0:
285,367,217025,2,8,L|286:288,1,51.2,10|8,0:3|0:3,0:3:0:0:
358,175,217161,5,10,0:3:0:0:
406,164,217229,1,8,0:3:0:0:
450,188,217297,1,8,0:3:0:0:
466,235,217365,1,8,0:3:0:0:
447,281,217433,1,8,0:3:0:0:
402,303,217501,1,8,0:3:0:0:
354,289,217570,1,8,0:3:0:0:
319,251,217638,1,8,0:3:0:0:
284,213,217706,6,0,L|285:322,1,102.4,10|0,0:0|0:0,0:0:0:0:
392,127,217979,2,0,L|393:236,1,102.4,10|0,0:0|0:0,0:0:0:0:
183,118,218252,5,10,0:0:0:0:
439,122,218388,1,10,0:0:0:0:
167,117,218524,5,10,0:0:0:0:
454,122,218660,1,10,0:0:0:0:
137,107,218797,5,10,0:0:0:0:
336,312,218933,1,10,0:0:0:0:
347,27,219070,5,10,0:0:0:0:
340,212,219206,5,10,0:3:0:0:
340,222,219274,1,8,0:3:0:0:
340,232,219342,1,8,0:3:0:0:
340,242,219410,1,8,0:3:0:0:
340,252,219478,1,8,0:3:0:0:
340,263,219546,1,8,0:3:0:0:
340,273,219615,1,8,0:3:0:0:
340,283,219683,1,8,0:3:0:0:
340,293,219751,1,8,0:3:0:0:
340,304,219819,1,8,0:3:0:0:
340,304,219888,6,8,L|288:298,1,51.2,8|8,0:3|0:3,0:3:0:0:
161,235,220024,2,8,L|213:229,1,51.2,8|8,0:3|0:3,0:3:0:0:
264,146,220161,1,14,0:2:0:0:
180,52,220297,6,0,L|184:118,1,51.2,2|0,0:0|0:0,0:0:0:0:
234,338,220433,5,10,0:0:0:0:
399,160,220570,1,0,0:0:0:0:
223,329,220706,5,8,0:0:0:0:
465,253,220843,1,0,0:0:0:0:
212,317,220979,5,10,0:0:0:0:
459,372,221116,1,0,0:0:0:0:
360,142,221252,1,10,0:0:0:0:
271,380,221388,6,0,P|263:292|275:247,1,102.4,2|8,0:0|0:0,0:0:0:0:
279,113,221661,1,0,0:0:0:0:
345,321,221797,6,0,L|471:359,1,102.4,10|0,0:0|0:0,0:0:0:0:
480,188,222070,2,0,L|353:226,1,102.4,10|0,0:0|0:0,0:0:0:0:
307,131,222342,1,10,0:0:0:0:
469,122,222479,1,0,0:0:0:0:
418,384,222615,5,10,0:0:0:0:
346,152,222752,1,0,0:0:0:0:
416,359,222888,5,10,0:0:0:0:
469,122,223024,2,0,L|438:250,1,102.4,2|8,0:0|0:0,0:0:0:0:
342,99,223297,2,0,L|372:227,1,102.4,2|8,0:0|0:0,0:0:0:0:
412,329,223570,5,2,0:0:0:0:
212,204,223706,1,10,0:0:0:0:
385,317,223842,5,0,0:0:0:0:
161,369,223979,2,0,P|153:281|165:236,1,102.4,10|0,0:0|0:0,0:0:0:0:
263,39,224252,2,0,P|271:127|259:172,1,102.4,10|0,0:0|0:0,0:0:0:0:
101,105,224524,5,14,0:0:0:0:
323,303,224661,1,0,0:0:0:0:
72,318,224797,6,2,B|188:288|137:222|242:204,1,204.8,2|0,0:0|0:0,0:0:0:0:
331,148,225206,2,0,P|351:205|319:262,1,102.4,2|0,0:0|0:0,0:0:0:0:
253,312,225479,1,2,0:0:0:0:
258,97,225615,1,8,0:0:0:0:
102,151,225752,6,0,P|173:214|276:200,1,204.8,2|0,0:0|0:0,0:0:0:0:
329,30,226161,2,0,P|356:108|312:187,1,153.6
209,116,226433,1,0,0:0:0:0:
209,116,226570,1,0,0:0:0:0:
207,302,226706,5,8,0:0:0:0:
378,207,226979,1,10,0:0:0:0:
381,11,227115,1,2,0:0:0:0:
210,107,227252,1,2,0:0:0:0:
364,210,227388,6,2,P|266:305|179:290,1,204.8,14|2,0:0|0:0,0:0:0:0:
240,178,227797,1,2,0:0:0:0:
244,24,227933,6,0,L|239:172,1,102.4,14|0,0:0|0:0,0:0:0:0:
240,261,228206,1,8,0:3:0:0:
240,261,228274,1,8,0:3:0:0:
240,261,228342,1,8,0:3:0:0:
220,284,228410,1,8,0:3:0:0:
192,296,228478,1,8,0:3:0:0:
161,294,228546,1,8,0:3:0:0:
135,278,228615,1,8,0:3:0:0:
107,262,228683,1,8,0:3:0:0:
78,260,228751,1,8,0:3:0:0:
49,272,228819,1,8,0:3:0:0:
26,293,228888,6,0,L|37:170,1,102.4,10|0,0:0|0:0,0:0:0:0:
135,35,229161,5,14,0:0:0:0:
207,246,229297,1,8,0:0:0:0:
255,49,229433,5,2,0:0:0:0:
211,268,229569,1,8,0:0:0:0:
359,113,229706,5,2,0:0:0:0:
203,288,229842,1,10,0:0:0:0:
131,66,229979,5,0,0:0:0:0:
45,225,230115,2,0,L|171:243,1,102.4,10|0,0:0|0:0,0:0:0:0:
323,267,230388,5,8,0:0:0:0:
137,353,230524,1,2,0:0:0:0:
231,139,230661,1,8,0:0:0:0:
45,122,230797,6,0,L|44:249,1,102.4,2|8,0:0|0:0,0:0:0:0:
231,36,231070,2,0,L|230:163,1,102.4,2|8,0:0|0:0,0:0:0:0:
212,342,231342,5,2,0:0:0:0:
285,118,231478,1,8,0:0:0:0:
212,314,231615,5,2,0:0:0:0:
163,83,231752,2,0,L|194:211,1,102.4,10|0,0:0|0:0,0:0:0:0:
309,18,232024,2,0,L|278:146,1,102.4,10|0,0:0|0:0,0:0:0:0:
285,240,232297,5,10,0:0:0:0:
163,83,232433,1,0,0:0:0:0:
360,54,232570,1,8,0:0:0:0:
296,255,232706,5,0,0:0:0:0:
150,67,232842,1,8,0:0:0:0:
352,101,232979,5,0,0:0:0:0:
125,173,233115,1,8,0:0:0:0:
239,13,233252,6,0,L|234:146,1,102.4,6|0,0:0|0:0,0:0:0:0:
214,262,233524,6,2,B|318:321|327:238|415:298,1,204.8
479,238,233933,2,0,P|499:295|467:352,1,102.4,2|0,0:0|0:0,0:0:0:0:
356,356,234206,1,2,0:0:0:0:
356,356,234342,1,8,0:0:0:0:
287,206,234479,6,2,P|423:196|480:263,1,204.8,2|0,0:0|0:0,0:0:0:0:
464,126,234888,1,10,0:0:0:0:
212,344,235161,1,2,0:0:0:0:
212,344,235298,1,0,0:0:0:0:
238,140,235433,5,10,0:0:0:0:
49,220,235706,5,2,0:0:0:0:
253,246,235842,1,2,0:0:0:0:
55,330,235979,1,10,0:0:0:0:
247,136,236115,6,2,B|106:108|106:108|39:107,1,204.8
259,356,236524,1,10,0:0:0:0:
268,80,236661,6,2,B|409:52|409:52|476:51,1,204.8,2|10,0:0|0:3,0:0:0:0:
489,102,237002,1,8,0:3:0:0:
495,131,237070,1,8,0:3:0:0:
494,162,237138,1,8,0:3:0:0:
484,191,237206,1,8,0:3:0:0:
457,228,237274,1,8,0:3:0:0:
417,251,237342,1,8,0:3:0:0:
370,271,237410,1,8,0:3:0:0:
319,269,237478,1,8,0:3:0:0:
274,245,237546,1,8,0:3:0:0:
244,204,237614,5,8,0:3:0:0:
475,66,237888,1,0,0:0:0:0:
130,145,252462,5,2,0:0:0:0:
328,292,252608,1,0,0:0:0:0:
254,73,252754,1,2,0:0:0:0:
191,324,252901,1,0,0:0:0:0:
418,93,253047,1,2,0:0:0:0:
106,180,253193,1,2,0:0:0:0:
420,261,253340,1,2,0:0:0:0:
184,17,253486,1,0,0:0:0:0:
165,377,253632,6,0,P|206:336|224:247,1,106.399995616455,2|0,0:0|0:0,0:0:0:0:
282,86,253925,1,0,0:0:0:0:
282,86,254071,1,0,0:0:0:0:
225,293,254218,6,0,P|301:310|330:295,1,106.399995616455,10|0,0:0|0:0,0:0:0:0:
408,234,254510,5,8,0:3:0:0:
428,196,254583,1,8,0:3:0:0:
437,155,254656,1,8,0:3:0:0:
433,112,254729,1,8,0:3:0:0:
418,73,254803,6,0,B|311:31|313:120|188:64,1,212.799991232911,14|0,0:0|0:0,0:0:0:0:
119,12,255242,2,0,P|115:139|185:152,1,212.799991232911,2|0,0:0|0:0,0:0:0:0:
231,239,255681,1,2,0:0:0:0:
231,239,255827,1,0,0:0:0:0:
315,72,255974,5,2,0:0:0:0:
408,234,256266,1,0,0:0:0:0:
290,40,256559,6,0,P|224:81|214:112,1,106.399995616455,2|0,0:0|0:0,0:0:0:0:
247,258,256852,1,2,0:0:0:0:
377,226,257144,6,0,P|381:353|311:366,1,212.799991232911,14|0,0:0|0:0,0:0:0:0:
296,146,257583,2,0,P|372:163|401:148,1,106.399995616455,2|0,0:0|0:0,0:0:0:0:
429,58,257876,1,0,0:0:0:0:
429,58,258022,1,2,0:0:0:0:
439,218,258169,1,2,0:0:0:0:
439,351,258315,6,0,P|333:372|218:321,1,212.799991232911,2|0,0:0|0:0,0:0:0:0:
182,178,258901,6,0,L|185:303,1,106.399995616455,2|0,0:0|0:0,0:0:0:0:
179,61,259193,1,2,0:0:0:0:
30,336,259486,6,0,B|137:294|135:383|260:327,1,212.799991232911,14|0,0:0|0:0,0:0:0:0:
187,243,259925,2,0,P|299:255|338:369,1,212.799991232911,2|0,0:0|0:0,0:0:0:0:
344,155,260364,1,0,0:0:0:0:
344,155,260510,1,0,0:0:0:0:
237,336,260657,6,0,P|244:174|203:120,1,212.799991232911,10|0,0:0|0:0,0:0:0:0:
90,96,261096,2,0,P|86:223|156:236,1,212.799991232911,2|0,0:0|0:0,0:0:0:0:
220,137,261535,1,2,0:0:0:0:
354,237,261827,6,0,B|247:195|249:284|124:228,1,212.799991232911,14|0,0:0|0:0,0:0:0:0:
73,106,262266,2,0,L|76:231,1,106.399995616455,2|0,0:0|0:0,0:0:0:0:
77,318,262559,1,0,0:0:0:0:
77,318,262705,1,2,0:0:0:0:
75,212,262852,1,0,0:0:0:0:
72,70,262998,5,2,0:0:0:0:
289,189,263291,1,0,0:0:0:0:
80,327,263583,5,8,0:3:0:0:
130,343,263656,1,8,0:3:0:0:
183,344,263729,1,8,0:3:0:0:
234,330,263802,1,8,0:3:0:0:
279,302,263876,2,0,P|318:256|326:186,1,106.399995616455,2|0,0:0|0:0,0:0:0:0:
388,110,264169,6,0,B|463:195|378:224|474:322,1,212.799991232911,14|0,0:0|0:0,0:0:0:0:
482,378,264608,2,0,P|503:272|452:157,1,212.799991232911,2|0,0:0|0:0,0:0:0:0:
326,189,265047,1,2,0:0:0:0:
326,189,265193,1,0,0:0:0:0:
326,50,265340,2,0,L|324:175,1,106.399995616455,2|0,0:0|0:0,0:0:0:0:
206,120,265632,5,0,0:0:0:0:
128,62,265925,6,0,P|110:137|125:166,1,106.399995616455,2|0,0:0|0:0,0:0:0:0:
211,251,266218,1,0,0:0:0:0:
120,318,266510,6,0,P|222:363|313:284,1,212.799991232911,14|0,0:0|0:0,0:0:0:0:
301,197,266949,2,0,P|403:151|494:230,1,212.799991232911,2|0,0:0|0:0,0:0:0:0:
391,276,267388,1,0,0:0:0:0:
391,276,267535,1,0,0:0:0:0:
211,150,267681,5,0,0:0:0:0:
192,369,267974,1,0,0:0:0:0:
176,114,268266,2,0,P|130:153|60:161,1,106.399995616455,2|0,0:0|0:0,0:0:0:0:
12,107,268559,1,2,0:0:0:0:
93,55,268852,6,0,B|70:166|158:148|124:281,1,212.799991232911,14|0,0:0|0:0,0:0:0:0:
48,304,269291,2,0,P|155:370|202:316,1,212.799991232911,2|0,0:0|0:0,0:0:0:0:
231,227,269730,1,2,0:0:0:0:
231,227,269876,1,0,0:0:0:0:
341,87,270022,6,0,B|256:162|227:77|129:173,1,212.799991232911,14|0,0:0|0:0,0:0:0:0:
76,215,270462,2,0,P|196:251|227:186,1,212.799991232911,2|0,0:0|0:0,0:0:0:0:
255,37,270901,1,2,0:0:0:0:
437,110,271193,6,0,P|397:214|277:223,1,212.799991232911,14|0,0:0|0:0,0:0:0:0:
184,154,271632,2,0,P|291:88|338:142,1,212.799991232911,2|0,0:0|0:0,0:0:0:0:
228,224,272071,1,2,0:0:0:0:
228,224,272218,1,0,0:0:0:0:
264,50,272364,6,0,P|254:116|271:173,1,106.399995616455,2|0,0:0|0:0,0:0:0:0:
396,168,272657,1,0,0:0:0:0:
274,350,272949,5,10,0:3:0:0:
221,353,273022,1,8,0:3:0:0:
172,335,273095,1,8,0:3:0:0:
135,297,273168,1,8,0:3:0:0:
117,247,273241,5,10,0:3:0:0:
148,93,273535,1,6,0:0:0:0:
251,228,273730,1,0,0:0:0:0:
342,94,273974,1,0,0:0:0:0:
397,242,274193,1,0,0:0:0:0:
246,88,274413,5,2,0:0:0:0:
135,232,274632,1,0,0:0:0:0:
422,158,274852,6,0,L|396:279,1,111.600003490906
330,344,275144,2,0,L|314:247,1,74.4000023272706
210,211,275583,1,2,0:0:0:0:
480,287,275730,1,0,0:0:0:0:
209,118,275876,6,0,B|354:78|350:204|501:158,1,297.600009309082,2|0,0:0|0:0,0:0:0:0:
77,249,276754,6,0,L|176:250,1,74.4000023272706,2|0,0:0|0:0,0:0:0:0:
192,157,277047,2,0,P|239:267|179:344,2,223.200006981812,2|2|2,0:0|0:0|0:0,0:0:0:0:
137,77,278218,6,0,P|188:61|249:83,1,94.3999966870118,2|0,0:0|0:0,0:0:0:0:
303,138,278510,1,8,0:0:0:0:
182,205,278657,1,0,0:0:0:0:
361,230,278803,1,0,0:0:0:0:
162,206,278949,1,0,0:0:0:0:
302,327,279096,1,8,0:0:0:0:
141,206,279242,1,0,0:0:0:0:
210,351,279388,5,0,0:0:0:0:
276,158,279535,1,0,0:0:0:0:
366,342,279681,1,8,0:0:0:0:
120,167,279827,6,0,B|210:122|214:196|312:163,1,188.799993374024
389,160,280266,1,8,0:0:0:0:
389,160,280413,1,0,0:0:0:0:
416,337,280559,5,0,0:0:0:0:
473,138,280705,1,0,0:0:0:0:
416,323,280852,5,8,0:0:0:0:
365,122,280998,1,0,0:0:0:0:
416,309,281144,5,0,0:0:0:0:
271,160,281290,1,0,0:0:0:0:
416,294,281437,5,8,0:0:0:0:
241,283,281583,2,0,P|184:269|156:213,1,94.3999966870118
131,100,281876,1,0,0:0:0:0:
131,100,281949,1,0,0:0:0:0:
131,100,282022,1,8,0:0:0:0:
431,89,282169,6,0,B|392:109|359:83|359:83|333:102|333:102|305:71|240:80,1,188.799993374024
148,61,282608,1,8,0:0:0:0:
185,199,282754,1,0,0:0:0:0:
260,76,282901,5,0,0:0:0:0:
313,288,283047,1,0,0:0:0:0:
260,89,283193,5,8,0:0:0:0:
199,299,283339,1,0,0:0:0:0:
260,102,283486,5,0,0:0:0:0:
312,314,283632,1,0,0:0:0:0:
187,148,283779,5,8,0:0:0:0:
373,261,283925,1,0,0:0:0:0:
174,230,284071,5,0,0:0:0:0:
385,178,284217,1,0,0:0:0:0:
223,297,284364,5,8,0:0:0:0:
336,111,284510,1,0,0:0:0:0:
305,310,284657,5,0,0:0:0:0:
254,98,284803,1,0,0:0:0:0:
174,230,284949,1,8,0:0:0:0:
385,178,285096,1,0,0:0:0:0:
279,204,285242,5,0,0:0:0:0:
279,204,285388,1,0,0:0:0:0:
171,139,285535,2,0,P|114:153|86:209,1,94.3999966870118,8|0,0:0|0:0,0:0:0:0:
282,78,285827,5,0,0:0:0:0:
282,78,285973,1,0,0:0:0:0:
279,204,286120,2,0,P|319:246|382:242,1,94.3999966870118,8|0,0:0|0:0,0:0:0:0:
494,250,286413,5,0,0:0:0:0:
359,172,286559,1,0,0:0:0:0:
359,172,286632,1,0,0:0:0:0:
359,172,286705,1,8,0:0:0:0:
494,136,286852,1,0,0:0:0:0:
311,291,286998,6,0,L|364:295,1,47.1999983435059,2|0,0:0|0:0,0:0:0:0:
512,297,287144,2,0,L|459:301,1,47.1999983435059,2|0,0:0|0:0,0:0:0:0:
281,135,287291,2,0,L|334:139,1,47.1999983435059,2|0,0:0|0:0,0:0:0:0:
508,96,287437,1,2,0:0:0:0:
392,35,287583,6,0,P|312:27|224:68,1,141.599995030518
151,103,287876,1,8,0:0:0:0:
252,165,288022,1,0,0:0:0:0:
151,227,288169,1,0,0:0:0:0:
252,289,288315,1,0,0:0:0:0:
151,103,288461,5,8,0:0:0:0:
151,351,288608,1,0,0:0:0:0:
27,137,288754,1,0,0:0:0:0:
242,261,288901,1,0,0:0:0:0:
268,31,289047,5,8,0:0:0:0:
0,112,289193,1,0,0:0:0:0:
247,341,289340,1,0,0:0:0:0:
106,13,289486,5,0,0:0:0:0:
43,285,289632,1,8,0:0:0:0:
365,185,289779,1,8,0:0:0:0:
80,147,289925,5,0,0:0:0:0:
284,337,290071,1,0,0:0:0:0:
275,59,290218,1,8,0:0:0:0:
86,310,290364,1,0,0:0:0:0:
376,188,290510,5,0,0:0:0:0:
124,25,290657,1,0,0:0:0:0:
187,319,290803,1,8,0:0:0:0:
360,55,290949,1,0,0:0:0:0:
55,222,291096,6,0,P|104:241|164:221,1,94.3999966870118,10|0,0:0|0:0,0:0:0:0:
246,43,291388,1,8,0:0:0:0:
429,266,291535,6,0,B|389:236|346:258|346:258|340:254|340:254|294:289|252:265,1,188.799993374024,2|0,0:0|0:0,0:0:0:0:
226,152,291974,1,8,0:0:0:0:
226,152,292120,1,0,0:0:0:0:
155,354,292266,6,0,L|158:240,1,94.3999966870118
221,64,292559,1,8,0:0:0:0:
221,64,292705,1,0,0:0:0:0:
242,354,292852,6,0,L|239:240,1,94.3999966870118
154,103,293145,1,8,0:0:0:0:
154,103,293291,1,0,0:0:0:0:
333,252,293437,6,0,L|233:259,1,94.3999966870118
56,274,293730,1,8,0:0:0:0:
56,274,293876,1,0,0:0:0:0:
366,141,294022,6,0,L|254:149,1,94.3999966870118
55,165,294315,1,8,0:0:0:0:
55,165,294461,1,0,0:0:0:0:
148,32,294608,6,0,B|244:6|236:64|338:30,1,188.799993374024,0|8,0:0|0:0,0:0:0:0:
361,183,295047,1,0,0:0:0:0:
202,122,295193,6,0,L|206:249,1,94.3999966870118
210,344,295486,1,8,0:0:0:0:
332,289,295632,6,0,B|369:215|334:151|334:151|330:176|317:208,1,188.799993374024
231,134,295998,1,0,0:0:0:0:
231,134,296071,1,0,0:0:0:0:
94,298,296218,1,0,0:0:0:0:
159,91,296364,6,8,L|162:147,1,47.1999983435059,8|8,0:3|0:3,0:3:0:0:
198,309,296510,2,8,L|201:253,1,47.1999983435059,8|8,0:3|0:3,0:3:0:0:
87,136,296657,2,8,P|112:145|129:174,1,47.1999983435059,8|8,0:3|0:3,0:3:0:0:
269,263,296803,2,8,P|244:254|227:225,1,47.1999983435059,8|8,0:3|0:3,0:3:0:0:
69,219,296949,5,2,0:0:0:0:
69,219,297024,6,0,L|68:323,1,78.3999992822266,10|0,0:0|0:0,0:0:0:0:
398,84,298095,1,10,0:0:0:0:
101,63,299166,6,0,P|117:168|154:192,1,156.799998564453,14|0,0:0|0:0,0:0:0:0:
246,99,299568,1,0,0:0:0:0:
246,99,299702,1,2,0:0:0:0:
271,215,299836,1,0,0:0:0:0:
361,117,299970,5,10,0:3:0:0:
361,117,300037,1,8,0:3:0:0:
361,117,300104,1,8,0:3:0:0:
106,140,300238,5,2,0:0:0:0:
361,117,300372,1,0,0:0:0:0:
117,74,300506,1,0,0:0:0:0:
349,182,300640,1,0,0:0:0:0:
135,295,300774,6,0,L|161:213,1,78.3999992822266,2|0,0:0|0:0,0:0:0:0:
334,346,301041,2,0,L|308:264,1,78.3999992822266,2|0,0:0|0:0,0:0:0:0:
113,131,301309,6,0,P|175:120|243:200,1,156.799998564453,2|2,0:0|0:0,0:0:0:0:
174,274,301711,2,2,P|228:305|262:301,1,78.3999992822266,2|8,0:0|0:0,0:0:0:0:
346,163,302113,1,2,0:0:0:0:
346,163,302381,6,0,P|413:226|414:317,1,156.799998564453,2|0,0:0|0:0,0:0:0:0:
327,334,302782,2,2,P|327:271|347:244,1,78.3999992822266,2|8,0:0|0:0,0:0:0:0:
433,128,303184,5,2,0:0:0:0:
360,67,303385,1,0,0:0:0:0:
360,67,303452,6,0,P|267:101|245:163,1,156.799998564453,2|0,0:0|0:0,0:0:0:0:
252,251,303854,1,0,0:0:0:0:
400,195,303988,6,0,P|382:226|322:243,1,78.3999992822266,10|0,0:0|0:0,0:0:0:0:
324,163,304256,2,0,P|306:131|320:71,1,78.3999992822266,2|0,0:0|0:0,0:0:0:0:
389,113,304524,2,0,P|407:81|466:64,1,78.3999992822266,2|0,0:0|0:0,0:0:0:0:
464,144,304791,5,2,0:3:0:0:
466,343,305059,1,10,0:0:0:0:
390,130,305193,1,0,0:0:0:0:
386,352,305327,1,2,0:0:0:0:
322,134,305461,1,0,0:0:0:0:
312,343,305595,6,0,P|266:278|286:196,1,156.799998564453,2|0,0:0|0:0,0:0:0:0:
364,255,305997,1,2,0:0:0:0:
323,120,306131,5,8,0:0:0:0:
256,280,306399,2,0,L|282:198,1,78.3999992822266,2|0,0:0|0:0,0:0:0:0:
450,201,306666,2,0,L|424:119,1,78.3999992822266,2|0,0:0|0:0,0:0:0:0:
292,41,306934,5,0,0:0:0:0:
183,233,307202,1,10,0:0:0:0:
356,87,307336,1,0,0:0:0:0:
248,281,307470,1,2,0:0:0:0:
420,134,307604,1,0,0:0:0:0:
342,339,307738,6,0,P|420:325|464:253,1,156.799998564453,2|0,0:0|0:0,0:0:0:0:
420,134,308140,1,2,0:0:0:0:
370,252,308274,1,8,0:0:0:0:
296,144,308541,5,2,0:0:0:0:
297,116,308607,1,0,0:0:0:0:
298,89,308674,1,0,0:0:0:0:
299,61,308741,1,0,0:0:0:0:
300,34,308809,5,2,0:0:0:0:
166,140,309077,1,0,0:0:0:0:
166,140,309211,1,0,0:0:0:0:
262,301,309345,6,0,L|247:217,1,78.3999992822266,10|0,0:0|0:0,0:0:0:0:
70,301,309613,2,0,L|85:217,1,78.3999992822266,10|8,0:0|0:0,0:0:0:0:
43,135,309881,6,0,B|167:101|156:176|288:132,1,235.19999784668,10|2,0:0|0:0,0:0:0:0:
365,51,310416,1,10,0:0:0:0:
365,221,310684,1,0,0:0:0:0:
462,361,310952,6,0,B|509:265|464:182|464:182|459:215|442:256,1,235.19999784668,2|2,0:0|0:0,0:0:0:0:
366,173,311488,1,8,0:0:0:0:
431,91,311756,6,0,P|468:158|457:201,1,86.4000021093751
423,256,311957,1,0,0:0:0:0:
423,256,312024,6,0,L|362:246,1,47.1999983435059,10|0,0:0|0:0,0:0:0:0:
205,238,312157,2,0,L|266:227,1,47.1999983435059,8|0,0:0|0:0,0:0:0:0:
440,163,312291,6,0,L|371:151,1,47.1999983435059,8|0,0:0|0:0,0:0:0:0:
194,141,312424,2,0,L|263:129,1,47.1999983435059,8|0,0:0|0:0,0:0:0:0:
460,72,312559,6,0,L|382:58,1,47.1999983435059,8|0,0:0|0:0,0:0:0:0:
185,48,312692,2,0,L|262:34,1,47.1999983435059,8|0,0:0|0:0,0:0:0:0:
325,21,312827,5,8,0:0:0:0:
323,58,312893,1,0,0:0:0:0:
322,96,312960,1,8,0:0:0:0:
321,134,313027,1,0,0:0:0:0:
320,171,313094,5,10,0:0:0:0:
366,169,313161,1,0,0:0:0:0:
405,195,313228,1,8,0:0:0:0:
421,239,313295,1,0,0:0:0:0:
410,284,313362,1,8,0:0:0:0:
374,313,313430,1,0,0:0:0:0:
327,318,313497,1,8,0:0:0:0:
287,294,313564,1,0,0:0:0:0:
267,253,313631,6,0,L|266:190,1,47.1999983435059,10|0,0:3|0:3,0:3:0:0:
233,35,313765,2,0,L|232:98,1,47.1999983435059,8|0,0:3|0:3,0:3:0:0:
171,286,313899,2,0,L|169:210,1,47.1999983435059,8|0,0:3|0:3,0:3:0:0:
130,24,314033,2,0,L|128:99,1,47.1999983435059,8|0,0:3|0:3,0:3:0:0:
80,239,314166,5,14,0:3:0:0:
70,292,314232,1,0,0:3:0:0:
91,342,314300,1,10,0:3:0:0:
136,374,314366,1,0,0:3:0:0:
190,376,314433,1,8,0:3:0:0:
237,349,314500,1,0,0:3:0:0:
263,301,314568,1,8,0:3:0:0:
258,247,314634,1,0,0:3:0:0:
225,203,314702,5,10,0:3:0:0:
215,149,314768,1,0,0:3:0:0:
236,99,314835,1,10,0:3:0:0:
281,67,314902,1,0,0:3:0:0:
335,65,314970,1,10,0:3:0:0:
382,92,315036,1,0,0:3:0:0:
408,140,315104,1,10,0:3:0:0:
403,194,315170,1,0,0:3:0:0:
370,238,315238,5,10,0:3:0:0:
331,198,315304,1,0,0:3:0:0:
314,146,315371,1,10,0:3:0:0:
322,92,315438,1,0,0:3:0:0:
352,47,315505,5,8,0:3:0:0:
312,85,315573,1,0,0:3:0:0:
260,102,315640,1,10,0:3:0:0:
206,94,315707,1,0,0:3:0:0:
161,64,315774,1,10,0:3:0:0:
198,104,315840,1,0,0:3:0:0:
215,156,315907,1,10,0:3:0:0:
207,210,315974,1,0,0:3:0:0:
177,255,316041,5,10,0:3:0:0:
167,308,316107,1,0,0:3:0:0:
188,358,316174,1,10,0:3:0:0:
233,390,316241,1,0,0:3:0:0:
287,392,316308,1,10,0:3:0:0:
334,365,316375,1,0,0:3:0:0:
360,317,316443,1,10,0:3:0:0:
355,263,316509,1,0,0:3:0:0:
322,219,316577,5,10,0:3:0:0:
277,187,316644,1,0,0:3:0:0:
256,137,316711,1,10,0:3:0:0:
266,83,316778,1,0,0:3:0:0:
302,43,316845,1,10,0:3:0:0:
355,29,316912,1,0,0:3:0:0:
407,45,316979,1,10,0:3:0:0:
442,86,317046,1,0,0:3:0:0:
450,140,317113,5,10,0:3:0:0:
426,189,317179,1,0,0:3:0:0:
380,218,317246,1,10,0:3:0:0:
326,218,317313,1,0,0:3:0:0:
280,189,317380,5,10,0:3:0:0:
230,211,317448,1,0,0:3:0:0:
176,204,317515,1,10,0:3:0:0:
134,169,317582,1,0,0:3:0:0:
118,117,317649,1,10,0:3:0:0:
132,65,317716,1,0,0:3:0:0:
172,28,317783,1,10,0:3:0:0:
225,18,317850,1,0,0:3:0:0:
276,38,317916,5,10,0:3:0:0:
307,82,317982,1,0,0:3:0:0:
309,137,318050,1,10,0:3:0:0:
282,184,318116,1,0,0:3:0:0:
234,209,318183,1,10,0:3:0:0:
202,253,318251,1,0,0:3:0:0:
200,308,318318,1,10,0:3:0:0:
227,355,318385,1,0,0:3:0:0:
275,380,318452,5,14,0:3:0:0:
329,375,318519,1,0,0:3:0:0:
372,341,318586,1,10,0:3:0:0:
391,290,318653,1,0,0:3:0:0:
379,237,318720,1,10,0:3:0:0:
333,205,318787,1,0,0:3:0:0:
313,154,318854,1,10,0:3:0:0:
322,100,318921,1,0,0:3:0:0:
359,60,318988,5,10,0:3:0:0:
412,50,319054,1,0,0:3:0:0:
462,71,319121,1,10,0:3:0:0:
494,116,319188,1,0,0:3:0:0:
496,170,319255,1,10,0:3:0:0:
469,217,319322,1,0,0:3:0:0:
421,243,319389,1,10,0:3:0:0:
367,238,319456,1,0,0:3:0:0:
323,205,319524,5,10,0:3:0:0:
277,235,319590,1,0,0:3:0:0:
254,284,319657,1,10,0:3:0:0:
258,339,319724,1,0,0:3:0:0:
289,384,319791,5,10,0:3:0:0:
259,338,319858,1,0,0:3:0:0:
210,315,319925,1,10,0:3:0:0:
154,319,319992,1,0,0:3:0:0:
109,350,320059,5,10,0:3:0:0:
155,320,320126,1,0,0:3:0:0:
178,271,320193,1,10,0:3:0:0:
174,215,320260,1,0,0:3:0:0:
143,171,320327,1,10,0:3:0:0:
92,149,320394,1,0,0:3:0:0:
61,105,320461,1,10,0:3:0:0:
55,49,320528,1,0,0:3:0:0:
78,1,320595,5,10,0:3:0:0:
132,5,320661,1,0,0:3:0:0:
175,39,320728,1,10,0:3:0:0:
194,90,320795,1,0,0:3:0:0:
182,143,320862,1,10,0:3:0:0:
145,184,320930,1,0,0:3:0:0:
139,239,320997,1,10,0:3:0:0:
162,288,321064,1,0,0:3:0:0:
208,317,321131,5,10,0:3:0:0:
262,316,321197,1,0,0:3:0:0:
308,287,321265,1,10,0:3:0:0:
331,238,321331,1,0,0:3:0:0:
324,184,321398,1,10,0:3:0:0:
289,142,321465,1,0,0:3:0:0:
237,125,321532,1,10,0:3:0:0:
185,139,321599,1,0,0:3:0:0:
147,179,321666,5,10,0:3:0:0:
178,223,321733,1,0,0:3:0:0:
228,244,321800,1,10,0:3:0:0:
282,234,321867,1,0,0:3:0:0:
322,198,321934,1,10,0:3:0:0:
353,153,322001,1,0,0:3:0:0:
403,133,322068,1,10,0:3:0:0:
457,142,322135,1,0,0:3:0:0:
497,179,322202,5,10,0:3:0:0:
510,231,322269,1,0,0:3:0:0:
494,283,322336,1,10,0:3:0:0:
452,318,322403,1,0,0:3:0:0:
398,325,322470,1,10,0:3:0:0:
349,303,322537,1,0,0:3:0:0:
319,257,322604,1,10,0:3:0:0:
319,202,322671,1,0,0:3:0:0:
348,156,322738,5,14,0:3:0:0:
336,98,322805,1,0,0:3:0:0:
294,58,322872,1,10,0:3:0:0:
237,49,322939,1,0,0:3:0:0:
184,74,323006,1,10,0:3:0:0:
155,124,323073,1,0,0:3:0:0:
160,182,323140,1,10,0:3:0:0:
198,227,323207,1,0,0:3:0:0:
254,243,323274,5,10,0:3:0:0:
247,185,323340,1,0,0:3:0:0:
209,141,323407,1,10,0:3:0:0:
152,126,323474,1,0,0:3:0:0:
98,147,323541,1,10,0:3:0:0:
65,195,323608,1,0,0:3:0:0:
65,253,323675,1,10,0:3:0:0:
98,301,323742,1,0,0:3:0:0:
151,324,323809,5,10,0:3:0:0:
193,283,323875,1,0,0:3:0:0:
249,267,323943,1,10,0:3:0:0:
306,280,324009,1,0,0:3:0:0:
350,319,324077,5,10,0:3:0:0:
309,276,324143,1,0,0:3:0:0:
293,220,324210,1,10,0:3:0:0:
306,163,324277,1,0,0:3:0:0:
345,119,324344,1,10,0:3:0:0:
302,159,324412,1,0,0:3:0:0:
246,175,324479,1,10,0:3:0:0:
189,162,324546,1,0,0:3:0:0:
145,123,324613,5,10,0:3:0:0:
198,99,324679,1,0,0:3:0:0:
255,110,324746,1,10,0:3:0:0:
296,152,324813,1,0,0:3:0:0:
305,210,324881,1,10,0:3:0:0:
340,256,324948,1,0,0:3:0:0:
395,275,325015,1,10,0:3:0:0:
451,259,325082,1,0,0:3:0:0:
488,213,325149,5,10,0:3:0:0:
481,155,325215,1,0,0:3:0:0:
443,111,325282,1,10,0:3:0:0:
386,96,325349,1,0,0:3:0:0:
332,117,325416,1,10,0:3:0:0:
297,162,325483,1,0,0:3:0:0:
242,181,325550,1,10,0:3:0:0:
185,166,325617,1,0,0:3:0:0:
149,121,325684,5,10,0:3:0:0:
91,112,325750,1,0,0:3:0:0:
39,137,325817,1,10,0:3:0:0:
10,188,325884,1,0,0:3:0:0:
16,246,325951,1,10,0:3:0:0:
54,291,326018,1,0,0:3:0:0:
110,306,326085,1,10,0:3:0:0:
165,286,326152,1,0,0:3:0:0:
198,238,326219,5,10,0:3:0:0:
250,212,326287,1,0,0:3:0:0:
307,222,326354,1,10,0:3:0:0:
348,263,326421,1,0,0:3:0:0:
358,321,326488,1,10,0:3:0:0:
318,363,326554,1,0,0:3:0:0:
260,372,326621,1,10,0:3:0:0:
209,345,326688,1,0,0:3:0:0:
185,292,326756,5,10,0:3:0:0:
193,234,326822,1,0,0:3:0:0:
168,182,326889,1,10,0:3:0:0:
117,153,326956,1,0,0:3:0:0:
59,159,327024,5,14,0:3:0:0:
93,205,327090,1,0,0:3:0:0:
148,224,327157,1,10,0:3:0:0:
204,209,327224,1,0,0:3:0:0:
241,163,327291,1,10,0:3:0:0:
246,105,327358,1,0,0:3:0:0:
217,55,327425,1,10,0:3:0:0:
164,30,327492,1,0,0:3:0:0:
106,40,327559,5,10,0:3:0:0:
69,85,327625,1,0,0:3:0:0:
64,143,327692,1,10,0:3:0:0:
94,193,327759,1,0,0:3:0:0:
146,218,327826,1,10,0:3:0:0:
168,270,327894,1,0,0:3:0:0:
158,327,327961,1,10,0:3:0:0:
116,369,328028,1,0,0:3:0:0:
60,378,328095,5,10,0:3:0:0:
80,323,328161,1,0,0:3:0:0:
128,290,328228,1,10,0:3:0:0:
187,290,328295,1,0,0:3:0:0:
234,323,328363,5,10,0:3:0:0:
196,276,328429,1,0,0:3:0:0:
191,218,328496,1,10,0:3:0:0:
221,167,328563,1,0,0:3:0:0:
273,143,328631,5,10,0:3:0:0:
213,156,328697,1,0,0:3:0:0:
159,137,328764,1,10,0:3:0:0:
125,87,328831,1,0,0:3:0:0:
125,30,328898,5,10,0:3:0:0:
183,23,328965,1,0,0:3:0:0:
236,48,329032,1,10,0:3:0:0:
268,96,329099,1,0,0:3:0:0:
272,155,329166,5,10,0:3:0:0:
262,214,329232,1,0,0:3:0:0:
288,269,329299,1,10,0:3:0:0:
340,300,329366,1,0,0:3:0:0:
400,296,329433,1,10,0:3:0:0:
448,259,329500,1,0,0:3:0:0:
467,201,329567,1,10,0:3:0:0:
449,143,329634,1,0,0:3:0:0:
402,105,329702,5,10,0:3:0:0:
342,95,329768,1,0,0:3:0:0:
287,121,329835,1,10,0:3:0:0:
256,173,329902,1,0,0:3:0:0:
260,233,329969,1,10,0:3:0:0:
237,289,330037,1,0,0:3:0:0:
187,324,330104,1,10,0:3:0:0:
127,324,330171,1,0,0:3:0:0:
76,291,330238,5,10,0:3:0:0:
55,220,330304,1,0,0:3:0:0:
65,147,330371,1,10,0:3:0:0:
103,83,330438,1,0,0:3:0:0:
162,41,330505,1,10,0:3:0:0:
234,25,330572,1,0,0:3:0:0:
306,39,330639,1,10,0:3:0:0:
366,80,330706,1,0,0:3:0:0:
406,142,330774,5,14,0:3:0:0:
402,223,330840,1,14,0:3:0:0:
358,291,330907,1,14,0:3:0:0:
285,328,330974,1,14,0:3:0:0:
204,321,331041,1,14,0:3:0:0:
137,274,331108,1,14,0:3:0:0:
104,200,331175,1,14,0:3:0:0:
113,119,331242,1,14,0:3:0:0:
163,54,331309,6,0,B|235:86|235:86|303:25|350:83|350:83|372:103|371:201|289:240|187:167|228:83|272:41|272:41|342:46|434:21|434:21|473:158|390:177|448:320|448:320|419:280|370:266|370:266|346:307|301:323|301:323|290:268|237:258|237:258|193:302|145:278|145:278|110:303|93:343|93:343|84:277|84:277|41:85|41:85|192:209|192:209|-11:212|-11:212|153:134|153:134|154:136|154:136|157:138|157:138|152:138|152:138|157:134|157:134|162:133|162:133|162:135|162:135|162:137|162:137|165:132|165:132|167:135|167:135|164:138|164:138|175:128,1,2358.40007197266,14|0,0:0|0:0,0:0:0:0:
256,192,340416,12,0,342827,0:0:0:0:
