osu file format v14

[General]
AudioFilename: audio.mp3
AudioLeadIn: 0
PreviewTime: 157885
Countdown: 0
SampleSet: Normal
StackLeniency: 0.3
Mode: 0
LetterboxInBreaks: 0
WidescreenStoryboard: 1

[Editor]
DistanceSpacing: 2.1
BeatDivisor: 4
GridSize: 4
TimelineZoom: 3.699998

[Metadata]
Title:Shinbatsu o tadori kyo bone ni itaru
TitleUnicode:神罰を辿り狂骨に至る
Artist:Imperial Circus Dead Decadence
ArtistUnicode:Imperial Circus Dead Decadence
Creator:L u m ii n a
Version:Celestial
Source:
Tags:metal j-metal blackmetal icdd deathmetal streams deathstreams featured artist symphonic 黄泉より聴こゆ、皇国
BeatmapID:1085166
BeatmapSetID:510355

[Difficulty]
HPDrainRate:6
CircleSize:4.2
OverallDifficulty:9.2
ApproachRate:9.8
SliderMultiplier:2
SliderTickRate:1

[Events]
//Background and Video events
0,0,"585806.png",0,0
//Break Periods
2,88485,93520
2,182565,188560
2,205605,212080
//Storyboard Layer 0 (Background)
//Storyboard Layer 1 (Fail)
//Storyboard Layer 2 (Pass)
//Storyboard Layer 3 (Foreground)
//Storyboard Layer 4 (Overlay)
//Storyboard Sound Samples

[TimingPoints]
5485,240,4,1,0,50,1,0
5665,-100,4,1,0,5,0,0
5725,240,4,1,0,50,1,0
5725,-200,4,1,0,50,0,0
6685,-100,4,1,0,50,0,0
13585,-100,4,1,0,5,0,0
13645,-100,4,1,0,50,0,0
13825,-100,4,1,0,5,0,0
13885,-100,4,1,0,50,0,0
14065,-100,4,1,0,5,0,0
14125,-100,4,1,0,50,0,0
14305,-100,4,1,0,5,0,0
14365,-100,4,1,0,50,0,0
15025,-100,4,1,0,5,0,0
15085,-100,4,1,0,50,0,0
15265,-100,4,1,0,50,0,0
15325,-100,4,1,0,50,0,0
16465,-100,4,1,0,5,0,0
16525,-100,4,1,0,50,0,0
16705,-100,4,1,0,5,0,0
16765,-100,4,1,0,50,0,0
17185,-100,4,1,0,5,0,0
17245,-100,4,1,0,50,0,0
20305,-100,4,1,0,5,0,0
20365,-100,4,1,0,50,0,0
20545,-100,4,1,0,5,0,0
20605,-100,4,1,0,50,0,0
21025,-100,4,1,0,5,0,0
21085,-100,4,1,0,50,0,0
22945,-100,4,1,0,5,0,0
23005,-100,4,1,0,50,0,0
24865,-100,4,1,0,5,0,0
24925,-100,4,1,0,50,0,0
27685,-100,4,1,0,5,0,0
27805,-100,4,1,0,50,0,0
29905,-100,4,1,0,5,0,0
29965,-100,4,1,0,50,0,0
30145,-100,4,1,0,5,0,0
30205,-100,4,1,0,50,0,0
30865,-100,4,1,0,5,0,0
30925,-100,4,1,0,50,0,0
31105,-100,4,1,0,5,0,0
31165,-100,4,1,0,50,0,0
31345,-100,4,1,0,5,0,0
31405,-100,4,1,0,50,0,0
31585,-100,4,1,0,5,0,0
31645,-100,4,1,0,50,0,0
32545,-100,4,1,0,5,0,0
32605,-100,4,1,0,50,0,0
33745,-100,4,1,0,5,0,0
33805,-100,4,1,0,50,0,0
33985,-100,4,1,0,5,0,0
34045,-100,4,1,0,50,0,0
34225,-100,4,1,0,5,0,0
34285,-100,4,1,0,50,0,0
35185,-100,4,1,0,5,0,0
35245,-100,4,1,0,50,0,0
35665,-100,4,1,0,5,0,0
35725,-100,4,1,0,50,0,0
35905,-100,4,1,0,5,0,0
35965,-100,4,1,0,50,0,0
36145,-100,4,1,0,5,0,0
36205,-100,4,1,0,50,0,0
39985,-100,4,1,0,5,0,0
40045,-100,4,1,0,50,0,0
40225,-100,4,1,0,5,0,0
40285,-100,4,1,0,50,0,0
49825,-100,4,1,0,5,0,0
49885,-100,4,1,0,50,0,0
56125,-133.333333333333,4,1,0,5,0,0
56545,-200,4,1,0,5,0,0
56605,-133.333333333333,4,1,0,5,0,0
57025,-133.333333333333,4,1,0,5,0,0
57085,-133.333333333333,4,1,0,5,0,0
57505,-100,4,1,0,5,0,0
57565,-100,4,1,0,50,0,1
61645,-100,4,1,0,5,0,1
61765,-100,4,1,0,50,0,1
62005,-100,4,1,0,5,0,1
62125,-100,4,1,0,50,0,1
62485,-100,4,1,0,5,0,1
62605,-100,4,1,0,50,0,1
66625,-100,4,1,0,5,0,1
66685,-100,4,1,0,50,0,1
66865,-100,4,1,0,5,0,1
66925,-100,4,1,0,50,0,1
67105,-100,4,1,0,5,0,1
67165,-100,4,1,0,50,0,1
69385,-100,4,1,0,5,0,1
69445,-100,4,1,0,50,0,1
70885,-100,4,1,0,5,0,1
71005,-133.333333333333,4,1,0,50,0,0
71425,-133.333333333333,4,1,0,5,0,0
71845,-133.333333333333,4,1,0,5,0,0
71965,-133.333333333333,4,1,0,5,0,0
72325,-133.333333333333,4,1,0,5,0,0
72445,-100,4,1,0,5,0,0
72805,-100,4,1,0,5,0,0
72925,-100,4,1,0,50,0,1
80785,-100,4,1,0,5,0,1
80845,-100,4,1,0,50,0,1
81025,-100,4,1,0,5,0,1
81085,-100,4,1,0,50,0,1
81265,-100,4,1,0,5,0,1
81325,-100,4,1,0,50,0,1
81505,-100,4,1,0,5,0,1
81565,-100,4,1,0,50,0,1
82705,-100,4,1,0,5,0,1
82765,-100,4,1,0,50,0,1
82945,-100,4,1,0,5,0,1
83005,-100,4,1,0,50,0,1
83185,-100,4,1,0,5,0,1
83245,-100,4,1,0,50,0,1
83425,-100,4,1,0,5,0,1
83485,-100,4,1,0,50,0,1
84625,-100,4,1,0,5,0,1
84685,-100,4,1,0,50,0,1
84865,-100,4,1,0,5,0,1
84925,-100,4,1,0,50,0,1
85105,-100,4,1,0,5,0,1
85165,-100,4,1,0,50,0,1
85345,-100,4,1,0,5,0,1
85405,-100,4,1,0,50,0,1
86665,-100,4,1,0,5,0,1
86725,-100,4,1,0,50,0,1
88285,-100,4,1,0,50,0,0
96385,-100,4,1,0,5,0,1
96445,-100,4,1,0,50,0,1
96625,-100,4,1,0,5,0,1
96685,-100,4,1,0,50,0,1
96865,-100,4,1,0,5,0,1
96925,-100,4,1,0,50,0,1
97585,-100,4,1,0,5,0,1
97645,-100,4,1,0,50,0,1
111325,-133.333333333333,4,1,0,50,0,0
111985,-133.333333333333,4,1,0,5,0,0
112045,-133.333333333333,4,1,0,50,0,0
112225,-133.333333333333,4,1,0,5,0,0
112285,-133.333333333333,4,1,0,50,0,0
112585,-133.333333333333,4,1,0,5,0,0
112645,-133.333333333333,4,1,0,50,0,0
112945,-133.333333333333,4,1,0,5,0,0
113005,-133.333333333333,4,1,0,50,0,0
113185,-133.333333333333,4,1,0,5,0,0
113245,-133.333333333333,4,1,0,50,0,0
113905,-133.333333333333,4,1,0,5,0,0
113965,-133.333333333333,4,1,0,50,0,0
114505,-133.333333333333,4,1,0,5,0,0
114565,-133.333333333333,4,1,0,50,0,0
114865,-133.333333333333,4,1,0,5,0,0
114925,-133.333333333333,4,1,0,50,0,0
115105,-133.333333333333,4,1,0,5,0,0
115165,-133.333333333333,4,1,0,50,0,0
115825,-133.333333333333,4,1,0,5,0,0
115885,-133.333333333333,4,1,0,50,0,0
116785,-133.333333333333,4,1,0,5,0,0
116845,-133.333333333333,4,1,0,50,0,0
117025,-133.333333333333,4,1,0,5,0,0
117085,-133.333333333333,4,1,0,50,0,0
117385,-133.333333333333,4,1,0,5,0,0
117445,-133.333333333333,4,1,0,50,0,0
117745,-133.333333333333,4,1,0,5,0,0
117805,-133.333333333333,4,1,0,50,0,0
117985,-133.333333333333,4,1,0,5,0,0
118045,-200,4,1,0,50,0,0
119005,-133.333333333333,4,1,0,50,0,0
120205,-100,4,1,0,50,0,0
126685,-100,4,1,0,50,0,0
136285,-100,4,1,0,50,0,0
138085,-100,4,1,0,5,0,0
138205,-100,4,1,0,50,0,0
143965,-100,4,1,0,50,0,0
148105,-100,4,1,0,5,0,0
148165,-100,4,1,0,50,0,0
148465,-100,4,1,0,5,0,0
148525,-100,4,1,0,50,0,0
148825,-100,4,1,0,5,0,0
148885,-100,4,1,0,50,0,0
153025,-100,4,1,0,5,0,0
153085,-100,4,1,0,50,0,0
153265,-100,4,1,0,5,0,0
153325,-100,4,1,0,50,0,0
153505,-100,4,1,0,5,0,0
153565,-100,4,1,0,50,0,0
157885,-133.333333333333,4,1,0,50,0,0
158305,-200,4,1,0,5,0,0
158365,-133.333333333333,4,1,0,50,0,0
158785,-200,4,1,0,5,0,0
158845,-133.333333333333,4,1,0,50,0,0
159265,-200,4,1,0,5,0,0
159325,-100,4,1,0,50,0,1
161125,-100,4,1,0,5,0,1
161245,-100,4,1,0,50,0,1
162085,-100,4,1,0,5,0,1
162205,-100,4,1,0,50,0,1
164065,-100,4,1,0,5,0,1
164125,-100,4,1,0,50,0,1
164305,-100,4,1,0,5,0,1
164365,-100,4,1,0,50,0,1
164545,-100,4,1,0,5,0,1
164605,-100,4,1,0,50,0,1
164785,-100,4,1,0,5,0,1
164845,-100,4,1,0,50,0,1
165025,-100,4,1,0,5,0,1
165085,-100,4,1,0,50,0,1
173425,-100,4,1,0,5,0,1
173485,-100,4,1,0,50,0,1
174685,-100,4,1,0,50,0,0
177265,-100,4,1,0,5,0,0
177325,-100,4,1,0,50,0,0
179425,-100,4,1,0,5,0,0
179485,-100,4,1,0,50,0,0
179665,-100,4,1,0,5,0,0
179725,-100,4,1,0,50,0,0
179905,-100,4,1,0,5,0,0
179965,-100,4,1,0,50,0,0
180145,-100,4,1,0,5,0,0
180205,-100,4,1,0,50,0,0
180625,-100,4,1,0,5,0,0
180685,-100,4,1,0,50,0,0
180865,-100,4,1,0,5,0,0
180925,-100,4,1,0,50,0,0
181105,-100,4,1,0,5,0,0
181165,-100,4,1,0,50,0,0
181345,-100,4,1,0,5,0,0
181405,-100,4,1,0,50,0,0
182365,-100,4,1,0,50,0,0
189085,-100,4,1,0,50,0,0
197725,-100,4,1,0,50,0,0
205405,-100,4,1,0,50,0,0
212605,-200,4,1,0,5,0,0
213025,-100,4,1,0,5,0,0
213085,-200,4,1,0,5,0,0
213505,-100,4,1,0,5,0,0
213565,-200,4,1,0,5,0,0
213985,-100,4,1,0,5,0,0
214045,-100,4,1,0,50,0,0
227965,-200,4,1,0,5,0,0
228385,-100,4,1,0,5,0,0
228445,-200,4,1,0,5,0,0
228865,-100,4,1,0,5,0,0
228925,-200,4,1,0,5,0,0
229345,-100,4,1,0,5,0,0
229405,-100,4,1,0,50,0,1
236605,-133.333333333333,4,1,0,50,0,1
236965,-133.333333333333,4,1,0,25,0,1
237085,-100,4,1,0,50,0,1
237265,-100,4,1,0,5,0,1
237325,-100,4,1,0,50,0,1
237505,-100,4,1,0,5,0,1
237565,-100,4,1,0,50,0,1
237745,-100,4,1,0,5,0,1
237805,-100,4,1,0,50,0,1
237985,-100,4,1,0,5,0,1
238045,-100,4,1,0,50,0,1
239185,-100,4,1,0,5,0,1
239245,-100,4,1,0,50,0,1
239425,-100,4,1,0,5,0,1
239485,-100,4,1,0,50,0,1
239665,-100,4,1,0,5,0,1
239725,-100,4,1,0,50,0,1
239905,-100,4,1,0,5,0,1
239965,-100,4,1,0,50,0,1
241105,-100,4,1,0,5,0,1
241165,-100,4,1,0,50,0,1
241345,-100,4,1,0,5,0,1
241405,-100,4,1,0,50,0,1
241585,-100,4,1,0,5,0,1
241645,-100,4,1,0,50,0,1
241825,-100,4,1,0,5,0,1
241885,-100,4,1,0,50,0,1
244285,-100,4,1,0,50,0,1
244705,-100,4,1,0,5,0,1
244765,-100,4,1,0,50,0,0
252625,-100,4,1,0,5,0,0
252685,-100,4,1,0,50,0,0
252865,-100,4,1,0,5,0,0
252925,-100,4,1,0,50,0,0
253105,-100,4,1,0,5,0,0
253165,-100,4,1,0,50,0,0
253345,-100,4,1,0,5,0,0
253405,-100,4,1,0,50,0,0
254545,-100,4,1,0,5,0,0
254605,-100,4,1,0,50,0,0
254785,-100,4,1,0,5,0,0
254845,-100,4,1,0,50,0,0
255025,-100,4,1,0,5,0,0
255085,-100,4,1,0,50,0,0
255265,-100,4,1,0,5,0,0
255325,-100,4,1,0,50,0,0
264865,-100,4,2,0,5,0,0

[HitObjects]
45,50,5485,6,0,P|114:94|196:66,1,150,12|0,0:0|0:0,0:0:0:0:
267,18,5725,2,0,P|398:111|244:160,1,400,12|0,0:0|0:0,0:0:0:0:
311,98,6745,1,0,0:0:0:0:
319,121,6805,1,0,0:0:0:0:
322,146,6865,1,0,0:0:0:0:
320,171,6925,1,0,0:0:0:0:
313,195,6985,1,0,0:0:0:0:
300,217,7045,6,0,P|303:311|390:347,1,200,12|8,0:0|0:0,0:0:0:0:
374,262,7405,1,12,0:0:0:0:
119,240,7645,6,0,L|19:253,1,100,8|4,0:0|0:0,0:0:0:0:
62,57,7885,2,0,L|161:70,1,100,8|4,0:0|0:0,0:0:0:0:
259,353,8125,6,0,L|159:366,1,100,8|4,0:0|0:0,0:0:0:0:
202,170,8365,2,0,L|301:183,1,100,8|4,0:0|0:0,0:0:0:0:
217,274,8605,1,8,0:0:0:0:
187,71,8725,1,4,0:0:0:0:
400,196,8845,1,8,0:0:0:0:
102,154,8965,6,0,P|160:78|255:86,1,200,4|4,0:0|0:0,0:0:0:0:
301,183,9325,2,0,L|290:282,1,100,8|4,0:0|0:0,0:0:0:0:
355,358,9565,1,8,0:0:0:0:
400,196,9685,2,0,L|389:96,1,100,4|8,0:0|0:0,0:0:0:0:
255,86,9925,2,0,B|184:80|184:80|136:112|136:112|65:104,1,200,4|4,0:0|0:0,0:0:0:0:
206,163,10285,2,0,P|198:258|112:299,1,200,8|8,0:0|0:0,0:0:0:0:
117,201,10645,5,4,0:0:0:0:
324,138,10765,1,8,0:0:0:0:
197,253,10885,5,4,0:0:0:0:
446,229,11005,1,8,0:0:0:0:
111,298,11125,5,4,0:0:0:0:
420,346,11245,1,8,0:0:0:0:
184,356,11365,5,4,0:0:0:0:
206,163,11485,2,0,B|195:96|195:96|116:202,1,200,8|8,0:0|0:0,0:0:0:0:
197,253,11845,2,0,P|282:212|283:117,1,200,8|8,0:0|0:0,0:0:0:0:
109,11,12205,6,0,L|9:23,1,100,8|4,0:0|0:0,0:0:0:0:
106,152,12445,2,0,L|205:162,1,100,8|4,0:0|0:0,0:0:0:0:
381,25,12685,6,0,L|281:37,1,100,8|4,0:0|0:0,0:0:0:0:
378,166,12925,2,0,L|477:176,1,100,8|4,0:0|0:0,0:0:0:0:
374,258,13165,1,8,0:0:0:0:
473,84,13285,1,4,0:0:0:0:
505,316,13405,6,0,B|460:367|460:367|378:355,1,150,12|0,0:0|0:0,0:0:0:0:
191,285,13645,2,0,B|109:273|109:273|64:324,1,150,12|0,0:0|0:0,0:0:0:0:
278,344,13885,2,0,P|297:274|263:209,1,150,12|0,0:0|0:0,0:0:0:0:
145,46,14125,2,0,P|126:116|160:181,1,150,12|0,0:0|0:0,0:0:0:0:
263,209,14365,5,2,0:0:0:0:
287,216,14425,1,2,0:0:0:0:
312,219,14485,1,10,0:0:0:0:
336,215,14545,1,10,0:0:0:0:
360,206,14605,1,2,0:0:0:0:
380,192,14665,1,2,0:0:0:0:
397,174,14725,1,2,0:0:0:0:
410,153,14785,1,2,0:0:0:0:
417,129,14845,6,0,B|401:58|401:58|331:23,1,150,14|0,0:0|0:0,0:0:0:0:
222,12,15085,2,0,B|238:83|238:83|307:117,1,150,14|0,0:0|0:0,0:0:0:0:
417,129,15325,5,8,0:0:0:0:
331,23,15445,1,8,0:0:0:0:
276,266,15565,2,8,L|291:364,1,100
401,227,15805,2,8,L|416:128,1,100
119,171,16045,2,8,L|134:269,1,100
291,364,16285,6,0,B|351:378|351:378|434:349,1,150,14|0,0:0|0:0,0:0:0:0:
275,266,16525,2,0,P|212:301|190:371,1,150,14|0,0:0|0:0,0:0:0:0:
290,364,16765,2,0,P|369:232|225:180,1,350,14|0,0:0|0:0,0:0:0:0:
118,170,17245,6,8,P|50:104|77:8,1,200
142,77,17605,1,8,0:0:0:0:
100,262,17725,2,8,B|123:338|123:338|241:359,1,200
360,334,18085,1,8,0:0:0:0:
196,226,18205,2,8,P|126:161|33:183,1,200
100,262,18565,1,8,0:0:0:0:
428,140,18685,6,8,L|437:40,1,100
197,227,18925,2,8,L|206:326,1,100
295,230,19165,6,8,P|250:146|155:139,1,200
197,227,19525,1,8,0:0:0:0:
386,238,19645,2,8,L|484:220,1,100
437,40,19885,2,8,L|338:22,1,100
158,113,20125,6,0,B|97:144|97:144|18:123,1,150,14|0,0:0|0:0,0:0:0:0:
89,47,20365,2,0,P|157:19|224:47,1,150,14|0,0:0|0:0,0:0:0:0:
248,138,20605,2,0,P|390:181|373:34,1,350,14|0,0:0|0:0,0:0:0:0:
333,113,21085,6,8,L|347:211,1,100
486,369,21325,2,8,L|500:270,1,100
296,320,21565,2,8,B|216:344|216:344|176:328|176:328|106:351,1,200
11,320,21925,1,8,0:0:0:0:
229,250,22045,2,8,P|275:226|322:228,1,100
296,319,22525,2,2,P|146:295|207:156,1,350,10|2,0:0|0:0,0:0:0:0:
230,250,23005,5,12,0:0:0:0:
11,320,23125,1,12,0:0:0:0:
44,191,23965,5,12,0:0:0:0:
420,311,24085,1,12,0:0:0:0:
323,355,24445,5,10,0:0:0:0:
314,331,24505,1,10,0:0:0:0:
312,306,24565,1,10,0:0:0:0:
316,281,24625,1,10,0:0:0:0:
326,258,24685,2,0,B|349:212|349:212|326:116,1,150
256,44,24925,6,0,L|157:59,1,100,8|4,0:0|0:0,0:0:0:0:
227,242,25165,2,0,L|325:257,1,100,8|4,0:0|0:0,0:0:0:0:
128,164,25405,6,0,L|29:179,1,100,8|4,0:0|0:0,0:0:0:0:
99,362,25645,2,0,L|197:377,1,100,8|4,0:0|0:0,0:0:0:0:
325,257,25885,2,0,L|313:157,1,100,8|4,0:0|0:0,0:0:0:0:
358,63,26125,1,8,0:0:0:0:
416,240,26245,2,0,P|382:329|288:341,1,200,4|4,0:0|0:0,0:0:0:0:
48,276,26605,5,8,0:0:0:0:
168,368,26725,1,4,0:0:0:0:
60,128,26845,1,8,0:0:0:0:
60,128,26965,6,0,B|51:79|51:79|66:31,1,100,4|8,0:0|0:0,0:0:0:0:
312,40,27205,2,0,B|268:92|268:92|136:80,1,200,4|4,0:0|0:0,0:0:0:0:
398,19,27565,2,0,P|470:27|508:89,1,150,8|0,0:0|0:0,0:0:0:0:
395,188,27805,2,0,P|396:139|422:97,1,100,14|4,0:0|0:0,0:0:0:0:
495,168,28045,5,8,0:0:0:0:
300,212,28165,1,4,0:0:0:0:
464,264,28285,5,8,0:0:0:0:
214,254,28405,1,4,0:0:0:0:
387,329,28525,5,8,0:0:0:0:
115,250,28645,1,4,0:0:0:0:
115,250,28765,6,2,P|24:274|12:367,1,200,10|10,0:0|0:0,0:0:0:0:
88,330,29125,1,4,0:0:0:0:
151,139,29245,2,2,P|134:47|42:25,1,200,10|10,0:0|0:0,0:0:0:0:
74,106,29605,1,4,0:0:0:0:
269,62,29725,6,0,B|327:50|327:50|413:77,1,150,14|0,0:0|0:0,0:0:0:0:
470,138,29965,2,0,P|494:69|456:7,1,150,14|0,0:0|0:0,0:0:0:0:
323,135,30205,2,0,L|327:234,1,100,14|0,0:0|0:0,0:0:0:0:
334,334,30445,1,8,0:0:0:0:
429,218,30565,1,4,0:0:0:0:
192,238,30685,6,0,P|118:245|51:212,1,150,14|0,0:0|0:0,0:0:0:0:
162,154,30925,2,0,P|236:147|303:180,1,150,14|0,0:0|0:0,0:0:0:0:
51,212,31165,6,0,P|44:138|77:71,1,150,14|0,0:0|0:0,0:0:0:0:
302,179,31405,2,0,P|309:253|275:319,1,150,14|0,0:0|0:0,0:0:0:0:
235,348,31645,5,2,0:0:0:0:
210,345,31705,1,2,0:0:0:0:
185,342,31765,1,6,0:0:0:0:
160,340,31825,1,2,0:0:0:0:
135,337,31885,1,2,0:0:0:0:
51,212,32005,1,0,0:0:0:0:
204,190,32125,5,2,0:0:0:0:
229,188,32185,1,2,0:0:0:0:
253,185,32245,1,2,0:0:0:0:
278,182,32305,1,2,0:0:0:0:
303,180,32365,2,0,B|367:172|367:172|446:204,1,150,14|0,0:0|0:0,0:0:0:0:
356,254,32605,6,0,L|364:154,1,100
449,63,32845,1,4,0:0:0:0:
446,304,32965,2,0,P|366:356|277:320,1,200
188,290,33325,2,0,B|172:236|172:236|178:192,1,100,4|0,0:0|0:0,0:0:0:0:
350,99,33565,6,0,B|450:63|450:63|428:101,1,150,14|0,0:0|0:0,0:0:0:0:
297,184,33805,2,0,B|215:115|215:115|257:115,1,150,14|0,0:0|0:0,0:0:0:0:
396,187,34045,2,0,B|376:291|376:291|355:253,1,150,14|0,0:0|0:0,0:0:0:0:
257,115,34285,6,0,P|261:66|290:26,1,100
350,99,34525,1,8,0:0:0:0:
95,148,34645,2,0,P|46:143|6:114,1,100,0|2,0:0|0:0,0:0:0:0:
79,55,34885,2,0,P|181:110|150:222,1,250
92,289,35245,2,0,B|132:316|132:316|185:308,1,100,8|0,0:0|0:0,0:0:0:0:
358,161,35485,6,0,B|421:145|421:145|495:186,1,150,14|0,0:0|0:0,0:0:0:0:
316,252,35725,2,0,P|265:199|263:125,1,150,14|0,0:0|0:0,0:0:0:0:
414,242,35965,2,0,P|396:313|333:350,1,150,14|0,0:0|0:0,0:0:0:0:
316,252,36205,1,4,0:0:0:0:
405,61,36325,1,4,0:0:0:0:
402,36,36385,1,4,0:0:0:0:
400,12,36445,5,8,0:0:0:0:
152,47,36565,1,4,0:0:0:0:
330,141,36685,5,8,0:0:0:0:
80,109,36805,2,0,P|5:153|67:213,1,200,8|8,0:0|0:0,0:0:0:0:
81,110,37165,2,0,L|67:10,1,100,8|4,0:0|0:0,0:0:0:0:
330,141,37405,2,0,L|316:240,1,100,8|4,0:0|0:0,0:0:0:0:
300,338,37645,5,8,0:0:0:0:
424,181,37765,1,4,0:0:0:0:
225,156,37885,1,8,0:0:0:0:
316,240,38005,5,4,0:0:0:0:
440,83,38125,1,8,0:0:0:0:
241,58,38245,1,4,0:0:0:0:
316,240,38365,6,0,L|415:233,1,100,8|4,0:0|0:0,0:0:0:0:
512,285,38605,1,8,0:0:0:0:
298,336,38725,2,0,P|222:279|232:184,1,200,4|4,0:0|0:0,0:0:0:0:
316,240,39085,5,8,0:0:0:0:
104,293,39205,1,4,0:0:0:0:
168,103,39325,1,8,0:0:0:0:
189,89,39385,1,8,0:0:0:0:
212,81,39445,1,4,0:0:0:0:
237,79,39505,1,2,0:0:0:0:
262,83,39565,1,2,0:0:0:0:
285,93,39625,1,2,0:0:0:0:
305,107,39685,1,2,0:0:0:0:
321,126,39745,1,2,0:0:0:0:
332,149,39805,6,0,B|386:177|386:177|474:163,1,150,14|0,0:0|0:0,0:0:0:0:
398,93,40045,2,0,P|371:160|395:230,1,150,14|0,0:0|0:0,0:0:0:0:
486,277,40285,5,8,0:0:0:0:
472,297,40345,1,0,0:0:0:0:
453,314,40405,1,8,0:0:0:0:
432,326,40465,1,0,0:0:0:0:
407,332,40525,1,8,0:0:0:0:
382,332,40585,1,0,0:0:0:0:
358,326,40645,1,8,0:0:0:0:
336,314,40705,1,0,0:0:0:0:
318,296,40765,1,8,0:0:0:0:
299,278,40825,1,0,0:0:0:0:
278,266,40885,1,8,0:0:0:0:
253,260,40945,1,0,0:0:0:0:
228,260,41005,1,8,0:0:0:0:
204,266,41065,1,0,0:0:0:0:
182,278,41125,1,8,0:0:0:0:
164,295,41185,1,0,0:0:0:0:
154,317,41245,6,0,P|160:343|171:363,1,50,14|0,0:0|0:0,0:0:0:0:
261,307,41365,1,8,0:0:0:0:
261,282,41425,1,0,0:0:0:0:
255,258,41485,1,8,0:0:0:0:
242,236,41545,1,0,0:0:0:0:
225,218,41605,1,8,0:0:0:0:
204,205,41665,1,0,0:0:0:0:
180,198,41725,1,8,0:0:0:0:
155,197,41785,1,0,0:0:0:0:
131,202,41845,1,8,0:0:0:0:
109,213,41905,1,0,0:0:0:0:
90,230,41965,1,8,0:0:0:0:
76,251,42025,1,0,0:0:0:0:
68,274,42085,1,8,0:0:0:0:
66,299,42145,1,0,0:0:0:0:
73,322,42205,6,0,P|96:331|120:328,1,50,14|0,0:0|0:0,0:0:0:0:
210,278,42325,1,8,0:0:0:0:
229,261,42385,1,0,0:0:0:0:
242,240,42445,1,8,0:0:0:0:
250,217,42505,1,0,0:0:0:0:
252,192,42565,1,8,0:0:0:0:
248,167,42625,1,0,0:0:0:0:
238,144,42685,1,8,0:0:0:0:
229,120,42745,1,0,0:0:0:0:
226,95,42805,1,8,0:0:0:0:
228,71,42865,1,0,0:0:0:0:
239,48,42925,1,8,0:0:0:0:
257,31,42985,1,0,0:0:0:0:
281,24,43045,1,0,0:0:0:0:
305,26,43105,1,0,0:0:0:0:
325,40,43165,6,0,L|411:36,5,50,14|0|8|0|8|0,0:0|0:0|0:0|0:0|0:0|0:0,0:0:0:0:
477,113,43525,2,0,L|428:116,5,50,14|0|8|0|8|0,0:0|0:0|0:0|0:0|0:0|0:0,0:0:0:0:
346,196,43885,2,0,L|432:192,3,50,14|0|8|0,0:0|0:0|0:0|0:0,0:0:0:0:
340,114,44125,5,14,0:0:0:0:
316,109,44185,1,0,0:0:0:0:
291,107,44245,1,8,0:0:0:0:
266,109,44305,1,0,0:0:0:0:
242,116,44365,1,8,0:0:0:0:
219,126,44425,1,0,0:0:0:0:
198,140,44485,1,8,0:0:0:0:
178,154,44545,1,0,0:0:0:0:
155,165,44605,1,8,0:0:0:0:
131,171,44665,1,0,0:0:0:0:
106,172,44725,1,8,0:0:0:0:
81,169,44785,1,0,0:0:0:0:
58,161,44845,6,0,L|48:108,3,50,12|0|8|0,0:0|0:0|0:0|0:0,0:0:0:0:
29,260,45085,5,12,0:0:0:0:
22,283,45145,1,0,0:0:0:0:
25,308,45205,1,8,0:0:0:0:
39,328,45265,1,0,0:0:0:0:
60,341,45325,1,8,0:0:0:0:
85,343,45385,1,0,0:0:0:0:
108,334,45445,1,8,0:0:0:0:
127,318,45505,1,0,0:0:0:0:
146,302,45565,1,8,0:0:0:0:
169,292,45625,1,0,0:0:0:0:
194,290,45685,1,8,0:0:0:0:
218,295,45745,1,0,0:0:0:0:
240,307,45805,6,0,L|230:356,3,50,12|0|0|0,0:0|0:0|0:0|0:0,0:0:0:0:
320,222,46045,5,12,0:0:0:0:
344,216,46105,1,0,0:0:0:0:
369,219,46165,1,8,0:0:0:0:
390,229,46225,1,0,0:0:0:0:
410,246,46285,1,8,0:0:0:0:
421,268,46345,1,0,0:0:0:0:
426,292,46405,1,8,0:0:0:0:
423,317,46465,1,0,0:0:0:0:
412,340,46525,1,8,0:0:0:0:
396,357,46585,1,0,0:0:0:0:
374,371,46645,1,8,0:0:0:0:
351,375,46705,1,0,0:0:0:0:
324,372,46765,6,0,L|333:322,3,50,12|0|8|0,0:0|0:0|0:0|0:0,0:0:0:0:
240,307,47005,5,12,0:0:0:0:
223,288,47065,1,0,0:0:0:0:
211,266,47125,1,8,0:0:0:0:
203,242,47185,1,0,0:0:0:0:
202,217,47245,1,8,0:0:0:0:
205,190,47305,1,0,0:0:0:0:
214,169,47365,1,8,0:0:0:0:
228,148,47425,1,0,0:0:0:0:
246,131,47485,1,8,0:0:0:0:
267,117,47545,1,0,0:0:0:0:
290,109,47605,1,8,0:0:0:0:
315,106,47665,1,0,0:0:0:0:
340,108,47725,6,0,L|388:97,3,50,12|8|8|0,0:0|0:0|0:0|0:0,0:0:0:0:
472,76,47965,2,8,P|444:32|392:12,1,100,12|8,0:0|0:0,0:0:0:0:
314,221,48205,2,8,L|326:320,1,100
410,256,48445,1,8,0:0:0:0:
225,186,48565,1,8,0:0:0:0:
244,384,48685,5,8,0:0:0:0:
326,320,48805,1,8,0:0:0:0:
88,268,48925,2,0,P|36:272|112:308,1,200,12|0,0:0|0:0,0:0:0:0:
225,186,49285,6,8,L|217:86,1,100
129,151,49525,1,8,0:0:0:0:
314,221,49645,2,0,B|381:243|381:243|490:208,1,150,8|0,0:0|0:0,0:0:0:0:
393,65,49885,2,0,P|374:116|384:174,1,100,12|8,0:0|0:0,0:0:0:0:
466,125,50125,5,8,0:0:0:0:
259,15,50245,2,8,P|211:5|166:22,1,100
100,147,50485,1,8,0:0:0:0:
220,98,50605,1,8,0:0:0:0:
43,61,50725,1,8,0:0:0:0:
76,237,50845,6,0,B|121:261|121:261|170:263,1,100,6|8,0:0|0:0,0:0:0:0:
367,229,51085,1,8,0:0:0:0:
93,282,51205,6,0,B|143:293|143:293|191:282,1,100,6|8,0:0|0:0,0:0:0:0:
372,199,51445,1,8,0:0:0:0:
122,320,51565,6,8,B|173:319|173:319|217:296,1,100,6|8,0:0|0:0,0:0:0:0:
370,168,51805,2,0,P|401:107|431:201,1,200,4|8,0:0|0:0,0:0:0:0:
257,150,52165,2,8,L|131:161,1,100,8|4,0:0|0:0,0:0:0:0:
228,244,52405,1,8,0:0:0:0:
370,168,52525,1,8,0:0:0:0:
216,52,52645,1,8,0:0:0:0:
228,244,52765,6,0,P|172:304|161:210,1,200,4|8,0:0|0:0,0:0:0:0:
319,263,53125,2,8,P|362:292|381:353,1,100,8|4,0:0|0:0,0:0:0:0:
290,351,53365,1,8,0:0:0:0:
257,150,53485,1,8,0:0:0:0:
476,219,53605,1,8,0:0:0:0:
228,244,53725,6,0,L|106:218,1,100,6|8,0:0|0:0,0:0:0:0:
14,38,53965,2,0,L|111:17,1,100,6|8,0:0|0:0,0:0:0:0:
290,351,54205,6,0,L|168:325,1,100,6|8,0:0|0:0,0:0:0:0:
76,145,54445,2,0,L|173:124,1,100,6|8,0:0|0:0,0:0:0:0:
247,57,54685,5,8,0:0:0:0:
395,39,54805,1,8,0:0:0:0:
274,128,54925,5,8,0:0:0:0:
460,138,55045,1,8,0:0:0:0:
270,202,55165,5,8,0:0:0:0:
489,253,55285,1,8,0:0:0:0:
239,270,55405,5,8,0:0:0:0:
497,380,55525,1,8,0:0:0:0:
239,270,56125,6,0,B|161:245|161:245|258:229|345:162,1,262.500010013581
475,299,56605,2,0,B|492:377|492:377|429:302|329:260,1,262.500010013581
382,81,57085,2,0,B|441:26|441:26|407:118|421:226,1,262.500010013581
239,270,57565,6,0,B|185:278|185:278|144:258,1,100,12|0,0:0|0:0,0:0:0:0:
53,219,57805,1,4,0:0:0:0:
199,194,57925,2,0,P|298:209|320:298,1,200,0|8,0:0|0:0,0:0:0:0:
127,136,58285,2,0,P|141:37|230:15,1,200,4|8,0:0|0:0,0:0:0:0:
370,60,58645,1,0,0:0:0:0:
203,96,58765,6,0,L|86:81,1,100,4|0,0:0|0:0,0:0:0:0:
221,307,59005,2,0,L|320:294,1,100,0|8,0:0|0:0,0:0:0:0:
127,136,59245,6,0,L|27:123,1,100,4|0,0:0|0:0,0:0:0:0:
297,347,59485,2,0,B|396:334|396:334|459:256,1,200,8|2,0:0|0:0,0:0:0:0:
107,183,59845,2,0,B|68:275|68:275|104:368,1,200,0|8,0:0|0:0,0:0:0:0:
345,103,60205,2,4,B|284:23|284:23|185:7,1,200,4|8,0:0|0:0,0:0:0:0:
235,104,60565,1,0,0:0:0:0:
396,23,60685,6,0,L|495:32,1,100,4|0,0:0|0:0,0:0:0:0:
417,194,60925,2,0,L|317:203,1,100,8|8,0:0|0:0,0:0:0:0:
345,103,61165,2,0,L|444:112,1,100,2|0,0:0|0:0,0:0:0:0:
468,274,61405,6,14,B|367:284|367:284|325:318|325:318|231:327,1,250
135,358,61765,2,0,P|171:247|288:245,1,250,14|0,0:0|0:0,0:0:0:0:
231,327,62125,2,0,P|122:305|194:135,1,350,14|0,0:0|0:0,0:0:0:0:
308,182,62605,6,0,L|407:175,1,100,4|0,0:0|0:0,0:0:0:0:
499,18,62845,2,0,L|399:11,1,100,8|8,0:0|0:0,0:0:0:0:
308,182,63085,2,0,L|333:280,1,100,4|0,0:0|0:0,0:0:0:0:
461,241,63325,6,0,P|490:151|415:91,1,200,8|4,0:0|0:0,0:0:0:0:
279,62,63685,2,8,B|230:48|230:48|381:15,1,200
407,174,64045,2,2,P|376:224|384:280,1,100,2|8,0:0|0:0,0:0:0:0:
442,327,64285,5,8,0:0:0:0:
265,293,64405,1,2,0:0:0:0:
241,283,64465,1,2,0:0:0:0:
217,279,64525,1,2,0:0:0:0:
192,278,64585,1,2,0:0:0:0:
167,282,64645,1,2,0:0:0:0:
144,291,64705,1,2,0:0:0:0:
122,304,64765,6,0,L|16:293,1,100,4|8,0:0|0:0,0:0:0:0:
80,48,65005,2,8,L|179:37,1,100
429,48,65245,6,8,B|404:86|404:86|356:111,1,100,8|4,0:0|0:0,0:0:0:0:
172,191,65485,1,8,0:0:0:0:
452,90,65605,6,0,B|418:121|418:121|365:132,1,100,4|8,0:0|0:0,0:0:0:0:
167,162,65845,1,4,0:0:0:0:
464,136,65965,6,0,B|423:157|423:157|369:154,1,100,8|4,0:0|0:0,0:0:0:0:
170,132,66205,1,8,0:0:0:0:
351,26,66325,1,4,0:0:0:0:
365,235,66445,2,0,P|383:321|456:358,1,150,14|0,0:0|0:0,0:0:0:0:
462,258,66685,2,0,B|406:227|406:227|304:245,1,150,14|0,0:0|0:0,0:0:0:0:
221,261,66925,2,0,B|136:275|136:275|80:244,1,150,14|0,0:0|0:0,0:0:0:0:
46,141,67165,6,0,P|127:107|151:192,1,200,14|8,0:0|0:0,0:0:0:0:
80,244,67525,1,4,0:0:0:0:
66,89,67645,6,0,P|153:76|154:165,1,200,8|8,0:0|0:0,0:0:0:0:
80,244,68005,1,4,0:0:0:0:
99,43,68125,6,0,P|186:54|164:139,1,200,8|8,0:0|0:0,0:0:0:0:
80,244,68485,1,4,0:0:0:0:
278,216,68605,1,8,0:0:0:0:
278,216,68665,1,8,0:0:0:0:
278,216,68725,6,0,L|414:229,1,100,4|8,0:0|0:0,0:0:0:0:
477,232,68965,1,4,0:0:0:0:
340,316,69085,1,8,0:0:0:0:
294,121,69205,2,0,P|305:49|368:12,1,150,4|8,0:0|0:0,0:0:0:0:
377,96,69445,6,0,L|265:88,1,100,4|8,0:0|0:0,0:0:0:0:
178,109,69685,1,2,0:0:0:0:
154,117,69745,1,2,0:0:0:0:
134,132,69805,1,2,0:0:0:0:
119,152,69865,1,2,0:0:0:0:
111,175,69925,1,2,0:0:0:0:
109,200,69985,1,2,0:0:0:0:
115,224,70045,1,2,0:0:0:0:
127,246,70105,1,2,0:0:0:0:
146,263,70165,1,2,0:0:0:0:
168,274,70225,1,2,0:0:0:0:
192,278,70285,6,8,L|291:266,1,100
419,112,70525,2,8,L|320:100,1,100
291,265,70765,2,0,B|317:324|317:324|404:351,1,150,8|0,0:0|0:0,0:0:0:0:
495,375,71005,1,14,0:0:0:0:
461,282,71485,6,0,P|373:191|291:286,1,262.500010013581
376,276,71965,2,0,B|394:185|394:185|358:102|358:102|372:24,1,262.500010013581
480,136,72445,2,0,B|405:195|309:131|309:131|213:67|132:127,1,350
115,36,72925,5,8,0:0:0:0:
94,50,72985,1,0,0:0:0:0:
79,70,73045,1,0,0:0:0:0:
70,93,73105,1,0,0:0:0:0:
68,118,73165,1,8,0:0:0:0:
72,142,73225,1,0,0:0:0:0:
83,165,73285,1,8,0:0:0:0:
100,183,73345,1,0,0:0:0:0:
122,196,73405,1,8,0:0:0:0:
140,212,73465,1,0,0:0:0:0:
151,234,73525,1,8,0:0:0:0:
152,259,73585,1,0,0:0:0:0:
143,282,73645,1,8,0:0:0:0:
125,300,73705,1,0,0:0:0:0:
102,309,73765,1,8,0:0:0:0:
78,308,73825,1,0,0:0:0:0:
55,298,73885,6,0,L|48:248,5,50,8|0|8|0|8|0,0:0|0:0|0:0|0:0|0:0|0:0,0:0:0:0:
245,298,74245,2,0,L|238:347,5,50,8|0|8|0|8|0,0:0|0:0|0:0|0:0|0:0|0:0,0:0:0:0:
435,298,74605,2,0,L|428:248,3,50,8|0|8|0,0:0|0:0|0:0|0:0,0:0:0:0:
340,296,74845,5,8,0:0:0:0:
331,272,74905,1,0,0:0:0:0:
328,247,74965,1,8,0:0:0:0:
331,223,75025,1,0,0:0:0:0:
340,200,75085,1,8,0:0:0:0:
354,179,75145,1,0,0:0:0:0:
374,163,75205,1,8,0:0:0:0:
396,153,75265,1,0,0:0:0:0:
420,148,75325,1,8,0:0:0:0:
445,149,75385,1,0,0:0:0:0:
469,156,75445,1,8,0:0:0:0:
490,169,75505,1,0,0:0:0:0:
503,189,75565,6,0,P|495:212|476:228,3,50,8|0|8|0,0:0|0:0|0:0|0:0,0:0:0:0:
340,200,75805,5,8,0:0:0:0:
320,184,75865,1,0,0:0:0:0:
297,173,75925,1,8,0:0:0:0:
273,168,75985,1,0,0:0:0:0:
248,168,76045,1,8,0:0:0:0:
224,173,76105,1,0,0:0:0:0:
201,184,76165,1,8,0:0:0:0:
183,201,76225,1,0,0:0:0:0:
164,217,76285,1,8,0:0:0:0:
141,226,76345,1,0,0:0:0:0:
116,226,76405,1,8,0:0:0:0:
93,216,76465,1,0,0:0:0:0:
76,198,76525,1,8,0:0:0:0:
66,175,76585,1,0,0:0:0:0:
66,151,76645,1,8,0:0:0:0:
74,127,76705,1,0,0:0:0:0:
92,109,76765,6,0,L|141:105,5,50,8|0|8|0|8|0,0:0|0:0|0:0|0:0|0:0|0:0,0:0:0:0:
92,22,77125,2,0,L|42:18,5,50,8|0|8|0|8|0,0:0|0:0|0:0|0:0|0:0|0:0,0:0:0:0:
212,51,77485,6,0,P|213:27|222:3,3,50,10|0|8|0,0:0|0:0|0:0|0:0,0:0:0:0:
275,169,77725,2,0,P|274:193|265:217,3,50,10|0|8|0,0:0|0:0|0:0|0:0,0:0:0:0:
350,52,77965,2,0,P|350:27|359:3,3,50,10|0|8|0,0:0|0:0|0:0|0:0,0:0:0:0:
412,169,78205,2,0,P|411:193|402:217,3,50,10|0|8|0,0:0|0:0|0:0|0:0,0:0:0:0:
487,52,78445,2,0,P|487:27|496:3,3,50,10|0|8|0,0:0|0:0|0:0|0:0,0:0:0:0:
412,169,78685,5,8,0:0:0:0:
395,187,78745,1,0,0:0:0:0:
383,209,78805,1,8,0:0:0:0:
376,233,78865,1,0,0:0:0:0:
375,258,78925,1,8,0:0:0:0:
379,282,78985,1,0,0:0:0:0:
390,305,79045,1,8,0:0:0:0:
405,325,79105,1,0,0:0:0:0:
424,340,79165,1,8,0:0:0:0:
447,351,79225,1,0,0:0:0:0:
471,357,79285,1,8,0:0:0:0:
496,356,79345,6,0,P|500:331|496:307,4,50,0|8|0|8|0,0:0|0:0|0:0|0:0|0:0,0:0:0:0:
379,282,79645,2,0,L|279:274,1,100,8|4,0:0|0:0,0:0:0:0:
190,316,79885,5,8,0:0:0:0:
50,371,80005,1,8,0:0:0:0:
198,237,80125,5,8,0:0:0:0:
15,257,80245,1,8,0:0:0:0:
248,173,80365,5,8,0:0:0:0:
16,135,80485,1,8,0:0:0:0:
143,55,80605,6,0,P|212:28|300:66,1,150,14|0,0:0|0:0,0:0:0:0:
364,99,80845,2,0,B|411:128|411:128|502:96,1,150,14|0,0:0|0:0,0:0:0:0:
420,43,81085,2,0,P|409:117|453:179,1,150,14|0,0:0|0:0,0:0:0:0:
470,273,81325,2,0,P|447:353|371:374,1,150,14|0,0:0|0:0,0:0:0:0:
300,330,81565,2,0,B|291:280|291:280|310:227,1,100,14|0,0:0|0:0,0:0:0:0:
388,290,81805,5,8,0:0:0:0:
204,370,81925,1,4,0:0:0:0:
220,170,82045,1,8,0:0:0:0:
320,208,82165,5,4,0:0:0:0:
136,288,82285,1,8,0:0:0:0:
152,88,82405,1,4,0:0:0:0:
220,169,82525,6,0,P|143:196|81:167,1,150,14|0,0:0|0:0,0:0:0:0:
152,88,82765,2,0,B|211:61|211:61|301:98,1,150,14|0,0:0|0:0,0:0:0:0:
393,137,83005,2,0,P|432:98|360:62,1,150,14|0,0:0|0:0,0:0:0:0:
320,208,83245,2,0,P|393:239|465:209,1,150,14|0,0:0|0:0,0:0:0:0:
393,137,83485,5,8,0:0:0:0:
287,306,83605,1,4,0:0:0:0:
486,316,83725,1,8,0:0:0:0:
292,192,83845,6,0,L|192:195,1,100,4|8,0:0|0:0,0:0:0:0:
93,369,84085,2,0,L|192:372,1,100,4|8,0:0|0:0,0:0:0:0:
287,306,84325,1,4,0:0:0:0:
140,273,84445,6,0,P|99:212|114:141,1,150,14|0,0:0|0:0,0:0:0:0:
166,63,84685,2,0,P|208:130|186:201,1,150,14|0,0:0|0:0,0:0:0:0:
114,141,84925,2,0,B|68:106|68:106|89:-1,1,150,14|0,0:0|0:0,0:0:0:0:
166,63,85165,2,0,P|237:78|297:37,1,150,14|0,0:0|0:0,0:0:0:0:
392,74,85405,6,0,L|408:196,1,100,8|4,0:0|0:0,0:0:0:0:
272,323,85645,2,0,L|288:201,1,100,8|4,0:0|0:0,0:0:0:0:
166,63,85885,2,0,L|182:185,1,100,8|4,0:0|0:0,0:0:0:0:
46,312,86125,2,0,L|62:190,1,100,8|4,0:0|0:0,0:0:0:0:
179,162,86365,6,0,B|257:132|257:132|327:156|327:156|415:126,1,250,8|8,0:0|0:0,0:0:0:0:
329,76,86725,2,0,P|315:132|330:181,1,100,4|8,0:0|0:0,0:0:0:0:
401,238,86965,1,2,0:0:0:0:
416,257,87025,1,2,0:0:0:0:
423,281,87085,1,2,0:0:0:0:
419,305,87145,1,2,0:0:0:0:
405,326,87205,1,2,0:0:0:0:
384,339,87265,1,2,0:0:0:0:
354,341,87325,6,0,B|301:342|263:306|238:269|238:269|228:322|228:322|202:270|149:257,1,300,8|4,0:0|0:0,0:0:0:0:
58,229,87805,2,0,P|117:136|111:266,1,300,8|8,0:0|0:0,0:0:0:0:
12,319,88285,1,14,0:0:0:0:
404,60,94045,6,0,P|411:113|391:156,1,100,4|8,0:0|0:0,0:0:0:0:
251,205,94285,1,8,0:0:0:0:
433,102,94405,6,0,P|426:155|395:193,1,100,4|8,0:0|0:0,0:0:0:0:
247,203,94645,1,8,0:0:0:0:
450,151,94765,6,0,P|429:201|390:229,1,100,2|8,0:0|0:0,0:0:0:0:
245,200,95005,1,8,0:0:0:0:
306,93,95125,5,8,0:0:0:0:
335,336,95245,1,8,0:0:0:0:
109,228,95365,2,8,L|121:85,1,100
245,200,95605,2,8,L|251:338,1,100
109,228,95845,1,8,0:0:0:0:
306,93,95965,6,0,P|393:68|335:218,1,350,6|0,0:0|0:0,0:0:0:0:
369,144,96445,2,6,B|430:183|430:183|424:260,1,150,14|6,0:0|0:0,0:0:0:0:
374,347,96685,2,0,P|445:359|516:302,1,150,2|0,0:0|0:0,0:0:0:0:
423,260,96925,2,0,B|342:243|303:184|303:184|321:255|321:255|278:198|203:188|203:188|232:232|232:232|156:187|100:219,1,550,6|0,0:0|0:0,0:0:0:0:
28,146,97645,2,8,B|5:86|49:37,1,100
230,231,97885,6,0,B|253:291|209:340,1,100,4|8,0:0|0:0,0:0:0:0:
136,271,98125,1,8,0:0:0:0:
230,231,98245,1,8,0:0:0:0:
332,271,98365,6,0,B|392:247|441:291,1,100,4|8,0:0|0:0,0:0:0:0:
372,365,98605,1,8,0:0:0:0:
332,271,98725,1,8,0:0:0:0:
372,168,98845,6,0,B|348:107|392:58,1,100,4|8,0:0|0:0,0:0:0:0:
466,128,99085,1,8,0:0:0:0:
372,168,99205,1,8,0:0:0:0:
270,128,99325,6,0,B|209:151|160:107,1,100,4|8,0:0|0:0,0:0:0:0:
230,34,99565,1,8,0:0:0:0:
270,128,99685,1,8,0:0:0:0:
230,231,99805,6,0,L|242:358,1,100,6|8,0:0|0:0,0:0:0:0:
432,279,100045,2,8,L|444:152,1,100
130,223,100285,6,0,L|142:350,1,100,4|8,0:0|0:0,0:0:0:0:
332,271,100525,2,8,L|344:144,1,100
30,215,100765,6,0,L|42:342,1,100,4|8,0:0|0:0,0:0:0:0:
232,263,101005,2,8,L|244:136,1,100
295,78,101245,5,2,0:0:0:0:
391,62,101365,1,8,0:0:0:0:
476,111,101485,1,8,0:0:0:0:
510,203,101605,1,8,0:0:0:0:
478,296,101725,1,4,0:0:0:0:
395,347,101845,1,8,0:0:0:0:
298,334,101965,1,8,0:0:0:0:
231,262,102085,1,8,0:0:0:0:
241,163,102205,6,0,L|227:58,1,100,4|8,0:0|0:0,0:0:0:0:
341,145,102445,2,8,L|327:250,1,100
150,176,102685,6,8,L|136:71,1,100,4|8,0:0|0:0,0:0:0:0:
432,158,102925,2,8,L|418:263,1,100
439,354,103165,5,4,0:0:0:0:
231,262,103285,1,8,0:0:0:0:
291,346,103405,5,4,0:0:0:0:
66,310,103525,1,8,0:0:0:0:
132,224,103645,5,14,0:0:0:0:
139,207,103705,1,0,0:0:0:0:
145,189,103765,1,8,0:0:0:0:
148,170,103825,1,0,0:0:0:0:
148,151,103885,1,8,0:0:0:0:
145,133,103945,1,0,0:0:0:0:
140,115,104005,1,8,0:0:0:0:
132,98,104065,1,0,0:0:0:0:
121,82,104125,5,14,0:0:0:0:
158,48,104185,1,0,0:0:0:0:
206,40,104245,1,8,0:0:0:0:
251,60,104305,1,0,0:0:0:0:
287,94,104365,1,8,0:0:0:0:
329,117,104425,1,0,0:0:0:0:
375,101,104485,1,8,0:0:0:0:
394,57,104545,1,0,0:0:0:0:
374,12,104605,5,14,0:0:0:0:
354,57,104665,1,0,0:0:0:0:
375,101,104725,1,8,0:0:0:0:
416,130,104785,1,0,0:0:0:0:
444,170,104845,1,8,0:0:0:0:
451,219,104905,1,0,0:0:0:0:
435,266,104965,1,8,0:0:0:0:
398,300,105025,1,0,0:0:0:0:
348,301,105085,5,14,0:0:0:0:
336,292,105145,1,0,0:0:0:0:
323,286,105205,1,8,0:0:0:0:
310,281,105265,1,0,0:0:0:0:
296,279,105325,1,8,0:0:0:0:
281,280,105385,1,0,0:0:0:0:
267,283,105445,1,8,0:0:0:0:
254,288,105505,1,0,0:0:0:0:
215,321,105565,5,14,0:0:0:0:
202,326,105625,1,0,0:0:0:0:
188,329,105685,1,8,0:0:0:0:
174,330,105745,1,0,0:0:0:0:
159,328,105805,1,8,0:0:0:0:
146,323,105865,1,0,0:0:0:0:
133,317,105925,1,8,0:0:0:0:
122,308,105985,1,0,0:0:0:0:
115,298,106045,6,0,P|115:274|123:250,7,50,14|0|8|0|8|0|8|0,0:0|0:0|0:0|0:0|0:0|0:0|0:0|0:0,0:0:0:0:
51,191,106525,2,0,P|59:167|59:143,7,50,14|0|8|0|8|0|8|0,0:0|0:0|0:0|0:0|0:0|0:0|0:0|0:0,0:0:0:0:
134,76,107005,5,14,0:0:0:0:
146,69,107065,1,0,0:0:0:0:
160,65,107125,1,8,0:0:0:0:
174,64,107185,1,0,0:0:0:0:
188,65,107245,1,8,0:0:0:0:
202,69,107305,1,0,0:0:0:0:
215,76,107365,1,8,0:0:0:0:
226,84,107425,1,0,0:0:0:0:
244,117,107485,5,14,0:0:0:0:
278,134,107545,1,0,0:0:0:0:
316,129,107605,1,8,0:0:0:0:
343,102,107665,1,0,0:0:0:0:
351,65,107725,1,8,0:0:0:0:
336,30,107785,1,0,0:0:0:0:
303,10,107845,1,8,0:0:0:0:
265,13,107905,1,0,0:0:0:0:
235,37,107965,5,14,0:0:0:0:
253,83,108025,1,0,0:0:0:0:
256,132,108085,1,8,0:0:0:0:
244,181,108145,1,0,0:0:0:0:
223,226,108205,1,8,0:0:0:0:
210,274,108265,1,0,0:0:0:0:
214,323,108325,1,8,0:0:0:0:
232,370,108385,1,0,0:0:0:0:
262,328,108445,5,14,0:0:0:0:
281,313,108505,1,0,0:0:0:0:
303,302,108565,1,8,0:0:0:0:
327,293,108625,1,0,0:0:0:0:
351,289,108685,1,8,0:0:0:0:
376,288,108745,1,0,0:0:0:0:
401,291,108805,1,8,0:0:0:0:
425,297,108865,1,0,0:0:0:0:
403,330,108925,5,14,0:0:0:0:
388,310,108985,1,0,0:0:0:0:
376,288,109045,1,8,0:0:0:0:
368,265,109105,1,0,0:0:0:0:
363,240,109165,1,8,0:0:0:0:
362,215,109225,1,0,0:0:0:0:
365,190,109285,1,8,0:0:0:0:
372,166,109345,1,0,0:0:0:0:
385,145,109405,6,0,B|403:93|403:93|391:38,1,100,4|8,0:0|0:0,0:0:0:0:
235,37,109645,2,8,B|217:89|217:89|229:144,1,100
310,92,109885,1,4,0:0:0:0:
310,92,109945,1,0,0:0:0:0:
310,92,110005,1,8,0:0:0:0:
310,92,110065,1,0,0:0:0:0:
310,92,110125,5,8,0:0:0:0:
115,47,110245,1,8,0:0:0:0:
177,236,110365,2,4,L|170:348,1,100,4|12,0:0|0:0,0:0:0:0:
68,376,110605,2,8,L|61:264,1,100
177,236,110845,6,0,P|226:244|265:278,1,100,4|8,0:0|0:0,0:0:0:0:
326,354,111085,1,8,0:0:0:0:
431,232,111205,1,8,0:0:0:0:
344,81,111325,6,2,P|361:236|436:99,1,412.500015735627,10|2,0:0|0:0,0:0:0:0:
377,157,112045,2,0,B|322:171|322:171|268:153,1,112.500004291535,10|0,0:0|0:0,0:0:0:0:
175,133,112285,2,0,P|118:186|192:227,1,187.500007152558,6|0,0:0|0:0,0:0:0:0:
269,153,112645,2,0,P|241:65|156:40,1,187.500007152558,10|0,0:0|0:0,0:0:0:0:
175,133,113005,2,0,P|176:188|151:237,1,112.500004291535,10|0,0:0|0:0,0:0:0:0:
65,269,113245,2,0,B|74:298|95:317|121:340|163:343|201:330|227:300|239:263|239:263|248:292|241:322|241:322|259:309|271:287|271:287|281:329|317:344,1,412.500015735627,10|0,0:0|0:0,0:0:0:0:
389,331,113965,6,8,P|377:296|350:272,1,75.0000028610231
314,342,114205,2,0,P|401:328|420:242,1,187.500007152558,6|0,0:0|0:0,0:0:0:0:
374,176,114565,2,0,B|366:134|338:111|338:111|366:105|366:105|332:70|337:30,1,187.500007152558,10|0,0:0|0:0,0:0:0:0:
431,36,114925,2,0,P|456:85|447:139,1,112.500004291535,10|0,0:0|0:0,0:0:0:0:
374,176,115165,2,0,B|326:240|246:240|198:176|198:176|150:112|70:112|24:173,1,412.500015735627,10|0,0:0|0:0,0:0:0:0:
109,228,115885,5,8,0:0:0:0:
197,176,116005,1,8,0:0:0:0:
286,124,116125,2,0,P|437:95|386:278,1,412.500015735627,12|0,0:0|0:0,0:0:0:0:
298,298,116845,6,0,L|176:275,1,112.500004291535,10|0,0:0|0:0,0:0:0:0:
94,266,117085,2,0,P|47:314|138:339,1,187.500007152558,10|0,0:0|0:0,0:0:0:0:
187,277,117445,2,0,B|231:218|231:218|211:93,1,187.500007152558,10|0,0:0|0:0,0:0:0:0:
282,38,117805,2,0,B|332:29|332:29|386:58,1,112.500004291535,10|0,0:0|0:0,0:0:0:0:
442,141,118045,2,0,B|418:204|437:286|437:286|390:232|390:232|410:313|373:359,1,350,6|0,0:0|0:0,0:0:0:0:
285,323,119005,6,8,B|224:297|224:297|121:326,1,150.000005722046
179,97,119365,2,8,B|186:162|186:162|263:237,1,150.000005722046
37,302,119725,2,8,B|90:262|90:262|116:158,1,150.000005722046
179,97,120205,6,8,L|283:127,1,100
372,101,120445,1,8,0:0:0:0:
303,28,120565,1,8,0:0:0:0:
246,221,120685,6,8,L|262:346,1,100
341,376,120925,1,8,0:0:0:0:
359,200,121045,2,8,L|375:75,1,100
470,83,121285,1,8,0:0:0:0:
451,181,121405,1,8,0:0:0:0:
303,28,121525,6,8,L|175:16,1,100
73,232,121765,2,0,L|172:222,1,100,8|4,0:0|0:0,0:0:0:0:
278,106,122005,6,8,L|150:94,1,100
48,310,122245,2,8,L|147:300,1,100
242,268,122485,1,8,0:0:0:0:
336,301,122605,1,8,0:0:0:0:
430,268,122725,1,8,0:0:0:0:
464,174,122845,6,0,L|447:75,1,100,10|8,0:0|0:0,0:0:0:0:
356,33,123085,1,8,0:0:0:0:
265,75,123205,1,8,0:0:0:0:
174,33,123325,1,8,0:0:0:0:
83,75,123445,2,8,L|64:199,1,100
104,268,123685,5,8,0:0:0:0:
192,310,123805,1,4,0:0:0:0:
287,288,123925,1,8,0:0:0:0:
348,210,124045,2,8,L|336:96,1,100
171,117,124285,2,8,L|152:241,1,100
192,310,124525,5,8,0:0:0:0:
280,352,124645,1,8,0:0:0:0:
375,330,124765,6,0,L|492:340,1,100,10|8,0:0|0:0,0:0:0:0:
504,140,125005,2,8,L|404:148,1,100
248,201,125245,6,8,L|365:211,1,100
377,11,125485,2,8,L|277:19,1,100
208,92,125725,6,8,B|160:108|160:108|112:87,1,100,4|0,0:0|0:0,0:0:0:0:
162,0,125965,1,8,0:0:0:0:
208,92,126085,1,8,0:0:0:0:
177,187,126205,2,8,L|190:290,1,100
13,381,126445,2,8,L|26:278,1,100
189,286,126685,6,8,B|239:289|239:289|276:326,1,100,4|0,0:0|0:0,0:0:0:0:
377,329,126865,1,2,0:0:0:0:
377,329,126925,2,0,P|406:283|391:212,1,100,4|8,0:0|0:0,0:0:0:0:
347,100,127165,5,4,0:0:0:0:
337,77,127225,1,4,0:0:0:0:
340,52,127285,1,4,0:0:0:0:
356,33,127345,1,4,0:0:0:0:
379,25,127405,1,8,0:0:0:0:
403,31,127465,1,8,0:0:0:0:
421,48,127525,1,4,0:0:0:0:
427,72,127585,1,0,0:0:0:0:
420,95,127645,1,8,0:0:0:0:
401,111,127705,1,8,0:0:0:0:
377,116,127765,6,8,L|273:94,1,100
204,26,128005,1,8,0:0:0:0:
217,226,128125,1,8,0:0:0:0:
142,157,128245,1,8,0:0:0:0:
140,132,128305,1,8,0:0:0:0:
138,107,128365,1,4,0:0:0:0:
132,7,128605,5,8,0:0:0:0:
107,12,128665,1,0,0:0:0:0:
84,23,128725,1,8,0:0:0:0:
65,39,128785,1,0,0:0:0:0:
51,59,128845,1,8,0:0:0:0:
41,82,128905,1,0,0:0:0:0:
38,107,128965,1,8,0:0:0:0:
42,131,129025,1,0,0:0:0:0:
51,155,129085,1,8,0:0:0:0:
66,175,129145,1,0,0:0:0:0:
85,191,129205,1,8,0:0:0:0:
107,201,129265,1,0,0:0:0:0:
132,206,129325,1,8,0:0:0:0:
157,204,129385,1,0,0:0:0:0:
180,196,129445,1,8,0:0:0:0:
201,183,129505,1,0,0:0:0:0:
215,162,129565,6,0,P|229:141|234:114,1,50,14|0,0:0|0:0,0:0:0:0:
324,40,129685,1,8,0:0:0:0:
349,37,129745,1,0,0:0:0:0:
373,42,129805,1,8,0:0:0:0:
395,54,129865,1,0,0:0:0:0:
411,73,129925,1,8,0:0:0:0:
421,96,129985,1,0,0:0:0:0:
422,121,130045,1,8,0:0:0:0:
416,145,130105,1,0,0:0:0:0:
402,165,130165,1,8,0:0:0:0:
382,180,130225,1,0,0:0:0:0:
358,188,130285,1,8,0:0:0:0:
334,188,130345,1,0,0:0:0:0:
310,180,130405,1,8,0:0:0:0:
290,164,130465,1,0,0:0:0:0:
275,142,130525,6,0,P|257:126|234:117,1,50,14|0,0:0|0:0,0:0:0:0:
129,176,130645,1,8,0:0:0:0:
110,192,130705,1,0,0:0:0:0:
96,212,130765,1,8,0:0:0:0:
86,235,130825,1,0,0:0:0:0:
83,260,130885,1,8,0:0:0:0:
87,284,130945,1,0,0:0:0:0:
96,308,131005,1,8,0:0:0:0:
111,328,131065,1,0,0:0:0:0:
130,344,131125,1,8,0:0:0:0:
152,354,131185,1,0,0:0:0:0:
177,359,131245,1,8,0:0:0:0:
202,357,131305,1,0,0:0:0:0:
225,349,131365,1,8,0:0:0:0:
246,336,131425,1,0,0:0:0:0:
260,315,131485,6,0,L|337:307,5,50,14|0|8|0|8|0,0:0|0:0|0:0|0:0|0:0|0:0,0:0:0:0:
182,257,131845,2,0,L|132:251,5,50,14|0|8|0|8|0,0:0|0:0|0:0|0:0|0:0|0:0,0:0:0:0:
260,185,132205,2,0,L|337:177,3,50,14|0|8|0,0:0|0:0|0:0|0:0,0:0:0:0:
422,155,132445,5,14,0:0:0:0:
444,145,132505,1,0,0:0:0:0:
462,128,132565,1,8,0:0:0:0:
474,106,132625,1,0,0:0:0:0:
478,82,132685,1,8,0:0:0:0:
473,57,132745,1,0,0:0:0:0:
461,36,132805,1,8,0:0:0:0:
442,19,132865,1,0,0:0:0:0:
419,10,132925,1,8,0:0:0:0:
394,9,132985,1,0,0:0:0:0:
371,15,133045,1,8,0:0:0:0:
350,30,133105,1,0,0:0:0:0:
336,50,133165,2,0,L|344:113,3,50,12|0|8|0,0:0|0:0|0:0|0:0,0:0:0:0:
242,86,133405,5,12,0:0:0:0:
219,78,133465,1,0,0:0:0:0:
194,79,133525,1,8,0:0:0:0:
171,88,133585,1,0,0:0:0:0:
153,105,133645,1,8,0:0:0:0:
141,127,133705,1,0,0:0:0:0:
138,151,133765,1,8,0:0:0:0:
135,175,133825,1,0,0:0:0:0:
123,197,133885,1,8,0:0:0:0:
105,214,133945,1,0,0:0:0:0:
82,223,134005,1,8,0:0:0:0:
57,224,134065,1,0,0:0:0:0:
33,215,134125,2,0,L|50:149,3,50,12|0|8|0,0:0|0:0|0:0|0:0,0:0:0:0:
138,151,134365,5,12,0:0:0:0:
161,142,134425,1,0,0:0:0:0:
186,141,134485,1,8,0:0:0:0:
211,145,134545,1,0,0:0:0:0:
233,155,134605,1,8,0:0:0:0:
253,171,134665,1,0,0:0:0:0:
268,191,134725,1,8,0:0:0:0:
282,210,134785,1,0,0:0:0:0:
302,226,134845,1,8,0:0:0:0:
325,236,134905,1,0,0:0:0:0:
349,241,134965,1,8,0:0:0:0:
374,239,135025,1,0,0:0:0:0:
398,231,135085,2,0,L|453:249,3,50,12|0|8|0,0:0|0:0|0:0|0:0,0:0:0:0:
418,341,135325,5,12,0:0:0:0:
393,343,135385,1,0,0:0:0:0:
368,339,135445,1,8,0:0:0:0:
345,330,135505,1,0,0:0:0:0:
324,316,135565,1,8,0:0:0:0:
307,298,135625,1,0,0:0:0:0:
295,276,135685,1,8,0:0:0:0:
287,252,135745,1,0,0:0:0:0:
285,227,135805,1,8,0:0:0:0:
289,203,135865,1,0,0:0:0:0:
298,179,135925,1,8,0:0:0:0:
311,157,135985,1,0,0:0:0:0:
330,141,136045,2,0,L|398:133,3,50,12|0|8|0,0:0|0:0|0:0|0:0,0:0:0:0:
230,122,136285,6,8,L|108:111,1,100,12|8,0:0|0:0,0:0:0:0:
27,34,136525,2,8,L|126:25,1,100
129,204,136765,2,8,L|29:195,1,100
127,108,137005,1,8,0:0:0:0:
99,356,137125,1,8,0:0:0:0:
197,268,137245,6,0,P|285:213|354:267,1,200,4|8,0:0|0:0,0:0:0:0:
325,376,137605,2,8,P|289:343|275:296,1,100
343,86,137845,1,8,0:0:0:0:
277,21,137965,2,8,P|248:89|280:157,1,150
428,126,138205,6,0,B|395:79|342:85,1,100,6|8,0:0|0:0,0:0:0:0:
219,223,138445,1,8,0:0:0:0:
237,74,138565,5,8,0:0:0:0:
144,255,138685,1,8,0:0:0:0:
139,105,138805,5,8,0:0:0:0:
92,323,138925,1,8,0:0:0:0:
228,352,139045,5,8,0:0:0:0:
317,247,139165,2,0,P|316:198|293:154,1,100,6|8,0:0|0:0,0:0:0:0:
270,353,139405,5,8,0:0:0:0:
329,229,139525,2,0,P|315:182|281:145,1,100,6|8,0:0|0:0,0:0:0:0:
311,344,139765,5,8,0:0:0:0:
336,209,139885,2,0,P|310:167|269:140,1,100,6|8,0:0|0:0,0:0:0:0:
112,50,140125,2,0,P|97:141|182:177,1,200,6|8,0:0|0:0,0:0:0:0:
355,101,140485,2,0,L|480:113,1,100,8|4,0:0|0:0,0:0:0:0:
348,4,140725,2,8,L|248:13,1,100
162,105,140965,1,8,0:0:0:0:
336,209,141085,6,0,P|379:263|306:349,1,200,4|8,0:0|0:0,0:0:0:0:
103,235,141445,5,8,0:0:0:0:
336,209,141565,1,2,0:0:0:0:
166,370,141685,1,8,0:0:0:0:
209,137,141805,1,8,0:0:0:0:
308,349,141925,1,8,0:0:0:0:
103,235,142045,6,2,L|111:135,1,100,6|2,0:0|0:0,0:0:0:0:
327,109,142285,2,2,L|337:225,1,100,6|2,0:0|0:0,0:0:0:0:
209,136,142525,6,0,P|161:52|67:49,1,200,8|8,0:0|0:0,0:0:0:0:
103,235,142885,1,8,0:0:0:0:
196,151,143005,6,8,P|128:81|36:103,1,200
119,273,143365,1,8,0:0:0:0:
187,167,143485,6,8,P|103:118|21:162,1,200
144,305,143845,1,4,0:0:0:0:
236,20,143965,6,0,B|288:12|288:12|334:24,1,100,8|0,0:0|0:0,0:0:0:0:
425,83,144205,1,4,0:0:0:0:
379,173,144325,2,0,P|417:258|510:250,1,200,0|8,0:0|0:0,0:0:0:0:
296,118,144685,2,0,P|210:155|218:248,1,200,4|8,0:0|0:0,0:0:0:0:
281,198,145045,1,0,0:0:0:0:
108,144,145165,6,0,L|9:154,1,100,4|0,0:0|0:0,0:0:0:0:
36,250,145405,2,0,L|135:260,1,100,0|8,0:0|0:0,0:0:0:0:
101,354,145645,2,0,L|2:364,1,100,4|0,0:0|0:0,0:0:0:0:
135,260,145885,6,0,B|208:256|208:256|250:284|250:284|326:280,1,200,8|4,0:0|0:0,0:0:0:0:
448,355,146245,2,0,B|408:293|408:293|411:242|411:242|370:179,1,200,0|8,0:0|0:0,0:0:0:0:
375,36,146605,2,0,B|341:101|341:101|296:123|296:123|261:191,1,200,4|8,0:0|0:0,0:0:0:0:
370,179,146965,5,0,0:0:0:0:
284,44,147085,2,0,L|181:49,1,100,4|0,0:0|0:0,0:0:0:0:
34,181,147325,2,8,L|133:185,1,100
284,317,147565,2,0,L|181:322,1,100,4|0,0:0|0:0,0:0:0:0:
374,175,147805,6,0,P|462:207|422:339,1,250,14|0,0:0|0:0,0:0:0:0:
311,234,148165,2,0,P|294:140|428:109,1,250,14|0,0:0|0:0,0:0:0:0:
394,258,148525,2,0,P|321:318|227:218,1,250,14|0,0:0|0:0,0:0:0:0:
311,234,148885,5,0,0:0:0:0:
146,295,149005,2,0,L|10:282,1,100,4|0,0:0|0:0,0:0:0:0:
0,153,149245,2,0,L|99:143,1,100,8|8,0:0|0:0,0:0:0:0:
146,10,149485,2,0,L|10:-3,1,100,4|0,0:0|0:0,0:0:0:0:
214,89,149725,2,0,B|294:107|294:107|427:75,1,200,8|4,0:0|0:0,0:0:0:0:
460,198,150085,2,0,B|380:180|380:180|247:212,1,200,8|8,0:0|0:0,0:0:0:0:
293,29,150445,5,4,0:0:0:0:
408,79,150565,1,8,0:0:0:0:
460,198,150685,1,8,0:0:0:0:
408,316,150805,1,4,0:0:0:0:
385,328,150865,1,2,0:0:0:0:
361,334,150925,1,2,0:0:0:0:
336,336,150985,1,2,0:0:0:0:
312,333,151045,1,2,0:0:0:0:
288,325,151105,1,2,0:0:0:0:
267,312,151165,6,0,P|212:300|156:316,1,100,4|8,0:0|0:0,0:0:0:0:
28,260,151405,1,4,0:0:0:0:
92,348,151525,1,4,0:0:0:0:
100,98,151645,6,0,P|102:44|134:7,1,100,8|4,0:0|0:0,0:0:0:0:
321,67,151885,1,8,0:0:0:0:
80,141,152005,6,0,P|68:88|90:44,1,100,4|8,0:0|0:0,0:0:0:0:
286,54,152245,1,4,0:0:0:0:
73,188,152365,6,0,P|48:140|57:92,1,100,8|4,0:0|0:0,0:0:0:0:
249,51,152605,1,8,0:0:0:0:
246,161,152725,1,4,0:0:0:0:
440,115,152845,6,0,P|408:49|352:96,1,150,14|0,0:0|0:0,0:0:0:0:
371,166,153085,2,0,P|390:245|316:318,1,150,14|0,0:0|0:0,0:0:0:0:
265,256,153325,2,0,B|211:230|211:230|117:250,1,150,14|0,0:0|0:0,0:0:0:0:
57,321,153565,6,0,P|125:375|199:304,1,200,14|8,0:0|0:0,0:0:0:0:
101,150,153925,1,4,0:0:0:0:
30,265,154045,6,0,P|82:334|171:285,1,200,8|8,0:0|0:0,0:0:0:0:
117,111,154405,1,4,0:0:0:0:
19,204,154525,6,0,P|51:284|150:260,1,200,8|8,0:0|0:0,0:0:0:0:
142,78,154885,1,4,0:0:0:0:
89,222,155005,1,8,0:0:0:0:
89,222,155065,1,8,0:0:0:0:
89,222,155125,5,4,0:0:0:0:
324,137,155245,1,8,0:0:0:0:
270,280,155365,2,0,L|280:386,1,100,4|8,0:0|0:0,0:0:0:0:
392,339,155605,2,0,L|402:233,1,100,4|8,0:0|0:0,0:0:0:0:
405,214,155785,1,8,0:0:0:0:
408,189,155845,1,4,0:0:0:0:
493,323,155965,5,8,0:0:0:0:
270,280,156085,1,2,0:0:0:0:
246,272,156145,1,2,0:0:0:0:
221,270,156205,1,2,0:0:0:0:
196,273,156265,1,2,0:0:0:0:
173,283,156325,1,2,0:0:0:0:
153,297,156385,1,2,0:0:0:0:
137,317,156445,6,0,P|87:334|37:317,1,100,8|0,0:0|0:0,0:0:0:0:
13,215,156685,1,8,0:0:0:0:
95,142,156805,2,0,B|164:112|164:112|212:124|212:124|284:96,1,200,0|4,0:0|0:0,0:0:0:0:
484,96,157165,2,4,P|488:47|462:6,1,100
370,248,157405,2,0,P|365:297|391:338,1,100,8|0,0:0|0:0,0:0:0:0:
230,73,157885,6,0,B|233:45|207:20|207:20|182:44|184:75|184:75|215:166|162:213,1,262.500010013581
370,248,158365,2,0,B|392:264|426:255|426:255|418:220|390:207|390:207|296:188|282:119,1,262.500010013581
149,283,158845,2,0,B|123:293|114:328|114:328|148:338|174:320|174:320|237:249|304:271,1,262.500010013581
230,73,159325,6,0,L|124:79,1,100,8|4,0:0|0:0,0:0:0:0:
41,30,159565,5,8,0:0:0:0:
96,222,159685,1,4,0:0:0:0:
230,73,159805,1,8,0:0:0:0:
130,78,159925,5,4,0:0:0:0:
185,270,160045,1,8,0:0:0:0:
319,121,160165,1,4,0:0:0:0:
96,222,160285,6,0,P|85:278|103:332,1,100,8|4,0:0|0:0,0:0:0:0:
190,374,160525,1,8,0:0:0:0:
409,169,160645,6,0,P|420:113|402:59,1,100,4|8,0:0|0:0,0:0:0:0:
315,17,160885,1,4,0:0:0:0:
346,229,161005,2,0,P|416:256|483:215,1,150,8|0,0:0|0:0,0:0:0:0:
408,168,161245,6,0,P|365:145|316:148,1,100,8|4,0:0|0:0,0:0:0:0:
184,271,161485,2,0,P|227:294|276:291,1,100,8|4,0:0|0:0,0:0:0:0:
158,129,161725,1,8,0:0:0:0:
79,313,161845,1,4,0:0:0:0:
276,291,161965,2,0,P|340:303|355:379,1,150,8|0,0:0|0:0,0:0:0:0:
184,270,162205,6,0,P|198:223|235:191,1,100,8|4,0:0|0:0,0:0:0:0:
470,147,162445,1,8,0:0:0:0:
415,254,162565,1,4,0:0:0:0:
245,92,162685,2,0,P|196:98|157:128,1,100,8|4,0:0|0:0,0:0:0:0:
344,101,162925,2,0,P|393:94|433:64,1,100,8|4,0:0|0:0,0:0:0:0:
234,191,163165,6,8,P|146:228|68:173,1,200
245,92,163525,2,0,L|387:105,1,100,4|8,0:0|0:0,0:0:0:0:
432,65,163765,1,4,0:0:0:0:
410,222,163885,6,0,P|403:299|454:347,1,150,14|0,0:0|0:0,0:0:0:0:
480,268,164125,2,0,B|410:252|410:252|336:276,1,150,14|0,0:0|0:0,0:0:0:0:
236,287,164365,2,0,P|245:370|307:347,1,150,14|0,0:0|0:0,0:0:0:0:
262,212,164605,2,0,B|251:149|251:149|280:55,1,150,14|0,0:0|0:0,0:0:0:0:
184,13,164845,2,0,B|195:76|195:76|165:169,1,150,14|0,0:0|0:0,0:0:0:0:
23,85,165085,6,0,P|68:66|117:72,1,100,8|4,0:0|0:0,0:0:0:0:
332,152,165325,2,0,P|381:158|426:139,1,100,8|4,0:0|0:0,0:0:0:0:
370,70,165565,1,8,0:0:0:0:
335,276,165685,1,8,0:0:0:0:
463,221,165805,1,8,0:0:0:0:
332,152,165925,6,8,B|279:145|279:145|232:153,1,100
192,366,166165,2,0,B|245:373|245:373|291:364,1,100,4|8,0:0|0:0,0:0:0:0:
236,287,166345,1,8,0:0:0:0:
236,287,166405,2,8,P|176:278|133:298,1,100
83,361,166645,5,8,0:0:0:0:
125,165,166765,1,8,0:0:0:0:
27,265,166885,5,8,0:0:0:0:
15,63,167005,2,0,P|13:39|17:14,3,50,14|0|8|0,0:0|0:0|0:0|0:0,0:0:0:0:
113,42,167245,2,0,P|115:66|111:91,3,50,14|0|8|0,0:0|0:0|0:0|0:0,0:0:0:0:
207,64,167485,2,0,P|204:39|208:14,3,50,14|0|8|0,0:0|0:0|0:0|0:0,0:0:0:0:
304,42,167725,2,0,P|306:66|302:91,3,50,14|0|8|0,0:0|0:0|0:0|0:0,0:0:0:0:
398,64,167965,5,14,0:0:0:0:
421,72,168025,1,0,0:0:0:0:
440,88,168085,1,8,0:0:0:0:
453,110,168145,1,0,0:0:0:0:
457,134,168205,1,8,0:0:0:0:
453,159,168265,1,0,0:0:0:0:
442,181,168325,1,8,0:0:0:0:
423,197,168385,1,0,0:0:0:0:
405,215,168445,5,8,0:0:0:0:
388,234,168505,1,0,0:0:0:0:
378,257,168565,1,8,0:0:0:0:
377,282,168625,1,0,0:0:0:0:
383,306,168685,1,8,0:0:0:0:
398,325,168745,1,0,0:0:0:0:
418,340,168805,1,8,0:0:0:0:
442,347,168865,1,0,0:0:0:0:
466,344,168925,6,0,L|455:258,3,50,14|0|8|0,0:0|0:0|0:0|0:0,0:0:0:0:
311,316,169165,2,0,L|306:404,3,50,14|0|8|0,0:0|0:0|0:0|0:0,0:0:0:0:
159,344,169405,2,0,L|148:258,3,50,14|0|8|0,0:0|0:0|0:0|0:0,0:0:0:0:
4,316,169645,2,0,L|-1:404,3,50,14|0|8|0,0:0|0:0|0:0|0:0,0:0:0:0:
68,243,169885,5,14,0:0:0:0:
79,220,169945,1,0,0:0:0:0:
81,195,170005,1,8,0:0:0:0:
75,171,170065,1,0,0:0:0:0:
62,150,170125,1,8,0:0:0:0:
42,132,170185,1,0,0:0:0:0:
25,115,170245,1,8,0:0:0:0:
15,92,170305,1,0,0:0:0:0:
14,67,170365,1,8,0:0:0:0:
21,43,170425,1,0,0:0:0:0:
36,23,170485,1,8,0:0:0:0:
57,10,170545,1,0,0:0:0:0:
81,4,170605,1,8,0:0:0:0:
105,7,170665,1,0,0:0:0:0:
128,19,170725,1,8,0:0:0:0:
144,37,170785,1,0,0:0:0:0:
150,61,170845,6,0,P|149:85|139:108,3,50,14|0|8|0,0:0|0:0|0:0|0:0,0:0:0:0:
280,57,171085,2,0,P|280:32|290:9,3,50,14|0|8|0,0:0|0:0|0:0|0:0,0:0:0:0:
225,212,171325,2,0,P|235:189|236:165,3,50,14|0|8|0,0:0|0:0|0:0|0:0,0:0:0:0:
366,161,171565,2,0,P|366:136|376:113,3,50,14|0|8|0,0:0|0:0|0:0|0:0,0:0:0:0:
321,269,171805,5,14,0:0:0:0:
306,289,171865,1,0,0:0:0:0:
287,305,171925,1,8,0:0:0:0:
264,317,171985,1,0,0:0:0:0:
240,323,172045,1,8,0:0:0:0:
215,323,172105,1,0,0:0:0:0:
191,319,172165,1,8,0:0:0:0:
168,308,172225,1,0,0:0:0:0:
147,294,172285,1,8,0:0:0:0:
125,282,172345,1,0,0:0:0:0:
100,283,172405,1,8,0:0:0:0:
79,296,172465,1,0,0:0:0:0:
68,318,172525,1,8,0:0:0:0:
69,343,172585,1,0,0:0:0:0:
82,363,172645,1,8,0:0:0:0:
104,374,172705,1,0,0:0:0:0:
129,374,172765,6,8,L|141:237,1,100
216,112,173005,2,8,L|228:249,1,100
128,82,173245,2,0,P|178:28|252:27,1,150,8|0,0:0|0:0,0:0:0:0:
326,95,173485,6,8,B|378:107|378:107|455:91,1,100
381,6,173725,1,8,0:0:0:0:
322,197,173845,1,10,0:0:0:0:
322,197,173905,1,10,0:0:0:0:
322,197,173965,2,0,L|331:304,1,100,10|0,0:0|0:0,0:0:0:0:
426,192,174205,5,8,0:0:0:0:
224,211,174325,1,8,0:0:0:0:
216,112,174445,5,8,0:0:0:0:
14,131,174565,1,8,0:0:0:0:
108,40,174685,5,10,0:0:0:0:
128,228,174805,2,0,L|112:340,1,100,4|8,0:0|0:0,0:0:0:0:
20,247,175045,1,4,0:0:0:0:
224,211,175165,1,8,0:0:0:0:
130,131,175285,1,4,0:0:0:0:
216,311,175405,6,0,L|322:325,1,100,8|4,0:0|0:0,0:0:0:0:
455,120,175645,2,0,L|355:133,1,100,8|4,0:0|0:0,0:0:0:0:
224,211,175885,6,0,L|330:225,1,100,8|4,0:0|0:0,0:0:0:0:
463,20,176125,2,0,L|363:33,1,100,8|4,0:0|0:0,0:0:0:0:
355,133,176365,1,8,0:0:0:0:
463,20,176485,1,4,0:0:0:0:
244,47,176605,5,8,0:0:0:0:
244,47,176725,2,0,B|191:37|191:37|145:44,1,100,4|8,0:0|0:0,0:0:0:0:
52,131,176965,2,0,P|128:220|213:149,1,250,8|0,0:0|0:0,0:0:0:0:
144,44,177325,2,0,P|128:90|133:140,1,100,8|4,0:0|0:0,0:0:0:0:
212,151,177565,5,8,0:0:0:0:
354,133,177685,1,4,0:0:0:0:
278,212,177805,5,8,0:0:0:0:
443,205,177925,1,4,0:0:0:0:
215,280,178045,5,8,0:0:0:0:
404,289,178165,1,4,0:0:0:0:
283,340,178285,5,8,0:0:0:0:
498,369,178405,1,4,0:0:0:0:
443,205,178525,6,0,L|452:106,1,100,8|4,0:0|0:0,0:0:0:0:
349,10,178765,1,8,0:0:0:0:
247,106,178885,2,0,L|256:205,1,100,4|8,0:0|0:0,0:0:0:0:
154,301,179125,1,4,0:0:0:0:
52,205,179245,6,0,B|17:166|17:166|24:52,1,150,14|0,0:0|0:0,0:0:0:0:
192,119,179485,2,0,B|227:158|227:158|221:255,1,150,14|0,0:0|0:0,0:0:0:0:
120,152,179725,2,0,P|120:83|186:40,1,150,14|0,0:0|0:0,0:0:0:0:
124,172,179965,2,0,P|124:241|58:284,1,150,14|0,0:0|0:0,0:0:0:0:
52,205,180205,5,8,0:0:0:0:
221,255,180325,1,4,0:0:0:0:
389,205,180445,2,0,P|461:201|502:260,1,150,14|0,0:0|0:0,0:0:0:0:
333,310,180685,2,0,P|261:313|220:254,1,150,14|0,0:0|0:0,0:0:0:0:
429,268,180925,2,0,B|432:300|424:337|424:337|440:322|440:322|433:351|436:380,1,150,14|0,0:0|0:0,0:0:0:0:
293,247,181165,2,0,B|290:215|298:178|298:178|282:193|282:193|289:164|286:135,1,150,14|0,0:0|0:0,0:0:0:0:
289,110,181405,5,8,0:0:0:0:
298,86,181465,1,0,0:0:0:0:
313,67,181525,1,8,0:0:0:0:
332,51,181585,1,0,0:0:0:0:
355,41,181645,1,8,0:0:0:0:
380,37,181705,1,0,0:0:0:0:
405,40,181765,1,8,0:0:0:0:
428,49,181825,1,0,0:0:0:0:
447,63,181885,5,2,0:0:0:0:
444,75,181945,1,2,0:0:0:0:
442,87,182005,1,2,0:0:0:0:
439,99,182065,1,2,0:0:0:0:
437,112,182125,5,4,0:0:0:0:
459,192,182245,1,8,0:0:0:0:
429,268,182365,1,8,0:0:0:0:
305,318,189085,5,8,0:0:0:0:
272,312,189145,1,8,0:0:0:0:
243,296,189205,1,6,0:0:0:0:
221,271,189265,1,6,0:0:0:0:
209,240,189325,1,8,0:0:0:0:
207,207,189385,1,8,0:0:0:0:
217,175,189445,1,8,0:0:0:0:
307,219,189565,5,4,0:0:0:0:
117,232,189685,1,8,0:0:0:0:
117,232,189745,1,8,0:0:0:0:
117,232,189805,2,8,L|131:340,1,100
307,218,190045,5,8,0:0:0:0:
314,195,190105,1,0,0:0:0:0:
316,170,190165,1,8,0:0:0:0:
312,145,190225,1,0,0:0:0:0:
301,123,190285,1,8,0:0:0:0:
286,103,190345,1,0,0:0:0:0:
266,88,190405,1,8,0:0:0:0:
243,79,190465,1,0,0:0:0:0:
218,75,190525,1,8,0:0:0:0:
193,78,190585,1,0,0:0:0:0:
169,85,190645,1,8,0:0:0:0:
144,90,190705,1,0,0:0:0:0:
119,90,190765,1,8,0:0:0:0:
95,85,190825,1,0,0:0:0:0:
73,73,190885,1,8,0:0:0:0:
54,57,190945,1,0,0:0:0:0:
39,36,191005,5,8,0:0:0:0:
46,61,191065,1,0,0:0:0:0:
50,85,191125,1,8,0:0:0:0:
51,110,191185,1,0,0:0:0:0:
49,135,191245,1,8,0:0:0:0:
43,159,191305,1,0,0:0:0:0:
35,183,191365,1,8,0:0:0:0:
25,206,191425,1,0,0:0:0:0:
16,229,191485,1,8,0:0:0:0:
15,254,191545,1,0,0:0:0:0:
23,277,191605,1,8,0:0:0:0:
39,296,191665,1,0,0:0:0:0:
60,309,191725,1,8,0:0:0:0:
85,314,191785,1,0,0:0:0:0:
109,310,191845,1,8,0:0:0:0:
131,298,191905,1,0,0:0:0:0:
146,278,191965,5,8,0:0:0:0:
134,256,192025,1,0,0:0:0:0:
131,231,192085,1,8,0:0:0:0:
137,207,192145,1,0,0:0:0:0:
151,186,192205,1,8,0:0:0:0:
171,172,192265,1,0,0:0:0:0:
196,166,192325,1,8,0:0:0:0:
220,170,192385,1,0,0:0:0:0:
242,181,192445,1,8,0:0:0:0:
258,200,192505,1,0,0:0:0:0:
267,223,192565,1,8,0:0:0:0:
267,248,192625,1,0,0:0:0:0:
262,273,192685,1,8,0:0:0:0:
258,297,192745,1,0,0:0:0:0:
260,322,192805,1,8,0:0:0:0:
271,344,192865,1,0,0:0:0:0:
289,361,192925,6,0,L|357:354,5,50,8|0|8|0|8|0,0:0|0:0|0:0|0:0|0:0|0:0,0:0:0:0:
482,303,193285,2,0,L|432:297,5,50,8|0|8|0|8|0,0:0|0:0|0:0|0:0|0:0|0:0,0:0:0:0:
363,227,193645,1,8,0:0:0:0:
362,215,193705,1,0,0:0:0:0:
362,203,193765,1,8,0:0:0:0:
365,190,193825,1,0,0:0:0:0:
369,179,193885,5,8,0:0:0:0:
344,172,193945,1,0,0:0:0:0:
323,159,194005,1,8,0:0:0:0:
307,140,194065,1,0,0:0:0:0:
296,118,194125,1,8,0:0:0:0:
293,93,194185,1,0,0:0:0:0:
296,68,194245,1,8,0:0:0:0:
307,46,194305,1,0,0:0:0:0:
323,27,194365,1,8,0:0:0:0:
344,14,194425,1,0,0:0:0:0:
368,7,194485,1,8,0:0:0:0:
393,8,194545,1,0,0:0:0:0:
417,16,194605,1,8,0:0:0:0:
438,30,194665,1,0,0:0:0:0:
453,49,194725,1,8,0:0:0:0:
462,72,194785,1,0,0:0:0:0:
464,97,194845,5,8,0:0:0:0:
443,109,194905,1,0,0:0:0:0:
420,119,194965,1,8,0:0:0:0:
395,124,195025,1,0,0:0:0:0:
371,124,195085,1,8,0:0:0:0:
346,121,195145,1,0,0:0:0:0:
322,113,195205,1,8,0:0:0:0:
300,102,195265,1,0,0:0:0:0:
280,87,195325,1,8,0:0:0:0:
260,71,195385,1,0,0:0:0:0:
237,60,195445,1,8,0:0:0:0:
214,52,195505,1,0,0:0:0:0:
189,49,195565,1,8,0:0:0:0:
164,50,195625,1,0,0:0:0:0:
140,55,195685,1,8,0:0:0:0:
116,64,195745,1,0,0:0:0:0:
95,77,195805,5,8,0:0:0:0:
118,84,195865,1,0,0:0:0:0:
137,100,195925,1,8,0:0:0:0:
148,122,195985,1,0,0:0:0:0:
150,147,196045,1,8,0:0:0:0:
141,170,196105,1,0,0:0:0:0:
124,188,196165,1,8,0:0:0:0:
101,197,196225,1,0,0:0:0:0:
77,205,196285,1,8,0:0:0:0:
55,217,196345,1,0,0:0:0:0:
40,237,196405,1,8,0:0:0:0:
35,261,196465,1,0,0:0:0:0:
39,286,196525,1,8,0:0:0:0:
54,306,196585,1,0,0:0:0:0:
75,318,196645,1,8,0:0:0:0:
100,321,196705,1,0,0:0:0:0:
123,313,196765,5,8,0:0:0:0:
135,315,196825,1,0,0:0:0:0:
147,317,196885,1,8,0:0:0:0:
159,319,196945,1,0,0:0:0:0:
172,321,197005,2,8,L|221:328,3,50,8|8|10|8,0:0|0:0|0:0|0:0,0:0:0:0:
294,255,197245,5,8,0:0:0:0:
282,253,197305,1,0,0:0:0:0:
270,251,197365,1,8,0:0:0:0:
258,249,197425,1,0,0:0:0:0:
245,247,197485,2,10,L|196:240,3,50
221,328,197725,5,8,0:0:0:0:
360,184,197845,1,8,0:0:0:0:
165,136,197965,2,8,L|45:142,1,100
129,3,198205,2,8,L|228:7,1,100
364,33,198445,5,8,0:0:0:0:
364,33,198565,1,8,0:0:0:0:
364,33,198685,2,0,P|412:136|336:186,1,200,14|0,0:0|0:0,0:0:0:0:
337,107,199045,5,8,0:0:0:0:
472,21,199165,1,8,0:0:0:0:
262,8,199285,1,8,0:0:0:0:
359,183,199405,2,8,L|351:282,1,100
442,240,199645,6,0,P|360:182|276:215,1,200,14|0,0:0|0:0,0:0:0:0:
203,278,200005,1,8,0:0:0:0:
108,258,200125,1,8,0:0:0:0:
65,172,200245,1,8,0:0:0:0:
107,85,200365,6,8,L|204:64,1,100
276,215,200605,2,8,L|178:194,1,100,6|8,0:0|0:0,0:0:0:0:
308,85,200845,1,8,0:0:0:0:
350,281,200965,6,0,P|356:331|338:377,1,100,6|8,0:0|0:0,0:0:0:0:
257,317,201205,1,8,0:0:0:0:
444,246,201325,2,0,P|449:196|431:150,1,100,14|8,0:0|0:0,0:0:0:0:
340,107,201565,6,0,L|344:3,1,100,14|0,0:0|0:0,0:0:0:0:
251,50,201805,2,8,L|255:154,1,100
160,107,202045,2,8,L|164:3,1,100
74,50,202285,6,8,L|77:149,1,100
68,243,202525,2,8,P|154:204|160:107,1,200,0|0,0:0|0:0,0:0:0:0:
77,149,202885,1,8,0:0:0:0:
58,328,203005,1,8,0:0:0:0:
3,188,203125,5,8,0:0:0:0:
139,305,203245,2,8,P|189:323|261:300,1,100
289,231,203485,2,8,B|361:202|361:202|400:222|400:222|473:195,1,200
356,291,203845,5,8,0:0:0:0:
408,135,203965,1,8,0:0:0:0:
460,291,204085,1,8,0:0:0:0:
407,134,204205,2,8,B|389:85|389:85|348:59,1,100
308,151,204445,5,8,0:0:0:0:
356,291,204565,1,8,0:0:0:0:
228,137,204685,5,8,0:0:0:0:
240,321,204805,1,8,0:0:0:0:
171,80,204925,5,8,0:0:0:0:
126,307,205045,1,8,0:0:0:0:
136,7,205165,5,8,0:0:0:0:
9,265,205285,1,8,0:0:0:0:
144,200,205405,1,6,0:0:0:0:
265,145,212605,6,0,B|217:138|217:138|311:223,1,175
475,153,213085,2,0,B|504:115|504:115|383:153,1,175
367,326,213565,2,0,B|385:370|385:370|412:246,1,175
265,145,214045,1,14,0:0:0:0:
256,192,214105,12,0,215965,0:0:0:0:
91,21,216925,6,0,B|85:69|85:69|110:128,1,100,6|8,0:0|0:0,0:0:0:0:
272,151,217165,1,8,0:0:0:0:
52,69,217285,6,0,B|58:117|58:117|98:167,1,100,6|8,0:0|0:0,0:0:0:0:
260,148,217525,1,8,0:0:0:0:
27,126,217645,6,0,B|46:170|46:170|97:209,1,100,6|8,0:0|0:0,0:0:0:0:
249,148,217885,1,8,0:0:0:0:
249,148,218005,2,8,L|243:46,1,100
332,3,218245,2,8,L|326:105,1,100
415,148,218485,2,8,L|409:46,1,100
498,5,218725,2,8,L|492:107,1,100
500,204,218965,5,8,0:0:0:0:
415,257,219085,1,8,0:0:0:0:
317,233,219205,1,8,0:0:0:0:
252,156,219325,1,8,0:0:0:0:
213,63,219445,1,8,0:0:0:0:
125,15,219565,1,8,0:0:0:0:
27,39,219685,1,8,0:0:0:0:
213,63,219805,5,2,0:0:0:0:
237,60,219865,1,2,0:0:0:0:
262,58,219925,1,2,0:0:0:0:
287,55,219985,1,2,0:0:0:0:
311,52,220045,6,8,P|332:97|325:146,1,100
203,277,220285,2,8,P|196:326|217:371,1,100
286,244,220525,1,2,0:0:0:0:
275,223,220585,1,2,0:0:0:0:
257,205,220645,1,2,0:0:0:0:
235,192,220705,1,2,0:0:0:0:
211,187,220765,6,8,L|111:194,1,100
11,203,221005,1,8,0:0:0:0:
71,282,221125,1,8,0:0:0:0:
154,100,221245,2,8,L|253:107,1,100
344,64,221485,1,8,0:0:0:0:
357,163,221605,1,8,0:0:0:0:
370,262,221725,5,14,0:0:0:0:
301,355,222445,5,14,0:0:0:0:
344,64,222685,1,14,0:0:0:0:
468,305,223405,5,14,0:0:0:0:
425,14,223645,1,14,0:0:0:0:
507,185,224005,5,14,0:0:0:0:
64,101,224365,1,14,0:0:0:0:
272,141,224605,1,14,0:0:0:0:
273,154,225565,5,8,0:0:0:0:
273,154,225625,1,8,0:0:0:0:
273,154,225685,2,8,L|278:253,1,100
362,199,225925,1,2,0:0:0:0:
183,108,226045,1,8,0:0:0:0:
188,207,226165,1,8,0:0:0:0:
357,100,226285,1,8,0:0:0:0:
178,9,226405,6,0,L|63:26,1,100,4|8,0:0|0:0,0:0:0:0:
104,224,226645,1,8,0:0:0:0:
102,248,226705,1,8,0:0:0:0:
100,273,226765,1,8,0:0:0:0:
17,216,226885,2,8,P|73:140|165:161,1,200
199,255,227245,5,14,0:0:0:0:
17,217,227365,1,14,0:0:0:0:
316,105,227485,1,14,0:0:0:0:
316,105,227965,6,0,B|272:119|232:103|232:103|192:87|144:103,1,175
346,271,228445,2,0,B|355:226|388:199|388:199|422:172|432:123,1,175
187,214,228925,2,0,B|221:244|227:286|227:286|233:329|271:363,1,175
315,104,229405,5,8,0:0:0:0:
307,80,229465,1,0,0:0:0:0:
292,60,229525,1,8,0:0:0:0:
272,45,229585,1,0,0:0:0:0:
248,37,229645,1,8,0:0:0:0:
223,37,229705,1,0,0:0:0:0:
200,44,229765,1,8,0:0:0:0:
179,58,229825,1,0,0:0:0:0:
164,78,229885,5,8,0:0:0:0:
148,97,229945,1,0,0:0:0:0:
128,111,230005,1,8,0:0:0:0:
104,119,230065,1,0,0:0:0:0:
79,118,230125,1,8,0:0:0:0:
56,110,230185,1,0,0:0:0:0:
36,96,230245,1,8,0:0:0:0:
21,76,230305,1,0,0:0:0:0:
13,52,230365,6,0,L|16:3,5,50,14|0|8|0|8|0,0:0|0:0|0:0|0:0|0:0|0:0,0:0:0:0:
121,1,230725,2,0,L|118:50,5,50,14|0|8|0|8|0,0:0|0:0|0:0|0:0|0:0|0:0,0:0:0:0:
222,49,231085,2,0,L|225:0,3,50,14|0|8|0,0:0|0:0|0:0|0:0,0:0:0:0:
336,0,231325,5,14,0:0:0:0:
358,3,231385,1,0,0:0:0:0:
382,10,231445,1,8,0:0:0:0:
401,24,231505,1,0,0:0:0:0:
416,43,231565,1,8,0:0:0:0:
425,66,231625,1,0,0:0:0:0:
428,89,231685,1,8,0:0:0:0:
424,113,231745,1,0,0:0:0:0:
414,135,231805,1,8,0:0:0:0:
399,154,231865,1,0,0:0:0:0:
380,167,231925,1,8,0:0:0:0:
357,176,231985,1,0,0:0:0:0:
333,178,232045,6,0,L|256:163,3,50,12|0|8|0,0:0|0:0|0:0|0:0,0:0:0:0:
211,99,232285,1,12,0:0:0:0:
190,84,232345,1,0,0:0:0:0:
166,80,232405,1,8,0:0:0:0:
142,85,232465,1,0,0:0:0:0:
122,100,232525,1,8,0:0:0:0:
109,121,232585,1,0,0:0:0:0:
107,146,232645,1,8,0:0:0:0:
115,170,232705,1,0,0:0:0:0:
131,188,232765,5,8,0:0:0:0:
150,205,232825,1,0,0:0:0:0:
163,226,232885,1,8,0:0:0:0:
170,250,232945,1,0,0:0:0:0:
171,275,233005,1,8,0:0:0:0:
166,299,233065,1,0,0:0:0:0:
155,322,233125,1,8,0:0:0:0:
139,340,233185,1,0,0:0:0:0:
118,354,233245,6,0,L|68:349,5,50,14|0|8|0|8|0,0:0|0:0|0:0|0:0|0:0|0:0,0:0:0:0:
21,271,233605,2,0,L|70:267,5,50,14|0|8|0|8|0,0:0|0:0|0:0|0:0|0:0|0:0,0:0:0:0:
150,205,233965,6,0,L|156:152,3,50,14|0|8|0,0:0|0:0|0:0|0:0,0:0:0:0:
231,220,234205,2,0,L|236:269,3,50,14|0|8|0,0:0|0:0|0:0|0:0,0:0:0:0:
313,205,234445,2,0,L|319:152,3,50,14|0|8|0,0:0|0:0|0:0|0:0,0:0:0:0:
394,220,234685,2,0,L|399:269,3,50,14|0|8|0,0:0|0:0|0:0|0:0,0:0:0:0:
476,205,234925,2,0,L|482:152,3,50,14|0|8|0,0:0|0:0|0:0|0:0,0:0:0:0:
393,220,235165,5,12,0:0:0:0:
385,243,235225,1,0,0:0:0:0:
370,263,235285,1,8,0:0:0:0:
350,278,235345,1,0,0:0:0:0:
327,285,235405,1,8,0:0:0:0:
302,286,235465,1,0,0:0:0:0:
278,279,235525,1,8,0:0:0:0:
257,265,235585,1,0,0:0:0:0:
242,245,235645,1,8,0:0:0:0:
233,222,235705,1,0,0:0:0:0:
231,197,235765,1,8,0:0:0:0:
237,173,235825,1,0,0:0:0:0:
250,152,235885,2,0,L|249:82,5,50,12|0|8|0|8|0,0:0|0:0|0:0|0:0|0:0|0:0,0:0:0:0:
152,126,236245,6,4,L|52:133,1,100,12|4,0:0|0:0,0:0:0:0:
108,215,236485,1,8,0:0:0:0:
197,36,236605,2,0,P|292:62|250:152,1,225.000008583069
36,135,237085,6,0,B|19:205|19:205|53:274,1,150,14|0,0:0|0:0,0:0:0:0:
133,306,237325,2,0,P|80:355|7:347,1,150,14|0,0:0|0:0,0:0:0:0:
105,195,237565,2,0,B|160:180|160:180|283:208,1,150,14|0,0:0|0:0,0:0:0:0:
278,311,237805,2,0,B|223:326|223:326|100:298,1,150,14|0,0:0|0:0,0:0:0:0:
250,200,238045,6,0,L|247:90,1,100,8|4,0:0|0:0,0:0:0:0:
468,30,238285,2,0,L|465:140,1,100,8|4,0:0|0:0,0:0:0:0:
161,180,238525,6,0,L|158:70,1,100,8|4,0:0|0:0,0:0:0:0:
378,9,238765,2,0,L|376:109,1,100,8|4,0:0|0:0,0:0:0:0:
327,250,239005,6,0,P|320:316|375:379,1,150,14|0,0:0|0:0,0:0:0:0:
405,205,239245,2,0,B|337:170|337:170|249:193,1,150,14|0,0:0|0:0,0:0:0:0:
188,233,239485,2,0,B|256:268|256:268|327:249,1,150,14|0,0:0|0:0,0:0:0:0:
265,188,239725,2,0,B|197:153|197:153|109:176,1,150,14|0,0:0|0:0,0:0:0:0:
86,263,239965,6,0,L|93:362,1,100,8|4,0:0|0:0,0:0:0:0:
0,288,240205,1,8,0:0:0:0:
188,233,240325,1,4,0:0:0:0:
165,330,240445,1,8,0:0:0:0:
11,201,240565,2,0,L|18:101,1,100,4|8,0:0|0:0,0:0:0:0:
4,2,240805,1,4,0:0:0:0:
187,82,240925,6,0,B|245:104|245:104|332:91,1,150,14|0,0:0|0:0,0:0:0:0:
383,28,241165,2,0,P|298:-5|235:56,1,150,14|0,0:0|0:0,0:0:0:0:
291,177,241405,2,0,P|306:255|245:326,1,150,14|0,0:0|0:0,0:0:0:0:
67,250,241645,2,0,B|118:219|118:219|208:233,1,150,14|0,0:0|0:0,0:0:0:0:
270,311,241885,6,0,P|318:327|384:308,1,100,8|4,0:0|0:0,0:0:0:0:
386,184,242125,2,0,P|339:168|290:176,1,100,8|4,0:0|0:0,0:0:0:0:
198,136,242365,1,8,0:0:0:0:
208,233,242485,1,4,0:0:0:0:
290,176,242605,1,8,0:0:0:0:
280,79,242725,1,4,0:0:0:0:
187,39,242845,6,0,P|110:95|118:190,1,200,8|8,0:0|0:0,0:0:0:0:
116,215,243145,1,2,0:0:0:0:
115,240,243205,1,2,0:0:0:0:
113,265,243265,1,2,0:0:0:0:
111,290,243325,6,0,P|44:230|90:145,1,200,8|4,0:0|0:0,0:0:0:0:
102,147,243625,1,4,0:0:0:0:
117,148,243685,1,4,0:0:0:0:
132,149,243745,1,8,0:0:0:0:
147,151,243805,1,8,0:0:0:0:
162,152,243865,1,8,0:0:0:0:
177,153,243925,1,8,0:0:0:0:
192,155,243985,1,8,0:0:0:0:
207,156,244045,1,8,0:0:0:0:
295,203,244165,5,4,0:0:0:0:
383,155,244285,2,0,P|441:158|338:279,1,350,8|8,0:0|0:0,0:0:0:0:
295,203,244765,6,0,P|282:156|295:108,1,100,8|4,0:0|0:0,0:0:0:0:
207,251,245005,1,8,0:0:0:0:
383,155,245125,1,4,0:0:0:0:
193,73,245245,2,0,P|145:60|97:73,1,100,8|4,0:0|0:0,0:0:0:0:
244,5,245485,1,8,0:0:0:0:
37,14,245605,1,4,0:0:0:0:
147,151,245725,6,0,P|160:198|147:246,1,100,8|4,0:0|0:0,0:0:0:0:
61,144,245965,1,8,0:0:0:0:
243,217,246085,1,4,0:0:0:0:
62,276,246205,2,0,P|49:323|62:371,1,100,8|4,0:0|0:0,0:0:0:0:
243,312,246445,1,8,0:0:0:0:
15,210,246565,1,4,0:0:0:0:
148,321,246685,6,0,P|196:329|242:311,1,100,8|4,0:0|0:0,0:0:0:0:
334,192,246925,1,8,0:0:0:0:
147,246,247045,1,4,0:0:0:0:
360,317,247165,1,8,0:0:0:0:
243,217,247285,1,4,0:0:0:0:
412,160,247405,6,0,P|459:146|507:159,1,100,8|4,0:0|0:0,0:0:0:0:
512,80,247645,1,8,0:0:0:0:
344,114,247765,1,4,0:0:0:0:
461,236,247885,1,8,0:0:0:0:
417,39,248005,1,4,0:0:0:0:
248,76,248125,6,0,P|200:89|153:77,1,100,8|4,0:0|0:0,0:0:0:0:
104,0,248365,1,8,0:0:0:0:
324,34,248485,1,4,0:0:0:0:
181,168,248605,6,0,P|167:215|180:263,1,100,8|4,0:0|0:0,0:0:0:0:
95,142,248845,1,8,0:0:0:0:
261,215,248965,1,4,0:0:0:0:
107,309,249085,2,0,P|59:321|11:308,1,100,8|4,0:0|0:0,0:0:0:0:
152,378,249325,1,8,0:0:0:0:
93,222,249445,1,4,0:0:0:0:
295,330,249565,6,0,P|342:342|390:329,1,100,8|4,0:0|0:0,0:0:0:0:
426,203,249805,1,8,0:0:0:0:
512,343,249925,1,4,0:0:0:0:
344,252,250045,6,0,P|330:204|342:156,1,100,8|4,0:0|0:0,0:0:0:0:
495,111,250285,1,8,0:0:0:0:
453,281,250405,1,4,0:0:0:0:
342,156,250525,6,0,P|353:108|340:60,1,100,8|4,0:0|0:0,0:0:0:0:
235,11,250765,1,8,0:0:0:0:
438,33,250885,1,4,0:0:0:0:
265,108,251005,6,0,P|215:110|171:87,1,100,8|4,0:0|0:0,0:0:0:0:
121,11,251245,1,8,0:0:0:0:
324,33,251365,1,4,0:0:0:0:
161,176,251485,6,0,P|153:224|169:271,1,100,8|4,0:0|0:0,0:0:0:0:
246,217,251725,1,8,0:0:0:0:
74,174,251845,1,4,0:0:0:0:
169,271,251965,2,0,P|177:319|161:366,1,100,8|8,0:0|0:0,0:0:0:0:
88,312,252205,1,4,0:0:0:0:
260,355,252325,1,4,0:0:0:0:
188,155,252445,6,0,P|214:85|166:8,1,150,14|0,0:0|0:0,0:0:0:0:
0,41,252685,2,0,B|33:94|33:94|120:89,1,150,14|0,0:0|0:0,0:0:0:0:
305,83,252925,2,0,B|392:78|392:78|425:131,1,150,14|0,0:0|0:0,0:0:0:0:
361,208,253165,2,0,P|331:278|383:355,1,150,14|0,0:0|0:0,0:0:0:0:
512,271,253405,2,0,P|465:256|420:274,1,100,8|4,0:0|0:0,0:0:0:0:
360,340,253645,6,0,P|314:357|267:342,1,100,8|4,0:0|0:0,0:0:0:0:
312,129,253885,2,0,P|350:159|360:207,1,100,8|4,0:0|0:0,0:0:0:0:
155,275,254125,2,0,P|162:226|198:193,1,100,8|4,0:0|0:0,0:0:0:0:
221,106,254365,6,0,P|194:34|124:7,1,150,14|0,0:0|0:0,0:0:0:0:
37,0,254605,2,0,P|61:69|128:100,1,150,14|0,0:0|0:0,0:0:0:0:
312,129,254845,2,0,P|379:153|398:223,1,150,14|0,0:0|0:0,0:0:0:0:
321,208,255085,2,0,L|334:59,1,150,14|0,0:0|0:0,0:0:0:0:
397,223,255325,2,0,P|373:268|329:287,1,100,8|4,0:0|0:0,0:0:0:0:
236,250,255565,6,0,L|126:260,1,100,8|4,0:0|0:0,0:0:0:0:
179,349,255805,2,0,L|278:358,1,100,8|4,0:0|0:0,0:0:0:0:
161,60,256045,2,0,L|51:70,1,100,8|4,0:0|0:0,0:0:0:0:
104,159,256285,2,0,L|203:168,1,100,8|4,0:0|0:0,0:0:0:0:
236,250,256525,5,8,0:0:0:0:
136,259,256645,1,4,0:0:0:0:
262,91,256765,2,0,L|361:98,1,100,8|4,0:0|0:0,0:0:0:0:
320,13,257005,5,8,0:0:0:0:
203,168,257125,1,4,0:0:0:0:
392,185,257245,2,0,L|503:176,1,100,8|4,0:0|0:0,0:0:0:0:
468,274,257485,2,0,L|368:265,1,100,8|4,0:0|0:0,0:0:0:0:
392,362,257725,6,0,L|503:353,1,100,8|4,0:0|0:0,0:0:0:0:
468,97,257965,2,0,L|368:88,1,100,8|4,0:0|0:0,0:0:0:0:
297,18,258205,5,8,0:0:0:0:
236,251,258325,2,0,L|242:353,1,100,4|8,0:0|0:0,0:0:0:0:
84,251,258565,2,0,L|89:151,1,100,4|8,0:0|0:0,0:0:0:0:
0,197,258805,5,4,0:0:0:0:
159,299,258925,1,8,0:0:0:0:
167,108,259045,2,0,P|194:67|240:50,1,100,0|8,0:0|0:0,0:0:0:0:
264,57,259225,1,8,0:0:0:0:
288,64,259285,1,8,0:0:0:0:
312,71,259345,1,4,0:0:0:0:
336,78,259405,1,4,0:0:0:0:
440,23,259525,5,8,0:0:0:0:
413,246,259645,2,8,B|403:288|403:288|421:341,1,100
504,269,259885,2,8,B|514:227|514:227|495:173,1,100
330,309,260125,6,0,L|230:301,1,100,4|8,0:0|0:0,0:0:0:0:
129,293,260365,1,8,0:0:0:0:
172,383,260485,1,8,0:0:0:0:
287,219,260605,6,0,L|187:211,1,100,4|8,0:0|0:0,0:0:0:0:
86,203,260845,1,8,0:0:0:0:
129,293,260965,1,8,0:0:0:0:
244,129,261085,6,0,L|144:121,1,100,4|8,0:0|0:0,0:0:0:0:
43,113,261325,1,8,0:0:0:0:
86,203,261445,1,8,0:0:0:0:
201,39,261565,6,0,L|101:31,1,100,4|8,0:0|0:0,0:0:0:0:
0,23,261805,1,8,0:0:0:0:
43,113,261925,1,8,0:0:0:0:
86,203,262045,6,0,L|75:345,1,100,4|8,0:0|0:0,0:0:0:0:
157,347,262285,1,8,0:0:0:0:
242,317,262405,1,8,0:0:0:0:
282,236,262525,1,8,0:0:0:0:
273,146,262645,1,8,0:0:0:0:
325,73,262765,1,8,0:0:0:0:
414,63,262885,1,8,0:0:0:0:
273,146,263005,5,8,0:0:0:0:
248,143,263065,1,8,0:0:0:0:
223,141,263125,1,8,0:0:0:0:
198,139,263185,1,8,0:0:0:0:
173,137,263245,1,8,0:0:0:0:
76,106,263365,2,8,P|65:58|77:10,1,100
203,41,263605,5,6,0:0:0:0:
173,137,263725,1,6,0:0:0:0:
143,232,263845,1,6,0:0:0:0:
256,192,263905,12,0,264925,0:0:0:0:
