osu file format v14

[General]
AudioFilename: audio.mp3
AudioLeadIn: 0
PreviewTime: 157885
Countdown: 0
SampleSet: Normal
StackLeniency: 0.3
Mode: 0
LetterboxInBreaks: 0
WidescreenStoryboard: 1

[Editor]
Bookmarks: 35965
DistanceSpacing: 3.5
BeatDivisor: 4
GridSize: 4
TimelineZoom: 2.799999

[Metadata]
Title:Shinbatsu o tadori kyo bone ni itaru
TitleUnicode:神罰を辿り狂骨に至る
Artist:Imperial Circus Dead Decadence
ArtistUnicode:Imperial Circus Dead Decadence
Creator:DT-sama
Version:Shingatsu wa Kimi no Uso
Source:
Tags:metal j-metal blackmetal
BeatmapID:1331103
BeatmapSetID:630541

[Difficulty]
HPDrainRate:4
CircleSize:4
OverallDifficulty:9.5
ApproachRate:10
SliderMultiplier:2
SliderTickRate:1

[Events]
//Background and Video events
0,0,"bgg.jpg",0,0
//Break Periods
2,88485,91675
2,92325,93595
2,182565,189595
2,205605,213595
//Storyboard Layer 0 (Background)
//Storyboard Layer 1 (Fail)
//Storyboard Layer 2 (Pass)
//Storyboard Layer 3 (Foreground)
//Storyboard Sound Samples

[TimingPoints]
5485,240,4,1,0,50,1,0
5605,-100,4,1,0,5,0,0
5725,240,4,1,0,50,1,0
16765,-50,4,1,0,50,0,0
17005,-100,4,1,0,5,0,0
17245,-100,4,1,0,50,0,0
18685,-66.6666666666667,4,1,0,50,0,0
18925,-66.6666666666667,4,1,0,5,0,0
19165,-100,4,1,0,50,0,0
33565,-100,4,1,0,50,0,0
33805,-83.3333333333333,4,1,0,50,0,0
34045,-66.6666666666667,4,1,0,50,0,0
34525,-100,4,1,0,50,0,0
40045,-100,4,1,0,50,0,0
56125,-133.333333333333,4,1,0,5,0,0
57565,-83.3333333333333,4,1,0,50,0,1
58525,-66.6666666666667,4,1,0,50,0,1
58765,-83.3333333333333,4,1,0,50,0,1
58945,-83.3333333333333,4,1,0,20,0,1
59005,-83.3333333333333,4,1,0,50,0,1
61705,-100,4,1,0,5,0,1
61765,-100,4,1,0,50,0,1
62005,-100,4,1,0,5,0,1
62125,-100,4,1,0,50,0,1
67165,-100,4,1,0,50,0,1
71005,-100,4,1,0,5,0,0
72925,-100,4,1,0,50,0,1
88285,-100,4,1,0,50,0,0
96445,-100,4,1,0,50,0,1
96565,-100,4,1,0,5,0,1
96685,-100,4,1,0,50,0,1
96805,-100,4,1,0,5,0,1
96925,-100,4,1,0,50,0,1
102925,-66.6666666666667,4,1,0,50,0,1
103645,-100,4,1,0,50,0,1
111325,-133.333333333333,4,1,0,50,0,0
119005,-133.333333333333,4,1,0,50,0,0
120205,-100,4,1,0,50,0,0
126685,-100,4,1,0,50,0,0
136285,-100,4,1,0,50,0,0
143965,-90.9090909090909,4,1,0,50,0,0
147205,-66.6666666666667,4,1,0,50,0,0
147445,-100,4,1,0,50,0,0
159325,-83.3333333333333,4,1,0,50,0,1
161845,-83.3333333333333,4,1,0,5,0,1
161965,-83.3333333333333,4,1,0,50,0,1
162085,-100,4,1,0,5,0,1
162205,-58.8235294117647,4,1,0,50,0,1
166045,-90.9090909090909,4,1,0,50,0,1
169885,-83.3333333333333,4,1,0,50,0,1
172285,-76.9230769230769,4,1,0,50,0,1
174685,-100,4,1,0,50,0,0
179965,-66.6666666666667,4,1,0,50,0,0
181405,-100,4,1,0,50,0,0
182365,-100,4,1,0,50,0,0
190045,-100,4,1,0,50,0,0
197725,-100,4,1,0,50,0,0
205405,-100,4,1,0,50,0,0
214045,-100,4,1,0,50,0,0
229405,-100,4,1,0,50,0,1
244285,-100,4,1,0,50,0,1
244765,-100,4,1,0,50,0,0
245245,-100,4,1,0,50,0,0
255325,-133.333333333333,4,1,0,50,0,0
256045,-100,4,1,0,50,0,0
264865,-100,4,2,0,5,0,0

[HitObjects]
464,32,5485,6,0,L|464:140,1,100
52,352,5725,5,0,0:0:0:0:
52,340,5785,1,0,0:0:0:0:
52,328,5845,1,0,0:0:0:0:
52,316,5905,1,0,0:0:0:0:
88,272,5965,5,0,0:0:0:0:
99,293,6025,1,0,0:0:0:0:
96,318,6085,1,0,0:0:0:0:
81,337,6145,1,0,0:0:0:0:
57,345,6205,1,0,0:0:0:0:
34,339,6265,1,0,0:0:0:0:
17,321,6325,1,0,0:0:0:0:
14,296,6385,1,0,0:0:0:0:
56,292,6445,5,0,0:0:0:0:
79,286,6505,1,0,0:0:0:0:
96,268,6565,1,0,0:0:0:0:
99,243,6625,1,0,0:0:0:0:
36,240,6685,5,0,0:0:0:0:
40,192,6745,1,0,0:0:0:0:
76,156,6805,1,0,0:0:0:0:
124,152,6865,1,0,0:0:0:0:
100,216,6925,1,0,0:0:0:0:
128,256,6985,1,0,0:0:0:0:
172,280,7045,1,0,0:0:0:0:
220,268,7105,1,0,0:0:0:0:
252,228,7165,5,0,0:0:0:0:
260,236,7225,1,0,0:0:0:0:
268,244,7285,1,0,0:0:0:0:
276,252,7345,1,0,0:0:0:0:
284,260,7405,1,0,0:0:0:0:
292,268,7465,1,0,0:0:0:0:
300,276,7525,1,0,0:0:0:0:
308,284,7585,1,0,0:0:0:0:
316,292,7645,5,0,0:0:0:0:
112,72,7765,1,0,0:0:0:0:
196,292,7885,5,0,0:0:0:0:
400,72,8005,1,0,0:0:0:0:
196,92,8125,5,0,0:0:0:0:
400,312,8245,1,0,0:0:0:0:
316,92,8365,5,0,0:0:0:0:
112,312,8485,1,0,0:0:0:0:
256,156,8605,5,0,0:0:0:0:
256,172,8665,1,0,0:0:0:0:
256,188,8725,1,0,0:0:0:0:
256,204,8785,1,0,0:0:0:0:
256,220,8845,1,0,0:0:0:0:
256,236,8905,1,0,0:0:0:0:
256,252,8965,1,0,0:0:0:0:
256,268,9025,1,0,0:0:0:0:
255,287,9085,6,0,P|369:313|300:219,1,300
316,280,9565,5,0,0:0:0:0:
260,140,9685,1,0,0:0:0:0:
392,188,9805,1,0,0:0:0:0:
336,48,9925,1,0,0:0:0:0:
176,256,10045,6,0,P|120:208|100:152,1,100
392,188,10285,2,0,P|448:236|468:292,1,100
224,64,10525,5,0,0:0:0:0:
76,64,10645,1,0,0:0:0:0:
72,144,10765,5,0,0:0:0:0:
232,84,10885,1,0,0:0:0:0:
240,104,11005,5,0,0:0:0:0:
92,236,11125,1,0,0:0:0:0:
284,296,11245,1,0,0:0:0:0:
332,292,11305,1,0,0:0:0:0:
360,264,11365,1,0,0:0:0:0:
368,236,11425,1,0,0:0:0:0:
364,216,11485,6,0,P|356:156|404:88,1,100
148,168,11725,2,0,P|156:228|108:296,1,100
448,180,11965,5,0,0:0:0:0:
68,220,12085,1,0,0:0:0:0:
448,180,12205,1,0,0:0:0:0:
68,220,12325,1,0,0:0:0:0:
378,51,12445,5,0,0:0:0:0:
137,348,12565,1,0,0:0:0:0:
243,6,12685,1,0,0:0:0:0:
283,386,12805,1,0,0:0:0:0:
115,69,12925,5,0,0:0:0:0:
115,69,12985,1,0,0:0:0:0:
115,69,13045,1,0,0:0:0:0:
132,88,13105,1,0,0:0:0:0:
152,104,13165,1,0,0:0:0:0:
176,128,13225,1,0,0:0:0:0:
212,160,13285,1,0,0:0:0:0:
260,196,13345,1,0,0:0:0:0:
316,240,13405,5,0,0:0:0:0:
176,256,13525,1,0,0:0:0:0:
316,240,13645,5,0,0:0:0:0:
76,164,13765,1,0,0:0:0:0:
316,240,13885,5,0,0:0:0:0:
92,40,14005,1,0,0:0:0:0:
196,240,14125,5,0,0:0:0:0:
420,40,14245,1,0,0:0:0:0:
476,336,14365,5,0,0:0:0:0:
376,320,14425,1,0,0:0:0:0:
388,220,14485,1,0,0:0:0:0:
488,236,14545,1,0,0:0:0:0:
476,336,14605,5,0,0:0:0:0:
424,308,14665,1,0,0:0:0:0:
364,312,14725,1,0,0:0:0:0:
312,340,14785,1,0,0:0:0:0:
252,348,14845,1,0,0:0:0:0:
200,316,14905,1,0,0:0:0:0:
184,256,14965,5,0,0:0:0:0:
284,188,15085,1,0,0:0:0:0:
404,184,15205,1,0,0:0:0:0:
448,72,15325,5,0,0:0:0:0:
420,52,15385,1,0,0:0:0:0:
384,44,15445,1,0,0:0:0:0:
348,48,15505,1,0,0:0:0:0:
292,144,15565,5,0,0:0:0:0:
316,144,15625,1,0,0:0:0:0:
340,136,15685,1,0,0:0:0:0:
360,120,15745,1,0,0:0:0:0:
292,76,15805,5,0,0:0:0:0:
272,60,15865,1,0,0:0:0:0:
248,48,15925,1,0,0:0:0:0:
224,40,15985,1,0,0:0:0:0:
200,40,16045,1,0,0:0:0:0:
176,48,16105,1,0,0:0:0:0:
152,60,16165,1,0,0:0:0:0:
132,76,16225,1,0,0:0:0:0:
101,160,16285,5,0,0:0:0:0:
138,162,16345,1,0,0:0:0:0:
172,150,16405,1,0,0:0:0:0:
200,124,16465,1,0,0:0:0:0:
47,99,16525,1,0,0:0:0:0:
23,128,16585,1,0,0:0:0:0:
16,165,16645,1,0,0:0:0:0:
23,201,16705,1,0,0:0:0:0:
100,252,16765,6,0,B|148:252|188:224|188:224|212:288|212:288|300:236|352:336|376:284|376:284|376:268|376:268|384:280|384:280|384:268|384:268|392:280|392:280|392:268|392:268|400:276|400:276|400:268|400:268|408:272|408:272|412:268|412:268|408:272|408:272|400:268|400:268|400:276|400:276|392:268|392:268|392:280|392:280|384:268|384:268|384:280|384:280|376:268|376:268|376:284|376:284|468:244|472:184,1,600
400,168,17245,5,0,0:0:0:0:
388,151,17305,1,0,0:0:0:0:
375,136,17365,1,0,0:0:0:0:
361,122,17425,1,0,0:0:0:0:
345,110,17485,1,0,0:0:0:0:
328,99,17545,1,0,0:0:0:0:
310,91,17605,1,0,0:0:0:0:
291,84,17665,1,0,0:0:0:0:
271,80,17725,1,0,0:0:0:0:
251,78,17785,1,0,0:0:0:0:
231,78,17845,1,0,0:0:0:0:
211,80,17905,1,0,0:0:0:0:
191,85,17965,1,0,0:0:0:0:
172,91,18025,1,0,0:0:0:0:
154,100,18085,1,0,0:0:0:0:
137,110,18145,1,0,0:0:0:0:
120,124,18205,5,0,0:0:0:0:
196,308,18325,1,0,0:0:0:0:
380,232,18445,1,0,0:0:0:0:
304,48,18565,1,0,0:0:0:0:
80,244,18685,6,0,B|136:228|140:188|140:188|200:236|200:236|208:176|260:152|312:188|324:136|324:136|384:140|384:140|392:108|424:84,1,450.000017166138
488,164,19165,5,0,0:0:0:0:
488,188,19225,1,0,0:0:0:0:
480,212,19285,1,0,0:0:0:0:
464,232,19345,1,0,0:0:0:0:
416,180,19405,5,0,0:0:0:0:
396,199,19465,1,0,0:0:0:0:
384,228,19525,1,0,0:0:0:0:
387,259,19585,1,0,0:0:0:0:
404,281,19645,1,0,0:0:0:0:
430,295,19705,1,0,0:0:0:0:
461,298,19765,1,0,0:0:0:0:
489,287,19825,1,0,0:0:0:0:
440,245,19885,5,0,0:0:0:0:
404,281,19945,1,0,0:0:0:0:
356,280,20005,1,0,0:0:0:0:
316,248,20065,1,0,0:0:0:0:
272,176,20125,6,0,L|292:116,3,50
84,272,20365,2,0,L|64:332,3,50
224,332,20605,5,0,0:0:0:0:
200,288,20665,1,0,0:0:0:0:
176,244,20725,1,0,0:0:0:0:
152,200,20785,1,0,0:0:0:0:
132,156,20845,1,0,0:0:0:0:
108,112,20905,1,0,0:0:0:0:
88,68,20965,1,0,0:0:0:0:
208,76,21085,5,0,0:0:0:0:
312,136,21205,1,0,0:0:0:0:
300,256,21325,1,0,0:0:0:0:
392,332,21445,1,0,0:0:0:0:
412,212,21565,5,0,0:0:0:0:
200,320,21685,1,0,0:0:0:0:
300,256,21805,1,0,0:0:0:0:
108,244,21925,1,0,0:0:0:0:
120,52,22045,5,0,0:0:0:0:
312,64,22165,1,0,0:0:0:0:
300,256,22285,1,0,0:0:0:0:
108,244,22405,1,0,0:0:0:0:
216,96,22525,5,0,0:0:0:0:
224,144,22585,1,0,0:0:0:0:
268,168,22645,1,0,0:0:0:0:
316,164,22705,1,0,0:0:0:0:
364,176,22765,1,0,0:0:0:0:
392,220,22825,1,0,0:0:0:0:
372,264,22885,1,0,0:0:0:0:
40,352,23005,5,0,0:0:0:0:
40,352,23125,1,0,0:0:0:0:
444,144,23965,5,0,0:0:0:0:
444,144,24085,1,0,0:0:0:0:
100,208,24445,5,0,0:0:0:0:
100,208,24505,1,0,0:0:0:0:
100,208,24565,1,0,0:0:0:0:
100,208,24685,1,0,0:0:0:0:
464,344,24925,5,0,0:0:0:0:
188,56,25045,1,0,0:0:0:0:
405,101,25165,5,0,0:0:0:0:
204,294,25285,1,0,0:0:0:0:
293,103,25405,5,0,0:0:0:0:
289,298,25525,1,0,0:0:0:0:
494,196,25645,5,0,0:0:0:0:
112,188,25765,1,0,0:0:0:0:
289,298,25885,5,0,0:0:0:0:
98,99,26005,1,0,0:0:0:0:
293,103,26125,1,0,0:0:0:0:
94,294,26245,1,0,0:0:0:0:
192,40,26365,5,0,0:0:0:0:
192,88,26425,1,0,0:0:0:0:
192,136,26485,1,0,0:0:0:0:
192,184,26545,1,0,0:0:0:0:
192,232,26605,1,0,0:0:0:0:
192,280,26665,1,0,0:0:0:0:
192,328,26725,1,0,0:0:0:0:
368,208,26845,5,0,0:0:0:0:
336,172,26905,1,0,0:0:0:0:
288,160,26965,1,0,0:0:0:0:
244,184,27025,1,0,0:0:0:0:
228,232,27085,1,0,0:0:0:0:
248,276,27145,1,0,0:0:0:0:
292,296,27205,1,0,0:0:0:0:
340,288,27265,1,0,0:0:0:0:
300,232,27325,5,0,0:0:0:0:
297,279,27385,1,0,0:0:0:0:
322,322,27445,1,0,0:0:0:0:
370,336,27505,1,0,0:0:0:0:
415,314,27565,1,0,0:0:0:0:
432,268,27625,1,0,0:0:0:0:
415,223,27685,1,0,0:0:0:0:
376,195,27745,1,0,0:0:0:0:
364,264,27805,5,0,0:0:0:0:
412,266,27865,1,0,0:0:0:0:
454,241,27925,1,0,0:0:0:0:
468,193,27985,1,0,0:0:0:0:
446,148,28045,1,0,0:0:0:0:
400,131,28105,1,0,0:0:0:0:
355,148,28165,1,0,0:0:0:0:
327,187,28225,1,0,0:0:0:0:
312,236,28285,5,0,0:0:0:0:
279,271,28345,1,0,0:0:0:0:
232,283,28405,1,0,0:0:0:0:
188,259,28465,1,0,0:0:0:0:
171,211,28525,1,0,0:0:0:0:
192,167,28585,1,0,0:0:0:0:
236,147,28645,1,0,0:0:0:0:
283,155,28705,1,0,0:0:0:0:
327,187,28765,5,0,0:0:0:0:
68,36,28885,1,0,0:0:0:0:
185,187,29005,5,0,0:0:0:0:
444,36,29125,1,0,0:0:0:0:
327,187,29245,5,0,0:0:0:0:
68,338,29365,1,0,0:0:0:0:
185,187,29485,5,0,0:0:0:0:
444,338,29605,1,0,0:0:0:0:
256,24,29725,5,0,0:0:0:0:
256,360,29845,5,0,0:0:0:0:
424,192,29965,5,0,0:0:0:0:
88,192,30085,5,0,0:0:0:0:
256,24,30205,5,0,0:0:0:0:
236,52,30265,1,0,0:0:0:0:
228,88,30325,1,0,0:0:0:0:
232,124,30385,1,0,0:0:0:0:
244,156,30445,1,0,0:0:0:0:
252,188,30505,1,0,0:0:0:0:
248,224,30565,1,0,0:0:0:0:
236,256,30625,1,0,0:0:0:0:
212,280,30685,5,0,0:0:0:0:
72,228,30805,1,0,0:0:0:0:
76,80,30925,1,0,0:0:0:0:
212,16,31045,1,0,0:0:0:0:
116,348,31165,5,0,0:0:0:0:
194,137,31285,1,0,0:0:0:0:
416,143,31405,1,0,0:0:0:0:
512,348,31525,1,0,0:0:0:0:
16,200,31645,5,0,0:0:0:0:
76,200,31705,1,0,0:0:0:0:
128,228,31765,1,0,0:0:0:0:
152,284,31825,1,0,0:0:0:0:
180,336,31885,1,0,0:0:0:0:
236,356,31945,1,0,0:0:0:0:
296,344,32005,1,0,0:0:0:0:
332,296,32065,1,0,0:0:0:0:
308,216,32125,5,0,0:0:0:0:
347,211,32185,1,0,0:0:0:0:
383,228,32245,1,0,0:0:0:0:
412,258,32305,1,0,0:0:0:0:
240,276,32365,1,0,0:0:0:0:
224,240,32425,1,0,0:0:0:0:
228,200,32485,1,0,0:0:0:0:
248,164,32545,1,0,0:0:0:0:
284,144,32605,5,0,0:0:0:0:
404,140,32725,1,0,0:0:0:0:
484,52,32845,1,0,0:0:0:0:
484,52,32965,1,0,0:0:0:0:
200,56,33085,5,0,0:0:0:0:
80,240,33325,1,0,0:0:0:0:
88,120,33445,1,0,0:0:0:0:
200,56,33565,6,0,P|264:56|296:76,1,100
452,232,33805,6,0,P|388:232|332:196,1,119.999996337891
80,240,34045,6,0,B|160:236|216:296|216:296|276:360|404:352,1,300.000011444092
349,351,34405,1,0,0:0:0:0:
416,128,34525,5,0,0:0:0:0:
416,128,34645,1,0,0:0:0:0:
324,204,34765,1,0,0:0:0:0:
260,56,34885,1,0,0:0:0:0:
496,256,35125,5,0,0:0:0:0:
496,256,35245,1,0,0:0:0:0:
324,204,35365,1,0,0:0:0:0:
260,56,35485,5,0,0:0:0:0:
136,156,35605,1,0,0:0:0:0:
422,187,35725,5,0,0:0:0:0:
260,56,35845,1,0,0:0:0:0:
265,381,35965,5,0,0:0:0:0:
422,187,36085,1,0,0:0:0:0:
7,172,36205,5,0,0:0:0:0:
265,381,36325,1,0,0:0:0:0:
512,172,36445,5,0,0:0:0:0:
119,354,36565,1,0,0:0:0:0:
0,172,36685,5,0,0:0:0:0:
393,354,36805,1,0,0:0:0:0:
512,212,36925,5,0,0:0:0:0:
119,30,37045,1,0,0:0:0:0:
0,212,37165,5,0,0:0:0:0:
393,30,37285,1,0,0:0:0:0:
256,333,37405,5,0,0:0:0:0:
114,191,37525,1,0,0:0:0:0:
397,192,37645,1,0,0:0:0:0:
256,50,37765,1,0,0:0:0:0:
406,42,37885,5,0,0:0:0:0:
105,341,38005,1,0,0:0:0:0:
405,342,38125,1,0,0:0:0:0:
105,41,38245,1,0,0:0:0:0:
256,344,38365,5,0,0:0:0:0:
64,192,38485,1,0,0:0:0:0:
256,344,38605,5,0,0:0:0:0:
448,192,38725,1,0,0:0:0:0:
64,192,38845,5,0,0:0:0:0:
256,40,38965,1,0,0:0:0:0:
448,192,39085,5,0,0:0:0:0:
256,40,39205,1,0,0:0:0:0:
256,192,39325,5,0,0:0:0:0:
256,192,39445,1,0,0:0:0:0:
216,250,39565,1,0,0:0:0:0:
197,152,39685,1,0,0:0:0:0:
295,133,39805,1,0,0:0:0:0:
314,231,39925,1,0,0:0:0:0:
197,231,40045,5,0,0:0:0:0:
295,250,40165,1,0,0:0:0:0:
314,152,40285,1,0,0:0:0:0:
216,133,40345,1,0,0:0:0:0:
256,192,40405,5,0,0:0:0:0:
256,192,40465,1,0,0:0:0:0:
256,192,40525,1,0,0:0:0:0:
256,192,40585,1,0,0:0:0:0:
256,192,40645,5,0,0:0:0:0:
270,205,40705,1,0,0:0:0:0:
285,218,40765,1,0,0:0:0:0:
302,229,40825,1,0,0:0:0:0:
320,239,40885,1,0,0:0:0:0:
338,247,40945,1,0,0:0:0:0:
357,253,41005,1,0,0:0:0:0:
376,257,41065,1,0,0:0:0:0:
396,260,41125,6,0,P|424:252|448:232,1,50
368,36,41245,1,0,0:0:0:0:
336,100,41305,1,0,0:0:0:0:
394,171,41365,5,0,0:0:0:0:
394,171,41425,1,0,0:0:0:0:
394,171,41485,1,0,0:0:0:0:
394,171,41545,1,0,0:0:0:0:
394,171,41605,5,0,0:0:0:0:
380,185,41665,1,0,0:0:0:0:
364,197,41755,1,0,0:0:0:0:
348,209,41785,1,0,0:0:0:0:
330,218,41845,1,0,0:0:0:0:
312,226,41905,1,0,0:0:0:0:
293,232,41965,1,0,0:0:0:0:
273,237,42025,1,0,0:0:0:0:
254,239,42085,6,0,P|226:231|202:211,1,50
112,96,42205,5,0,0:0:0:0:
128,148,42265,1,0,0:0:0:0:
120,204,42325,1,0,0:0:0:0:
72,232,42385,1,0,0:0:0:0:
28,268,42445,5,0,0:0:0:0:
80,252,42505,1,0,0:0:0:0:
136,260,42565,1,0,0:0:0:0:
176,300,42625,1,0,0:0:0:0:
200,348,42685,1,0,0:0:0:0:
252,368,42745,1,0,0:0:0:0:
304,352,42805,1,0,0:0:0:0:
332,304,42865,1,0,0:0:0:0:
324,244,42925,6,0,L|300:196,3,50
408,64,43165,5,0,0:0:0:0:
388,84,43225,1,0,0:0:0:0:
360,100,43285,1,0,0:0:0:0:
332,108,43345,1,0,0:0:0:0:
304,108,43405,1,0,0:0:0:0:
276,104,43465,1,0,0:0:0:0:
232,20,43525,5,0,0:0:0:0:
212,40,43585,1,0,0:0:0:0:
196,68,43645,1,0,0:0:0:0:
188,96,43705,1,0,0:0:0:0:
188,124,43765,1,0,0:0:0:0:
192,152,43825,1,0,0:0:0:0:
204,248,43885,5,0,0:0:0:0:
229,235,43945,1,0,0:0:0:0:
253,213,44005,1,0,0:0:0:0:
269,189,44065,1,0,0:0:0:0:
116,212,44125,6,0,L|52:220,7,50
148,312,44605,5,0,0:0:0:0:
160,320,44665,1,0,0:0:0:0:
176,324,44725,1,0,0:0:0:0:
192,324,44785,1,0,0:0:0:0:
204,320,44845,1,0,0:0:0:0:
220,316,44905,1,0,0:0:0:0:
248,304,44965,2,0,P|280:304|308:312,1,50
408,328,45085,6,0,L|468:368,7,50
376,240,45565,5,0,0:0:0:0:
364,216,45625,1,0,0:0:0:0:
360,192,45685,1,0,0:0:0:0:
360,168,45745,1,0,0:0:0:0:
356,144,45805,1,0,0:0:0:0:
344,120,45865,1,0,0:0:0:0:
316,96,45925,2,0,P|292:80|264:44,1,50
184,24,46045,5,0,0:0:0:0:
136,28,46105,1,0,0:0:0:0:
100,64,46165,1,0,0:0:0:0:
84,112,46225,1,0,0:0:0:0:
104,156,46285,1,0,0:0:0:0:
104,204,46345,1,0,0:0:0:0:
76,244,46405,1,0,0:0:0:0:
28,260,46465,1,0,0:0:0:0:
20,172,46525,5,0,0:0:0:0:
84,172,46585,1,0,0:0:0:0:
132,216,46645,1,0,0:0:0:0:
136,280,46705,1,0,0:0:0:0:
72,336,46765,6,0,L|36:376,3,50
136,280,47005,5,0,0:0:0:0:
196,252,47065,1,0,0:0:0:0:
260,260,47125,1,0,0:0:0:0:
312,300,47185,1,0,0:0:0:0:
368,332,47245,1,0,0:0:0:0:
432,328,47305,1,0,0:0:0:0:
480,288,47365,1,0,0:0:0:0:
480,224,47425,1,0,0:0:0:0:
440,152,47485,6,0,L|464:88,7,50
352,180,47965,5,0,0:0:0:0:
208,220,48085,1,0,0:0:0:0:
96,124,48205,1,0,0:0:0:0:
20,252,48325,1,0,0:0:0:0:
128,356,48445,1,0,0:0:0:0:
208,220,48565,1,0,0:0:0:0:
352,176,48685,1,0,0:0:0:0:
492,232,48805,1,0,0:0:0:0:
244,28,48925,5,0,0:0:0:0:
72,132,49045,1,0,0:0:0:0:
176,304,49165,1,0,0:0:0:0:
348,200,49285,1,0,0:0:0:0:
121,20,49405,5,0,0:0:0:0:
64,254,49525,1,0,0:0:0:0:
298,311,49645,1,0,0:0:0:0:
355,77,49765,1,0,0:0:0:0:
127,145,49885,5,0,0:0:0:0:
189,248,50005,1,0,0:0:0:0:
292,186,50125,1,0,0:0:0:0:
230,83,50245,1,0,0:0:0:0:
64,254,50365,5,0,0:0:0:0:
298,311,50485,1,0,0:0:0:0:
355,77,50605,1,0,0:0:0:0:
121,20,50725,1,0,0:0:0:0:
189,248,50845,5,0,0:0:0:0:
292,186,50965,1,0,0:0:0:0:
230,83,51085,1,0,0:0:0:0:
127,145,51205,1,0,0:0:0:0:
458,145,51325,5,0,0:0:0:0:
355,83,51445,1,0,0:0:0:0:
292,186,51565,1,0,0:0:0:0:
396,249,51685,1,0,0:0:0:0:
236,314,51805,5,0,0:0:0:0:
133,172,51925,1,0,0:0:0:0:
378,211,52045,1,0,0:0:0:0:
275,69,52165,1,0,0:0:0:0:
195,327,52285,5,0,0:0:0:0:
120,131,52405,1,0,0:0:0:0:
391,252,52525,1,0,0:0:0:0:
316,56,52645,1,0,0:0:0:0:
143,330,52765,5,0,0:0:0:0:
117,79,52885,1,0,0:0:0:0:
394,304,53005,1,0,0:0:0:0:
368,53,53125,1,0,0:0:0:0:
83,317,53245,5,0,0:0:0:0:
130,19,53365,1,0,0:0:0:0:
381,364,53485,1,0,0:0:0:0:
428,66,53605,1,0,0:0:0:0:
13,372,53725,5,0,0:0:0:0:
71,11,53845,1,0,0:0:0:0:
148,376,53965,5,0,0:0:0:0:
205,15,54085,1,0,0:0:0:0:
284,380,54205,5,0,0:0:0:0:
341,19,54325,1,0,0:0:0:0:
432,384,54445,5,0,0:0:0:0:
489,23,54565,1,0,0:0:0:0:
256,128,54685,5,0,0:0:0:0:
192,184,54805,1,0,0:0:0:0:
228,256,54925,1,0,0:0:0:0:
272,260,55045,1,0,0:0:0:0:
304,232,55165,1,0,0:0:0:0:
292,204,55285,1,0,0:0:0:0:
272,196,55405,1,0,0:0:0:0:
260,200,55525,1,0,0:0:0:0:
256,192,56125,12,0,57445,0:0:0:0:
408,356,57565,6,0,P|280:276|248:192,1,239.999992675781
448,132,57925,1,0,0:0:0:0:
348,148,58045,1,0,0:0:0:0:
264,92,58165,1,0,0:0:0:0:
24,176,58285,2,0,P|72:148|160:152,1,119.999996337891
123,327,58525,6,0,P|132:218|76:312,1,300.000011444092
336,316,58885,6,0,P|336:248|312:216,1,59.9999981689454
256,272,59005,2,0,P|368:204|448:276,2,239.999992675781
40,360,59605,1,0,0:0:0:0:
128,316,59725,1,0,0:0:0:0:
144,220,59845,1,0,0:0:0:0:
396,96,60085,1,0,0:0:0:0:
304,68,60205,1,0,0:0:0:0:
212,100,60325,1,0,0:0:0:0:
124,60,60445,5,0,0:0:0:0:
376,340,60565,1,0,0:0:0:0:
376,340,60685,2,0,P|316:236|192:240,1,239.999992675781
268,324,61045,1,0,0:0:0:0:
320,244,61165,1,0,0:0:0:0:
292,152,61285,1,0,0:0:0:0:
352,80,61405,6,0,P|472:108|352:112,1,299.999990844727
292,152,61765,2,0,P|256:204|352:272,1,200
420,336,62125,2,0,P|340:368|200:312,1,200
120,312,62605,5,0,0:0:0:0:
192,276,62725,1,0,0:0:0:0:
204,196,62845,1,0,0:0:0:0:
408,120,62965,1,0,0:0:0:0:
332,100,63085,1,0,0:0:0:0:
256,132,63205,1,0,0:0:0:0:
416,336,63325,5,0,0:0:0:0:
136,124,63565,1,0,0:0:0:0:
100,216,63685,1,0,0:0:0:0:
384,260,63925,1,0,0:0:0:0:
304,320,64045,1,0,0:0:0:0:
208,296,64165,1,0,0:0:0:0:
120,344,64285,5,0,0:0:0:0:
252,272,64405,1,0,0:0:0:0:
144,164,64525,1,0,0:0:0:0:
276,92,64645,1,0,0:0:0:0:
124,12,64765,5,0,0:0:0:0:
300,104,64885,1,0,0:0:0:0:
112,168,65005,1,0,0:0:0:0:
272,288,65125,1,0,0:0:0:0:
84,356,65245,5,0,0:0:0:0:
176,240,65365,1,0,0:0:0:0:
476,364,65485,5,0,0:0:0:0:
384,248,65605,1,0,0:0:0:0:
476,132,65725,5,0,0:0:0:0:
384,248,65845,1,0,0:0:0:0:
176,240,65965,1,0,0:0:0:0:
84,124,66085,1,0,0:0:0:0:
284,308,66205,5,0,0:0:0:0:
260,200,66325,1,0,0:0:0:0:
316,104,66445,1,0,0:0:0:0:
308,76,66505,1,0,0:0:0:0:
252,16,66565,5,0,0:0:0:0:
236,28,66625,1,0,0:0:0:0:
228,44,66685,1,0,0:0:0:0:
224,64,66745,1,0,0:0:0:0:
240,136,66805,1,0,0:0:0:0:
212,148,66865,1,0,0:0:0:0:
184,148,66925,1,0,0:0:0:0:
156,140,66985,1,0,0:0:0:0:
140,56,67045,5,0,0:0:0:0:
104,76,67105,1,0,0:0:0:0:
64,148,67165,6,0,P|60:212|172:296,1,200
424,284,67525,1,0,0:0:0:0:
304,212,67645,1,0,0:0:0:0:
164,212,67765,1,0,0:0:0:0:
320,120,67885,1,0,0:0:0:0:
480,220,68005,1,0,0:0:0:0:
340,28,68125,5,0,0:0:0:0:
120,124,68245,1,0,0:0:0:0:
216,344,68365,1,0,0:0:0:0:
436,248,68485,1,0,0:0:0:0:
244,108,68605,5,0,0:0:0:0:
200,219,68725,1,0,0:0:0:0:
311,263,68845,1,0,0:0:0:0:
355,152,68965,1,0,0:0:0:0:
64,48,69085,5,0,0:0:0:0:
44,156,69205,1,0,0:0:0:0:
124,232,69325,1,0,0:0:0:0:
88,336,69445,1,0,0:0:0:0:
160,128,69565,5,0,0:0:0:0:
244,72,69625,1,0,0:0:0:0:
332,96,69685,1,0,0:0:0:0:
372,164,69745,1,0,0:0:0:0:
368,232,69805,1,0,0:0:0:0:
324,272,69865,1,0,0:0:0:0:
276,272,69925,1,0,0:0:0:0:
232,248,69985,1,0,0:0:0:0:
220,208,70045,5,0,0:0:0:0:
240,168,70105,1,0,0:0:0:0:
280,156,70165,1,0,0:0:0:0:
312,164,70225,1,0,0:0:0:0:
340,180,70285,1,0,0:0:0:0:
368,192,70345,1,0,0:0:0:0:
396,192,70405,1,0,0:0:0:0:
424,184,70465,1,0,0:0:0:0:
436,168,70525,1,0,0:0:0:0:
435,147,70585,1,0,0:0:0:0:
438,131,70645,1,0,0:0:0:0:
449,121,70705,1,0,0:0:0:0:
458,115,70765,1,0,0:0:0:0:
467,112,70825,1,0,0:0:0:0:
474,114,70885,1,0,0:0:0:0:
482,119,70945,1,0,0:0:0:0:
485,124,71005,5,0,0:0:0:0:
256,192,71485,12,0,72805,0:0:0:0:
4,264,72925,5,0,0:0:0:0:
1,283,72985,1,0,0:0:0:0:
2,303,73045,1,0,0:0:0:0:
9,321,73105,1,0,0:0:0:0:
19,339,73165,1,0,0:0:0:0:
33,353,73225,1,0,0:0:0:0:
50,364,73285,1,0,0:0:0:0:
68,371,73345,1,0,0:0:0:0:
88,373,73405,1,0,0:0:0:0:
108,371,73465,1,0,0:0:0:0:
127,363,73525,1,0,0:0:0:0:
143,353,73585,1,0,0:0:0:0:
157,338,73645,1,0,0:0:0:0:
168,322,73705,1,0,0:0:0:0:
174,302,73765,1,0,0:0:0:0:
176,283,73825,1,0,0:0:0:0:
176,260,73885,5,0,0:0:0:0:
179,232,73945,1,0,0:0:0:0:
186,207,74005,1,0,0:0:0:0:
200,186,74065,1,0,0:0:0:0:
220,167,74125,1,0,0:0:0:0:
244,156,74185,1,0,0:0:0:0:
271,152,74245,1,0,0:0:0:0:
297,151,74305,1,0,0:0:0:0:
324,152,74365,1,0,0:0:0:0:
350,151,74425,1,0,0:0:0:0:
376,144,74485,1,0,0:0:0:0:
399,132,74545,1,0,0:0:0:0:
418,111,74605,1,0,0:0:0:0:
430,88,74665,1,0,0:0:0:0:
437,63,74725,1,0,0:0:0:0:
442,36,74785,1,0,0:0:0:0:
398,26,74845,5,0,0:0:0:0:
373,37,74905,1,0,0:0:0:0:
353,54,74965,1,0,0:0:0:0:
337,75,75025,1,0,0:0:0:0:
326,99,75085,1,0,0:0:0:0:
322,125,75145,1,0,0:0:0:0:
324,152,75205,1,0,0:0:0:0:
332,177,75265,1,0,0:0:0:0:
346,200,75325,1,0,0:0:0:0:
365,219,75385,1,0,0:0:0:0:
387,232,75445,1,0,0:0:0:0:
413,240,75505,1,0,0:0:0:0:
439,242,75565,1,0,0:0:0:0:
466,237,75625,1,0,0:0:0:0:
490,226,75685,1,0,0:0:0:0:
511,210,75745,1,0,0:0:0:0:
512,196,75805,6,0,L|496:136,15,50
472,292,76765,5,0,0:0:0:0:
446,283,76825,1,0,0:0:0:0:
421,274,76885,1,0,0:0:0:0:
397,262,76945,1,0,0:0:0:0:
374,248,77005,1,0,0:0:0:0:
353,233,77065,1,0,0:0:0:0:
332,216,77125,1,0,0:0:0:0:
313,198,77185,1,0,0:0:0:0:
294,178,77245,1,0,0:0:0:0:
274,161,77305,1,0,0:0:0:0:
253,145,77365,1,0,0:0:0:0:
230,131,77425,1,0,0:0:0:0:
207,118,77485,1,0,0:0:0:0:
182,107,77545,1,0,0:0:0:0:
158,97,77605,1,0,0:0:0:0:
132,89,77665,1,0,0:0:0:0:
108,84,77725,5,0,0:0:0:0:
95,106,77785,1,0,0:0:0:0:
88,132,77845,1,0,0:0:0:0:
88,159,77905,1,0,0:0:0:0:
85,195,77965,1,0,0:0:0:0:
111,190,78025,1,0,0:0:0:0:
138,188,78085,1,0,0:0:0:0:
164,192,78145,1,0,0:0:0:0:
189,204,78205,1,0,0:0:0:0:
212,214,78265,1,0,0:0:0:0:
239,219,78325,1,0,0:0:0:0:
265,219,78385,1,0,0:0:0:0:
291,216,78445,1,0,0:0:0:0:
296,242,78505,1,0,0:0:0:0:
296,268,78565,1,0,0:0:0:0:
291,294,78625,1,0,0:0:0:0:
288,315,78685,6,0,L|302:390,11,50
408,248,79405,2,0,L|480:248,3,50
376,128,79645,5,0,0:0:0:0:
339,94,79705,1,0,0:0:0:0:
293,74,79765,1,0,0:0:0:0:
244,71,79825,1,0,0:0:0:0:
196,86,79885,1,0,0:0:0:0:
156,116,79945,1,0,0:0:0:0:
129,157,80005,1,0,0:0:0:0:
118,206,80065,1,0,0:0:0:0:
123,255,80125,5,0,0:0:0:0:
146,245,80185,1,0,0:0:0:0:
170,238,80245,1,0,0:0:0:0:
195,236,80305,1,0,0:0:0:0:
220,237,80365,1,0,0:0:0:0:
244,242,80425,1,0,0:0:0:0:
268,251,80485,1,0,0:0:0:0:
289,263,80545,1,0,0:0:0:0:
309,279,80605,5,0,0:0:0:0:
30,163,80725,1,0,0:0:0:0:
356,163,80845,5,0,0:0:0:0:
78,278,80965,1,0,0:0:0:0:
309,48,81085,5,0,0:0:0:0:
193,326,81205,1,0,0:0:0:0:
193,0,81325,5,0,0:0:0:0:
309,279,81445,1,0,0:0:0:0:
78,48,81565,5,0,0:0:0:0:
164,228,81685,1,0,0:0:0:0:
434,48,81805,5,0,0:0:0:0:
348,228,81925,1,0,0:0:0:0:
78,336,82045,5,0,0:0:0:0:
164,156,82165,1,0,0:0:0:0:
434,336,82285,5,0,0:0:0:0:
348,156,82405,1,0,0:0:0:0:
381,317,82525,5,0,0:0:0:0:
130,317,82645,1,0,0:0:0:0:
131,66,82765,1,0,0:0:0:0:
381,67,82885,1,0,0:0:0:0:
209,238,83005,5,0,0:0:0:0:
209,145,83125,1,0,0:0:0:0:
302,145,83245,1,0,0:0:0:0:
302,238,83365,1,0,0:0:0:0:
162,98,83485,5,0,0:0:0:0:
349,98,83605,1,0,0:0:0:0:
349,285,83725,1,0,0:0:0:0:
162,285,83845,1,0,0:0:0:0:
302,145,83965,5,0,0:0:0:0:
302,238,84085,1,0,0:0:0:0:
209,238,84205,1,0,0:0:0:0:
209,145,84325,1,0,0:0:0:0:
396,200,84445,5,0,0:0:0:0:
252,60,84565,1,0,0:0:0:0:
65,243,84685,5,0,0:0:0:0:
252,60,84805,1,0,0:0:0:0:
65,243,84925,5,0,0:0:0:0:
252,60,85045,1,0,0:0:0:0:
495,298,85165,5,0,0:0:0:0:
252,60,85285,1,0,0:0:0:0:
256,384,85405,5,0,0:0:0:0:
252,60,85525,1,0,0:0:0:0:
9,298,85645,5,0,0:0:0:0:
252,60,85765,1,0,0:0:0:0:
448,40,85885,5,0,0:0:0:0:
396,124,86005,1,0,0:0:0:0:
452,208,86125,1,0,0:0:0:0:
392,288,86245,1,0,0:0:0:0:
296,256,86365,5,0,0:0:0:0:
296,156,86485,1,0,0:0:0:0:
204,116,86605,1,0,0:0:0:0:
136,188,86725,1,0,0:0:0:0:
192,272,86845,5,0,0:0:0:0:
170,316,86905,1,0,0:0:0:0:
129,344,86965,1,0,0:0:0:0:
80,349,87025,1,0,0:0:0:0:
35,329,87085,1,0,0:0:0:0:
5,290,87145,1,0,0:0:0:0:
0,241,87205,1,0,0:0:0:0:
16,195,87265,1,0,0:0:0:0:
55,164,87325,5,0,0:0:0:0:
76,208,87385,1,0,0:0:0:0:
117,236,87445,1,0,0:0:0:0:
166,241,87505,1,0,0:0:0:0:
211,221,87565,1,0,0:0:0:0:
241,182,87625,1,0,0:0:0:0:
248,133,87685,1,0,0:0:0:0:
230,87,87745,1,0,0:0:0:0:
184,64,87805,5,0,0:0:0:0:
181,112,87865,1,0,0:0:0:0:
205,155,87925,1,0,0:0:0:0:
247,182,87985,1,0,0:0:0:0:
296,185,88045,1,0,0:0:0:0:
340,164,88105,1,0,0:0:0:0:
369,123,88165,1,0,0:0:0:0:
374,74,88225,1,0,0:0:0:0:
348,32,88285,5,0,0:0:0:0:
256,192,92125,5,0,0:0:0:0:
184,304,94045,5,0,0:0:0:0:
144,212,94165,1,0,0:0:0:0:
244,224,94285,1,0,0:0:0:0:
184,304,94405,5,0,0:0:0:0:
132,184,94525,1,0,0:0:0:0:
262,199,94645,1,0,0:0:0:0:
184,304,94765,5,0,0:0:0:0:
124,166,94885,1,0,0:0:0:0:
274,184,95005,5,0,0:0:0:0:
436,96,95125,1,0,0:0:0:0:
344,60,95245,1,0,0:0:0:0:
252,96,95365,1,0,0:0:0:0:
196,180,95485,1,0,0:0:0:0:
104,216,95605,1,0,0:0:0:0:
28,152,95725,1,0,0:0:0:0:
44,52,95845,1,0,0:0:0:0:
140,20,95965,5,0,0:0:0:0:
140,20,96085,1,0,0:0:0:0:
140,20,96205,1,0,0:0:0:0:
220,116,96325,1,0,0:0:0:0:
332,44,96445,2,0,P|388:8|432:0,1,100
92,124,96685,2,0,P|36:160|-8:168,1,100
464,196,96925,5,0,0:0:0:0:
464,264,97005,1,0,0:0:0:0:
416,308,97085,1,0,0:0:0:0:
352,320,97165,1,0,0:0:0:0:
296,288,97245,1,0,0:0:0:0:
228,284,97325,1,0,0:0:0:0:
168,316,97405,5,0,0:0:0:0:
168,316,97525,1,0,0:0:0:0:
168,316,97645,1,0,0:0:0:0:
136,132,97765,1,0,0:0:0:0:
60,240,97885,5,0,0:0:0:0:
60,240,98005,1,0,0:0:0:0:
136,132,98125,1,0,0:0:0:0:
48,40,98245,1,0,0:0:0:0:
136,132,98365,5,0,0:0:0:0:
452,240,98485,1,0,0:0:0:0:
376,132,98605,1,0,0:0:0:0:
464,40,98725,1,0,0:0:0:0:
376,132,98845,5,0,0:0:0:0:
256,356,98965,1,0,0:0:0:0:
256,236,99085,1,0,0:0:0:0:
256,356,99205,1,0,0:0:0:0:
256,236,99325,5,0,0:0:0:0:
256,28,99445,1,0,0:0:0:0:
256,148,99565,1,0,0:0:0:0:
256,28,99685,1,0,0:0:0:0:
256,148,99805,5,0,0:0:0:0:
464,348,99925,1,0,0:0:0:0:
392,252,100045,1,0,0:0:0:0:
388,132,100165,1,0,0:0:0:0:
256,148,100285,5,0,0:0:0:0:
48,348,100405,1,0,0:0:0:0:
120,252,100525,1,0,0:0:0:0:
124,132,100645,1,0,0:0:0:0:
256,148,100765,5,0,0:0:0:0:
256,348,100885,1,0,0:0:0:0:
256,252,101005,1,0,0:0:0:0:
256,148,101125,1,0,0:0:0:0:
256,28,101245,5,0,0:0:0:0:
256,28,101365,1,0,0:0:0:0:
256,28,101485,1,0,0:0:0:0:
256,28,101605,1,0,0:0:0:0:
416,112,101725,5,0,0:0:0:0:
380,168,101805,1,0,0:0:0:0:
376,236,101885,1,0,0:0:0:0:
404,296,101965,1,0,0:0:0:0:
356,344,102045,1,0,0:0:0:0:
292,364,102125,1,0,0:0:0:0:
220,364,102205,5,0,0:0:0:0:
156,344,102285,1,0,0:0:0:0:
108,296,102365,1,0,0:0:0:0:
136,236,102445,1,0,0:0:0:0:
132,168,102525,1,0,0:0:0:0:
96,112,102605,1,0,0:0:0:0:
48,208,102685,5,0,0:0:0:0:
48,208,102765,1,0,0:0:0:0:
48,208,102845,1,0,0:0:0:0:
48,208,102925,6,0,B|60:252|112:264|112:264|112:232|140:208|140:208|228:272|312:200|312:200|360:224|360:224|392:192|392:192|424:196|424:196|440:180|440:180|464:180|464:180|476:164|492:160|492:160|512:160|536:144,1,600.000022888185
424,60,103645,5,0,0:0:0:0:
380,44,103725,1,0,0:0:0:0:
336,52,103805,1,0,0:0:0:0:
304,84,103885,2,0,B|280:132|280:132|216:172,1,100
164,72,104125,5,0,0:0:0:0:
96,80,104205,1,0,0:0:0:0:
64,136,104285,1,0,0:0:0:0:
80,200,104365,1,0,0:0:0:0:
88,268,104445,1,0,0:0:0:0:
52,324,104525,1,0,0:0:0:0:
16,380,104605,5,0,0:0:0:0:
84,340,104685,1,0,0:0:0:0:
164,352,104765,1,0,0:0:0:0:
240,372,104845,1,0,0:0:0:0:
320,360,104925,1,0,0:0:0:0:
364,292,105005,1,0,0:0:0:0:
340,216,105085,2,0,P|388:160|420:140,2,66.6666666666667
240,192,105325,5,0,0:0:0:0:
248,112,105405,1,0,0:0:0:0:
316,68,105485,1,0,0:0:0:0:
396,80,105565,6,0,P|472:72|488:48,2,66.6666666666667
380,164,105805,5,0,0:0:0:0:
388,232,105885,1,0,0:0:0:0:
348,288,105965,1,0,0:0:0:0:
268,272,106045,1,0,0:0:0:0:
192,300,106125,1,0,0:0:0:0:
112,288,106205,1,0,0:0:0:0:
76,216,106285,2,0,P|8:168|-12:168,2,66.6666666666667
32,292,106525,5,0,0:0:0:0:
76,344,106605,1,0,0:0:0:0:
140,352,106685,1,0,0:0:0:0:
188,304,106765,1,0,0:0:0:0:
240,264,106845,1,0,0:0:0:0:
308,260,106925,1,0,0:0:0:0:
368,288,107005,2,0,P|408:360|408:368,2,66.6666666666667
416,208,107245,5,0,0:0:0:0:
372,124,107325,1,0,0:0:0:0:
280,104,107405,1,0,0:0:0:0:
192,128,107485,6,0,P|128:84|120:64,1,66.6666666666667
40,32,107645,1,0,0:0:0:0:
40,32,107725,5,0,0:0:0:0:
24,124,107805,1,0,0:0:0:0:
72,204,107885,1,0,0:0:0:0:
164,220,107965,5,0,0:0:0:0:
248,200,108045,1,0,0:0:0:0:
328,212,108125,1,0,0:0:0:0:
380,264,108205,1,0,0:0:0:0:
376,332,108285,1,0,0:0:0:0:
324,364,108365,1,0,0:0:0:0:
268,348,108445,5,0,0:0:0:0:
252,296,108525,1,0,0:0:0:0:
272,256,108605,1,0,0:0:0:0:
300,228,108685,1,0,0:0:0:0:
308,196,108765,1,0,0:0:0:0:
300,172,108845,1,0,0:0:0:0:
288,156,108925,5,0,0:0:0:0:
272,144,109005,1,0,0:0:0:0:
256,136,109085,1,0,0:0:0:0:
236,128,109165,1,0,0:0:0:0:
216,132,109245,1,0,0:0:0:0:
200,140,109325,1,0,0:0:0:0:
180,216,109405,6,0,P|94:238|64:228,1,66.6666666666667
113,155,109565,1,0,0:0:0:0:
113,155,109645,6,0,P|26:137|3:115,1,66.6666666666667
105,77,109805,1,0,0:0:0:0:
105,77,109885,6,0,P|27:35|11:6,5,66.6666666666667
224,40,110365,6,0,P|301:81|317:110,5,66.6666666666667
200,128,110845,5,0,0:0:0:0:
204,176,110925,1,0,0:0:0:0:
236,208,111005,1,0,0:0:0:0:
272,236,111085,1,0,0:0:0:0:
284,280,111165,1,0,0:0:0:0:
268,324,111245,1,0,0:0:0:0:
232,352,111325,5,0,0:0:0:0:
232,352,111445,1,0,0:0:0:0:
232,352,111565,1,0,0:0:0:0:
232,352,111685,1,0,0:0:0:0:
136,304,111805,1,0,0:0:0:0:
116,192,111925,1,0,0:0:0:0:
184,100,112045,1,0,0:0:0:0:
296,100,112165,1,0,0:0:0:0:
296,100,112285,6,0,L|404:100,1,75.0000028610231
480,228,112525,1,0,0:0:0:0:
480,228,112645,2,0,L|388:224,1,75.0000028610231
64,280,112885,2,0,L|156:280,1,75.0000028610231
300,184,113125,1,0,0:0:0:0:
300,184,113245,6,0,L|208:184,1,75.0000028610231
80,76,113485,1,0,0:0:0:0:
80,76,113605,1,0,0:0:0:0:
80,76,113725,1,0,0:0:0:0:
80,76,113845,1,0,0:0:0:0:
328,104,113965,1,0,0:0:0:0:
200,160,114085,1,0,0:0:0:0:
80,76,114205,6,0,P|168:56|184:60,1,75.0000028610231
396,260,114445,1,0,0:0:0:0:
396,260,114565,2,0,P|320:268|296:260,1,75.0000028610231
68,208,114805,1,0,0:0:0:0:
68,208,114925,2,0,P|148:208|168:216,1,75.0000028610231
436,344,115165,6,0,P|376:360|340:348,1,75.0000028610231
80,336,115405,1,0,0:0:0:0:
80,336,115525,1,0,0:0:0:0:
80,336,115645,1,0,0:0:0:0:
80,336,115765,1,0,0:0:0:0:
80,336,115885,2,0,L|168:340,1,75.0000028610231
396,212,116125,6,0,L|320:212,1,75.0000028610231
76,96,116365,1,0,0:0:0:0:
76,96,116485,1,0,0:0:0:0:
76,96,116605,1,0,0:0:0:0:
176,148,116725,1,0,0:0:0:0:
180,260,116845,1,0,0:0:0:0:
108,344,116965,1,0,0:0:0:0:
108,344,117085,6,0,L|196:344,1,75.0000028610231
432,52,117325,1,0,0:0:0:0:
356,136,117445,1,0,0:0:0:0:
436,216,117565,1,0,0:0:0:0:
364,300,117685,1,0,0:0:0:0:
364,300,117805,2,0,L|272:300,1,75.0000028610231
80,56,118045,5,0,0:0:0:0:
80,56,118165,1,0,0:0:0:0:
80,56,118285,1,0,0:0:0:0:
80,56,118405,1,0,0:0:0:0:
156,192,118525,1,0,0:0:0:0:
156,192,118645,1,0,0:0:0:0:
156,192,118765,1,0,0:0:0:0:
156,192,118885,1,0,0:0:0:0:
156,192,119005,6,0,P|248:228|348:172,1,187.500007152558
420,120,119365,2,0,P|328:84|228:140,1,187.500007152558
276,204,119725,2,0,P|368:240|312:164,1,225.000008583069
56,276,120205,5,0,0:0:0:0:
160,360,120325,1,0,0:0:0:0:
244,256,120445,1,0,0:0:0:0:
140,172,120565,1,0,0:0:0:0:
56,276,120685,5,0,0:0:0:0:
160,360,120805,1,0,0:0:0:0:
244,256,120925,1,0,0:0:0:0:
344,340,121045,1,0,0:0:0:0:
404,220,121165,5,0,0:0:0:0:
232,140,121285,1,0,0:0:0:0:
404,220,121405,1,0,0:0:0:0:
300,92,121525,1,0,0:0:0:0:
432,144,121645,1,0,0:0:0:0:
384,52,121765,1,0,0:0:0:0:
480,64,121885,5,0,0:0:0:0:
500,160,122005,1,0,0:0:0:0:
452,248,122125,1,0,0:0:0:0:
356,272,122245,1,0,0:0:0:0:
452,248,122365,5,0,0:0:0:0:
356,272,122485,1,0,0:0:0:0:
272,220,122605,1,0,0:0:0:0:
184,264,122725,1,0,0:0:0:0:
264,340,122845,5,0,0:0:0:0:
356,272,122965,1,0,0:0:0:0:
240,204,123085,1,0,0:0:0:0:
376,136,123205,1,0,0:0:0:0:
208,60,123325,5,0,0:0:0:0:
408,160,123445,1,0,0:0:0:0:
164,244,123565,1,0,0:0:0:0:
368,352,123685,1,0,0:0:0:0:
208,60,123805,5,0,0:0:0:0:
116,100,123925,1,0,0:0:0:0:
164,188,124045,1,0,0:0:0:0:
256,148,124165,1,0,0:0:0:0:
268,248,124285,1,0,0:0:0:0:
364,212,124405,1,0,0:0:0:0:
376,312,124525,1,0,0:0:0:0:
352,108,124645,1,0,0:0:0:0:
168,292,124765,5,0,0:0:0:0:
92,224,124885,1,0,0:0:0:0:
160,152,125005,1,0,0:0:0:0:
232,220,125125,1,0,0:0:0:0:
328,248,125245,1,0,0:0:0:0:
464,124,125365,1,0,0:0:0:0:
424,216,125485,1,0,0:0:0:0:
348,152,125605,1,0,0:0:0:0:
388,60,125725,5,0,0:0:0:0:
456,104,125805,1,0,0:0:0:0:
480,180,125885,1,0,0:0:0:0:
452,256,125965,1,0,0:0:0:0:
424,332,126045,1,0,0:0:0:0:
356,288,126125,1,0,0:0:0:0:
276,288,126205,5,0,0:0:0:0:
312,144,126325,1,0,0:0:0:0:
184,220,126445,1,0,0:0:0:0:
240,80,126565,1,0,0:0:0:0:
92,112,126685,5,0,0:0:0:0:
256,192,126925,12,0,128365,0:0:0:0:
48,36,128605,5,0,0:0:0:0:
23,62,128665,1,0,0:0:0:0:
9,96,128725,1,0,0:0:0:0:
8,132,128785,1,0,0:0:0:0:
19,166,128845,1,0,0:0:0:0:
41,195,128905,1,0,0:0:0:0:
72,214,128965,1,0,0:0:0:0:
107,222,129025,1,0,0:0:0:0:
143,217,129085,1,0,0:0:0:0:
175,201,129145,1,0,0:0:0:0:
199,174,129205,1,0,0:0:0:0:
213,140,129265,1,0,0:0:0:0:
220,104,129325,6,0,L|216:44,3,50
104,124,129565,5,0,0:0:0:0:
116,157,129625,1,0,0:0:0:0:
136,188,129685,1,0,0:0:0:0:
163,212,129745,1,0,0:0:0:0:
195,230,129805,1,0,0:0:0:0:
229,240,129865,1,0,0:0:0:0:
266,242,129925,1,0,0:0:0:0:
301,235,129985,1,0,0:0:0:0:
334,220,130045,1,0,0:0:0:0:
363,198,130105,1,0,0:0:0:0:
386,170,130165,1,0,0:0:0:0:
402,137,130225,1,0,0:0:0:0:
404,92,130285,6,0,L|392:24,3,50
308,76,130525,5,0,0:0:0:0:
264,64,130585,1,0,0:0:0:0:
218,64,130645,1,0,0:0:0:0:
174,75,130705,1,0,0:0:0:0:
135,97,130765,1,0,0:0:0:0:
102,128,130825,1,0,0:0:0:0:
78,167,130885,1,0,0:0:0:0:
65,210,130945,1,0,0:0:0:0:
63,255,131005,1,0,0:0:0:0:
73,300,131065,1,0,0:0:0:0:
93,340,131125,1,0,0:0:0:0:
123,374,131185,1,0,0:0:0:0:
172,384,131245,6,0,L|240:356,3,50
224,252,131485,5,0,0:0:0:0:
252,243,131545,1,0,0:0:0:0:
282,247,131605,1,0,0:0:0:0:
307,263,131665,1,0,0:0:0:0:
324,287,131725,1,0,0:0:0:0:
329,317,131785,1,0,0:0:0:0:
260,312,131845,5,0,0:0:0:0:
247,276,131905,1,0,0:0:0:0:
244,239,131965,1,0,0:0:0:0:
254,203,132025,1,0,0:0:0:0:
275,172,132085,1,0,0:0:0:0:
296,141,132145,1,0,0:0:0:0:
307,106,132205,1,0,0:0:0:0:
307,68,132265,1,0,0:0:0:0:
297,32,132325,2,0,L|264:-8,1,50
136,40,132445,5,0,0:0:0:0:
113,49,132505,1,0,0:0:0:0:
93,65,132565,1,0,0:0:0:0:
79,85,132625,1,0,0:0:0:0:
70,109,132685,1,0,0:0:0:0:
69,133,132745,1,0,0:0:0:0:
74,158,132805,1,0,0:0:0:0:
85,180,132865,1,0,0:0:0:0:
103,198,132925,1,0,0:0:0:0:
124,210,132985,1,0,0:0:0:0:
148,217,133045,1,0,0:0:0:0:
173,216,133105,1,0,0:0:0:0:
200,208,133165,6,0,L|256:160,3,50
156,120,133405,5,0,0:0:0:0:
141,149,133465,1,0,0:0:0:0:
135,182,133525,1,0,0:0:0:0:
138,215,133585,1,0,0:0:0:0:
150,246,133645,1,0,0:0:0:0:
170,273,133705,1,0,0:0:0:0:
197,293,133765,1,0,0:0:0:0:
228,305,133825,1,0,0:0:0:0:
261,308,133885,1,0,0:0:0:0:
294,303,133945,1,0,0:0:0:0:
324,288,134005,1,0,0:0:0:0:
348,266,134065,1,0,0:0:0:0:
367,238,134125,6,0,L|344:184,3,50
248,180,134365,5,0,0:0:0:0:
230,226,134425,1,0,0:0:0:0:
231,275,134485,1,0,0:0:0:0:
251,321,134545,1,0,0:0:0:0:
287,355,134605,1,0,0:0:0:0:
334,372,134665,1,0,0:0:0:0:
384,370,134725,1,0,0:0:0:0:
429,349,134785,1,0,0:0:0:0:
462,312,134845,1,0,0:0:0:0:
478,265,134905,1,0,0:0:0:0:
476,216,134965,1,0,0:0:0:0:
454,171,135025,1,0,0:0:0:0:
428,128,135085,2,0,L|376:84,1,50
288,56,135205,5,0,0:0:0:0:
292,68,135265,1,0,0:0:0:0:
296,80,135325,5,0,0:0:0:0:
238,112,135385,1,0,0:0:0:0:
172,114,135445,1,0,0:0:0:0:
113,85,135505,1,0,0:0:0:0:
92,20,135565,5,0,0:0:0:0:
121,46,135625,1,0,0:0:0:0:
139,82,135685,1,0,0:0:0:0:
143,121,135745,1,0,0:0:0:0:
134,160,135805,1,0,0:0:0:0:
111,192,135865,1,0,0:0:0:0:
56,204,135925,5,0,0:0:0:0:
108,179,135985,1,0,0:0:0:0:
165,181,136045,1,0,0:0:0:0:
215,210,136105,1,0,0:0:0:0:
260,244,136165,1,0,0:0:0:0:
318,249,136225,1,0,0:0:0:0:
371,226,136285,5,0,0:0:0:0:
244,148,136405,1,0,0:0:0:0:
322,21,136525,1,0,0:0:0:0:
449,99,136645,1,0,0:0:0:0:
371,226,136765,5,0,0:0:0:0:
236,292,136885,1,0,0:0:0:0:
116,204,137005,1,0,0:0:0:0:
132,56,137125,1,0,0:0:0:0:
371,226,137245,5,0,0:0:0:0:
152,344,137365,1,0,0:0:0:0:
34,125,137485,1,0,0:0:0:0:
253,6,137605,1,0,0:0:0:0:
371,226,137725,5,0,0:0:0:0:
256,264,137845,1,0,0:0:0:0:
156,200,137965,1,0,0:0:0:0:
160,80,138085,1,0,0:0:0:0:
60,352,138205,5,0,0:0:0:0:
240,264,138325,1,0,0:0:0:0:
88,132,138445,1,0,0:0:0:0:
260,28,138565,1,0,0:0:0:0:
64,28,138685,5,0,0:0:0:0:
168,136,138805,1,0,0:0:0:0:
64,244,138925,1,0,0:0:0:0:
172,348,139045,1,0,0:0:0:0:
272,244,139165,5,0,0:0:0:0:
168,136,139285,1,0,0:0:0:0:
64,244,139405,1,0,0:0:0:0:
172,348,139525,1,0,0:0:0:0:
58,182,139645,1,0,0:0:0:0:
230,130,139765,1,0,0:0:0:0:
276,303,139885,1,0,0:0:0:0:
111,354,140005,1,0,0:0:0:0:
88,132,140125,5,0,0:0:0:0:
208,220,140245,1,0,0:0:0:0:
332,136,140365,1,0,0:0:0:0:
472,192,140485,1,0,0:0:0:0:
96,152,140605,5,0,0:0:0:0:
220,192,140725,1,0,0:0:0:0:
348,160,140845,1,0,0:0:0:0:
472,192,140965,1,0,0:0:0:0:
312,4,141085,5,0,0:0:0:0:
180,112,141205,1,0,0:0:0:0:
300,240,141325,1,0,0:0:0:0:
208,368,141445,1,0,0:0:0:0:
212,39,141565,5,0,0:0:0:0:
317,125,141685,1,0,0:0:0:0:
221,227,141805,1,0,0:0:0:0:
295,330,141925,1,0,0:0:0:0:
396,320,142045,5,0,0:0:0:0:
424,224,142165,1,0,0:0:0:0:
340,172,142285,1,0,0:0:0:0:
260,232,142405,1,0,0:0:0:0:
196,308,142525,1,0,0:0:0:0:
120,280,142645,1,0,0:0:0:0:
120,220,142765,1,0,0:0:0:0:
156,200,142885,1,0,0:0:0:0:
180,216,143005,5,0,0:0:0:0:
256,192,143065,12,0,143725,0:0:0:0:
256,196,143845,5,0,0:0:0:0:
116,320,143965,6,0,P|56:252|84:112,1,220.000006713867
432,72,144445,1,0,0:0:0:0:
336,96,144565,1,0,0:0:0:0:
308,192,144685,1,0,0:0:0:0:
360,276,144805,1,0,0:0:0:0:
212,156,144925,6,0,P|144:128|128:52,1,110.000003356934
300,228,145165,2,0,P|368:256|384:332,1,110.000003356934
308,308,145405,5,0,0:0:0:0:
200,72,145525,1,0,0:0:0:0:
308,92,145645,1,0,0:0:0:0:
412,56,145765,1,0,0:0:0:0:
220,236,145885,5,0,0:0:0:0:
128,296,146005,1,0,0:0:0:0:
28,252,146125,1,0,0:0:0:0:
420,320,146365,1,0,0:0:0:0:
400,212,146485,1,0,0:0:0:0:
300,164,146605,1,0,0:0:0:0:
280,56,146725,1,0,0:0:0:0:
28,252,146845,6,0,P|88:304|240:252,1,220.000006713867
100,140,147205,6,0,P|132:228|124:124,1,300.000011444092
140,176,147565,1,0,0:0:0:0:
352,40,147805,5,0,0:0:0:0:
396,132,147925,1,0,0:0:0:0:
340,212,148045,1,0,0:0:0:0:
384,300,148165,1,0,0:0:0:0:
52,280,148405,1,0,0:0:0:0:
142,326,148525,1,0,0:0:0:0:
184,68,148765,5,0,0:0:0:0:
104,128,148885,1,0,0:0:0:0:
136,224,149005,1,0,0:0:0:0:
236,224,149125,1,0,0:0:0:0:
276,132,149245,1,0,0:0:0:0:
376,132,149365,1,0,0:0:0:0:
404,228,149485,1,0,0:0:0:0:
320,284,149605,1,0,0:0:0:0:
176,144,149725,5,0,0:0:0:0:
276,132,149845,1,0,0:0:0:0:
320,44,149965,1,0,0:0:0:0:
168,328,150085,1,0,0:0:0:0:
408,332,150325,1,0,0:0:0:0:
340,264,150445,1,0,0:0:0:0:
240,260,150565,1,0,0:0:0:0:
164,196,150685,5,0,0:0:0:0:
392,64,150805,1,0,0:0:0:0:
308,120,150925,1,0,0:0:0:0:
224,64,151045,1,0,0:0:0:0:
136,112,151165,1,0,0:0:0:0:
44,28,151285,1,0,0:0:0:0:
156,136,151405,1,0,0:0:0:0:
304,24,151525,1,0,0:0:0:0:
456,144,151645,5,0,0:0:0:0:
224,332,151765,1,0,0:0:0:0:
488,253,151885,1,0,0:0:0:0:
191,222,152005,1,0,0:0:0:0:
434,354,152125,5,0,0:0:0:0:
245,121,152245,1,0,0:0:0:0:
456,144,152365,1,0,0:0:0:0:
224,332,152485,1,0,0:0:0:0:
35,100,152605,5,0,0:0:0:0:
245,121,152725,1,0,0:0:0:0:
224,331,152845,1,0,0:0:0:0:
14,311,152965,1,0,0:0:0:0:
194,35,153085,5,0,0:0:0:0:
358,169,153205,1,0,0:0:0:0:
61,198,153325,1,0,0:0:0:0:
224,331,153445,1,0,0:0:0:0:
52,56,153565,5,0,0:0:0:0:
336,27,153685,1,0,0:0:0:0:
81,338,153805,1,0,0:0:0:0:
363,309,153925,1,0,0:0:0:0:
52,199,154045,5,0,0:0:0:0:
193,26,154165,1,0,0:0:0:0:
363,167,154285,1,0,0:0:0:0:
224,338,154405,1,0,0:0:0:0:
123,113,154525,5,0,0:0:0:0:
278,98,154645,1,0,0:0:0:0:
139,267,154765,1,0,0:0:0:0:
293,252,154885,1,0,0:0:0:0:
512,184,155005,5,0,0:0:0:0:
428,252,155125,1,0,0:0:0:0:
359,168,155245,1,0,0:0:0:0:
443,99,155365,1,0,0:0:0:0:
208,184,155485,5,0,0:0:0:0:
120,92,155605,1,0,0:0:0:0:
8,132,155725,1,0,0:0:0:0:
20,252,155845,1,0,0:0:0:0:
136,280,155965,1,0,0:0:0:0:
256,176,156085,5,0,0:0:0:0:
304,161,156145,1,0,0:0:0:0:
354,167,156205,1,0,0:0:0:0:
394,195,156265,1,0,0:0:0:0:
440,180,156325,1,0,0:0:0:0:
468,140,156385,1,0,0:0:0:0:
472,92,156445,5,0,0:0:0:0:
380,128,156565,1,0,0:0:0:0:
268,80,156685,1,0,0:0:0:0:
152,160,156805,1,0,0:0:0:0:
32,56,156925,5,0,0:0:0:0:
180,156,157045,1,0,0:0:0:0:
340,72,157165,1,0,0:0:0:0:
448,240,157285,1,0,0:0:0:0:
276,340,157405,5,0,0:0:0:0:
228,376,157465,1,0,0:0:0:0:
168,372,157525,1,0,0:0:0:0:
124,328,157585,1,0,0:0:0:0:
120,268,157645,1,0,0:0:0:0:
112,208,157705,1,0,0:0:0:0:
56,184,157765,1,0,0:0:0:0:
0,208,157825,1,0,0:0:0:0:
40,280,157885,5,0,0:0:0:0:
69,266,157945,1,0,0:0:0:0:
95,248,158005,1,0,0:0:0:0:
119,226,158065,1,0,0:0:0:0:
138,201,158125,1,0,0:0:0:0:
154,172,158185,1,0,0:0:0:0:
164,142,158245,1,0,0:0:0:0:
170,111,158305,1,0,0:0:0:0:
172,76,158365,5,0,0:0:0:0:
191,76,158425,1,0,0:0:0:0:
211,78,158485,1,0,0:0:0:0:
230,84,158545,1,0,0:0:0:0:
249,92,158605,1,0,0:0:0:0:
266,103,158665,1,0,0:0:0:0:
281,116,158725,1,0,0:0:0:0:
294,130,158785,1,0,0:0:0:0:
304,148,158845,1,0,0:0:0:0:
309,166,158905,1,0,0:0:0:0:
318,184,158965,1,0,0:0:0:0:
329,201,159025,1,0,0:0:0:0:
342,216,159085,1,0,0:0:0:0:
358,229,159145,1,0,0:0:0:0:
375,239,159205,1,0,0:0:0:0:
393,247,159265,1,0,0:0:0:0:
412,252,159325,5,0,0:0:0:0:
224,184,159445,1,0,0:0:0:0:
435,162,159565,5,0,0:0:0:0:
200,273,159685,1,0,0:0:0:0:
372,67,159805,5,0,0:0:0:0:
263,368,159925,1,0,0:0:0:0:
288,104,160045,6,0,P|224:84|144:116,1,119.999996337891
224,184,160285,5,0,0:0:0:0:
316,276,160405,1,0,0:0:0:0:
436,228,160525,1,0,0:0:0:0:
508,336,160645,1,0,0:0:0:0:
464,212,160765,5,0,0:0:0:0:
300,284,160885,1,0,0:0:0:0:
224,120,161005,1,0,0:0:0:0:
60,196,161125,1,0,0:0:0:0:
136,360,161245,5,0,0:0:0:0:
216,300,161365,1,0,0:0:0:0:
184,204,161485,1,0,0:0:0:0:
240,120,161605,1,0,0:0:0:0:
336,144,161725,2,0,P|412:160|476:136,1,119.999996337891
176,240,161965,2,0,P|100:224|36:248,1,119.999996337891
368,340,162205,6,0,B|384:296|368:264|368:264|336:276|288:268|288:268|280:200|228:128|144:144,1,340.000006484985
177,142,162565,1,0,0:0:0:0:
116,308,162685,5,0,0:0:0:0:
396,76,162805,1,0,0:0:0:0:
116,308,162925,5,0,0:0:0:0:
396,76,163045,1,0,0:0:0:0:
256,364,163165,5,0,0:0:0:0:
256,16,163285,1,0,0:0:0:0:
81,190,163405,1,0,0:0:0:0:
430,190,163525,1,0,0:0:0:0:
167,190,163645,5,0,0:0:0:0:
254,278,163765,1,0,0:0:0:0:
341,190,163885,1,0,0:0:0:0:
254,103,164005,1,0,0:0:0:0:
160,282,164125,5,0,0:0:0:0:
346,97,164245,1,0,0:0:0:0:
346,282,164365,1,0,0:0:0:0:
161,97,164485,1,0,0:0:0:0:
255,351,164605,5,0,0:0:0:0:
255,25,164725,1,0,0:0:0:0:
418,188,164845,1,0,0:0:0:0:
91,188,164965,1,0,0:0:0:0:
424,331,165085,5,0,0:0:0:0:
88,52,165205,1,0,0:0:0:0:
424,331,165325,5,0,0:0:0:0:
252,68,165445,1,0,0:0:0:0:
424,331,165565,5,0,0:0:0:0:
416,80,165685,1,0,0:0:0:0:
200,208,165805,1,0,0:0:0:0:
424,331,165925,1,0,0:0:0:0:
416,80,166045,5,0,0:0:0:0:
360,60,166105,1,0,0:0:0:0:
300,64,166165,1,0,0:0:0:0:
252,100,166225,1,0,0:0:0:0:
216,148,166285,1,0,0:0:0:0:
160,168,166345,1,0,0:0:0:0:
100,168,166405,1,0,0:0:0:0:
52,136,166465,1,0,0:0:0:0:
32,80,166525,6,0,L|4:20,3,55.0000016784668
208,272,166765,2,0,L|236:332,3,55.0000016784668
132,64,167005,5,0,0:0:0:0:
152,92,167065,1,0,0:0:0:0:
180,116,167125,1,0,0:0:0:0:
212,132,167185,1,0,0:0:0:0:
244,140,167245,1,0,0:0:0:0:
280,140,167305,1,0,0:0:0:0:
316,140,167365,1,0,0:0:0:0:
352,148,167425,1,0,0:0:0:0:
384,164,167485,1,0,0:0:0:0:
412,184,167545,1,0,0:0:0:0:
428,216,167605,1,0,0:0:0:0:
428,252,167665,1,0,0:0:0:0:
416,284,167725,1,0,0:0:0:0:
388,304,167785,1,0,0:0:0:0:
352,304,167845,1,0,0:0:0:0:
320,288,167905,1,0,0:0:0:0:
308,256,167965,6,0,L|320:196,3,55.0000016784668
192,328,168205,2,0,L|172:404,3,55.0000016784668
140,196,168445,6,0,L|156:136,3,55.0000016784668
20,280,168685,2,0,L|-12:352,3,55.0000016784668
0,144,168925,5,0,0:0:0:0:
28,92,168985,1,0,0:0:0:0:
80,60,169045,1,0,0:0:0:0:
140,56,169105,1,0,0:0:0:0:
196,76,169165,1,0,0:0:0:0:
228,120,169225,1,0,0:0:0:0:
276,148,169285,1,0,0:0:0:0:
332,160,169345,1,0,0:0:0:0:
396,100,169405,5,0,0:0:0:0:
416,136,169465,1,0,0:0:0:0:
420,176,169525,1,0,0:0:0:0:
400,212,169585,1,0,0:0:0:0:
308,72,169645,1,0,0:0:0:0:
332,40,169705,1,0,0:0:0:0:
368,20,169765,1,0,0:0:0:0:
408,20,169825,1,0,0:0:0:0:
444,40,169885,6,0,L|504:68,1,59.9999981689454
484,168,170005,2,0,L|524:220,3,59.9999981689454
440,288,170245,6,0,L|420:352,1,59.9999981689454
304,328,170365,2,0,L|236:344,1,59.9999981689454
208,216,170485,2,0,L|128:176,1,59.9999981689454
260,96,170605,2,0,L|272:24,3,59.9999981689454
404,68,170845,5,0,0:0:0:0:
412,116,170905,1,0,0:0:0:0:
396,164,170965,1,0,0:0:0:0:
352,188,171025,1,0,0:0:0:0:
304,196,171085,1,0,0:0:0:0:
256,184,171145,1,0,0:0:0:0:
208,188,171205,1,0,0:0:0:0:
168,220,171265,1,0,0:0:0:0:
156,288,171325,5,0,0:0:0:0:
204,280,171385,1,0,0:0:0:0:
236,240,171445,1,0,0:0:0:0:
232,192,171505,1,0,0:0:0:0:
196,160,171565,1,0,0:0:0:0:
148,160,171625,1,0,0:0:0:0:
108,192,171685,1,0,0:0:0:0:
104,240,171745,1,0,0:0:0:0:
168,220,171805,5,0,0:0:0:0:
188,204,171865,1,0,0:0:0:0:
208,188,171925,1,0,0:0:0:0:
228,172,171985,1,0,0:0:0:0:
248,156,172045,1,0,0:0:0:0:
268,140,172105,1,0,0:0:0:0:
288,124,172165,1,0,0:0:0:0:
308,108,172225,1,0,0:0:0:0:
328,92,172285,6,0,L|384:44,3,64.9999970245363
392,160,172525,2,0,L|464:208,1,64.9999970245363
376,264,172645,2,0,L|384:332,1,64.9999970245363
280,304,172765,5,0,0:0:0:0:
236,328,172825,1,0,0:0:0:0:
188,332,172885,1,0,0:0:0:0:
144,308,172945,1,0,0:0:0:0:
124,264,173005,1,0,0:0:0:0:
124,216,173065,1,0,0:0:0:0:
100,172,173125,1,0,0:0:0:0:
56,152,173185,1,0,0:0:0:0:
32,236,173245,5,0,0:0:0:0:
80,240,173305,1,0,0:0:0:0:
124,216,173365,1,0,0:0:0:0:
144,168,173425,1,0,0:0:0:0:
160,120,173485,1,0,0:0:0:0:
196,88,173545,1,0,0:0:0:0:
244,88,173605,1,0,0:0:0:0:
288,112,173665,1,0,0:0:0:0:
288,192,173725,5,0,0:0:0:0:
232,176,173785,1,0,0:0:0:0:
208,120,173845,1,0,0:0:0:0:
224,60,173905,1,0,0:0:0:0:
280,40,173965,1,0,0:0:0:0:
308,96,174025,1,0,0:0:0:0:
364,112,174085,1,0,0:0:0:0:
420,96,174145,1,0,0:0:0:0:
464,52,174205,5,0,0:0:0:0:
456,68,174265,1,0,0:0:0:0:
448,84,174325,1,0,0:0:0:0:
440,100,174385,1,0,0:0:0:0:
432,116,174445,1,0,0:0:0:0:
424,132,174505,1,0,0:0:0:0:
416,148,174565,1,0,0:0:0:0:
408,164,174625,1,0,0:0:0:0:
400,180,174685,5,0,0:0:0:0:
324,244,174805,1,0,0:0:0:0:
232,208,174925,1,0,0:0:0:0:
148,260,175045,1,0,0:0:0:0:
56,220,175165,1,0,0:0:0:0:
40,120,175285,1,0,0:0:0:0:
124,64,175405,1,0,0:0:0:0:
216,108,175525,1,0,0:0:0:0:
304,60,175645,5,0,0:0:0:0:
304,60,175765,1,0,0:0:0:0:
304,60,175885,2,0,P|360:44|444:60,1,100
208,324,176125,1,0,0:0:0:0:
208,324,176245,1,0,0:0:0:0:
208,324,176365,2,0,P|152:340|68:324,1,100
472,336,176605,5,0,0:0:0:0:
400,268,176725,1,0,0:0:0:0:
300,256,176845,1,0,0:0:0:0:
232,184,176965,1,0,0:0:0:0:
484,100,177085,1,0,0:0:0:0:
392,144,177325,5,0,0:0:0:0:
296,108,177445,1,0,0:0:0:0:
240,24,177565,5,0,0:0:0:0:
296,108,177685,1,0,0:0:0:0:
232,184,177805,1,0,0:0:0:0:
340,288,177925,1,0,0:0:0:0:
148,348,178045,1,0,0:0:0:0:
340,240,178165,1,0,0:0:0:0:
152,124,178285,1,0,0:0:0:0:
348,24,178405,1,0,0:0:0:0:
460,120,178525,5,0,0:0:0:0:
364,232,178645,1,0,0:0:0:0:
252,136,178765,1,0,0:0:0:0:
348,24,178885,1,0,0:0:0:0:
96,324,179125,5,0,0:0:0:0:
228,256,179245,1,0,0:0:0:0:
116,160,179365,1,0,0:0:0:0:
188,28,179485,5,0,0:0:0:0:
48,172,179605,1,0,0:0:0:0:
208,292,179725,1,0,0:0:0:0:
24,368,179845,1,0,0:0:0:0:
48,172,179965,6,0,B|114:210|114:210|158:170|158:170|192:160|252:248|356:184,1,300.000011444092
396,140,180445,5,0,0:0:0:0:
248,116,180565,1,0,0:0:0:0:
224,264,180685,1,0,0:0:0:0:
372,288,180805,1,0,0:0:0:0:
173,179,180925,5,0,0:0:0:0:
287,338,181045,1,0,0:0:0:0:
446,224,181165,1,0,0:0:0:0:
332,65,181285,1,0,0:0:0:0:
314,202,181405,5,0,0:0:0:0:
304,220,181465,1,0,0:0:0:0:
288,232,181525,1,0,0:0:0:0:
272,240,181585,1,0,0:0:0:0:
252,244,181645,1,0,0:0:0:0:
232,244,181705,1,0,0:0:0:0:
212,240,181765,1,0,0:0:0:0:
196,232,181825,1,0,0:0:0:0:
180,224,181885,1,0,0:0:0:0:
160,220,181945,1,0,0:0:0:0:
140,220,182005,1,0,0:0:0:0:
120,224,182065,1,0,0:0:0:0:
104,232,182125,1,0,0:0:0:0:
92,248,182185,1,0,0:0:0:0:
84,264,182245,1,0,0:0:0:0:
80,284,182305,1,0,0:0:0:0:
80,304,182365,5,0,0:0:0:0:
512,296,190045,5,0,0:0:0:0:
486,304,190105,1,0,0:0:0:0:
458,307,190165,1,0,0:0:0:0:
431,305,190225,1,0,0:0:0:0:
405,298,190285,1,0,0:0:0:0:
380,287,190345,1,0,0:0:0:0:
358,270,190405,1,0,0:0:0:0:
340,251,190465,1,0,0:0:0:0:
325,228,190525,1,0,0:0:0:0:
315,202,190585,1,0,0:0:0:0:
310,176,190645,1,0,0:0:0:0:
310,148,190705,1,0,0:0:0:0:
316,124,190765,6,0,L|328:68,3,50
464,176,191005,5,0,0:0:0:0:
438,202,191065,1,0,0:0:0:0:
409,223,191125,1,0,0:0:0:0:
375,237,191185,1,0,0:0:0:0:
340,245,191245,1,0,0:0:0:0:
304,245,191305,1,0,0:0:0:0:
268,238,191365,1,0,0:0:0:0:
234,225,191425,1,0,0:0:0:0:
204,204,191485,1,0,0:0:0:0:
179,179,191545,1,0,0:0:0:0:
159,148,191605,1,0,0:0:0:0:
145,115,191665,1,0,0:0:0:0:
140,80,191725,6,0,L|140:12,3,50
326,75,191965,5,0,0:0:0:0:
329,120,192025,1,0,0:0:0:0:
320,164,192085,1,0,0:0:0:0:
300,205,192145,1,0,0:0:0:0:
269,238,192205,1,0,0:0:0:0:
230,261,192265,1,0,0:0:0:0:
186,273,192325,1,0,0:0:0:0:
141,273,192385,1,0,0:0:0:0:
98,260,192445,1,0,0:0:0:0:
59,236,192505,1,0,0:0:0:0:
29,203,192565,1,0,0:0:0:0:
8,162,192625,1,0,0:0:0:0:
0,120,192685,6,0,L|0:56,3,50
68,24,192925,5,0,0:0:0:0:
69,62,192985,1,0,0:0:0:0:
87,97,193045,1,0,0:0:0:0:
119,123,193105,1,0,0:0:0:0:
156,134,193165,1,0,0:0:0:0:
196,128,193225,1,0,0:0:0:0:
232,108,193285,5,0,0:0:0:0:
281,115,193345,1,0,0:0:0:0:
318,148,193405,1,0,0:0:0:0:
331,194,193465,1,0,0:0:0:0:
310,240,193525,1,0,0:0:0:0:
260,248,193585,1,0,0:0:0:0:
224,284,193645,1,0,0:0:0:0:
224,332,193705,1,0,0:0:0:0:
260,368,193765,2,0,L|320:392,1,50
424,332,193885,5,0,0:0:0:0:
444,302,193945,1,0,0:0:0:0:
456,267,194005,1,0,0:0:0:0:
459,231,194065,1,0,0:0:0:0:
452,196,194125,1,0,0:0:0:0:
436,163,194185,1,0,0:0:0:0:
412,136,194245,1,0,0:0:0:0:
382,116,194305,1,0,0:0:0:0:
348,104,194365,1,0,0:0:0:0:
312,102,194425,1,0,0:0:0:0:
276,110,194485,1,0,0:0:0:0:
244,126,194545,1,0,0:0:0:0:
220,148,194605,6,0,L|176:192,3,50
368,216,194845,5,0,0:0:0:0:
359,171,194905,1,0,0:0:0:0:
338,131,194965,1,0,0:0:0:0:
307,98,195025,1,0,0:0:0:0:
268,75,195085,1,0,0:0:0:0:
224,64,195145,1,0,0:0:0:0:
178,65,195205,1,0,0:0:0:0:
135,79,195265,1,0,0:0:0:0:
98,105,195325,1,0,0:0:0:0:
69,140,195385,1,0,0:0:0:0:
51,181,195445,1,0,0:0:0:0:
45,226,195505,1,0,0:0:0:0:
48,264,195565,6,0,L|60:320,3,50
140,252,195805,5,0,0:0:0:0:
188,252,195865,1,0,0:0:0:0:
232,228,195925,1,0,0:0:0:0:
252,180,195985,1,0,0:0:0:0:
248,132,196045,1,0,0:0:0:0:
276,88,196105,1,0,0:0:0:0:
324,72,196165,1,0,0:0:0:0:
372,84,196225,1,0,0:0:0:0:
412,116,196285,6,0,L|488:120,7,50
332,168,196765,5,0,0:0:0:0:
336,192,196825,1,0,0:0:0:0:
340,216,196885,1,0,0:0:0:0:
344,240,196945,1,0,0:0:0:0:
348,264,197005,1,0,0:0:0:0:
352,288,197065,1,0,0:0:0:0:
356,312,197125,1,0,0:0:0:0:
360,336,197185,1,0,0:0:0:0:
364,360,197245,6,0,L|412:384,7,50
468,296,197725,5,0,0:0:0:0:
436,240,197785,1,0,0:0:0:0:
376,216,197845,1,0,0:0:0:0:
312,228,197905,1,0,0:0:0:0:
256,264,197965,1,0,0:0:0:0:
196,288,198025,1,0,0:0:0:0:
132,272,198085,1,0,0:0:0:0:
84,228,198145,1,0,0:0:0:0:
68,164,198205,6,0,L|76:96,5,50
228,104,198565,2,0,L|288:56,1,50
396,68,198685,5,0,0:0:0:0:
428,132,198745,1,0,0:0:0:0:
412,200,198805,1,0,0:0:0:0:
352,240,198865,1,0,0:0:0:0:
284,240,198925,1,0,0:0:0:0:
220,208,198985,1,0,0:0:0:0:
152,212,199045,1,0,0:0:0:0:
92,252,199105,1,0,0:0:0:0:
88,320,199165,1,0,0:0:0:0:
128,376,199225,1,0,0:0:0:0:
196,384,199285,1,0,0:0:0:0:
252,344,199345,1,0,0:0:0:0:
252,276,199405,1,0,0:0:0:0:
212,220,199465,1,0,0:0:0:0:
144,208,199525,1,0,0:0:0:0:
108,148,199585,1,0,0:0:0:0:
124,80,199645,5,0,0:0:0:0:
188,52,199705,1,0,0:0:0:0:
252,76,199765,1,0,0:0:0:0:
296,132,199825,1,0,0:0:0:0:
360,160,199885,1,0,0:0:0:0:
428,156,199945,1,0,0:0:0:0:
472,100,200005,1,0,0:0:0:0:
452,32,200065,1,0,0:0:0:0:
384,8,200125,6,0,L|328:-20,7,50
324,80,200605,5,0,0:0:0:0:
312,108,200665,1,0,0:0:0:0:
300,136,200725,1,0,0:0:0:0:
288,164,200785,1,0,0:0:0:0:
316,172,200845,5,0,0:0:0:0:
328,200,200905,1,0,0:0:0:0:
340,228,200965,1,0,0:0:0:0:
352,256,201025,1,0,0:0:0:0:
324,256,201085,5,0,0:0:0:0:
312,284,201145,1,0,0:0:0:0:
300,312,201205,1,0,0:0:0:0:
288,340,201265,1,0,0:0:0:0:
316,348,201325,6,0,L|360:380,3,50
464,320,201565,5,0,0:0:0:0:
456,260,201625,1,0,0:0:0:0:
412,220,201685,1,0,0:0:0:0:
352,216,201745,1,0,0:0:0:0:
300,244,201805,1,0,0:0:0:0:
240,236,201865,1,0,0:0:0:0:
200,192,201925,1,0,0:0:0:0:
200,132,201985,1,0,0:0:0:0:
228,80,202045,6,0,L|272:20,3,50
376,108,202285,2,0,L|464:92,3,50
228,80,202525,5,0,0:0:0:0:
172,60,202585,1,0,0:0:0:0:
112,64,202645,1,0,0:0:0:0:
80,112,202705,1,0,0:0:0:0:
88,172,202765,1,0,0:0:0:0:
104,228,202825,1,0,0:0:0:0:
96,288,202885,1,0,0:0:0:0:
48,324,202945,1,0,0:0:0:0:
108,312,203005,1,0,0:0:0:0:
160,340,203065,1,0,0:0:0:0:
220,328,203125,1,0,0:0:0:0:
276,352,203185,1,0,0:0:0:0:
332,328,203245,6,0,L|392:356,3,50
196,248,203485,5,0,0:0:0:0:
124,224,203545,1,0,0:0:0:0:
100,152,203605,1,0,0:0:0:0:
140,88,203665,1,0,0:0:0:0:
216,80,203725,1,0,0:0:0:0:
272,128,203785,1,0,0:0:0:0:
288,200,203845,1,0,0:0:0:0:
340,256,203905,1,0,0:0:0:0:
416,260,203965,1,0,0:0:0:0:
472,208,204025,1,0,0:0:0:0:
464,132,204085,1,0,0:0:0:0:
400,96,204145,1,0,0:0:0:0:
328,112,204205,1,0,0:0:0:0:
288,176,204265,1,0,0:0:0:0:
236,228,204325,1,0,0:0:0:0:
160,232,204385,1,0,0:0:0:0:
100,188,204445,5,0,0:0:0:0:
420,138,204565,1,0,0:0:0:0:
190,367,204685,1,0,0:0:0:0:
241,46,204805,1,0,0:0:0:0:
389,335,204925,1,0,0:0:0:0:
100,188,205045,1,0,0:0:0:0:
420,138,205165,1,0,0:0:0:0:
190,367,205285,1,0,0:0:0:0:
241,46,205405,5,0,0:0:0:0:
256,196,214045,5,0,0:0:0:0:
84,312,215965,5,0,0:0:0:0:
412,280,216925,5,0,0:0:0:0:
280,208,217045,1,0,0:0:0:0:
408,128,217165,1,0,0:0:0:0:
412,280,217285,5,0,0:0:0:0:
164,288,217405,1,0,0:0:0:0:
268,60,217525,1,0,0:0:0:0:
412,280,217645,1,0,0:0:0:0:
120,196,217885,5,0,0:0:0:0:
60,60,218005,1,0,0:0:0:0:
196,0,218125,1,0,0:0:0:0:
256,136,218245,1,0,0:0:0:0:
232,260,218365,5,0,0:0:0:0:
396,188,218485,1,0,0:0:0:0:
324,24,218605,1,0,0:0:0:0:
160,96,218725,1,0,0:0:0:0:
56,232,218845,5,0,0:0:0:0:
252,356,218965,1,0,0:0:0:0:
452,240,219085,1,0,0:0:0:0:
432,12,219205,1,0,0:0:0:0:
386,229,219325,5,0,0:0:0:0:
272,312,219445,1,0,0:0:0:0:
156,232,219565,1,0,0:0:0:0:
192,96,219685,1,0,0:0:0:0:
344,100,219805,5,0,0:0:0:0:
352,100,219865,1,0,0:0:0:0:
360,100,219925,1,0,0:0:0:0:
368,100,219985,1,0,0:0:0:0:
376,100,220045,1,0,0:0:0:0:
484,76,220165,1,0,0:0:0:0:
404,0,220285,5,0,0:0:0:0:
312,120,220405,1,0,0:0:0:0:
408,236,220525,1,0,0:0:0:0:
304,344,220645,1,0,0:0:0:0:
420,348,220765,5,0,0:0:0:0:
324,260,220885,1,0,0:0:0:0:
396,152,221005,1,0,0:0:0:0:
316,52,221125,1,0,0:0:0:0:
212,108,221245,1,0,0:0:0:0:
216,216,221365,1,0,0:0:0:0:
128,264,221485,1,0,0:0:0:0:
56,212,221605,1,0,0:0:0:0:
72,132,221725,5,0,0:0:0:0:
452,332,222445,1,0,0:0:0:0:
148,116,222685,5,0,0:0:0:0:
452,332,223405,1,0,0:0:0:0:
72,324,223645,5,0,0:0:0:0:
400,104,224005,1,0,0:0:0:0:
280,288,224365,1,0,0:0:0:0:
144,104,224605,5,0,0:0:0:0:
488,292,225085,1,0,0:0:0:0:
488,292,225565,5,0,0:0:0:0:
452,308,225625,1,0,0:0:0:0:
412,308,225685,1,0,0:0:0:0:
372,296,225745,1,0,0:0:0:0:
344,268,225805,1,0,0:0:0:0:
328,232,225865,1,0,0:0:0:0:
328,192,225925,5,0,0:0:0:0:
392,116,226045,1,0,0:0:0:0:
328,40,226165,1,0,0:0:0:0:
232,64,226285,1,0,0:0:0:0:
228,164,226405,1,0,0:0:0:0:
196,260,226525,5,0,0:0:0:0:
100,292,226645,1,0,0:0:0:0:
125,322,226705,1,0,0:0:0:0:
159,343,226765,1,0,0:0:0:0:
198,350,226825,1,0,0:0:0:0:
237,344,226885,1,0,0:0:0:0:
272,326,226945,1,0,0:0:0:0:
300,304,227005,5,0,0:0:0:0:
317,296,227065,1,0,0:0:0:0:
335,291,227125,1,0,0:0:0:0:
353,288,227185,1,0,0:0:0:0:
372,286,227245,1,0,0:0:0:0:
391,287,227305,1,0,0:0:0:0:
409,289,227365,1,0,0:0:0:0:
428,293,227425,1,0,0:0:0:0:
445,299,227485,5,0,0:0:0:0:
256,192,227725,12,0,229165,0:0:0:0:
60,108,229405,5,0,0:0:0:0:
83,94,229465,1,0,0:0:0:0:
107,85,229525,1,0,0:0:0:0:
134,80,229585,1,0,0:0:0:0:
160,79,229645,1,0,0:0:0:0:
187,83,229705,1,0,0:0:0:0:
212,92,229765,1,0,0:0:0:0:
235,104,229825,1,0,0:0:0:0:
256,121,229885,1,0,0:0:0:0:
274,140,229945,1,0,0:0:0:0:
289,163,230005,1,0,0:0:0:0:
299,187,230065,1,0,0:0:0:0:
305,213,230125,1,0,0:0:0:0:
306,240,230185,1,0,0:0:0:0:
303,266,230245,1,0,0:0:0:0:
296,292,230305,1,0,0:0:0:0:
288,316,230365,5,0,0:0:0:0:
309,349,230425,1,0,0:0:0:0:
343,371,230485,1,0,0:0:0:0:
382,378,230545,1,0,0:0:0:0:
420,369,230605,1,0,0:0:0:0:
453,346,230665,1,0,0:0:0:0:
464,308,230725,1,0,0:0:0:0:
430,285,230785,1,0,0:0:0:0:
408,252,230845,1,0,0:0:0:0:
400,213,230905,1,0,0:0:0:0:
409,174,230965,1,0,0:0:0:0:
432,142,231025,1,0,0:0:0:0:
468,120,231085,6,0,L|528:92,3,50
496,220,231325,5,0,0:0:0:0:
471,230,231385,1,0,0:0:0:0:
445,238,231445,1,0,0:0:0:0:
419,243,231505,1,0,0:0:0:0:
393,245,231565,1,0,0:0:0:0:
366,244,231625,1,0,0:0:0:0:
340,241,231685,1,0,0:0:0:0:
314,235,231745,1,0,0:0:0:0:
292,228,231805,1,0,0:0:0:0:
266,218,231865,1,0,0:0:0:0:
241,212,231925,1,0,0:0:0:0:
214,208,231985,1,0,0:0:0:0:
188,207,232045,1,0,0:0:0:0:
161,210,232105,1,0,0:0:0:0:
135,215,232165,1,0,0:0:0:0:
109,222,232225,1,0,0:0:0:0:
88,236,232285,6,0,L|40:268,5,50
136,128,232645,5,0,0:0:0:0:
140,120,232705,1,0,0:0:0:0:
144,112,232765,1,0,0:0:0:0:
148,104,232825,1,0,0:0:0:0:
152,96,232885,1,0,0:0:0:0:
156,88,232945,1,0,0:0:0:0:
160,80,233005,6,0,L|160:28,3,50
56,64,233245,5,0,0:0:0:0:
48,100,233305,1,0,0:0:0:0:
48,138,233365,1,0,0:0:0:0:
54,175,233425,1,0,0:0:0:0:
68,210,233485,1,0,0:0:0:0:
87,241,233545,1,0,0:0:0:0:
120,264,233605,1,0,0:0:0:0:
149,241,233665,1,0,0:0:0:0:
183,224,233725,1,0,0:0:0:0:
219,214,233785,1,0,0:0:0:0:
256,211,233845,1,0,0:0:0:0:
294,215,233905,1,0,0:0:0:0:
332,228,233965,1,0,0:0:0:0:
366,211,234025,1,0,0:0:0:0:
395,188,234085,1,0,0:0:0:0:
420,160,234145,1,0,0:0:0:0:
432,120,234205,6,0,L|440:52,1,50
352,84,234325,2,0,L|312:36,1,50
248,88,234445,2,0,L|188:68,3,50
160,152,234685,6,0,L|108:192,1,50
176,280,234805,2,0,L|168:340,3,50
296,288,235045,1,0,0:0:0:0:
300,304,235105,1,0,0:0:0:0:
304,320,235165,5,0,0:0:0:0:
364,320,235225,1,0,0:0:0:0:
400,272,235285,1,0,0:0:0:0:
396,212,235345,1,0,0:0:0:0:
356,168,235405,1,0,0:0:0:0:
340,112,235465,1,0,0:0:0:0:
364,56,235525,1,0,0:0:0:0:
420,40,235585,1,0,0:0:0:0:
472,68,235645,1,0,0:0:0:0:
492,124,235705,1,0,0:0:0:0:
468,180,235765,1,0,0:0:0:0:
412,196,235825,1,0,0:0:0:0:
356,172,235885,1,0,0:0:0:0:
296,172,235945,1,0,0:0:0:0:
240,192,236005,1,0,0:0:0:0:
220,248,236065,1,0,0:0:0:0:
236,304,236125,5,0,0:0:0:0:
380,340,236245,1,0,0:0:0:0:
480,228,236365,1,0,0:0:0:0:
432,88,236485,1,0,0:0:0:0:
292,76,236605,5,0,0:0:0:0:
192,156,236725,1,0,0:0:0:0:
216,272,236845,1,0,0:0:0:0:
320,304,236965,1,0,0:0:0:0:
396,236,237085,5,0,0:0:0:0:
288,132,237205,1,0,0:0:0:0:
144,172,237325,1,0,0:0:0:0:
72,40,237445,1,0,0:0:0:0:
12,176,237565,5,0,0:0:0:0:
184,72,237685,1,0,0:0:0:0:
252,260,237805,1,0,0:0:0:0:
428,164,237925,1,0,0:0:0:0:
232,116,238045,5,0,0:0:0:0:
184,312,238165,1,0,0:0:0:0:
380,360,238285,1,0,0:0:0:0:
428,164,238405,1,0,0:0:0:0:
167,204,238525,5,0,0:0:0:0:
272,376,238645,1,0,0:0:0:0:
339,99,238765,1,0,0:0:0:0:
444,271,238885,1,0,0:0:0:0:
216,84,239005,5,0,0:0:0:0:
264,280,239125,1,0,0:0:0:0:
68,328,239245,1,0,0:0:0:0:
20,132,239365,1,0,0:0:0:0:
280,172,239485,5,0,0:0:0:0:
175,344,239605,1,0,0:0:0:0:
108,67,239725,1,0,0:0:0:0:
3,239,239845,1,0,0:0:0:0:
228,40,239965,5,0,0:0:0:0:
364,104,240085,1,0,0:0:0:0:
368,252,240205,1,0,0:0:0:0:
240,332,240325,1,0,0:0:0:0:
496,176,240445,5,0,0:0:0:0:
334,295,240565,1,0,0:0:0:0:
138,262,240685,1,0,0:0:0:0:
47,82,240805,1,0,0:0:0:0:
272,132,240925,5,0,0:0:0:0:
3,199,241045,1,0,0:0:0:0:
272,132,241165,1,0,0:0:0:0:
456,272,241285,1,0,0:0:0:0:
272,132,241405,5,0,0:0:0:0:
157,321,241525,1,0,0:0:0:0:
272,132,241645,1,0,0:0:0:0:
455,106,241765,1,0,0:0:0:0:
272,132,241885,5,0,0:0:0:0:
311,293,242005,1,0,0:0:0:0:
272,132,242125,1,0,0:0:0:0:
355,21,242245,1,0,0:0:0:0:
444,224,242365,5,0,0:0:0:0:
324,204,242485,1,0,0:0:0:0:
208,240,242605,1,0,0:0:0:0:
104,184,242725,1,0,0:0:0:0:
120,64,242845,5,0,0:0:0:0:
232,20,242965,1,0,0:0:0:0:
328,92,243085,1,0,0:0:0:0:
440,48,243205,1,0,0:0:0:0:
328,92,243325,5,0,0:0:0:0:
120,64,243445,1,0,0:0:0:0:
92,272,243565,1,0,0:0:0:0:
132,300,243625,1,0,0:0:0:0:
180,312,243685,1,0,0:0:0:0:
228,304,243745,1,0,0:0:0:0:
268,272,243805,5,0,0:0:0:0:
308,252,243865,1,0,0:0:0:0:
348,244,243925,1,0,0:0:0:0:
384,248,243985,1,0,0:0:0:0:
412,260,244045,1,0,0:0:0:0:
432,272,244105,1,0,0:0:0:0:
448,284,244165,1,0,0:0:0:0:
460,296,244225,1,0,0:0:0:0:
468,304,244285,5,0,0:0:0:0:
376,340,244405,1,0,0:0:0:0:
296,280,244525,1,0,0:0:0:0:
320,184,244645,1,0,0:0:0:0:
236,120,244765,6,0,P|168:96|96:112,1,100
372,104,245005,2,0,P|440:128|512:112,1,100
436,48,245245,5,0,0:0:0:0:
168,180,245365,1,0,0:0:0:0:
416,348,245485,1,0,0:0:0:0:
436,48,245605,1,0,0:0:0:0:
261,306,245725,5,0,0:0:0:0:
477,200,245845,1,0,0:0:0:0:
279,67,245965,1,0,0:0:0:0:
261,306,246085,1,0,0:0:0:0:
397,105,246205,5,0,0:0:0:0:
236,184,246325,1,0,0:0:0:0:
385,285,246445,1,0,0:0:0:0:
397,105,246565,1,0,0:0:0:0:
344,192,246685,5,0,0:0:0:0:
268,256,246805,1,0,0:0:0:0:
172,228,246925,1,0,0:0:0:0:
88,280,247045,1,0,0:0:0:0:
380,288,247165,5,0,0:0:0:0:
276,180,247285,1,0,0:0:0:0:
164,308,247405,1,0,0:0:0:0:
88,124,247525,1,0,0:0:0:0:
212,40,247645,5,0,0:0:0:0:
392,100,247765,1,0,0:0:0:0:
292,100,247885,1,0,0:0:0:0:
472,40,248005,1,0,0:0:0:0:
188,132,248125,5,0,0:0:0:0:
116,204,248245,1,0,0:0:0:0:
140,300,248365,1,0,0:0:0:0:
56,352,248485,1,0,0:0:0:0:
348,188,248605,6,0,B|312:228|312:228|272:200,1,100
348,188,248845,2,0,B|308:152|308:152|336:112,1,100
348,188,249085,2,0,B|384:148|384:148|424:176,1,100
348,188,249325,2,0,B|388:224|388:224|360:264,1,100
252,336,249565,5,0,0:0:0:0:
120,188,249685,1,0,0:0:0:0:
180,360,249805,1,0,0:0:0:0:
191,163,249925,1,0,0:0:0:0:
292,272,250045,5,0,0:0:0:0:
90,256,250165,1,0,0:0:0:0:
105,55,250285,1,0,0:0:0:0:
307,70,250405,1,0,0:0:0:0:
100,112,250525,5,0,0:0:0:0:
244,72,250645,1,0,0:0:0:0:
285,216,250765,1,0,0:0:0:0:
141,256,250885,1,0,0:0:0:0:
232,226,251005,5,0,0:0:0:0:
254,124,251125,1,0,0:0:0:0:
152,101,251245,1,0,0:0:0:0:
130,203,251365,1,0,0:0:0:0:
188,112,251485,5,0,0:0:0:0:
141,168,251605,1,0,0:0:0:0:
196,215,251725,1,0,0:0:0:0:
243,159,251845,1,0,0:0:0:0:
192,164,251965,5,0,0:0:0:0:
192,164,252085,1,0,0:0:0:0:
192,164,252205,1,0,0:0:0:0:
192,164,252325,1,0,0:0:0:0:
192,164,252445,5,0,0:0:0:0:
194,183,252505,1,0,0:0:0:0:
203,203,252565,1,0,0:0:0:0:
217,217,252625,1,0,0:0:0:0:
237,226,252685,1,0,0:0:0:0:
257,229,252745,1,0,0:0:0:0:
276,226,252805,1,0,0:0:0:0:
296,217,252865,1,0,0:0:0:0:
312,208,252925,1,0,0:0:0:0:
332,211,252985,1,0,0:0:0:0:
348,220,253045,1,0,0:0:0:0:
364,232,253105,1,0,0:0:0:0:
376,248,253165,1,0,0:0:0:0:
384,263,253225,1,0,0:0:0:0:
387,283,253285,1,0,0:0:0:0:
384,304,253345,1,0,0:0:0:0:
380,324,253405,6,0,P|456:260|312:48,1,400
192,164,254125,5,0,0:0:0:0:
192,164,254245,1,0,0:0:0:0:
192,164,254365,5,0,0:0:0:0:
204,172,254425,1,0,0:0:0:0:
216,180,254485,1,0,0:0:0:0:
228,188,254545,1,0,0:0:0:0:
240,196,254605,1,0,0:0:0:0:
252,204,254665,1,0,0:0:0:0:
264,212,254725,1,0,0:0:0:0:
276,220,254785,1,0,0:0:0:0:
288,228,254845,1,0,0:0:0:0:
300,236,254905,1,0,0:0:0:0:
312,244,254965,1,0,0:0:0:0:
324,252,255025,1,0,0:0:0:0:
336,260,255085,1,0,0:0:0:0:
348,268,255145,1,0,0:0:0:0:
360,276,255205,1,0,0:0:0:0:
372,284,255265,1,0,0:0:0:0:
384,292,255325,6,0,P|460:184|340:88,1,300.000011444092
128,120,256045,5,0,0:0:0:0:
68,200,256165,1,0,0:0:0:0:
132,272,256285,5,0,0:0:0:0:
144,280,256345,1,0,0:0:0:0:
160,284,256405,1,0,0:0:0:0:
176,284,256465,1,0,0:0:0:0:
192,280,256525,1,0,0:0:0:0:
204,272,256585,1,0,0:0:0:0:
216,260,256645,1,0,0:0:0:0:
220,248,256705,1,0,0:0:0:0:
228,236,256765,1,0,0:0:0:0:
236,224,256825,1,0,0:0:0:0:
248,216,256885,1,0,0:0:0:0:
264,212,256945,1,0,0:0:0:0:
280,212,257005,1,0,0:0:0:0:
296,216,257065,1,0,0:0:0:0:
308,224,257125,1,0,0:0:0:0:
320,232,257185,1,0,0:0:0:0:
332,244,257245,6,0,L|360:284,7,37.5000014305115
384,184,257725,2,0,L|432:176,3,37.5000014305115
368,88,257965,2,0,L|380:52,3,37.5000014305115
256,72,258205,5,0,0:0:0:0:
244,80,258265,1,0,0:0:0:0:
232,88,258325,1,0,0:0:0:0:
220,96,258385,1,0,0:0:0:0:
208,108,258445,1,0,0:0:0:0:
196,116,258505,1,0,0:0:0:0:
184,124,258565,1,0,0:0:0:0:
172,132,258625,1,0,0:0:0:0:
160,140,258685,1,0,0:0:0:0:
148,148,258745,1,0,0:0:0:0:
136,156,258805,1,0,0:0:0:0:
124,164,258865,1,0,0:0:0:0:
112,176,258925,1,0,0:0:0:0:
100,184,258985,1,0,0:0:0:0:
88,192,259045,1,0,0:0:0:0:
76,200,259105,1,0,0:0:0:0:
64,208,259165,5,0,0:0:0:0:
156,324,259285,1,0,0:0:0:0:
292,264,259405,2,0,P|360:228|312:296,1,200
156,324,259765,5,0,0:0:0:0:
64,208,259885,1,0,0:0:0:0:
196,132,260005,1,0,0:0:0:0:
80,36,260125,5,0,0:0:0:0:
144,224,260245,1,0,0:0:0:0:
280,76,260365,1,0,0:0:0:0:
336,268,260485,1,0,0:0:0:0:
44,148,260605,5,0,0:0:0:0:
192,64,260725,1,0,0:0:0:0:
280,208,260845,1,0,0:0:0:0:
424,120,260965,1,0,0:0:0:0:
76,48,261085,5,0,0:0:0:0:
176,276,261205,1,0,0:0:0:0:
344,92,261325,1,0,0:0:0:0:
448,320,261445,1,0,0:0:0:0:
24,208,261565,5,0,0:0:0:0:
196,104,261685,1,0,0:0:0:0:
304,272,261805,1,0,0:0:0:0:
492,200,261925,1,0,0:0:0:0:
48,24,262045,5,0,0:0:0:0:
132,312,262165,1,0,0:0:0:0:
344,92,262285,1,0,0:0:0:0:
480,360,262405,1,0,0:0:0:0:
24,208,262525,5,0,0:0:0:0:
224,56,262645,1,0,0:0:0:0:
284,300,262765,1,0,0:0:0:0:
488,156,262885,1,0,0:0:0:0:
112,72,263005,5,0,0:0:0:0:
121,135,263065,1,0,0:0:0:0:
168,180,263125,1,0,0:0:0:0:
235,182,263185,1,0,0:0:0:0:
297,168,263245,1,0,0:0:0:0:
360,183,263305,1,0,0:0:0:0:
400,234,263365,5,0,0:0:0:0:
36,222,263485,1,0,0:0:0:0:
338,18,263605,1,0,0:0:0:0:
214,361,263725,1,0,0:0:0:0:
113,10,263845,1,0,0:0:0:0:
