osu file format v14

[General]
AudioFilename: audio.mp3
AudioLeadIn: 0
PreviewTime: 71498
Countdown: 0
SampleSet: Normal
StackLeniency: 0.7
Mode: 1
LetterboxInBreaks: 0
WidescreenStoryboard: 0

[Editor]
Bookmarks: 5738,7658,24938,40298,111338,128618,190058
DistanceSpacing: 0.85
BeatDivisor: 4
GridSize: 32
TimelineZoom: 3.099999

[Metadata]
Title:Shinbatsu o Tadori Kyoukotsu ni Itaru
TitleUnicode:神罰を辿り狂骨に至る
Artist:Imperial Circus Dead Decadence
ArtistUnicode:Imperial Circus Dead Decadence
Creator:Vulkin
Version:Ulqui's Inner Oni
Source:osu!
Tags:リブユウキ Rib yuhki Hull KIM KIMI Hellnear 飯塚悠人 Yuto Iizuka Shuhei Kamada icdd 黄泉より聴こゆ、皇国の燈と焔の少女。 Yomi yori Kikoyu, Koukoku no Tou to Honoo no Shoujo. symphonic black metal dojin doujin japanese rock featured artist frukoyurdakul Ulqui
BeatmapID:1342316
BeatmapSetID:616902

[Difficulty]
HPDrainRate:5
CircleSize:7
OverallDifficulty:6
ApproachRate:10
SliderMultiplier:1.4
SliderTickRate:1

[Events]
//Background and Video events
0,0,"howl_at_the_universe_by_nanomortis-da02cbp.png",0,0
//Break Periods
2,205618,212168
//Storyboard Layer 0 (Background)
//Storyboard Layer 1 (Fail)
//Storyboard Layer 2 (Pass)
//Storyboard Layer 3 (Foreground)
//Storyboard Layer 4 (Overlay)
//Storyboard Sound Samples

[TimingPoints]
938,240,4,1,1,70,1,0
40298,-100,4,1,1,70,0,1
47978,-100,4,1,1,70,0,0
56138,-142.857142857143,4,1,1,70,0,0
56618,-125,4,1,1,70,0,0
57098,-111.111111111111,4,1,1,70,0,0
57578,-100,4,1,1,70,0,1
71018,-100,4,1,1,70,0,0
71498,-166.666666666667,4,1,1,70,0,0
71978,-142.857142857143,4,1,1,70,0,0
72458,-125,4,1,1,70,0,0
72938,-100,4,1,1,70,0,1
88298,-100,4,1,1,70,0,0
94058,-111.111111111111,4,1,1,70,0,0
94418,-108.695652173913,4,1,1,70,0,0
94778,-106.382978723404,4,1,1,70,0,0
95138,-104.166666666667,4,1,1,70,0,0
95498,-102.040816326531,4,1,1,70,0,0
95978,-100,4,1,1,70,0,0
128618,-100,4,1,1,70,0,1
136298,-100,4,1,1,70,0,0
143978,-100,4,1,1,70,0,1
157418,-100,4,1,1,70,0,0
159338,-100,4,1,1,70,0,1
174698,-100,4,1,1,70,0,0
197738,-100,4,1,1,70,0,1
205418,-100,4,1,1,70,0,0
229418,-100,4,1,1,70,0,1
243818,-100,4,1,1,70,0,0
244778,-100,4,1,1,70,0,1
260138,-100,4,1,1,70,0,0

[HitObjects]
64,96,5498,5,0,0:0:0:0:
192,64,5738,1,4,0:0:0:0:
256,192,5858,12,0,6578,0:0:0:0:
224,128,6698,5,0,0:0:0:0:
224,128,6938,1,0,0:0:0:0:
224,128,7058,1,8,0:0:0:0:
224,128,7298,1,0,0:0:0:0:
224,128,7418,1,8,0:0:0:0:
224,128,7658,1,4,0:0:0:0:
192,192,7898,1,0,0:0:0:0:
192,192,8018,1,8,0:0:0:0:
160,128,8078,1,8,0:0:0:0:
192,192,8138,1,0,0:0:0:0:
192,192,8258,1,0,0:0:0:0:
192,192,8378,1,8,0:0:0:0:
192,192,8618,1,0,0:0:0:0:
160,32,8678,1,0,0:0:0:0:
192,192,8738,1,8,0:0:0:0:
192,192,8858,1,0,0:0:0:0:
192,192,8978,1,8,0:0:0:0:
192,192,9098,1,0,0:0:0:0:
192,192,9218,1,0,0:0:0:0:
192,96,9278,1,0,0:0:0:0:
192,192,9338,1,8,0:0:0:0:
192,96,9458,1,8,0:0:0:0:
192,192,9578,1,0,0:0:0:0:
192,160,9818,1,0,0:0:0:0:
192,160,9938,1,8,0:0:0:0:
192,64,9998,1,0,0:0:0:0:
192,160,10058,1,8,0:0:0:0:
192,160,10178,1,0,0:0:0:0:
192,160,10298,1,8,0:0:0:0:
192,160,10538,1,0,0:0:0:0:
192,64,10598,1,0,0:0:0:0:
192,160,10658,1,0,0:0:0:0:
192,64,10718,1,0,0:0:0:0:
192,160,10778,1,8,0:0:0:0:
192,160,10898,1,0,0:0:0:0:
192,160,11018,1,8,0:0:0:0:
192,160,11138,1,8,0:0:0:0:
192,160,11258,1,0,0:0:0:0:
192,96,11318,1,0,0:0:0:0:
192,96,11378,1,8,0:0:0:0:
192,96,11438,1,8,0:0:0:0:
192,160,11498,1,0,0:0:0:0:
192,160,11738,1,0,0:0:0:0:
192,160,11858,1,8,0:0:0:0:
192,64,11918,1,8,0:0:0:0:
160,96,11978,1,0,0:0:0:0:
160,96,12098,1,0,0:0:0:0:
160,96,12218,1,8,0:0:0:0:
160,96,12458,1,0,0:0:0:0:
224,96,12578,1,8,0:0:0:0:
224,96,12698,1,0,0:0:0:0:
224,96,12818,1,0,0:0:0:0:
192,32,12878,1,0,0:0:0:0:
224,96,12938,1,8,0:0:0:0:
224,96,13058,1,0,0:0:0:0:
224,96,13178,1,8,0:0:0:0:
192,96,13298,1,8,0:0:0:0:
192,96,13418,1,0,0:0:0:0:
160,96,13658,1,0,0:0:0:0:
224,96,13778,1,8,0:0:0:0:
192,32,13838,1,8,0:0:0:0:
224,96,13898,1,0,0:0:0:0:
224,96,14018,1,8,0:0:0:0:
224,96,14138,1,0,0:0:0:0:
224,96,14378,1,8,0:0:0:0:
192,32,14438,1,0,0:0:0:0:
224,96,14498,1,8,0:0:0:0:
192,32,14558,1,8,0:0:0:0:
224,96,14618,1,0,0:0:0:0:
224,96,14738,1,0,0:0:0:0:
224,96,14858,1,8,0:0:0:0:
192,32,14978,1,0,0:0:0:0:
192,64,15038,1,0,0:0:0:0:
224,96,15098,1,8,0:0:0:0:
192,64,15158,1,8,0:0:0:0:
224,96,15218,1,8,0:0:0:0:
192,64,15278,1,8,0:0:0:0:
192,64,15338,1,0,0:0:0:0:
192,96,15578,1,0,0:0:0:0:
192,96,15698,1,8,0:0:0:0:
160,64,15758,1,8,0:0:0:0:
192,96,15818,1,8,0:0:0:0:
160,64,15878,1,8,0:0:0:0:
192,96,15938,1,0,0:0:0:0:
192,96,16058,1,8,0:0:0:0:
160,32,16118,1,8,0:0:0:0:
160,32,16178,1,0,0:0:0:0:
192,96,16298,1,8,0:0:0:0:
192,96,16418,1,0,0:0:0:0:
192,32,16478,1,0,0:0:0:0:
192,96,16538,1,8,0:0:0:0:
160,32,16658,1,0,0:0:0:0:
192,96,16778,1,8,0:0:0:0:
192,96,17258,1,0,0:0:0:0:
160,64,17378,1,0,0:0:0:0:
192,96,17498,1,8,0:0:0:0:
192,96,17618,1,0,0:0:0:0:
160,64,17678,1,0,0:0:0:0:
192,96,17738,1,8,0:0:0:0:
192,96,17858,1,0,0:0:0:0:
192,96,17978,1,8,0:0:0:0:
192,32,18038,1,8,0:0:0:0:
192,32,18098,1,8,0:0:0:0:
160,64,18158,1,8,0:0:0:0:
192,96,18218,1,0,0:0:0:0:
192,96,18338,1,0,0:0:0:0:
192,96,18458,1,8,0:0:0:0:
192,96,18578,1,0,0:0:0:0:
192,96,18698,1,8,0:0:0:0:
192,96,19178,1,0,0:0:0:0:
192,64,19298,1,8,0:0:0:0:
192,96,19418,1,0,0:0:0:0:
192,32,19478,1,0,0:0:0:0:
192,96,19538,1,8,0:0:0:0:
192,96,19658,1,0,0:0:0:0:
192,32,19718,1,0,0:0:0:0:
192,96,19778,1,0,0:0:0:0:
192,32,19838,1,0,0:0:0:0:
192,96,19898,1,8,0:0:0:0:
192,64,20018,1,0,0:0:0:0:
192,96,20138,1,8,0:0:0:0:
160,32,20198,1,8,0:0:0:0:
224,96,20258,1,0,0:0:0:0:
224,96,20378,1,8,0:0:0:0:
224,96,20498,1,0,0:0:0:0:
224,96,20618,1,8,0:0:0:0:
224,96,21098,1,0,0:0:0:0:
192,32,21218,1,0,0:0:0:0:
192,32,21278,1,0,0:0:0:0:
224,96,21338,1,8,0:0:0:0:
224,96,21458,1,0,0:0:0:0:
224,96,21578,1,8,0:0:0:0:
224,96,21698,1,8,0:0:0:0:
192,32,21758,1,8,0:0:0:0:
224,96,21818,1,0,0:0:0:0:
224,96,22058,1,0,0:0:0:0:
192,32,22118,1,0,0:0:0:0:
224,96,22178,1,8,0:0:0:0:
192,32,22238,1,8,0:0:0:0:
224,96,22298,1,0,0:0:0:0:
224,96,22538,1,0,0:0:0:0:
192,32,22598,1,0,0:0:0:0:
224,96,22658,1,0,0:0:0:0:
192,32,22718,1,0,0:0:0:0:
224,96,22778,1,8,0:0:0:0:
224,96,23018,1,4,0:0:0:0:
224,96,23138,1,12,0:0:0:0:
224,96,23978,1,4,0:0:0:0:
224,96,24098,1,4,0:0:0:0:
192,96,24458,1,0,0:0:0:0:
192,64,24518,1,0,0:0:0:0:
192,32,24578,1,8,0:0:0:0:
192,32,24638,1,8,0:0:0:0:
192,64,24698,1,0,0:0:0:0:
192,64,24938,1,4,0:0:0:0:
160,96,25178,1,0,0:0:0:0:
160,96,25298,1,8,0:0:0:0:
160,32,25358,1,8,0:0:0:0:
160,96,25418,1,0,0:0:0:0:
160,96,25538,1,0,0:0:0:0:
160,96,25658,1,8,0:0:0:0:
160,64,25778,1,8,0:0:0:0:
160,64,25898,1,0,0:0:0:0:
192,32,25958,1,0,0:0:0:0:
192,0,26018,1,0,0:0:0:0:
192,32,26078,1,0,0:0:0:0:
160,64,26138,1,8,0:0:0:0:
160,64,26258,1,0,0:0:0:0:
160,64,26378,1,8,0:0:0:0:
160,64,26618,1,8,0:0:0:0:
160,64,26858,1,0,0:0:0:0:
224,64,27098,1,8,0:0:0:0:
224,64,27218,1,0,0:0:0:0:
192,32,27278,1,0,0:0:0:0:
224,64,27338,1,8,0:0:0:0:
192,96,27458,1,0,0:0:0:0:
192,96,27578,1,8,0:0:0:0:
192,64,27638,1,8,0:0:0:0:
192,96,27698,1,0,0:0:0:0:
192,96,27818,1,0,0:0:0:0:
192,64,27938,1,8,0:0:0:0:
192,64,28058,1,0,0:0:0:0:
192,64,28178,1,0,0:0:0:0:
192,64,28298,1,8,0:0:0:0:
192,64,28538,1,0,0:0:0:0:
224,32,28658,1,0,0:0:0:0:
160,64,28778,1,8,0:0:0:0:
192,64,28838,1,8,0:0:0:0:
192,64,28898,1,8,0:0:0:0:
192,64,28958,1,8,0:0:0:0:
192,64,29018,1,0,0:0:0:0:
192,64,29138,1,0,0:0:0:0:
192,64,29258,1,8,0:0:0:0:
192,32,29318,1,8,0:0:0:0:
192,32,29378,1,8,0:0:0:0:
192,32,29438,1,8,0:0:0:0:
192,32,29498,1,0,0:0:0:0:
224,32,29618,1,0,0:0:0:0:
192,32,29738,1,8,0:0:0:0:
192,32,29798,1,8,0:0:0:0:
192,32,29858,1,0,0:0:0:0:
128,224,29918,1,0,0:0:0:0:
192,32,29978,1,8,0:0:0:0:
192,64,30098,1,0,0:0:0:0:
160,64,30158,1,0,0:0:0:0:
192,64,30218,1,8,0:0:0:0:
192,64,30338,1,0,0:0:0:0:
192,64,30458,1,8,0:0:0:0:
128,192,30698,1,0,0:0:0:0:
128,192,30938,1,0,0:0:0:0:
128,192,31058,1,8,0:0:0:0:
128,192,31178,1,0,0:0:0:0:
192,32,31238,1,0,0:0:0:0:
128,192,31298,1,0,0:0:0:0:
192,64,31358,1,0,0:0:0:0:
128,192,31418,1,8,0:0:0:0:
160,64,31538,1,0,0:0:0:0:
160,64,31658,1,8,0:0:0:0:
160,64,31898,1,0,0:0:0:0:
160,64,32018,1,8,0:0:0:0:
160,64,32138,1,0,0:0:0:0:
160,64,32198,1,0,0:0:0:0:
160,64,32258,1,0,0:0:0:0:
160,64,32318,1,0,0:0:0:0:
160,64,32378,1,8,0:0:0:0:
160,64,32618,1,4,0:0:0:0:
192,64,32858,1,0,0:0:0:0:
192,64,32978,1,8,0:0:0:0:
192,64,33098,1,8,0:0:0:0:
192,64,33218,1,0,0:0:0:0:
192,64,33338,1,8,0:0:0:0:
160,32,33578,1,8,0:0:0:0:
192,64,33698,1,0,0:0:0:0:
192,64,33758,1,0,0:0:0:0:
192,32,33818,1,8,0:0:0:0:
224,64,33938,1,0,0:0:0:0:
192,32,34058,1,8,0:0:0:0:
192,32,34298,1,8,0:0:0:0:
192,96,34538,1,0,0:0:0:0:
192,96,34778,1,8,0:0:0:0:
192,96,34898,1,0,0:0:0:0:
192,32,34958,1,0,0:0:0:0:
192,96,35018,1,8,0:0:0:0:
192,96,35138,1,0,0:0:0:0:
192,96,35258,1,8,0:0:0:0:
192,32,35498,1,8,0:0:0:0:
192,32,35558,1,8,0:0:0:0:
192,32,35618,1,8,0:0:0:0:
192,32,35678,1,8,0:0:0:0:
192,32,35738,1,0,0:0:0:0:
192,64,35858,1,0,0:0:0:0:
192,64,35978,1,8,0:0:0:0:
192,64,36098,1,0,0:0:0:0:
192,64,36218,1,8,0:0:0:0:
192,32,36338,1,8,0:0:0:0:
160,32,36398,1,8,0:0:0:0:
192,32,36458,1,0,0:0:0:0:
192,64,36698,1,0,0:0:0:0:
192,64,36818,1,8,0:0:0:0:
192,64,36878,1,8,0:0:0:0:
192,64,36938,1,0,0:0:0:0:
192,64,37058,1,0,0:0:0:0:
192,64,37178,1,8,0:0:0:0:
192,64,37238,1,0,0:0:0:0:
192,64,37298,1,8,0:0:0:0:
192,64,37358,1,8,0:0:0:0:
192,64,37418,1,0,0:0:0:0:
192,32,37538,1,0,0:0:0:0:
192,64,37658,1,8,0:0:0:0:
192,32,37778,1,0,0:0:0:0:
192,32,37838,1,0,0:0:0:0:
192,64,37898,1,8,0:0:0:0:
192,64,38018,1,0,0:0:0:0:
192,64,38138,1,8,0:0:0:0:
192,64,38258,1,8,0:0:0:0:
192,64,38378,1,0,0:0:0:0:
192,96,38438,1,0,0:0:0:0:
192,64,38498,1,0,0:0:0:0:
192,96,38558,1,0,0:0:0:0:
192,64,38618,1,8,0:0:0:0:
192,64,38738,1,0,0:0:0:0:
192,64,38858,1,8,0:0:0:0:
192,32,38918,1,8,0:0:0:0:
192,64,38978,1,0,0:0:0:0:
192,64,39098,1,8,0:0:0:0:
192,64,39218,1,0,0:0:0:0:
192,64,39338,1,8,0:0:0:0:
160,64,39458,1,8,0:0:0:0:
160,64,39578,1,0,0:0:0:0:
160,96,39818,1,8,0:0:0:0:
160,96,40058,1,0,0:0:0:0:
128,96,40298,1,12,0:0:0:0:
160,96,40418,1,0,0:0:0:0:
160,96,40478,1,0,0:0:0:0:
160,96,40538,1,8,0:0:0:0:
160,64,40658,1,0,0:0:0:0:
160,64,40778,1,8,0:0:0:0:
160,64,40898,1,0,0:0:0:0:
192,64,40958,1,0,0:0:0:0:
160,64,41018,1,8,0:0:0:0:
192,64,41078,1,8,0:0:0:0:
160,64,41138,1,0,0:0:0:0:
192,64,41198,1,0,0:0:0:0:
160,64,41258,1,8,0:0:0:0:
160,32,41378,1,0,0:0:0:0:
160,32,41438,1,0,0:0:0:0:
160,32,41498,1,8,0:0:0:0:
160,32,41618,1,0,0:0:0:0:
160,32,41738,1,8,0:0:0:0:
160,64,41798,1,8,0:0:0:0:
160,32,41858,1,0,0:0:0:0:
160,32,41918,1,0,0:0:0:0:
160,32,41978,1,8,0:0:0:0:
160,64,42098,1,0,0:0:0:0:
160,64,42158,1,0,0:0:0:0:
160,64,42218,1,8,0:0:0:0:
160,96,42338,1,0,0:0:0:0:
160,96,42458,1,8,0:0:0:0:
192,32,42518,1,8,0:0:0:0:
160,96,42578,1,0,0:0:0:0:
160,96,42698,1,8,0:0:0:0:
160,96,42818,1,0,0:0:0:0:
192,32,42878,1,0,0:0:0:0:
160,96,42938,1,8,0:0:0:0:
192,64,42998,1,8,0:0:0:0:
160,96,43058,1,0,0:0:0:0:
160,96,43178,1,8,0:0:0:0:
160,64,43298,1,0,0:0:0:0:
192,64,43358,1,0,0:0:0:0:
192,64,43418,1,8,0:0:0:0:
192,32,43538,1,0,0:0:0:0:
192,32,43658,1,8,0:0:0:0:
192,32,43718,1,8,0:0:0:0:
192,32,43778,1,0,0:0:0:0:
192,32,43898,1,8,0:0:0:0:
192,32,44018,1,0,0:0:0:0:
192,32,44138,1,8,0:0:0:0:
160,96,44258,1,0,0:0:0:0:
160,96,44318,1,0,0:0:0:0:
160,96,44378,1,8,0:0:0:0:
160,32,44498,1,0,0:0:0:0:
160,64,44618,1,8,0:0:0:0:
160,32,44738,1,0,0:0:0:0:
160,64,44798,1,0,0:0:0:0:
160,32,44858,1,8,0:0:0:0:
160,64,44918,1,8,0:0:0:0:
160,32,44978,1,0,0:0:0:0:
160,64,45038,1,0,0:0:0:0:
160,32,45098,1,8,0:0:0:0:
160,32,45218,1,0,0:0:0:0:
160,32,45278,1,0,0:0:0:0:
160,128,45338,1,8,0:0:0:0:
192,96,45458,1,0,0:0:0:0:
192,96,45578,1,8,0:0:0:0:
160,96,45698,1,0,0:0:0:0:
192,64,45758,1,0,0:0:0:0:
160,96,45818,1,8,0:0:0:0:
192,64,45878,1,8,0:0:0:0:
192,64,45938,1,0,0:0:0:0:
192,96,46058,1,8,0:0:0:0:
192,96,46178,1,0,0:0:0:0:
192,96,46238,1,0,0:0:0:0:
192,96,46298,1,8,0:0:0:0:
192,128,46418,1,0,0:0:0:0:
192,128,46538,1,8,0:0:0:0:
192,128,46598,1,8,0:0:0:0:
192,128,46658,1,0,0:0:0:0:
192,128,46718,1,0,0:0:0:0:
192,128,46778,1,8,0:0:0:0:
160,128,46898,1,8,0:0:0:0:
160,128,47018,1,0,0:0:0:0:
160,64,47258,1,8,0:0:0:0:
160,96,47318,1,8,0:0:0:0:
160,96,47378,1,8,0:0:0:0:
160,32,47438,1,8,0:0:0:0:
160,96,47498,1,0,0:0:0:0:
160,64,47558,1,0,0:0:0:0:
160,64,47618,1,0,0:0:0:0:
160,64,47678,1,0,0:0:0:0:
160,64,47738,1,8,0:0:0:0:
160,64,47978,1,4,0:0:0:0:
192,32,48218,1,0,0:0:0:0:
160,96,48458,1,8,0:0:0:0:
192,64,48698,1,0,0:0:0:0:
192,64,48818,1,0,0:0:0:0:
160,96,48938,1,8,0:0:0:0:
192,32,49178,1,0,0:0:0:0:
192,64,49418,1,8,0:0:0:0:
192,32,49538,1,8,0:0:0:0:
224,32,49658,1,0,0:0:0:0:
192,32,49778,1,0,0:0:0:0:
192,64,49898,1,8,0:0:0:0:
224,32,50138,1,0,0:0:0:0:
192,64,50378,1,8,0:0:0:0:
224,32,50618,1,0,0:0:0:0:
224,32,50738,1,0,0:0:0:0:
192,64,50858,1,12,0:0:0:0:
192,64,51098,1,0,0:0:0:0:
224,64,51218,1,12,0:0:0:0:
192,64,51458,1,0,0:0:0:0:
224,64,51578,1,12,0:0:0:0:
224,64,51818,1,4,0:0:0:0:
192,96,52058,1,0,0:0:0:0:
192,96,52298,1,8,0:0:0:0:
192,64,52418,1,8,0:0:0:0:
192,64,52538,1,0,0:0:0:0:
192,64,52658,1,0,0:0:0:0:
160,96,52778,1,12,0:0:0:0:
192,64,53018,1,0,0:0:0:0:
192,96,53138,1,0,0:0:0:0:
192,96,53258,1,8,0:0:0:0:
192,64,53378,1,8,0:0:0:0:
192,64,53498,1,0,0:0:0:0:
192,64,53618,1,0,0:0:0:0:
192,64,53738,1,8,0:0:0:0:
192,32,53858,1,0,0:0:0:0:
192,32,53918,1,0,0:0:0:0:
192,32,53978,1,8,0:0:0:0:
192,64,54098,1,0,0:0:0:0:
192,64,54218,1,8,0:0:0:0:
192,32,54338,1,0,0:0:0:0:
160,32,54398,1,0,0:0:0:0:
192,32,54458,1,8,0:0:0:0:
192,32,54578,1,8,0:0:0:0:
192,32,54698,1,0,0:0:0:0:
192,32,54818,1,0,0:0:0:0:
192,32,54938,1,0,0:0:0:0:
192,32,55058,1,0,0:0:0:0:
192,32,55178,1,0,0:0:0:0:
192,32,55298,1,0,0:0:0:0:
192,32,55418,1,0,0:0:0:0:
192,32,55538,1,0,0:0:0:0:
192,64,56138,1,0,0:0:0:0:
192,64,56618,1,8,0:0:0:0:
192,64,57098,1,0,0:0:0:0:
192,128,57578,1,4,0:0:0:0:
192,128,57818,1,8,0:0:0:0:
192,128,58058,1,0,0:0:0:0:
192,128,58178,1,0,0:0:0:0:
192,128,58298,1,8,0:0:0:0:
160,96,58538,1,0,0:0:0:0:
160,96,58658,1,0,0:0:0:0:
160,96,58778,1,8,0:0:0:0:
160,96,58898,1,0,0:0:0:0:
160,64,59138,1,0,0:0:0:0:
160,64,59258,1,8,0:0:0:0:
224,64,59498,1,0,0:0:0:0:
224,64,59738,1,8,0:0:0:0:
224,64,59978,1,0,0:0:0:0:
224,64,60098,1,0,0:0:0:0:
224,64,60218,1,8,0:0:0:0:
256,96,60458,1,0,0:0:0:0:
256,96,60578,1,0,0:0:0:0:
256,96,60698,1,8,0:0:0:0:
224,96,60818,1,8,0:0:0:0:
224,32,60938,1,0,0:0:0:0:
224,96,61058,1,0,0:0:0:0:
224,96,61178,1,8,0:0:0:0:
256,96,61418,1,0,0:0:0:0:
256,96,61658,1,8,0:0:0:0:
256,96,61778,1,0,0:0:0:0:
256,96,62018,1,0,0:0:0:0:
224,96,62138,1,8,0:0:0:0:
224,64,62378,1,0,0:0:0:0:
224,64,62498,1,0,0:0:0:0:
224,64,62618,1,8,0:0:0:0:
224,64,62738,1,8,0:0:0:0:
224,64,62858,1,0,0:0:0:0:
192,128,62978,1,0,0:0:0:0:
224,128,63098,1,8,0:0:0:0:
224,128,63338,1,0,0:0:0:0:
224,128,63578,1,8,0:0:0:0:
224,128,63698,1,0,0:0:0:0:
224,128,63938,1,0,0:0:0:0:
224,128,64058,1,8,0:0:0:0:
192,96,64298,1,0,0:0:0:0:
192,96,64418,1,8,0:0:0:0:
192,96,64538,1,8,0:0:0:0:
192,64,64658,1,0,0:0:0:0:
192,64,64778,1,8,0:0:0:0:
192,64,64898,1,0,0:0:0:0:
192,64,65018,1,8,0:0:0:0:
224,64,65138,1,8,0:0:0:0:
224,64,65258,1,4,0:0:0:0:
192,192,65498,1,0,0:0:0:0:
192,192,65618,1,8,0:0:0:0:
192,32,65678,1,8,0:0:0:0:
192,192,65738,1,0,0:0:0:0:
192,192,65858,1,0,0:0:0:0:
192,192,65978,1,8,0:0:0:0:
192,192,66098,1,8,0:0:0:0:
192,192,66218,1,0,0:0:0:0:
224,64,66458,1,0,0:0:0:0:
224,64,66578,1,0,0:0:0:0:
224,32,66638,1,0,0:0:0:0:
224,64,66698,1,8,0:0:0:0:
224,64,66818,1,0,0:0:0:0:
224,64,66938,1,8,0:0:0:0:
224,64,67058,1,8,0:0:0:0:
224,64,67178,1,0,0:0:0:0:
224,64,67418,1,0,0:0:0:0:
224,64,67538,1,8,0:0:0:0:
224,64,67658,1,0,0:0:0:0:
160,96,67778,1,0,0:0:0:0:
160,96,67838,1,0,0:0:0:0:
224,64,67898,1,8,0:0:0:0:
224,64,68018,1,0,0:0:0:0:
224,64,68138,1,8,0:0:0:0:
192,32,68258,1,8,0:0:0:0:
224,64,68378,1,0,0:0:0:0:
224,64,68498,1,0,0:0:0:0:
224,64,68618,1,12,0:0:0:0:
224,64,68858,1,8,0:0:0:0:
224,64,68978,1,8,0:0:0:0:
224,64,69098,1,0,0:0:0:0:
192,64,69218,1,8,0:0:0:0:
192,64,69338,1,0,0:0:0:0:
192,64,69458,1,8,0:0:0:0:
192,64,69578,1,0,0:0:0:0:
192,96,69638,1,0,0:0:0:0:
192,64,69698,1,0,0:0:0:0:
192,128,69758,1,0,0:0:0:0:
192,128,69818,1,8,0:0:0:0:
192,128,69878,1,8,0:0:0:0:
192,128,69938,1,8,0:0:0:0:
192,128,69998,1,8,0:0:0:0:
192,128,70058,1,0,0:0:0:0:
192,96,70298,1,0,0:0:0:0:
192,96,70418,1,8,0:0:0:0:
192,128,70658,1,0,0:0:0:0:
192,128,70778,1,8,0:0:0:0:
192,128,71018,1,4,0:0:0:0:
192,128,71498,1,0,0:0:0:0:
192,128,71978,1,8,0:0:0:0:
192,128,72458,1,0,0:0:0:0:
192,128,72938,1,12,0:0:0:0:
192,96,73178,1,8,0:0:0:0:
192,96,73298,1,0,0:0:0:0:
192,96,73358,1,0,0:0:0:0:
192,96,73418,1,8,0:0:0:0:
192,96,73538,1,0,0:0:0:0:
192,96,73658,1,8,0:0:0:0:
192,96,73718,1,8,0:0:0:0:
192,96,73778,1,0,0:0:0:0:
192,64,73838,1,0,0:0:0:0:
192,96,73898,1,8,0:0:0:0:
224,96,74018,1,0,0:0:0:0:
224,96,74138,1,0,0:0:0:0:
224,96,74258,1,8,0:0:0:0:
224,64,74318,1,8,0:0:0:0:
256,96,74378,1,0,0:0:0:0:
224,96,74498,1,0,0:0:0:0:
224,96,74618,1,8,0:0:0:0:
192,96,74738,1,8,0:0:0:0:
192,96,74858,1,0,0:0:0:0:
192,96,74978,1,8,0:0:0:0:
192,96,75038,1,8,0:0:0:0:
192,96,75098,1,0,0:0:0:0:
192,96,75218,1,0,0:0:0:0:
192,96,75338,1,8,0:0:0:0:
192,96,75398,1,8,0:0:0:0:
192,96,75458,1,0,0:0:0:0:
192,96,75518,1,0,0:0:0:0:
192,96,75578,1,8,0:0:0:0:
192,96,75698,1,8,0:0:0:0:
192,96,75818,1,0,0:0:0:0:
192,64,75878,1,0,0:0:0:0:
224,64,75938,1,0,0:0:0:0:
192,32,75998,1,0,0:0:0:0:
192,96,76058,1,8,0:0:0:0:
192,96,76178,1,8,0:0:0:0:
192,64,76238,1,8,0:0:0:0:
192,96,76298,1,0,0:0:0:0:
192,96,76418,1,0,0:0:0:0:
192,96,76538,1,8,0:0:0:0:
192,32,76658,1,8,0:0:0:0:
192,96,76778,1,0,0:0:0:0:
192,96,76898,1,0,0:0:0:0:
192,96,77018,1,8,0:0:0:0:
192,96,77138,1,0,0:0:0:0:
192,64,77198,1,0,0:0:0:0:
192,96,77258,1,8,0:0:0:0:
192,96,77378,1,8,0:0:0:0:
192,96,77498,1,0,0:0:0:0:
192,96,77558,1,0,0:0:0:0:
192,96,77618,1,0,0:0:0:0:
192,96,77678,1,0,0:0:0:0:
192,96,77738,1,8,0:0:0:0:
192,96,77858,1,0,0:0:0:0:
192,64,77918,1,0,0:0:0:0:
192,96,77978,1,8,0:0:0:0:
192,96,78098,1,8,0:0:0:0:
192,96,78158,1,8,0:0:0:0:
192,64,78218,1,0,0:0:0:0:
192,64,78338,1,0,0:0:0:0:
192,64,78458,1,8,0:0:0:0:
192,64,78578,1,0,0:0:0:0:
192,64,78698,1,8,0:0:0:0:
192,32,78818,1,8,0:0:0:0:
192,96,78938,1,0,0:0:0:0:
192,96,79058,1,0,0:0:0:0:
192,96,79118,1,0,0:0:0:0:
192,96,79178,1,8,0:0:0:0:
192,96,79298,1,0,0:0:0:0:
192,96,79418,1,8,0:0:0:0:
160,32,79538,1,8,0:0:0:0:
192,96,79658,1,0,0:0:0:0:
192,64,79718,1,0,0:0:0:0:
160,64,79778,1,0,0:0:0:0:
160,64,79838,1,0,0:0:0:0:
160,64,79898,1,8,0:0:0:0:
160,64,80138,1,0,0:0:0:0:
160,64,80378,1,8,0:0:0:0:
160,64,80618,1,4,0:0:0:0:
160,192,80738,1,8,0:0:0:0:
192,64,80798,1,8,0:0:0:0:
160,192,80858,1,0,0:0:0:0:
160,192,80978,1,0,0:0:0:0:
160,192,81098,1,8,0:0:0:0:
160,192,81218,1,0,0:0:0:0:
192,64,81278,1,0,0:0:0:0:
192,64,81338,1,8,0:0:0:0:
160,192,81458,1,8,0:0:0:0:
160,192,81578,1,0,0:0:0:0:
160,192,81698,1,0,0:0:0:0:
192,32,81758,1,0,0:0:0:0:
160,192,81818,1,8,0:0:0:0:
160,192,81938,1,8,0:0:0:0:
160,192,82058,1,0,0:0:0:0:
160,192,82178,1,0,0:0:0:0:
160,192,82298,1,8,0:0:0:0:
160,192,82538,1,0,0:0:0:0:
160,64,82658,1,8,0:0:0:0:
192,32,82718,1,8,0:0:0:0:
160,64,82778,1,0,0:0:0:0:
160,64,82898,1,0,0:0:0:0:
160,64,83018,1,8,0:0:0:0:
192,32,83078,1,8,0:0:0:0:
160,64,83138,1,0,0:0:0:0:
192,0,83198,1,0,0:0:0:0:
192,32,83258,1,8,0:0:0:0:
160,64,83378,1,8,0:0:0:0:
160,64,83498,1,0,0:0:0:0:
160,64,83558,1,0,0:0:0:0:
160,64,83618,1,0,0:0:0:0:
160,64,83678,1,0,0:0:0:0:
160,64,83738,1,8,0:0:0:0:
160,64,83858,1,0,0:0:0:0:
192,64,83918,1,0,0:0:0:0:
160,64,83978,1,8,0:0:0:0:
160,96,84098,1,8,0:0:0:0:
160,96,84218,1,0,0:0:0:0:
224,128,84458,1,0,0:0:0:0:
224,128,84578,1,8,0:0:0:0:
192,64,84638,1,8,0:0:0:0:
224,128,84698,1,0,0:0:0:0:
224,128,84818,1,0,0:0:0:0:
224,128,84938,1,8,0:0:0:0:
160,64,84998,1,8,0:0:0:0:
224,128,85058,1,0,0:0:0:0:
160,64,85118,1,0,0:0:0:0:
224,128,85178,1,8,0:0:0:0:
224,128,85298,1,8,0:0:0:0:
224,128,85418,1,0,0:0:0:0:
224,128,85538,1,8,0:0:0:0:
192,64,85598,1,8,0:0:0:0:
224,128,85658,1,0,0:0:0:0:
224,128,85778,1,8,0:0:0:0:
224,128,85898,1,0,0:0:0:0:
160,32,85958,1,0,0:0:0:0:
192,128,86018,1,0,0:0:0:0:
192,128,86138,1,8,0:0:0:0:
160,96,86378,1,0,0:0:0:0:
160,96,86498,1,8,0:0:0:0:
160,96,86618,1,0,0:0:0:0:
160,96,86738,1,8,0:0:0:0:
160,96,86858,1,0,0:0:0:0:
160,128,86918,1,0,0:0:0:0:
160,128,86978,1,0,0:0:0:0:
160,128,87038,1,0,0:0:0:0:
160,128,87098,1,8,0:0:0:0:
192,64,87158,1,8,0:0:0:0:
160,128,87218,1,8,0:0:0:0:
160,128,87278,1,8,0:0:0:0:
160,128,87338,1,0,0:0:0:0:
192,64,87578,1,0,0:0:0:0:
192,64,87698,1,0,0:0:0:0:
192,64,87818,1,8,0:0:0:0:
192,64,87938,1,8,0:0:0:0:
192,64,88058,1,8,0:0:0:0:
192,64,88178,1,8,0:0:0:0:
192,64,88298,1,4,0:0:0:0:
160,160,92138,1,4,0:0:0:0:
160,128,94058,1,12,0:0:0:0:
160,128,94298,1,0,0:0:0:0:
160,128,94418,1,12,0:0:0:0:
160,128,94658,1,0,0:0:0:0:
160,128,94778,1,12,0:0:0:0:
160,128,95018,1,0,0:0:0:0:
160,128,95138,1,12,0:0:0:0:
160,128,95378,1,0,0:0:0:0:
160,128,95498,1,12,0:0:0:0:
160,128,95738,1,0,0:0:0:0:
160,128,95978,1,12,0:0:0:0:
192,96,96218,1,0,0:0:0:0:
192,96,96338,1,0,0:0:0:0:
192,96,96458,1,8,0:0:0:0:
192,64,96578,1,0,0:0:0:0:
192,96,96698,1,8,0:0:0:0:
192,96,96938,1,8,0:0:0:0:
192,64,97178,1,0,0:0:0:0:
192,64,97298,1,0,0:0:0:0:
192,64,97418,1,8,0:0:0:0:
192,64,97538,1,0,0:0:0:0:
192,64,97658,1,8,0:0:0:0:
224,64,97778,1,8,0:0:0:0:
192,64,97898,1,0,0:0:0:0:
160,64,98138,1,8,0:0:0:0:
160,64,98258,1,8,0:0:0:0:
128,32,98378,1,0,0:0:0:0:
192,64,98498,1,0,0:0:0:0:
192,32,98618,1,8,0:0:0:0:
192,32,98858,1,0,0:0:0:0:
224,64,99098,1,0,0:0:0:0:
224,64,99218,1,8,0:0:0:0:
224,64,99338,1,0,0:0:0:0:
224,64,99458,1,0,0:0:0:0:
224,64,99578,1,8,0:0:0:0:
192,64,99818,1,0,0:0:0:0:
192,64,99938,1,8,0:0:0:0:
192,96,100058,1,0,0:0:0:0:
192,96,100178,1,0,0:0:0:0:
192,96,100298,1,8,0:0:0:0:
192,96,100418,1,8,0:0:0:0:
160,32,100538,1,0,0:0:0:0:
160,32,100658,1,8,0:0:0:0:
160,32,100778,1,0,0:0:0:0:
192,64,100898,1,0,0:0:0:0:
160,32,101018,1,8,0:0:0:0:
160,32,101138,1,8,0:0:0:0:
160,32,101258,1,0,0:0:0:0:
192,64,101378,1,0,0:0:0:0:
160,64,101498,1,8,0:0:0:0:
160,64,101738,1,8,0:0:0:0:
192,96,101858,1,8,0:0:0:0:
192,96,101978,1,0,0:0:0:0:
160,96,102098,1,0,0:0:0:0:
192,96,102218,1,8,0:0:0:0:
192,96,102338,1,8,0:0:0:0:
192,96,102458,1,0,0:0:0:0:
192,96,102578,1,0,0:0:0:0:
192,96,102698,1,8,0:0:0:0:
192,64,102938,1,0,0:0:0:0:
192,64,103178,1,12,0:0:0:0:
192,64,103418,1,12,0:0:0:0:
192,64,103658,1,4,0:0:0:0:
160,192,103898,1,0,0:0:0:0:
160,192,104018,1,8,0:0:0:0:
160,64,104078,1,8,0:0:0:0:
160,192,104138,1,0,0:0:0:0:
224,96,104258,1,0,0:0:0:0:
224,96,104378,1,8,0:0:0:0:
224,96,104498,1,8,0:0:0:0:
224,96,104618,1,0,0:0:0:0:
224,96,104858,1,0,0:0:0:0:
224,96,104978,1,0,0:0:0:0:
192,32,105038,1,0,0:0:0:0:
224,96,105098,1,8,0:0:0:0:
192,32,105218,1,0,0:0:0:0:
224,96,105338,1,8,0:0:0:0:
224,96,105458,1,8,0:0:0:0:
224,96,105578,1,0,0:0:0:0:
192,96,105818,1,0,0:0:0:0:
160,64,105878,1,0,0:0:0:0:
192,96,105938,1,0,0:0:0:0:
160,64,105998,1,0,0:0:0:0:
192,96,106058,1,8,0:0:0:0:
192,96,106178,1,0,0:0:0:0:
192,96,106298,1,8,0:0:0:0:
192,96,106418,1,8,0:0:0:0:
192,96,106538,1,0,0:0:0:0:
192,64,106658,1,0,0:0:0:0:
192,64,106778,1,8,0:0:0:0:
192,64,106898,1,8,0:0:0:0:
192,64,107018,1,0,0:0:0:0:
224,32,107258,1,8,0:0:0:0:
224,32,107378,1,0,0:0:0:0:
224,32,107498,1,8,0:0:0:0:
160,64,107558,1,8,0:0:0:0:
160,64,107618,1,8,0:0:0:0:
160,64,107678,1,8,0:0:0:0:
160,64,107738,1,0,0:0:0:0:
192,64,107858,1,0,0:0:0:0:
160,64,107918,1,0,0:0:0:0:
192,64,107978,1,8,0:0:0:0:
160,64,108098,1,0,0:0:0:0:
160,64,108218,1,8,0:0:0:0:
160,32,108338,1,0,0:0:0:0:
160,32,108458,1,8,0:0:0:0:
192,32,108578,1,0,0:0:0:0:
160,32,108638,1,8,0:0:0:0:
160,32,108698,1,0,0:0:0:0:
160,32,108818,1,0,0:0:0:0:
192,32,108878,1,0,0:0:0:0:
160,32,108938,1,8,0:0:0:0:
160,32,109058,1,8,0:0:0:0:
160,32,109178,1,0,0:0:0:0:
192,32,109298,1,0,0:0:0:0:
160,32,109418,1,8,0:0:0:0:
192,64,109538,1,0,0:0:0:0:
192,64,109598,1,0,0:0:0:0:
192,64,109658,1,0,0:0:0:0:
192,64,109778,1,0,0:0:0:0:
160,32,109838,1,0,0:0:0:0:
192,64,109898,1,8,0:0:0:0:
160,32,110018,1,8,0:0:0:0:
192,64,110138,1,0,0:0:0:0:
192,64,110258,1,0,0:0:0:0:
192,64,110378,1,8,0:0:0:0:
192,64,110618,1,0,0:0:0:0:
192,64,110738,1,0,0:0:0:0:
192,64,110858,1,12,0:0:0:0:
160,32,111098,1,0,0:0:0:0:
160,32,111218,1,8,0:0:0:0:
160,32,111338,1,4,0:0:0:0:
224,192,111578,1,0,0:0:0:0:
224,192,111698,1,0,0:0:0:0:
224,192,111818,1,0,0:0:0:0:
224,192,111938,1,0,0:0:0:0:
224,192,112058,1,0,0:0:0:0:
224,192,112178,1,0,0:0:0:0:
224,224,112298,1,8,0:0:0:0:
256,64,112538,1,0,0:0:0:0:
256,64,112658,1,0,0:0:0:0:
256,64,112898,1,0,0:0:0:0:
256,64,113018,1,8,0:0:0:0:
224,32,113258,1,0,0:0:0:0:
224,64,113498,1,0,0:0:0:0:
224,32,113618,1,0,0:0:0:0:
224,64,113738,1,0,0:0:0:0:
224,64,113858,1,0,0:0:0:0:
224,64,113978,1,0,0:0:0:0:
224,64,114098,1,0,0:0:0:0:
224,64,114218,1,8,0:0:0:0:
256,64,114458,1,8,0:0:0:0:
256,64,114578,1,0,0:0:0:0:
256,64,114818,1,0,0:0:0:0:
256,64,114938,1,8,0:0:0:0:
224,64,115178,1,8,0:0:0:0:
224,64,115418,1,0,0:0:0:0:
224,64,115538,1,0,0:0:0:0:
224,64,115658,1,0,0:0:0:0:
224,64,115778,1,0,0:0:0:0:
224,64,115898,1,8,0:0:0:0:
224,64,116018,1,0,0:0:0:0:
224,64,116138,1,8,0:0:0:0:
256,32,116378,1,0,0:0:0:0:
256,32,116498,1,0,0:0:0:0:
224,32,116618,1,8,0:0:0:0:
192,32,116858,1,8,0:0:0:0:
192,32,117098,1,0,0:0:0:0:
192,32,117338,1,0,0:0:0:0:
192,32,117458,1,8,0:0:0:0:
192,32,117578,1,0,0:0:0:0:
192,32,117698,1,0,0:0:0:0:
192,32,117818,1,8,0:0:0:0:
192,32,117938,1,0,0:0:0:0:
192,32,118058,1,8,0:0:0:0:
224,32,118298,1,0,0:0:0:0:
224,64,118418,1,0,0:0:0:0:
224,64,118538,1,8,0:0:0:0:
192,64,118778,1,0,0:0:0:0:
192,64,119018,1,8,0:0:0:0:
160,96,119258,1,0,0:0:0:0:
160,96,119378,1,8,0:0:0:0:
192,96,119618,1,0,0:0:0:0:
192,96,119738,1,8,0:0:0:0:
192,64,119978,1,8,0:0:0:0:
192,64,120218,1,0,0:0:0:0:
192,64,120338,1,8,0:0:0:0:
192,64,120398,1,8,0:0:0:0:
192,64,120458,1,0,0:0:0:0:
192,64,120578,1,0,0:0:0:0:
192,64,120698,1,8,0:0:0:0:
192,64,120818,1,8,0:0:0:0:
192,64,120938,1,0,0:0:0:0:
192,32,121058,1,8,0:0:0:0:
192,32,121178,1,0,0:0:0:0:
224,32,121238,1,0,0:0:0:0:
224,32,121298,1,8,0:0:0:0:
224,32,121358,1,8,0:0:0:0:
192,32,121418,1,0,0:0:0:0:
192,32,121538,1,8,0:0:0:0:
192,32,121658,1,8,0:0:0:0:
192,32,121778,1,0,0:0:0:0:
192,32,121898,1,8,0:0:0:0:
192,64,122018,1,8,0:0:0:0:
192,64,122138,1,0,0:0:0:0:
192,64,122378,1,8,0:0:0:0:
192,64,122498,1,0,0:0:0:0:
192,64,122618,1,0,0:0:0:0:
224,64,122858,1,0,0:0:0:0:
224,64,122978,1,8,0:0:0:0:
192,64,123098,1,0,0:0:0:0:
192,64,123218,1,0,0:0:0:0:
192,64,123338,1,8,0:0:0:0:
192,64,123458,1,8,0:0:0:0:
192,64,123578,1,0,0:0:0:0:
192,64,123698,1,8,0:0:0:0:
192,64,123818,1,0,0:0:0:0:
192,64,123938,1,0,0:0:0:0:
192,64,124058,1,8,0:0:0:0:
192,64,124178,1,0,0:0:0:0:
192,64,124298,1,8,0:0:0:0:
192,64,124418,1,8,0:0:0:0:
192,64,124538,1,0,0:0:0:0:
192,64,124658,1,0,0:0:0:0:
192,64,124778,1,8,0:0:0:0:
224,32,124898,1,8,0:0:0:0:
224,32,125018,1,0,0:0:0:0:
224,32,125138,1,0,0:0:0:0:
224,32,125258,1,8,0:0:0:0:
224,32,125378,1,0,0:0:0:0:
224,32,125498,1,8,0:0:0:0:
224,32,125618,1,0,0:0:0:0:
224,32,125738,1,8,0:0:0:0:
224,32,125858,1,8,0:0:0:0:
224,32,125978,1,0,0:0:0:0:
224,32,126098,1,0,0:0:0:0:
224,32,126218,1,8,0:0:0:0:
224,32,126338,1,0,0:0:0:0:
224,32,126458,1,8,0:0:0:0:
224,32,126578,1,0,0:0:0:0:
224,32,126698,1,8,0:0:0:0:
192,128,126818,1,0,0:0:0:0:
192,128,126878,1,0,0:0:0:0:
192,128,126938,1,8,0:0:0:0:
192,128,127058,1,0,0:0:0:0:
192,128,127178,1,8,0:0:0:0:
192,128,127238,1,8,0:0:0:0:
192,64,127298,1,0,0:0:0:0:
192,128,127358,1,0,0:0:0:0:
192,64,127418,1,8,0:0:0:0:
192,96,127538,1,0,0:0:0:0:
192,32,127598,1,8,0:0:0:0:
192,96,127658,1,0,0:0:0:0:
192,96,127898,1,0,0:0:0:0:
192,96,128018,1,0,0:0:0:0:
192,96,128138,1,0,0:0:0:0:
128,64,128258,1,0,0:0:0:0:
128,64,128318,1,0,0:0:0:0:
128,64,128378,1,8,0:0:0:0:
192,32,128618,1,12,0:0:0:0:
160,128,128738,1,0,0:0:0:0:
96,96,128798,1,0,0:0:0:0:
96,224,128858,1,8,0:0:0:0:
160,128,128978,1,0,0:0:0:0:
96,224,129098,1,8,0:0:0:0:
128,96,129218,1,0,0:0:0:0:
96,224,129338,1,8,0:0:0:0:
160,32,129398,1,8,0:0:0:0:
128,96,129458,1,0,0:0:0:0:
160,32,129518,1,0,0:0:0:0:
96,224,129578,1,8,0:0:0:0:
128,96,129698,1,0,0:0:0:0:
96,224,129818,1,8,0:0:0:0:
128,96,129938,1,0,0:0:0:0:
160,96,129998,1,0,0:0:0:0:
96,224,130058,1,8,0:0:0:0:
128,96,130178,1,0,0:0:0:0:
160,96,130238,1,0,0:0:0:0:
96,224,130298,1,8,0:0:0:0:
192,64,130358,1,8,0:0:0:0:
160,64,130418,1,0,0:0:0:0:
192,64,130478,1,0,0:0:0:0:
96,224,130538,1,8,0:0:0:0:
160,64,130658,1,0,0:0:0:0:
96,224,130778,1,8,0:0:0:0:
160,64,130898,1,0,0:0:0:0:
160,64,130958,1,0,0:0:0:0:
160,64,131018,1,8,0:0:0:0:
160,64,131138,1,0,0:0:0:0:
128,96,131258,1,8,0:0:0:0:
160,96,131318,1,8,0:0:0:0:
96,96,131378,1,0,0:0:0:0:
160,64,131438,1,0,0:0:0:0:
128,96,131498,1,8,0:0:0:0:
128,96,131618,1,0,0:0:0:0:
160,32,131678,1,0,0:0:0:0:
128,96,131738,1,8,0:0:0:0:
128,96,131858,1,0,0:0:0:0:
128,96,131978,1,8,0:0:0:0:
160,64,132038,1,8,0:0:0:0:
128,96,132098,1,0,0:0:0:0:
128,96,132218,1,8,0:0:0:0:
128,96,132338,1,0,0:0:0:0:
128,96,132458,1,8,0:0:0:0:
160,96,132578,1,0,0:0:0:0:
160,32,132638,1,0,0:0:0:0:
160,96,132698,1,8,0:0:0:0:
160,96,132818,1,0,0:0:0:0:
160,96,132938,1,8,0:0:0:0:
160,32,132998,1,8,0:0:0:0:
160,96,133058,1,0,0:0:0:0:
160,96,133178,1,8,0:0:0:0:
192,64,133238,1,0,0:0:0:0:
160,96,133298,1,0,0:0:0:0:
192,64,133358,1,0,0:0:0:0:
160,96,133418,1,8,0:0:0:0:
160,96,133538,1,0,0:0:0:0:
160,96,133658,1,8,0:0:0:0:
160,96,133778,1,0,0:0:0:0:
192,64,133838,1,0,0:0:0:0:
160,96,133898,1,8,0:0:0:0:
160,96,134018,1,0,0:0:0:0:
160,96,134138,1,8,0:0:0:0:
192,64,134198,1,8,0:0:0:0:
160,96,134258,1,0,0:0:0:0:
192,64,134318,1,0,0:0:0:0:
160,96,134378,1,8,0:0:0:0:
192,96,134498,1,0,0:0:0:0:
192,64,134558,1,0,0:0:0:0:
192,96,134618,1,8,0:0:0:0:
160,32,134678,1,8,0:0:0:0:
192,96,134738,1,0,0:0:0:0:
160,32,134798,1,0,0:0:0:0:
192,96,134858,1,8,0:0:0:0:
160,96,134978,1,0,0:0:0:0:
160,96,135098,1,8,0:0:0:0:
160,96,135338,1,0,0:0:0:0:
160,32,135398,1,0,0:0:0:0:
192,32,135458,1,0,0:0:0:0:
160,32,135518,1,0,0:0:0:0:
160,32,135578,1,8,0:0:0:0:
160,32,135638,1,8,0:0:0:0:
160,32,135698,1,8,0:0:0:0:
160,32,135758,1,8,0:0:0:0:
192,32,135818,1,0,0:0:0:0:
160,64,135878,1,0,0:0:0:0:
160,64,135938,1,0,0:0:0:0:
192,32,135998,1,0,0:0:0:0:
192,32,136058,1,8,0:0:0:0:
192,64,136298,1,4,0:0:0:0:
128,160,136538,1,0,0:0:0:0:
128,96,136658,1,0,0:0:0:0:
128,160,136778,1,8,0:0:0:0:
128,96,136898,1,8,0:0:0:0:
128,160,137018,1,0,0:0:0:0:
128,160,137138,1,0,0:0:0:0:
128,160,137258,1,8,0:0:0:0:
224,160,137498,1,0,0:0:0:0:
192,64,137618,1,0,0:0:0:0:
224,160,137738,1,8,0:0:0:0:
192,96,137858,1,8,0:0:0:0:
224,160,137978,1,0,0:0:0:0:
224,160,138098,1,8,0:0:0:0:
224,160,138218,1,0,0:0:0:0:
128,64,138458,1,0,0:0:0:0:
160,64,138578,1,0,0:0:0:0:
128,64,138698,1,8,0:0:0:0:
160,64,138818,1,8,0:0:0:0:
160,64,138938,1,0,0:0:0:0:
160,64,139178,1,12,0:0:0:0:
192,64,139418,1,0,0:0:0:0:
192,64,139538,1,12,0:0:0:0:
192,64,139778,1,8,0:0:0:0:
192,64,139898,1,4,0:0:0:0:
192,32,140138,1,4,0:0:0:0:
192,128,140378,1,0,0:0:0:0:
192,128,140498,1,0,0:0:0:0:
192,128,140618,1,8,0:0:0:0:
192,128,140738,1,8,0:0:0:0:
192,128,140858,1,0,0:0:0:0:
192,128,140978,1,0,0:0:0:0:
192,128,141098,1,8,0:0:0:0:
192,96,141338,1,0,0:0:0:0:
192,96,141458,1,0,0:0:0:0:
192,96,141578,1,8,0:0:0:0:
192,96,141698,1,8,0:0:0:0:
192,96,141818,1,0,0:0:0:0:
192,96,141938,1,8,0:0:0:0:
192,96,142058,1,0,0:0:0:0:
128,96,142298,1,0,0:0:0:0:
128,96,142538,1,8,0:0:0:0:
160,128,142658,1,8,0:0:0:0:
96,128,142778,1,0,0:0:0:0:
96,128,142898,1,0,0:0:0:0:
96,128,143018,1,8,0:0:0:0:
160,160,143258,1,0,0:0:0:0:
160,160,143378,1,0,0:0:0:0:
160,160,143498,1,8,0:0:0:0:
160,160,143618,1,8,0:0:0:0:
160,160,143738,1,0,0:0:0:0:
128,96,143858,1,8,0:0:0:0:
160,96,143978,1,4,0:0:0:0:
192,128,144218,1,8,0:0:0:0:
160,96,144338,1,8,0:0:0:0:
192,128,144458,1,0,0:0:0:0:
192,128,144578,1,0,0:0:0:0:
192,128,144698,1,8,0:0:0:0:
192,96,144938,1,8,0:0:0:0:
160,96,145058,1,0,0:0:0:0:
192,96,145178,1,8,0:0:0:0:
192,96,145298,1,8,0:0:0:0:
160,96,145418,1,0,0:0:0:0:
160,96,145538,1,0,0:0:0:0:
160,96,145658,1,8,0:0:0:0:
160,96,145898,1,0,0:0:0:0:
160,64,146138,1,8,0:0:0:0:
192,96,146258,1,8,0:0:0:0:
160,64,146378,1,0,0:0:0:0:
160,64,146498,1,0,0:0:0:0:
160,64,146618,1,8,0:0:0:0:
128,64,146858,1,0,0:0:0:0:
128,64,146978,1,0,0:0:0:0:
128,64,147098,1,8,0:0:0:0:
128,64,147218,1,8,0:0:0:0:
128,96,147338,1,0,0:0:0:0:
128,96,147458,1,8,0:0:0:0:
128,96,147578,1,0,0:0:0:0:
160,32,147818,1,0,0:0:0:0:
160,32,148058,1,8,0:0:0:0:
224,96,148178,1,8,0:0:0:0:
192,128,148298,1,0,0:0:0:0:
192,128,148418,1,0,0:0:0:0:
192,128,148538,1,8,0:0:0:0:
192,96,148778,1,0,0:0:0:0:
192,96,148898,1,0,0:0:0:0:
192,96,149018,1,8,0:0:0:0:
192,96,149138,1,8,0:0:0:0:
192,96,149258,1,0,0:0:0:0:
192,96,149378,1,0,0:0:0:0:
192,96,149498,1,8,0:0:0:0:
160,64,149618,1,8,0:0:0:0:
160,64,149738,1,0,0:0:0:0:
160,64,149978,1,8,0:0:0:0:
160,64,150098,1,8,0:0:0:0:
160,64,150218,1,0,0:0:0:0:
160,64,150338,1,0,0:0:0:0:
160,64,150458,1,8,0:0:0:0:
160,64,150578,1,0,0:0:0:0:
160,64,150698,1,0,0:0:0:0:
160,64,150818,1,8,0:0:0:0:
192,64,151058,1,0,0:0:0:0:
192,64,151178,1,8,0:0:0:0:
192,96,151418,1,8,0:0:0:0:
160,32,151538,1,8,0:0:0:0:
192,96,151658,1,0,0:0:0:0:
192,96,151898,1,0,0:0:0:0:
192,96,152018,1,8,0:0:0:0:
128,64,152078,1,8,0:0:0:0:
192,96,152138,1,0,0:0:0:0:
192,96,152258,1,0,0:0:0:0:
160,64,152318,1,0,0:0:0:0:
160,64,152378,1,8,0:0:0:0:
192,96,152498,1,8,0:0:0:0:
192,96,152618,1,0,0:0:0:0:
192,128,152858,1,0,0:0:0:0:
192,128,152978,1,8,0:0:0:0:
192,64,153038,1,0,0:0:0:0:
192,128,153098,1,8,0:0:0:0:
128,64,153158,1,8,0:0:0:0:
192,128,153218,1,0,0:0:0:0:
192,128,153338,1,8,0:0:0:0:
192,128,153458,1,8,0:0:0:0:
192,128,153578,1,0,0:0:0:0:
192,160,153818,1,0,0:0:0:0:
192,160,153938,1,8,0:0:0:0:
160,32,153998,1,8,0:0:0:0:
192,160,154058,1,0,0:0:0:0:
192,160,154178,1,0,0:0:0:0:
192,192,154298,1,8,0:0:0:0:
160,64,154358,1,0,0:0:0:0:
192,160,154418,1,8,0:0:0:0:
192,160,154538,1,0,0:0:0:0:
160,128,154778,1,0,0:0:0:0:
160,128,154898,1,8,0:0:0:0:
192,96,154958,1,0,0:0:0:0:
160,128,155018,1,8,0:0:0:0:
160,128,155138,1,0,0:0:0:0:
160,64,155198,1,0,0:0:0:0:
160,128,155258,1,8,0:0:0:0:
160,128,155378,1,8,0:0:0:0:
160,128,155498,1,0,0:0:0:0:
192,64,155618,1,8,0:0:0:0:
192,96,155738,1,0,0:0:0:0:
192,96,155858,1,0,0:0:0:0:
192,96,155978,1,8,0:0:0:0:
192,32,156038,1,8,0:0:0:0:
192,96,156098,1,8,0:0:0:0:
192,32,156158,1,8,0:0:0:0:
192,32,156218,1,0,0:0:0:0:
192,32,156278,1,0,0:0:0:0:
192,32,156338,1,0,0:0:0:0:
192,32,156398,1,0,0:0:0:0:
192,96,156458,1,8,0:0:0:0:
192,64,156698,1,0,0:0:0:0:
192,160,156938,1,0,0:0:0:0:
192,64,157058,1,0,0:0:0:0:
192,64,157178,1,8,0:0:0:0:
160,160,157298,1,8,0:0:0:0:
160,160,157418,1,0,0:0:0:0:
128,128,157478,1,0,0:0:0:0:
128,128,157538,1,8,0:0:0:0:
128,128,157598,1,8,0:0:0:0:
128,128,157658,1,0,0:0:0:0:
224,96,157778,1,0,0:0:0:0:
128,128,157898,1,8,0:0:0:0:
128,128,157958,1,8,0:0:0:0:
128,128,158018,1,0,0:0:0:0:
128,128,158078,1,0,0:0:0:0:
128,128,158138,1,8,0:0:0:0:
192,96,158258,1,8,0:0:0:0:
128,128,158378,1,0,0:0:0:0:
128,128,158498,1,0,0:0:0:0:
128,128,158618,1,0,0:0:0:0:
160,32,158738,1,0,0:0:0:0:
128,128,158858,1,0,0:0:0:0:
128,128,159098,1,8,0:0:0:0:
128,128,159338,1,4,0:0:0:0:
192,128,159458,1,8,0:0:0:0:
192,128,159698,1,8,0:0:0:0:
96,128,159818,1,0,0:0:0:0:
192,64,159878,1,0,0:0:0:0:
192,128,159938,1,8,0:0:0:0:
96,128,160058,1,0,0:0:0:0:
192,128,160178,1,8,0:0:0:0:
96,128,160298,1,0,0:0:0:0:
96,128,160538,1,0,0:0:0:0:
192,128,160658,1,8,0:0:0:0:
192,64,160718,1,8,0:0:0:0:
96,128,160778,1,0,0:0:0:0:
192,128,160898,1,8,0:0:0:0:
96,128,161018,1,0,0:0:0:0:
96,128,161258,1,0,0:0:0:0:
192,64,161378,1,8,0:0:0:0:
96,128,161498,1,0,0:0:0:0:
192,64,161558,1,0,0:0:0:0:
160,32,161618,1,0,0:0:0:0:
160,32,161678,1,0,0:0:0:0:
192,64,161738,1,8,0:0:0:0:
96,128,161978,1,8,0:0:0:0:
192,96,162098,1,8,0:0:0:0:
96,128,162218,1,0,0:0:0:0:
96,128,162458,1,0,0:0:0:0:
192,96,162578,1,8,0:0:0:0:
96,128,162698,1,0,0:0:0:0:
160,32,162758,1,0,0:0:0:0:
192,96,162818,1,0,0:0:0:0:
96,128,162938,1,8,0:0:0:0:
96,128,163178,1,0,0:0:0:0:
96,128,163418,1,8,0:0:0:0:
192,96,163538,1,0,0:0:0:0:
192,0,163598,1,0,0:0:0:0:
96,128,163658,1,8,0:0:0:0:
192,96,163778,1,0,0:0:0:0:
96,128,163898,1,8,0:0:0:0:
160,32,163958,1,8,0:0:0:0:
160,64,164018,1,0,0:0:0:0:
96,128,164138,1,8,0:0:0:0:
96,128,164378,1,8,0:0:0:0:
160,96,164498,1,0,0:0:0:0:
96,128,164618,1,8,0:0:0:0:
160,96,164738,1,8,0:0:0:0:
96,128,164858,1,0,0:0:0:0:
96,128,165098,1,0,0:0:0:0:
160,96,165218,1,8,0:0:0:0:
128,64,165278,1,8,0:0:0:0:
96,128,165338,1,0,0:0:0:0:
160,96,165458,1,8,0:0:0:0:
160,64,165518,1,8,0:0:0:0:
96,128,165578,1,0,0:0:0:0:
160,96,165698,1,8,0:0:0:0:
96,128,165818,1,0,0:0:0:0:
96,128,166058,1,0,0:0:0:0:
160,96,166178,1,8,0:0:0:0:
160,32,166238,1,8,0:0:0:0:
96,128,166298,1,0,0:0:0:0:
192,64,166358,1,0,0:0:0:0:
160,96,166418,1,8,0:0:0:0:
96,128,166538,1,0,0:0:0:0:
160,96,166658,1,0,0:0:0:0:
96,128,166778,1,8,0:0:0:0:
160,32,166898,1,0,0:0:0:0:
96,128,167018,1,12,0:0:0:0:
160,64,167258,1,8,0:0:0:0:
160,64,167378,1,0,0:0:0:0:
192,32,167438,1,0,0:0:0:0:
160,224,167498,1,8,0:0:0:0:
160,224,167618,1,0,0:0:0:0:
160,224,167738,1,8,0:0:0:0:
160,64,167798,1,8,0:0:0:0:
160,224,167858,1,0,0:0:0:0:
160,64,167918,1,0,0:0:0:0:
160,224,167978,1,8,0:0:0:0:
192,96,168098,1,0,0:0:0:0:
192,96,168218,1,0,0:0:0:0:
192,96,168338,1,8,0:0:0:0:
192,32,168398,1,8,0:0:0:0:
192,96,168458,1,0,0:0:0:0:
192,96,168578,1,0,0:0:0:0:
192,96,168698,1,8,0:0:0:0:
160,64,168818,1,8,0:0:0:0:
192,96,168938,1,0,0:0:0:0:
192,96,169178,1,8,0:0:0:0:
192,96,169298,1,8,0:0:0:0:
192,32,169358,1,8,0:0:0:0:
192,96,169418,1,0,0:0:0:0:
192,96,169538,1,0,0:0:0:0:
192,96,169658,1,8,0:0:0:0:
192,32,169718,1,8,0:0:0:0:
192,96,169778,1,0,0:0:0:0:
192,64,169838,1,8,0:0:0:0:
192,96,169898,1,0,0:0:0:0:
192,96,170018,1,8,0:0:0:0:
192,96,170138,1,0,0:0:0:0:
192,32,170198,1,0,0:0:0:0:
192,96,170258,1,0,0:0:0:0:
192,32,170318,1,0,0:0:0:0:
192,32,170378,1,8,0:0:0:0:
192,96,170498,1,0,0:0:0:0:
192,96,170618,1,8,0:0:0:0:
224,64,170738,1,0,0:0:0:0:
128,64,170858,1,12,0:0:0:0:
128,64,171098,1,8,0:0:0:0:
192,64,171218,1,0,0:0:0:0:
160,32,171278,1,0,0:0:0:0:
192,64,171338,1,8,0:0:0:0:
192,64,171458,1,0,0:0:0:0:
192,64,171578,1,8,0:0:0:0:
160,32,171638,1,8,0:0:0:0:
192,64,171698,1,0,0:0:0:0:
192,64,171818,1,12,0:0:0:0:
192,32,171938,1,0,0:0:0:0:
192,32,171998,1,0,0:0:0:0:
192,64,172058,1,8,0:0:0:0:
192,32,172118,1,8,0:0:0:0:
192,32,172178,1,0,0:0:0:0:
192,32,172238,1,0,0:0:0:0:
192,64,172298,1,8,0:0:0:0:
192,64,172418,1,8,0:0:0:0:
192,64,172538,1,0,0:0:0:0:
192,64,172778,1,0,0:0:0:0:
192,64,172898,1,8,0:0:0:0:
192,32,172958,1,8,0:0:0:0:
192,64,173018,1,0,0:0:0:0:
192,64,173138,1,8,0:0:0:0:
160,64,173258,1,0,0:0:0:0:
192,64,173378,1,8,0:0:0:0:
160,64,173438,1,8,0:0:0:0:
160,64,173498,1,8,0:0:0:0:
160,64,173558,1,8,0:0:0:0:
160,64,173618,1,0,0:0:0:0:
192,64,173738,1,0,0:0:0:0:
192,64,173858,1,8,0:0:0:0:
192,64,173978,1,0,0:0:0:0:
160,64,174098,1,0,0:0:0:0:
160,64,174218,1,8,0:0:0:0:
160,64,174338,1,8,0:0:0:0:
160,64,174458,1,0,0:0:0:0:
192,64,174698,1,4,0:0:0:0:
128,192,174938,1,0,0:0:0:0:
128,192,175058,1,8,0:0:0:0:
128,192,175178,1,0,0:0:0:0:
128,192,175298,1,8,0:0:0:0:
192,96,175358,1,8,0:0:0:0:
128,192,175418,1,0,0:0:0:0:
128,192,175538,1,8,0:0:0:0:
128,192,175658,1,0,0:0:0:0:
128,192,175898,1,0,0:0:0:0:
128,192,176018,1,8,0:0:0:0:
128,192,176138,1,0,0:0:0:0:
192,32,176198,1,0,0:0:0:0:
128,192,176258,1,8,0:0:0:0:
128,192,176378,1,0,0:0:0:0:
192,32,176498,1,8,0:0:0:0:
192,32,176618,1,0,0:0:0:0:
192,32,176858,1,0,0:0:0:0:
192,32,176978,1,8,0:0:0:0:
160,32,177038,1,8,0:0:0:0:
192,32,177098,1,0,0:0:0:0:
192,32,177218,1,8,0:0:0:0:
192,32,177338,1,0,0:0:0:0:
160,32,177398,1,0,0:0:0:0:
192,32,177458,1,8,0:0:0:0:
192,32,177578,1,0,0:0:0:0:
160,32,177818,1,0,0:0:0:0:
160,32,177938,1,8,0:0:0:0:
160,32,178058,1,0,0:0:0:0:
192,64,178118,1,0,0:0:0:0:
160,32,178178,1,8,0:0:0:0:
192,32,178238,1,8,0:0:0:0:
160,32,178298,1,0,0:0:0:0:
160,32,178418,1,8,0:0:0:0:
160,32,178538,1,0,0:0:0:0:
160,96,178778,1,0,0:0:0:0:
160,96,178898,1,8,0:0:0:0:
192,64,178958,1,8,0:0:0:0:
160,96,179018,1,0,0:0:0:0:
160,96,179138,1,0,0:0:0:0:
160,96,179258,1,8,0:0:0:0:
192,64,179318,1,0,0:0:0:0:
160,96,179378,1,8,0:0:0:0:
160,96,179498,1,0,0:0:0:0:
192,64,179738,1,0,0:0:0:0:
192,64,179858,1,8,0:0:0:0:
192,64,179978,1,0,0:0:0:0:
192,0,180038,1,0,0:0:0:0:
192,64,180098,1,8,0:0:0:0:
192,64,180218,1,0,0:0:0:0:
192,64,180338,1,8,0:0:0:0:
192,64,180458,1,0,0:0:0:0:
192,64,180698,1,0,0:0:0:0:
192,64,180818,1,8,0:0:0:0:
160,64,180878,1,8,0:0:0:0:
192,64,180938,1,0,0:0:0:0:
192,64,181058,1,8,0:0:0:0:
192,64,181178,1,0,0:0:0:0:
192,64,181298,1,0,0:0:0:0:
192,64,181418,1,12,0:0:0:0:
192,32,181538,1,0,0:0:0:0:
192,32,181598,1,0,0:0:0:0:
192,64,181658,1,8,0:0:0:0:
160,64,181718,1,8,0:0:0:0:
192,64,181778,1,8,0:0:0:0:
192,32,181838,1,8,0:0:0:0:
160,64,181898,1,0,0:0:0:0:
192,64,182018,1,0,0:0:0:0:
192,64,182138,1,12,0:0:0:0:
192,32,182258,1,8,0:0:0:0:
192,64,182378,1,4,0:0:0:0:
192,64,182618,1,8,0:0:0:0:
192,64,182858,1,0,0:0:0:0:
192,64,182978,1,0,0:0:0:0:
192,64,183098,1,8,0:0:0:0:
160,96,183338,1,0,0:0:0:0:
160,128,183578,1,8,0:0:0:0:
160,128,183818,1,0,0:0:0:0:
160,128,184058,1,8,0:0:0:0:
160,128,184298,1,0,0:0:0:0:
160,128,184538,1,8,0:0:0:0:
160,128,184778,1,0,0:0:0:0:
160,128,184898,1,0,0:0:0:0:
160,128,185018,1,8,0:0:0:0:
128,96,185258,1,0,0:0:0:0:
128,96,185498,1,8,0:0:0:0:
128,96,185738,1,0,0:0:0:0:
128,96,185978,1,8,0:0:0:0:
128,96,186098,1,8,0:0:0:0:
128,96,186218,1,4,0:0:0:0:
128,96,186458,1,8,0:0:0:0:
128,96,186698,1,0,0:0:0:0:
128,96,186818,1,0,0:0:0:0:
128,96,186938,1,8,0:0:0:0:
128,96,187178,1,0,0:0:0:0:
128,96,187418,1,8,0:0:0:0:
128,96,187658,1,0,0:0:0:0:
192,96,187898,1,8,0:0:0:0:
128,96,188018,1,0,0:0:0:0:
128,96,188138,1,0,0:0:0:0:
192,128,188378,1,8,0:0:0:0:
160,128,188618,1,0,0:0:0:0:
160,128,188738,1,0,0:0:0:0:
160,128,188858,1,8,0:0:0:0:
160,128,188918,1,8,0:0:0:0:
160,128,188978,1,8,0:0:0:0:
160,128,189038,1,8,0:0:0:0:
160,128,189098,1,0,0:0:0:0:
160,128,189218,1,8,0:0:0:0:
160,128,189338,1,0,0:0:0:0:
160,128,189458,1,0,0:0:0:0:
160,128,189578,1,8,0:0:0:0:
160,128,189818,1,0,0:0:0:0:
160,128,190058,1,12,0:0:0:0:
256,160,190178,1,0,0:0:0:0:
192,96,190238,1,0,0:0:0:0:
160,192,190298,1,8,0:0:0:0:
256,160,190418,1,0,0:0:0:0:
160,192,190538,1,8,0:0:0:0:
288,128,190658,1,0,0:0:0:0:
192,96,190718,1,0,0:0:0:0:
160,192,190778,1,8,0:0:0:0:
192,96,190838,1,0,0:0:0:0:
288,128,190898,1,0,0:0:0:0:
192,96,190958,1,0,0:0:0:0:
160,192,191018,1,8,0:0:0:0:
288,128,191138,1,0,0:0:0:0:
160,192,191258,1,8,0:0:0:0:
288,128,191378,1,0,0:0:0:0:
160,64,191438,1,0,0:0:0:0:
160,192,191498,1,8,0:0:0:0:
288,160,191618,1,0,0:0:0:0:
160,192,191738,1,8,0:0:0:0:
192,64,191798,1,8,0:0:0:0:
288,160,191858,1,0,0:0:0:0:
160,192,191978,1,8,0:0:0:0:
288,160,192098,1,0,0:0:0:0:
192,64,192158,1,0,0:0:0:0:
160,192,192218,1,8,0:0:0:0:
288,160,192338,1,0,0:0:0:0:
192,96,192458,1,8,0:0:0:0:
192,32,192518,1,8,0:0:0:0:
288,160,192578,1,0,0:0:0:0:
192,64,192638,1,0,0:0:0:0:
192,96,192698,1,8,0:0:0:0:
288,160,192818,1,0,0:0:0:0:
192,96,192938,1,8,0:0:0:0:
160,32,192998,1,8,0:0:0:0:
288,160,193058,1,0,0:0:0:0:
192,96,193178,1,8,0:0:0:0:
288,160,193298,1,0,0:0:0:0:
192,32,193358,1,0,0:0:0:0:
192,96,193418,1,8,0:0:0:0:
288,160,193538,1,0,0:0:0:0:
192,96,193658,1,8,0:0:0:0:
160,32,193718,1,8,0:0:0:0:
288,160,193778,1,0,0:0:0:0:
160,32,193838,1,0,0:0:0:0:
192,96,193898,1,8,0:0:0:0:
288,160,194018,1,0,0:0:0:0:
192,96,194138,1,8,0:0:0:0:
160,64,194258,1,0,0:0:0:0:
160,0,194318,1,0,0:0:0:0:
192,96,194378,1,8,0:0:0:0:
192,32,194438,1,8,0:0:0:0:
288,160,194498,1,0,0:0:0:0:
192,96,194618,1,8,0:0:0:0:
288,160,194738,1,0,0:0:0:0:
192,32,194798,1,0,0:0:0:0:
192,96,194858,1,8,0:0:0:0:
288,160,194978,1,0,0:0:0:0:
192,96,195098,1,8,0:0:0:0:
288,160,195218,1,0,0:0:0:0:
192,32,195278,1,0,0:0:0:0:
192,96,195338,1,8,0:0:0:0:
288,160,195458,1,0,0:0:0:0:
192,32,195518,1,0,0:0:0:0:
192,96,195578,1,8,0:0:0:0:
192,32,195638,1,8,0:0:0:0:
288,160,195698,1,0,0:0:0:0:
192,32,195758,1,0,0:0:0:0:
192,96,195818,1,8,0:0:0:0:
288,160,195938,1,0,0:0:0:0:
192,96,196058,1,8,0:0:0:0:
288,160,196178,1,0,0:0:0:0:
192,32,196238,1,0,0:0:0:0:
192,96,196298,1,8,0:0:0:0:
224,96,196418,1,0,0:0:0:0:
192,96,196538,1,8,0:0:0:0:
192,96,196778,1,0,0:0:0:0:
128,64,196838,1,0,0:0:0:0:
224,96,196898,1,0,0:0:0:0:
128,64,196958,1,0,0:0:0:0:
192,96,197018,1,8,0:0:0:0:
128,64,197078,1,8,0:0:0:0:
224,96,197138,1,8,0:0:0:0:
128,64,197198,1,8,0:0:0:0:
192,96,197258,1,0,0:0:0:0:
224,64,197318,1,0,0:0:0:0:
224,96,197378,1,0,0:0:0:0:
192,64,197438,1,0,0:0:0:0:
192,96,197498,1,8,0:0:0:0:
192,96,197738,1,12,0:0:0:0:
192,96,197858,1,0,0:0:0:0:
224,128,197918,1,0,0:0:0:0:
192,96,197978,1,8,0:0:0:0:
192,96,198098,1,0,0:0:0:0:
192,96,198218,1,0,0:0:0:0:
192,96,198458,1,0,0:0:0:0:
160,96,198578,1,0,0:0:0:0:
192,96,198698,1,12,0:0:0:0:
192,96,198818,1,0,0:0:0:0:
160,32,198878,1,8,0:0:0:0:
192,96,198938,1,0,0:0:0:0:
192,96,199058,1,8,0:0:0:0:
192,96,199178,1,0,0:0:0:0:
192,96,199418,1,0,0:0:0:0:
192,96,199538,1,0,0:0:0:0:
192,96,199658,1,12,0:0:0:0:
192,128,199778,1,0,0:0:0:0:
160,32,199838,1,0,0:0:0:0:
192,128,199898,1,8,0:0:0:0:
192,128,200018,1,0,0:0:0:0:
192,128,200138,1,0,0:0:0:0:
192,64,200378,1,0,0:0:0:0:
192,64,200498,1,0,0:0:0:0:
192,96,200618,1,12,0:0:0:0:
192,32,200738,1,0,0:0:0:0:
192,64,200858,1,0,0:0:0:0:
192,64,200978,1,12,0:0:0:0:
192,64,201098,1,0,0:0:0:0:
192,32,201218,1,0,0:0:0:0:
192,32,201278,1,0,0:0:0:0:
192,64,201338,1,8,0:0:0:0:
192,96,201578,1,12,0:0:0:0:
192,64,201698,1,0,0:0:0:0:
192,32,201758,1,0,0:0:0:0:
192,64,201818,1,8,0:0:0:0:
192,64,201938,1,8,0:0:0:0:
192,64,202058,1,0,0:0:0:0:
192,64,202298,1,0,0:0:0:0:
192,64,202418,1,0,0:0:0:0:
192,96,202538,1,12,0:0:0:0:
224,64,202658,1,0,0:0:0:0:
160,96,202718,1,0,0:0:0:0:
224,64,202778,1,8,0:0:0:0:
160,64,202838,1,0,0:0:0:0:
160,96,202898,1,8,0:0:0:0:
224,64,203018,1,0,0:0:0:0:
224,64,203258,1,0,0:0:0:0:
224,64,203378,1,0,0:0:0:0:
192,96,203498,1,12,0:0:0:0:
192,64,203618,1,0,0:0:0:0:
192,64,203678,1,0,0:0:0:0:
192,64,203738,1,8,0:0:0:0:
192,32,203798,1,0,0:0:0:0:
192,64,203858,1,8,0:0:0:0:
224,32,203918,1,8,0:0:0:0:
192,64,203978,1,0,0:0:0:0:
192,64,204218,1,8,0:0:0:0:
192,96,204458,1,0,0:0:0:0:
192,64,204578,1,0,0:0:0:0:
192,64,204698,1,0,0:0:0:0:
192,64,204818,1,0,0:0:0:0:
192,64,204938,1,0,0:0:0:0:
192,64,205058,1,0,0:0:0:0:
192,64,205178,1,0,0:0:0:0:
192,32,205298,1,0,0:0:0:0:
192,96,205418,1,12,0:0:0:0:
256,128,212618,5,0,0:0:0:0:
256,128,213098,1,8,0:0:0:0:
256,128,213578,1,0,0:0:0:0:
192,224,214058,5,4,0:0:0:0:
224,160,215978,1,4,0:0:0:0:
192,128,216938,1,8,0:0:0:0:
192,128,217058,1,0,0:0:0:0:
192,128,217178,1,0,0:0:0:0:
192,128,217298,1,8,0:0:0:0:
192,128,217418,1,0,0:0:0:0:
192,128,217538,1,0,0:0:0:0:
192,128,217658,1,8,0:0:0:0:
192,128,217898,1,0,0:0:0:0:
160,96,218018,1,0,0:0:0:0:
160,96,218138,1,0,0:0:0:0:
160,96,218258,1,0,0:0:0:0:
160,96,218378,1,0,0:0:0:0:
192,64,218498,1,0,0:0:0:0:
160,96,218618,1,0,0:0:0:0:
160,96,218738,1,0,0:0:0:0:
160,96,218858,1,8,0:0:0:0:
160,32,219098,1,0,0:0:0:0:
160,32,219218,1,0,0:0:0:0:
160,32,219338,1,0,0:0:0:0:
160,32,219458,1,0,0:0:0:0:
160,32,219578,1,0,0:0:0:0:
160,32,219698,1,0,0:0:0:0:
160,32,219818,1,8,0:0:0:0:
160,64,219878,1,8,0:0:0:0:
160,64,219938,1,0,0:0:0:0:
160,96,220178,1,8,0:0:0:0:
160,96,220298,1,0,0:0:0:0:
192,96,220418,1,8,0:0:0:0:
192,96,220478,1,8,0:0:0:0:
192,96,220538,1,0,0:0:0:0:
160,64,220658,1,8,0:0:0:0:
192,64,220778,1,0,0:0:0:0:
160,96,220838,1,0,0:0:0:0:
192,64,220898,1,8,0:0:0:0:
160,32,221138,1,0,0:0:0:0:
160,32,221258,1,0,0:0:0:0:
160,64,221378,1,8,0:0:0:0:
160,64,221498,1,8,0:0:0:0:
160,64,221618,1,8,0:0:0:0:
128,64,221738,1,4,0:0:0:0:
192,64,222458,1,12,0:0:0:0:
192,64,222698,1,4,0:0:0:0:
192,64,223418,1,12,0:0:0:0:
192,64,223658,1,4,0:0:0:0:
192,64,224018,1,4,0:0:0:0:
192,64,224378,1,12,0:0:0:0:
192,64,224618,1,4,0:0:0:0:
192,96,225578,1,0,0:0:0:0:
192,64,225698,1,8,0:0:0:0:
192,64,225818,1,0,0:0:0:0:
192,64,225938,1,8,0:0:0:0:
192,64,226058,1,8,0:0:0:0:
192,64,226178,1,0,0:0:0:0:
192,64,226298,1,0,0:0:0:0:
192,64,226418,1,8,0:0:0:0:
192,64,226538,1,0,0:0:0:0:
192,32,226658,1,8,0:0:0:0:
192,32,226778,1,0,0:0:0:0:
192,32,226898,1,8,0:0:0:0:
192,32,227018,1,0,0:0:0:0:
192,32,227138,1,0,0:0:0:0:
192,32,227258,1,8,0:0:0:0:
192,32,227378,1,8,0:0:0:0:
192,32,227498,1,4,0:0:0:0:
192,160,227978,1,0,0:0:0:0:
192,160,228458,1,8,0:0:0:0:
192,96,228938,1,0,0:0:0:0:
192,32,229418,1,12,0:0:0:0:
224,224,229658,1,8,0:0:0:0:
128,96,229778,1,0,0:0:0:0:
192,128,229838,1,0,0:0:0:0:
128,96,229898,1,8,0:0:0:0:
192,128,230018,1,0,0:0:0:0:
192,128,230138,1,8,0:0:0:0:
192,128,230198,1,8,0:0:0:0:
192,128,230258,1,0,0:0:0:0:
192,128,230318,1,0,0:0:0:0:
192,128,230378,1,8,0:0:0:0:
160,96,230498,1,0,0:0:0:0:
160,96,230618,1,0,0:0:0:0:
192,64,230738,1,8,0:0:0:0:
192,64,230798,1,8,0:0:0:0:
192,64,230858,1,0,0:0:0:0:
192,32,230978,1,0,0:0:0:0:
192,32,231098,1,8,0:0:0:0:
160,64,231158,1,8,0:0:0:0:
160,64,231218,1,8,0:0:0:0:
160,64,231278,1,8,0:0:0:0:
160,64,231338,1,0,0:0:0:0:
192,32,231458,1,8,0:0:0:0:
192,32,231578,1,0,0:0:0:0:
192,64,231698,1,0,0:0:0:0:
160,64,231758,1,0,0:0:0:0:
192,64,231818,1,8,0:0:0:0:
160,64,231938,1,0,0:0:0:0:
160,64,232058,1,8,0:0:0:0:
160,32,232118,1,0,0:0:0:0:
160,64,232178,1,8,0:0:0:0:
160,32,232238,1,8,0:0:0:0:
160,32,232298,1,0,0:0:0:0:
192,32,232418,1,0,0:0:0:0:
160,32,232538,1,8,0:0:0:0:
192,32,232658,1,0,0:0:0:0:
192,32,232718,1,0,0:0:0:0:
192,32,232778,1,8,0:0:0:0:
192,32,232898,1,0,0:0:0:0:
192,32,233018,1,8,0:0:0:0:
192,32,233138,1,8,0:0:0:0:
192,32,233258,1,0,0:0:0:0:
192,192,233378,1,0,0:0:0:0:
192,192,233498,1,8,0:0:0:0:
192,128,233618,1,0,0:0:0:0:
192,128,233678,1,0,0:0:0:0:
192,128,233738,1,8,0:0:0:0:
192,64,233858,1,0,0:0:0:0:
192,64,233978,1,8,0:0:0:0:
192,64,234038,1,8,0:0:0:0:
192,64,234098,1,0,0:0:0:0:
192,64,234158,1,0,0:0:0:0:
192,64,234218,1,8,0:0:0:0:
160,64,234338,1,0,0:0:0:0:
160,64,234398,1,0,0:0:0:0:
160,64,234458,1,8,0:0:0:0:
192,64,234578,1,0,0:0:0:0:
192,64,234698,1,8,0:0:0:0:
192,64,234758,1,0,0:0:0:0:
192,64,234818,1,0,0:0:0:0:
192,64,234878,1,0,0:0:0:0:
192,64,234938,1,8,0:0:0:0:
192,32,235058,1,0,0:0:0:0:
192,32,235178,1,8,0:0:0:0:
192,32,235298,1,0,0:0:0:0:
192,32,235358,1,0,0:0:0:0:
192,64,235418,1,8,0:0:0:0:
192,64,235478,1,8,0:0:0:0:
192,64,235538,1,0,0:0:0:0:
192,64,235598,1,0,0:0:0:0:
192,64,235658,1,8,0:0:0:0:
192,32,235778,1,0,0:0:0:0:
192,32,235898,1,0,0:0:0:0:
192,32,236018,1,8,0:0:0:0:
192,32,236138,1,0,0:0:0:0:
192,64,236258,1,8,0:0:0:0:
192,64,236318,1,0,0:0:0:0:
192,64,236378,1,8,0:0:0:0:
192,64,236438,1,8,0:0:0:0:
192,64,236498,1,0,0:0:0:0:
192,64,236558,1,8,0:0:0:0:
192,64,236618,1,0,0:0:0:0:
160,32,236858,1,0,0:0:0:0:
160,32,237098,1,12,0:0:0:0:
192,32,237218,1,0,0:0:0:0:
224,32,237278,1,0,0:0:0:0:
192,32,237338,1,8,0:0:0:0:
160,64,237458,1,0,0:0:0:0:
160,64,237578,1,8,0:0:0:0:
192,32,237638,1,8,0:0:0:0:
160,64,237698,1,0,0:0:0:0:
160,64,237818,1,8,0:0:0:0:
192,32,237878,1,8,0:0:0:0:
192,64,237938,1,0,0:0:0:0:
192,64,238058,1,8,0:0:0:0:
192,128,238178,1,0,0:0:0:0:
192,128,238238,1,8,0:0:0:0:
160,128,238298,1,0,0:0:0:0:
224,128,238418,1,8,0:0:0:0:
192,64,238538,1,0,0:0:0:0:
192,64,238598,1,0,0:0:0:0:
192,64,238658,1,0,0:0:0:0:
192,32,238718,1,0,0:0:0:0:
192,64,238778,1,8,0:0:0:0:
192,32,238898,1,8,0:0:0:0:
192,32,239018,1,0,0:0:0:0:
160,64,239138,1,8,0:0:0:0:
160,64,239198,1,8,0:0:0:0:
160,64,239258,1,0,0:0:0:0:
160,32,239378,1,8,0:0:0:0:
160,64,239498,1,0,0:0:0:0:
160,64,239558,1,8,0:0:0:0:
192,32,239618,1,0,0:0:0:0:
192,32,239678,1,0,0:0:0:0:
160,64,239738,1,8,0:0:0:0:
192,64,239858,1,8,0:0:0:0:
192,64,239978,1,0,0:0:0:0:
192,64,240098,1,8,0:0:0:0:
192,64,240158,1,8,0:0:0:0:
192,64,240218,1,0,0:0:0:0:
160,64,240338,1,8,0:0:0:0:
160,64,240458,1,0,0:0:0:0:
160,64,240578,1,0,0:0:0:0:
160,64,240698,1,8,0:0:0:0:
160,32,240818,1,8,0:0:0:0:
160,32,240938,1,4,0:0:0:0:
160,32,241058,1,8,0:0:0:0:
160,32,241118,1,8,0:0:0:0:
160,32,241178,1,0,0:0:0:0:
224,64,241298,1,8,0:0:0:0:
192,96,241418,1,0,0:0:0:0:
192,96,241478,1,0,0:0:0:0:
192,96,241538,1,8,0:0:0:0:
192,96,241598,1,8,0:0:0:0:
192,96,241658,1,0,0:0:0:0:
192,96,241778,1,8,0:0:0:0:
192,96,241838,1,8,0:0:0:0:
192,96,241898,1,0,0:0:0:0:
192,64,242018,1,8,0:0:0:0:
192,64,242138,1,0,0:0:0:0:
224,32,242258,1,0,0:0:0:0:
224,32,242378,1,8,0:0:0:0:
224,32,242498,1,8,0:0:0:0:
224,32,242618,1,0,0:0:0:0:
192,32,242738,1,8,0:0:0:0:
192,32,242858,1,0,0:0:0:0:
192,96,242978,1,12,0:0:0:0:
192,96,243098,1,0,0:0:0:0:
192,64,243218,1,12,0:0:0:0:
192,96,243338,1,12,0:0:0:0:
192,96,243458,1,0,0:0:0:0:
192,64,243518,1,0,0:0:0:0:
192,32,243578,1,8,0:0:0:0:
160,32,243638,1,0,0:0:0:0:
160,32,243698,1,8,0:0:0:0:
160,32,243758,1,8,0:0:0:0:
160,32,243818,1,0,0:0:0:0:
192,64,244058,1,0,0:0:0:0:
192,64,244178,1,8,0:0:0:0:
192,64,244298,1,0,0:0:0:0:
192,64,244418,1,0,0:0:0:0:
192,64,244538,1,8,0:0:0:0:
192,64,244658,1,8,0:0:0:0:
192,32,244778,1,4,0:0:0:0:
192,96,245018,1,0,0:0:0:0:
192,96,245138,1,8,0:0:0:0:
192,32,245198,1,8,0:0:0:0:
192,96,245258,1,0,0:0:0:0:
192,96,245378,1,8,0:0:0:0:
192,96,245498,1,0,0:0:0:0:
192,96,245618,1,8,0:0:0:0:
192,96,245738,1,0,0:0:0:0:
224,64,245858,1,0,0:0:0:0:
224,64,245918,1,0,0:0:0:0:
224,64,245978,1,8,0:0:0:0:
224,64,246098,1,0,0:0:0:0:
224,64,246218,1,8,0:0:0:0:
224,64,246338,1,0,0:0:0:0:
192,0,246398,1,0,0:0:0:0:
224,64,246458,1,8,0:0:0:0:
224,64,246578,1,8,0:0:0:0:
224,64,246698,1,0,0:0:0:0:
224,96,246818,1,0,0:0:0:0:
224,64,246938,1,8,0:0:0:0:
224,64,247058,1,8,0:0:0:0:
192,32,247118,1,8,0:0:0:0:
224,64,247178,1,0,0:0:0:0:
224,64,247298,1,0,0:0:0:0:
224,64,247418,1,8,0:0:0:0:
160,64,247478,1,0,0:0:0:0:
224,64,247538,1,8,0:0:0:0:
160,64,247598,1,8,0:0:0:0:
224,64,247658,1,0,0:0:0:0:
192,32,247778,1,8,0:0:0:0:
192,128,247898,1,0,0:0:0:0:
192,128,248018,1,0,0:0:0:0:
192,32,248078,1,0,0:0:0:0:
192,128,248138,1,8,0:0:0:0:
192,128,248258,1,0,0:0:0:0:
160,128,248378,1,8,0:0:0:0:
160,128,248498,1,8,0:0:0:0:
160,128,248618,1,4,0:0:0:0:
160,128,248858,1,0,0:0:0:0:
160,128,248978,1,8,0:0:0:0:
192,32,249038,1,8,0:0:0:0:
160,128,249098,1,0,0:0:0:0:
160,128,249218,1,0,0:0:0:0:
192,64,249338,1,8,0:0:0:0:
192,64,249398,1,0,0:0:0:0:
160,128,249458,1,8,0:0:0:0:
160,128,249578,1,0,0:0:0:0:
192,32,249638,1,0,0:0:0:0:
192,32,249698,1,0,0:0:0:0:
192,32,249758,1,0,0:0:0:0:
192,64,249818,1,8,0:0:0:0:
192,64,249938,1,0,0:0:0:0:
160,0,249998,1,0,0:0:0:0:
192,64,250058,1,8,0:0:0:0:
192,64,250178,1,0,0:0:0:0:
192,64,250298,1,8,0:0:0:0:
192,64,250418,1,8,0:0:0:0:
192,64,250538,1,0,0:0:0:0:
160,32,250658,1,8,0:0:0:0:
192,64,250778,1,0,0:0:0:0:
192,64,250898,1,8,0:0:0:0:
160,32,250958,1,8,0:0:0:0:
192,64,251018,1,0,0:0:0:0:
192,64,251138,1,0,0:0:0:0:
192,64,251258,1,8,0:0:0:0:
192,0,251318,1,8,0:0:0:0:
192,64,251378,1,0,0:0:0:0:
192,64,251498,1,8,0:0:0:0:
192,32,251618,1,0,0:0:0:0:
160,32,251678,1,0,0:0:0:0:
192,64,251738,1,8,0:0:0:0:
192,64,251858,1,0,0:0:0:0:
192,64,251978,1,8,0:0:0:0:
192,32,252038,1,8,0:0:0:0:
192,64,252098,1,0,0:0:0:0:
160,32,252158,1,0,0:0:0:0:
192,64,252218,1,8,0:0:0:0:
192,64,252338,1,8,0:0:0:0:
192,64,252458,1,4,0:0:0:0:
192,64,252698,1,8,0:0:0:0:
192,64,252818,1,0,0:0:0:0:
192,32,252878,1,0,0:0:0:0:
192,64,252938,1,8,0:0:0:0:
192,64,253058,1,0,0:0:0:0:
192,64,253178,1,8,0:0:0:0:
192,32,253238,1,0,0:0:0:0:
192,64,253298,1,8,0:0:0:0:
192,32,253358,1,8,0:0:0:0:
192,64,253418,1,0,0:0:0:0:
160,64,253538,1,8,0:0:0:0:
160,64,253598,1,8,0:0:0:0:
192,64,253658,1,0,0:0:0:0:
192,64,253778,1,0,0:0:0:0:
192,64,253898,1,8,0:0:0:0:
192,32,254018,1,0,0:0:0:0:
160,0,254078,1,0,0:0:0:0:
192,64,254138,1,8,0:0:0:0:
192,64,254258,1,8,0:0:0:0:
192,64,254378,1,0,0:0:0:0:
192,32,254498,1,8,0:0:0:0:
192,64,254618,1,0,0:0:0:0:
192,64,254738,1,8,0:0:0:0:
192,64,254798,1,8,0:0:0:0:
192,64,254858,1,0,0:0:0:0:
192,64,254978,1,8,0:0:0:0:
192,64,255098,1,0,0:0:0:0:
192,64,255158,1,8,0:0:0:0:
192,64,255218,1,0,0:0:0:0:
192,64,255278,1,0,0:0:0:0:
192,64,255338,1,8,0:0:0:0:
192,64,255458,1,0,0:0:0:0:
160,32,255518,1,8,0:0:0:0:
160,96,255578,1,0,0:0:0:0:
160,96,255698,1,0,0:0:0:0:
160,96,255818,1,8,0:0:0:0:
160,96,255938,1,0,0:0:0:0:
160,96,255998,1,0,0:0:0:0:
160,96,256058,1,8,0:0:0:0:
160,96,256178,1,8,0:0:0:0:
160,96,256298,1,4,0:0:0:0:
160,96,256538,1,0,0:0:0:0:
160,96,256658,1,8,0:0:0:0:
192,32,256718,1,8,0:0:0:0:
160,96,256778,1,0,0:0:0:0:
160,96,256898,1,0,0:0:0:0:
192,32,257018,1,8,0:0:0:0:
160,32,257078,1,0,0:0:0:0:
160,96,257138,1,8,0:0:0:0:
160,96,257258,1,4,0:0:0:0:
192,32,257498,1,0,0:0:0:0:
192,32,257618,1,0,0:0:0:0:
192,64,257678,1,0,0:0:0:0:
192,32,257738,1,8,0:0:0:0:
192,64,257798,1,8,0:0:0:0:
192,32,257858,1,0,0:0:0:0:
192,32,257978,1,8,0:0:0:0:
192,32,258098,1,8,0:0:0:0:
192,64,258218,1,4,0:0:0:0:
192,96,258458,1,0,0:0:0:0:
192,96,258578,1,0,0:0:0:0:
160,32,258698,1,8,0:0:0:0:
160,32,258758,1,8,0:0:0:0:
192,96,258818,1,0,0:0:0:0:
160,32,258878,1,0,0:0:0:0:
192,96,258938,1,8,0:0:0:0:
192,96,259058,1,8,0:0:0:0:
192,96,259178,1,4,0:0:0:0:
224,64,259418,1,0,0:0:0:0:
224,64,259538,1,8,0:0:0:0:
224,64,259658,1,0,0:0:0:0:
224,64,259778,1,0,0:0:0:0:
224,64,259898,1,12,0:0:0:0:
224,64,260138,1,4,0:0:0:0:
192,64,260258,1,8,0:0:0:0:
192,64,260378,1,8,0:0:0:0:
192,64,260498,1,8,0:0:0:0:
192,64,260618,1,4,0:0:0:0:
192,64,260738,1,8,0:0:0:0:
192,64,260858,1,8,0:0:0:0:
192,64,260978,1,8,0:0:0:0:
192,64,261098,1,4,0:0:0:0:
192,64,261218,1,8,0:0:0:0:
192,64,261338,1,8,0:0:0:0:
192,64,261458,1,8,0:0:0:0:
192,64,261578,1,4,0:0:0:0:
192,64,261698,1,8,0:0:0:0:
192,64,261818,1,8,0:0:0:0:
192,64,261938,1,8,0:0:0:0:
192,64,262058,1,4,0:0:0:0:
160,64,262298,1,8,0:0:0:0:
160,64,262418,1,0,0:0:0:0:
160,64,262658,1,0,0:0:0:0:
160,64,262778,1,8,0:0:0:0:
160,64,262898,1,8,0:0:0:0:
160,64,263018,1,4,0:0:0:0:
160,64,263258,1,0,0:0:0:0:
160,64,263378,1,8,0:0:0:0:
192,96,263498,1,4,0:0:0:0:
192,96,263618,1,4,0:0:0:0:
192,96,263738,1,4,0:0:0:0:
192,96,263858,1,12,0:0:0:0:
