osu file format v14

[General]
AudioFilename: audio.mp3
AudioLeadIn: 0
PreviewTime: 71498
Countdown: 0
SampleSet: Normal
StackLeniency: 0.7
Mode: 1
LetterboxInBreaks: 0
WidescreenStoryboard: 0

[Editor]
Bookmarks: 40298,128618,190058
DistanceSpacing: 0.85
BeatDivisor: 2
GridSize: 32
TimelineZoom: 2.699999

[Metadata]
Title:Shinbatsu o Tadori Kyoukotsu ni Itaru
TitleUnicode:神罰を辿り狂骨に至る
Artist:Imperial Circus Dead Decadence
ArtistUnicode:Imperial Circus Dead Decadence
Creator:Vulkin
Version:God's Punishment
Source:osu!
Tags:リブユウキ Rib yuhki Hull KIM KIMI Hellnear 飯塚悠人 Yuto Iizuka Shuhei Kamada icdd 黄泉より聴こゆ、皇国の燈と焔の少女。 Yomi yori Kikoyu, Koukoku no Tou to Honoo no Shoujo. symphonic black metal dojin doujin japanese rock featured artist frukoyurdakul Ulqui
BeatmapID:1300896
BeatmapSetID:616902

[Difficulty]
HPDrainRate:5
CircleSize:7
OverallDifficulty:7
ApproachRate:10
SliderMultiplier:1.4
SliderTickRate:1

[Events]
//Background and Video events
0,0,"howl_at_the_universe_by_nanomortis-da02cbp.png",0,0
//Break Periods
2,205618,212168
//Storyboard Layer 0 (Background)
//Storyboard Layer 1 (Fail)
//Storyboard Layer 2 (Pass)
//Storyboard Layer 3 (Foreground)
//Storyboard Layer 4 (Overlay)
//Storyboard Sound Samples

[TimingPoints]
938,240,4,1,0,70,1,0
40058,-98.0392156862745,4,1,0,70,0,0
40118,-96.1538461538461,4,1,0,70,0,0
40178,-94.3396226415094,4,1,0,70,0,0
40238,-92.5925925925926,4,1,0,70,0,0
40298,-90.9090909090909,4,1,0,70,0,1
47978,-90.9090909090909,4,1,0,70,0,0
48038,-92.5925925925926,4,1,0,70,0,0
48098,-94.3396226415094,4,1,0,70,0,0
48158,-96.1538461538461,4,1,0,70,0,0
48218,-98.0392156862745,4,1,0,70,0,0
48278,-100,4,1,0,70,0,0
56138,-142.857142857143,4,1,0,70,0,0
56618,-125,4,1,0,70,0,0
57098,-111.111111111111,4,1,0,70,0,0
57578,-100,4,1,0,70,0,1
71018,-100,4,1,0,70,0,0
71498,-142.857142857143,4,1,0,70,0,0
71978,-125,4,1,0,70,0,0
72458,-111.111111111111,4,1,0,70,0,0
72938,-90.9090909090909,4,1,0,70,0,1
87758,-91.743119266055,4,1,0,70,0,1
87818,-92.5925925925926,4,1,0,70,0,1
87878,-93.4579439252336,4,1,0,70,0,1
87938,-94.3396226415094,4,1,0,70,0,1
87998,-95.2380952380952,4,1,0,70,0,1
88058,-96.1538461538461,4,1,0,70,0,1
88118,-97.0873786407767,4,1,0,70,0,1
88178,-98.0392156862745,4,1,0,70,0,1
88238,-99.009900990099,4,1,0,70,0,1
88298,-100,4,1,0,70,0,0
94058,-111.111111111111,4,1,0,70,0,0
94418,-108.695652173913,4,1,0,70,0,0
94778,-106.382978723404,4,1,0,70,0,0
95138,-104.166666666667,4,1,0,70,0,0
95498,-102.040816326531,4,1,0,70,0,0
95978,-100,4,1,0,70,0,0
111098,-105.263157894737,4,1,0,70,0,0
111338,-111.111111111111,4,1,0,70,0,0
126218,-108.695652173913,4,1,0,70,0,0
126338,-106.382978723404,4,1,0,70,0,0
126458,-104.166666666667,4,1,0,70,0,0
126578,-102.040816326531,4,1,0,70,0,0
126698,-100,4,1,0,70,0,0
128618,-100,4,1,0,70,0,1
136298,-100,4,1,0,70,0,0
143978,-100,4,1,0,70,0,1
157418,-100,4,1,0,70,0,0
157898,-95.2380952380952,4,1,0,70,0,0
158378,-90.9090909090909,4,1,0,70,0,0
158858,-86.9565217391304,4,1,0,70,0,0
159338,-83.3333333333333,4,1,0,70,0,1
174698,-83.3333333333333,4,1,0,70,0,0
176618,-86.9565217391304,4,1,0,70,0,0
178298,-87.719298245614,4,1,0,70,0,0
178358,-88.4955752212389,4,1,0,70,0,0
178418,-89.2857142857143,4,1,0,70,0,0
178478,-90.0900900900901,4,1,0,70,0,0
178538,-90.9090909090909,4,1,0,70,0,0
180458,-95.2380952380952,4,1,0,70,0,0
182138,-96.1538461538461,4,1,0,70,0,0
182198,-97.0873786407767,4,1,0,70,0,0
182258,-98.0392156862745,4,1,0,70,0,0
182318,-99.009900990099,4,1,0,70,0,0
182378,-100,4,1,0,70,0,0
197498,-98.0392156862745,4,1,0,70,0,0
197558,-96.1538461538461,4,1,0,70,0,0
197618,-94.3396226415094,4,1,0,70,0,0
197678,-92.5925925925926,4,1,0,70,0,0
197738,-90.9090909090909,4,1,0,70,0,1
204938,-92.5925925925926,4,1,0,70,0,1
205058,-94.3396226415094,4,1,0,70,0,1
205178,-96.1538461538461,4,1,0,70,0,1
205298,-98.0392156862745,4,1,0,70,0,1
205418,-100,4,1,0,70,0,0
229418,-83.3333333333333,4,1,0,70,0,1
243578,-84.0336134453781,4,1,0,70,0,1
243638,-84.7457627118644,4,1,0,70,0,1
243698,-85.4700854700855,4,1,0,70,0,1
243758,-86.2068965517241,4,1,0,70,0,1
243818,-86.9565217391304,4,1,0,70,0,0
244538,-87.719298245614,4,1,0,70,0,0
244598,-88.4955752212389,4,1,0,70,0,0
244658,-89.2857142857143,4,1,0,70,0,0
244718,-90.0900900900901,4,1,0,70,0,0
244778,-90.9090909090909,4,1,0,70,0,1
259598,-91.743119266055,4,1,0,70,0,1
259658,-92.5925925925926,4,1,0,70,0,1
259718,-93.4579439252336,4,1,0,70,0,1
259778,-94.3396226415094,4,1,0,70,0,1
259838,-95.2380952380952,4,1,0,70,0,1
259898,-96.1538461538461,4,1,0,70,0,1
259958,-97.0873786407767,4,1,0,70,0,1
260018,-98.0392156862745,4,1,0,70,0,1
260078,-99.009900990099,4,1,0,70,0,1
260138,-100,4,1,0,70,0,0
261098,-90.9090909090909,4,1,0,70,0,0
262058,-83.3333333333333,4,1,0,70,0,0
263018,-76.9230769230769,4,1,0,70,0,0

[HitObjects]
256,192,5498,5,0,0:0:0:0:
256,192,5738,1,4,0:0:0:0:
256,192,5858,8,0,6458,0:0:0:0:
256,192,6698,5,8,0:0:0:0:
256,192,6758,1,8,0:0:0:0:
256,192,6818,1,0,0:0:0:0:
256,192,6878,1,8,0:0:0:0:
256,192,6938,1,0,0:0:0:0:
256,192,6998,1,0,0:0:0:0:
256,192,7058,1,8,0:0:0:0:
256,192,7118,1,8,0:0:0:0:
256,192,7178,1,0,0:0:0:0:
256,192,7298,1,0,0:0:0:0:
256,192,7418,1,8,0:0:0:0:
256,192,7658,1,0,0:0:0:0:
256,192,7778,1,8,0:0:0:0:
256,192,7898,1,0,0:0:0:0:
256,192,7958,1,0,0:0:0:0:
256,192,8018,1,8,0:0:0:0:
256,192,8138,1,0,0:0:0:0:
256,192,8258,1,8,0:0:0:0:
256,192,8378,1,0,0:0:0:0:
256,192,8438,1,8,0:0:0:0:
256,192,8498,1,8,0:0:0:0:
256,192,8618,1,0,0:0:0:0:
256,192,8738,1,8,0:0:0:0:
256,192,8858,1,0,0:0:0:0:
256,192,8918,1,0,0:0:0:0:
256,192,8978,1,8,0:0:0:0:
256,192,9098,1,0,0:0:0:0:
256,192,9158,1,0,0:0:0:0:
256,192,9218,1,0,0:0:0:0:
256,192,9278,1,0,0:0:0:0:
256,192,9338,1,8,0:0:0:0:
256,192,9458,1,8,0:0:0:0:
256,192,9578,1,0,0:0:0:0:
256,192,9698,1,8,0:0:0:0:
256,192,9818,1,0,0:0:0:0:
256,192,9878,1,0,0:0:0:0:
256,192,9938,1,8,0:0:0:0:
256,192,10058,1,0,0:0:0:0:
256,192,10178,1,8,0:0:0:0:
256,192,10298,1,0,0:0:0:0:
256,192,10358,1,8,0:0:0:0:
256,192,10418,1,8,0:0:0:0:
256,192,10538,1,0,0:0:0:0:
256,192,10658,1,8,0:0:0:0:
256,192,10778,1,0,0:0:0:0:
256,192,10838,1,0,0:0:0:0:
256,192,10898,1,8,0:0:0:0:
256,192,10958,1,0,0:0:0:0:
256,192,11018,1,0,0:0:0:0:
256,192,11138,1,8,0:0:0:0:
256,192,11258,1,8,0:0:0:0:
256,192,11318,1,8,0:0:0:0:
256,192,11378,1,8,0:0:0:0:
256,192,11438,1,8,0:0:0:0:
256,192,11498,1,0,0:0:0:0:
256,192,11618,1,8,0:0:0:0:
256,192,11738,1,0,0:0:0:0:
256,192,11798,1,0,0:0:0:0:
256,192,11858,1,8,0:0:0:0:
256,192,11978,1,0,0:0:0:0:
256,192,12098,1,8,0:0:0:0:
256,192,12218,1,0,0:0:0:0:
256,192,12278,1,8,0:0:0:0:
256,192,12338,1,8,0:0:0:0:
256,192,12458,1,0,0:0:0:0:
256,192,12578,1,8,0:0:0:0:
256,192,12698,1,0,0:0:0:0:
256,192,12758,1,0,0:0:0:0:
256,192,12818,1,8,0:0:0:0:
256,192,12938,1,0,0:0:0:0:
256,192,12998,1,0,0:0:0:0:
256,192,13058,1,0,0:0:0:0:
256,192,13118,1,0,0:0:0:0:
256,192,13178,1,8,0:0:0:0:
256,192,13298,1,8,0:0:0:0:
256,192,13418,1,0,0:0:0:0:
256,192,13538,1,8,0:0:0:0:
256,192,13658,1,0,0:0:0:0:
256,192,13718,1,0,0:0:0:0:
256,192,13778,1,8,0:0:0:0:
256,192,13898,1,0,0:0:0:0:
256,192,14018,1,8,0:0:0:0:
256,192,14138,1,0,0:0:0:0:
256,192,14198,1,8,0:0:0:0:
256,192,14258,1,8,0:0:0:0:
256,192,14378,1,8,0:0:0:0:
256,192,14438,1,0,0:0:0:0:
256,192,14498,1,0,0:0:0:0:
256,192,14558,1,0,0:0:0:0:
256,192,14618,1,8,0:0:0:0:
256,192,14678,1,8,0:0:0:0:
256,192,14738,1,8,0:0:0:0:
256,192,14798,1,8,0:0:0:0:
256,192,14858,1,0,0:0:0:0:
256,192,14918,1,8,0:0:0:0:
256,192,14978,1,0,0:0:0:0:
256,192,15038,1,0,0:0:0:0:
256,192,15098,1,8,0:0:0:0:
256,192,15158,1,8,0:0:0:0:
256,192,15218,1,0,0:0:0:0:
256,192,15278,1,0,0:0:0:0:
256,192,15338,1,8,0:0:0:0:
256,192,15458,1,0,0:0:0:0:
256,192,15578,1,8,0:0:0:0:
256,192,15638,1,0,0:0:0:0:
256,192,15698,1,8,0:0:0:0:
256,192,15758,1,0,0:0:0:0:
256,192,15818,1,8,0:0:0:0:
256,192,15878,1,8,0:0:0:0:
256,192,15938,1,0,0:0:0:0:
256,192,15998,1,0,0:0:0:0:
256,192,16058,1,8,0:0:0:0:
256,192,16118,1,8,0:0:0:0:
256,192,16178,1,0,0:0:0:0:
256,192,16238,1,0,0:0:0:0:
256,192,16298,1,8,0:0:0:0:
256,192,16358,1,0,0:0:0:0:
256,192,16418,1,8,0:0:0:0:
256,192,16478,1,0,0:0:0:0:
256,192,16538,1,8,0:0:0:0:
256,192,16598,1,8,0:0:0:0:
256,192,16658,1,0,0:0:0:0:
256,192,16718,1,0,0:0:0:0:
256,192,16778,1,8,0:0:0:0:
256,192,16898,1,8,0:0:0:0:
256,192,17018,1,8,0:0:0:0:
256,192,17138,1,8,0:0:0:0:
256,192,17258,1,0,0:0:0:0:
256,192,17318,1,0,0:0:0:0:
256,192,17378,1,8,0:0:0:0:
256,192,17438,1,0,0:0:0:0:
256,192,17498,1,8,0:0:0:0:
256,192,17558,1,8,0:0:0:0:
256,192,17618,1,0,0:0:0:0:
256,192,17678,1,0,0:0:0:0:
256,192,17738,1,8,0:0:0:0:
256,192,17798,1,8,0:0:0:0:
256,192,17858,1,8,0:0:0:0:
256,192,17918,1,8,0:0:0:0:
256,192,17978,1,0,0:0:0:0:
256,192,18038,1,0,0:0:0:0:
256,192,18098,1,8,0:0:0:0:
256,192,18158,1,8,0:0:0:0:
256,192,18218,1,0,0:0:0:0:
256,192,18278,1,0,0:0:0:0:
256,192,18338,1,8,0:0:0:0:
256,192,18398,1,0,0:0:0:0:
256,192,18458,1,8,0:0:0:0:
256,192,18518,1,8,0:0:0:0:
256,192,18578,1,0,0:0:0:0:
256,192,18638,1,0,0:0:0:0:
256,192,18698,1,8,0:0:0:0:
256,192,18818,1,0,0:0:0:0:
256,192,18938,1,8,0:0:0:0:
256,192,19058,1,8,0:0:0:0:
256,192,19178,1,8,0:0:0:0:
256,192,19238,1,0,0:0:0:0:
256,192,19298,1,8,0:0:0:0:
256,192,19358,1,0,0:0:0:0:
256,192,19418,1,8,0:0:0:0:
256,192,19478,1,0,0:0:0:0:
256,192,19538,1,8,0:0:0:0:
256,192,19598,1,8,0:0:0:0:
256,192,19658,1,8,0:0:0:0:
256,192,19718,1,0,0:0:0:0:
256,192,19778,1,8,0:0:0:0:
256,192,19838,1,0,0:0:0:0:
256,192,19898,1,8,0:0:0:0:
256,192,19958,1,8,0:0:0:0:
256,192,20018,1,0,0:0:0:0:
256,192,20078,1,0,0:0:0:0:
256,192,20138,1,8,0:0:0:0:
256,192,20198,1,8,0:0:0:0:
256,192,20258,1,0,0:0:0:0:
256,192,20318,1,0,0:0:0:0:
256,192,20378,1,8,0:0:0:0:
256,192,20438,1,8,0:0:0:0:
256,192,20498,1,0,0:0:0:0:
256,192,20558,1,0,0:0:0:0:
256,192,20618,1,8,0:0:0:0:
256,192,20738,1,8,0:0:0:0:
256,192,20858,1,0,0:0:0:0:
256,224,20978,1,0,0:0:0:0:
256,192,21098,1,8,0:0:0:0:
256,192,21158,1,0,0:0:0:0:
256,192,21218,1,0,0:0:0:0:
256,192,21278,1,0,0:0:0:0:
256,192,21338,1,8,0:0:0:0:
256,192,21398,1,0,0:0:0:0:
256,192,21458,1,8,0:0:0:0:
256,192,21518,1,8,0:0:0:0:
256,192,21578,1,8,0:0:0:0:
256,192,21638,1,0,0:0:0:0:
256,192,21698,1,8,0:0:0:0:
256,192,21758,1,0,0:0:0:0:
256,192,21818,1,8,0:0:0:0:
256,192,21878,1,8,0:0:0:0:
256,192,21938,1,0,0:0:0:0:
256,192,21998,1,0,0:0:0:0:
256,192,22058,1,8,0:0:0:0:
256,192,22118,1,8,0:0:0:0:
256,192,22178,1,8,0:0:0:0:
256,192,22238,1,8,0:0:0:0:
256,192,22298,1,0,0:0:0:0:
256,192,22358,1,0,0:0:0:0:
256,192,22418,1,0,0:0:0:0:
256,192,22478,1,0,0:0:0:0:
256,192,22538,1,8,0:0:0:0:
256,192,22658,1,8,0:0:0:0:
256,192,22778,1,0,0:0:0:0:
256,192,22838,1,0,0:0:0:0:
256,192,22898,1,0,0:0:0:0:
256,192,22958,1,0,0:0:0:0:
256,192,23018,1,12,0:0:0:0:
256,192,23138,1,4,0:0:0:0:
256,192,23978,1,12,0:0:0:0:
256,192,24098,1,4,0:0:0:0:
256,192,24458,1,0,0:0:0:0:
256,192,24518,1,0,0:0:0:0:
256,192,24578,1,0,0:0:0:0:
256,192,24638,1,0,0:0:0:0:
256,192,24698,1,8,0:0:0:0:
256,192,24938,1,4,0:0:0:0:
256,192,25058,1,8,0:0:0:0:
256,192,25178,1,0,0:0:0:0:
256,192,25238,1,0,0:0:0:0:
256,192,25298,1,8,0:0:0:0:
256,192,25418,1,0,0:0:0:0:
256,192,25538,1,8,0:0:0:0:
256,192,25658,1,0,0:0:0:0:
256,192,25718,1,8,0:0:0:0:
256,192,25778,1,8,0:0:0:0:
256,192,25898,1,0,0:0:0:0:
256,192,26018,1,8,0:0:0:0:
256,192,26138,1,0,0:0:0:0:
256,192,26198,1,0,0:0:0:0:
256,192,26258,1,8,0:0:0:0:
256,192,26378,1,0,0:0:0:0:
256,192,26438,1,0,0:0:0:0:
256,192,26498,1,0,0:0:0:0:
256,192,26558,1,0,0:0:0:0:
256,192,26618,1,8,0:0:0:0:
256,192,26738,1,8,0:0:0:0:
256,192,26858,1,0,0:0:0:0:
256,192,26978,1,8,0:0:0:0:
256,192,27098,1,0,0:0:0:0:
256,192,27158,1,0,0:0:0:0:
256,192,27218,1,8,0:0:0:0:
256,192,27338,1,0,0:0:0:0:
256,192,27458,1,8,0:0:0:0:
256,192,27578,1,0,0:0:0:0:
256,192,27638,1,8,0:0:0:0:
256,192,27698,1,8,0:0:0:0:
256,192,27818,1,0,0:0:0:0:
256,192,27938,1,0,0:0:0:0:
256,192,27998,1,0,0:0:0:0:
256,192,28058,1,8,0:0:0:0:
256,192,28178,1,8,0:0:0:0:
256,192,28298,1,8,0:0:0:0:
256,192,28358,1,8,0:0:0:0:
256,192,28418,1,8,0:0:0:0:
256,192,28478,1,0,0:0:0:0:
256,192,28538,1,8,0:0:0:0:
256,192,28598,1,0,0:0:0:0:
256,192,28658,1,0,0:0:0:0:
256,192,28718,1,0,0:0:0:0:
256,192,28778,1,8,0:0:0:0:
256,192,28898,1,8,0:0:0:0:
256,192,29018,1,0,0:0:0:0:
256,192,29078,1,0,0:0:0:0:
256,192,29138,1,8,0:0:0:0:
256,192,29258,1,0,0:0:0:0:
256,192,29378,1,8,0:0:0:0:
256,192,29498,1,0,0:0:0:0:
256,192,29558,1,8,0:0:0:0:
256,192,29618,1,8,0:0:0:0:
256,192,29738,1,0,0:0:0:0:
256,192,29858,1,8,0:0:0:0:
256,192,29978,1,0,0:0:0:0:
256,192,30038,1,0,0:0:0:0:
256,192,30098,1,8,0:0:0:0:
256,192,30218,1,0,0:0:0:0:
256,192,30278,1,0,0:0:0:0:
256,192,30338,1,0,0:0:0:0:
256,192,30398,1,0,0:0:0:0:
256,192,30458,1,8,0:0:0:0:
256,192,30578,1,8,0:0:0:0:
256,192,30698,1,0,0:0:0:0:
256,192,30818,1,8,0:0:0:0:
256,192,30938,1,0,0:0:0:0:
256,192,30998,1,0,0:0:0:0:
256,192,31058,1,8,0:0:0:0:
256,192,31178,1,0,0:0:0:0:
256,192,31298,1,8,0:0:0:0:
256,192,31418,1,0,0:0:0:0:
256,192,31478,1,8,0:0:0:0:
256,192,31538,1,8,0:0:0:0:
256,192,31598,1,8,0:0:0:0:
256,192,31658,1,0,0:0:0:0:
256,192,31718,1,0,0:0:0:0:
256,192,31778,1,0,0:0:0:0:
256,192,31838,1,0,0:0:0:0:
256,192,31898,1,8,0:0:0:0:
256,192,31958,1,8,0:0:0:0:
256,192,32018,1,8,0:0:0:0:
256,192,32078,1,8,0:0:0:0:
256,192,32138,1,0,0:0:0:0:
256,192,32198,1,0,0:0:0:0:
256,192,32258,1,8,0:0:0:0:
256,192,32318,1,0,0:0:0:0:
256,192,32378,1,8,0:0:0:0:
256,192,32438,1,8,0:0:0:0:
256,192,32498,1,0,0:0:0:0:
256,192,32558,1,0,0:0:0:0:
256,192,32618,1,8,0:0:0:0:
256,192,32678,1,0,0:0:0:0:
256,192,32738,1,0,0:0:0:0:
256,192,32858,1,0,0:0:0:0:
256,192,32978,1,8,0:0:0:0:
256,192,33218,1,0,0:0:0:0:
256,192,33338,1,8,0:0:0:0:
256,192,33458,1,0,0:0:0:0:
256,192,33578,1,8,0:0:0:0:
256,192,33638,1,8,0:0:0:0:
256,192,33698,1,0,0:0:0:0:
256,192,33758,1,0,0:0:0:0:
256,192,33818,1,8,0:0:0:0:
256,192,33938,1,0,0:0:0:0:
256,192,34058,1,8,0:0:0:0:
256,192,34118,1,8,0:0:0:0:
256,192,34178,1,0,0:0:0:0:
256,192,34298,1,8,0:0:0:0:
256,192,34418,1,0,0:0:0:0:
256,192,34538,1,8,0:0:0:0:
256,192,34598,1,8,0:0:0:0:
256,192,34658,1,0,0:0:0:0:
256,192,34718,1,0,0:0:0:0:
256,192,34778,1,0,0:0:0:0:
256,192,34898,1,8,0:0:0:0:
256,192,35138,1,0,0:0:0:0:
256,192,35198,1,0,0:0:0:0:
256,192,35258,1,8,0:0:0:0:
256,192,35378,1,0,0:0:0:0:
256,192,35438,1,0,0:0:0:0:
256,192,35498,1,8,0:0:0:0:
256,192,35558,1,8,0:0:0:0:
256,192,35618,1,8,0:0:0:0:
256,192,35678,1,8,0:0:0:0:
256,192,35738,1,0,0:0:0:0:
256,192,35858,1,0,0:0:0:0:
256,192,35918,1,0,0:0:0:0:
256,192,35978,1,8,0:0:0:0:
256,192,36038,1,8,0:0:0:0:
256,192,36098,1,8,0:0:0:0:
256,192,36158,1,8,0:0:0:0:
256,192,36218,1,0,0:0:0:0:
256,192,36278,1,0,0:0:0:0:
256,192,36338,1,0,0:0:0:0:
256,192,36398,1,0,0:0:0:0:
256,192,36458,1,8,0:0:0:0:
256,192,36518,1,0,0:0:0:0:
256,192,36578,1,8,0:0:0:0:
256,192,36698,1,0,0:0:0:0:
256,192,36818,1,8,0:0:0:0:
256,192,36878,1,8,0:0:0:0:
256,192,36938,1,8,0:0:0:0:
256,192,37058,1,0,0:0:0:0:
256,192,37178,1,8,0:0:0:0:
256,192,37298,1,0,0:0:0:0:
256,192,37418,1,8,0:0:0:0:
256,192,37478,1,8,0:0:0:0:
256,192,37538,1,0,0:0:0:0:
256,192,37658,1,8,0:0:0:0:
256,192,37778,1,0,0:0:0:0:
256,192,37898,1,8,0:0:0:0:
256,192,37958,1,8,0:0:0:0:
256,192,38018,1,0,0:0:0:0:
256,192,38138,1,8,0:0:0:0:
256,192,38258,1,0,0:0:0:0:
256,192,38378,1,8,0:0:0:0:
256,192,38438,1,0,0:0:0:0:
256,192,38498,1,8,0:0:0:0:
256,192,38618,1,0,0:0:0:0:
256,192,38738,1,8,0:0:0:0:
256,192,38798,1,8,0:0:0:0:
256,192,38858,1,8,0:0:0:0:
256,192,38978,1,0,0:0:0:0:
256,192,39098,1,8,0:0:0:0:
256,192,39218,1,0,0:0:0:0:
256,192,39338,1,8,0:0:0:0:
256,192,39398,1,8,0:0:0:0:
256,192,39458,1,0,0:0:0:0:
256,192,39578,1,8,0:0:0:0:
256,192,39698,1,0,0:0:0:0:
256,192,39818,1,8,0:0:0:0:
256,192,39878,1,8,0:0:0:0:
256,192,39938,1,8,0:0:0:0:
256,192,39998,1,8,0:0:0:0:
256,192,40058,1,0,0:0:0:0:
256,192,40118,1,0,0:0:0:0:
256,192,40178,1,0,0:0:0:0:
256,192,40238,1,0,0:0:0:0:
256,192,40298,1,8,0:0:0:0:
256,192,40358,1,0,0:0:0:0:
256,192,40418,1,0,0:0:0:0:
256,192,40478,1,0,0:0:0:0:
256,192,40538,1,8,0:0:0:0:
256,192,40598,1,0,0:0:0:0:
256,192,40658,1,0,0:0:0:0:
256,192,40718,1,0,0:0:0:0:
256,192,40778,1,8,0:0:0:0:
256,192,40838,1,0,0:0:0:0:
256,192,40898,1,0,0:0:0:0:
256,192,40958,1,0,0:0:0:0:
256,192,41018,1,8,0:0:0:0:
256,192,41078,1,0,0:0:0:0:
256,192,41138,1,0,0:0:0:0:
256,192,41198,1,0,0:0:0:0:
256,192,41258,1,8,0:0:0:0:
256,192,41318,1,8,0:0:0:0:
256,192,41378,1,0,0:0:0:0:
256,192,41438,1,0,0:0:0:0:
256,192,41498,1,8,0:0:0:0:
256,192,41558,1,8,0:0:0:0:
256,192,41618,1,0,0:0:0:0:
256,192,41678,1,0,0:0:0:0:
256,192,41738,1,8,0:0:0:0:
256,192,41798,1,0,0:0:0:0:
256,192,41858,1,8,0:0:0:0:
256,192,41918,1,0,0:0:0:0:
256,192,41978,1,8,0:0:0:0:
256,192,42038,1,0,0:0:0:0:
256,192,42098,1,0,0:0:0:0:
256,192,42158,1,0,0:0:0:0:
256,192,42218,1,8,0:0:0:0:
256,192,42278,1,8,0:0:0:0:
256,192,42338,1,8,0:0:0:0:
256,192,42398,1,0,0:0:0:0:
256,192,42458,1,8,0:0:0:0:
256,192,42518,1,0,0:0:0:0:
256,192,42578,1,0,0:0:0:0:
256,192,42638,1,0,0:0:0:0:
256,192,42698,1,8,0:0:0:0:
256,192,42758,1,8,0:0:0:0:
256,192,42818,1,0,0:0:0:0:
256,192,42878,1,0,0:0:0:0:
256,192,42938,1,8,0:0:0:0:
256,192,42998,1,0,0:0:0:0:
256,192,43058,1,8,0:0:0:0:
256,192,43118,1,0,0:0:0:0:
256,192,43178,1,8,0:0:0:0:
256,192,43238,1,0,0:0:0:0:
256,192,43298,1,8,0:0:0:0:
256,192,43358,1,8,0:0:0:0:
256,192,43418,1,0,0:0:0:0:
256,192,43478,1,0,0:0:0:0:
256,192,43538,1,8,0:0:0:0:
256,192,43598,1,0,0:0:0:0:
256,192,43658,1,8,0:0:0:0:
256,192,43718,1,8,0:0:0:0:
256,192,43778,1,0,0:0:0:0:
256,192,43838,1,0,0:0:0:0:
256,192,43898,1,8,0:0:0:0:
256,192,43958,1,8,0:0:0:0:
256,192,44018,1,0,0:0:0:0:
256,192,44078,1,0,0:0:0:0:
256,192,44138,1,8,0:0:0:0:
256,192,44198,1,0,0:0:0:0:
256,192,44258,1,0,0:0:0:0:
256,192,44318,1,0,0:0:0:0:
256,192,44378,1,8,0:0:0:0:
256,192,44438,1,0,0:0:0:0:
256,192,44498,1,0,0:0:0:0:
256,192,44558,1,0,0:0:0:0:
256,192,44618,1,8,0:0:0:0:
256,192,44678,1,8,0:0:0:0:
256,192,44738,1,8,0:0:0:0:
256,192,44798,1,0,0:0:0:0:
256,192,44858,1,8,0:0:0:0:
256,192,44918,1,0,0:0:0:0:
256,192,44978,1,0,0:0:0:0:
256,192,45038,1,0,0:0:0:0:
256,192,45098,1,8,0:0:0:0:
256,192,45158,1,8,0:0:0:0:
256,192,45218,1,0,0:0:0:0:
256,192,45278,1,0,0:0:0:0:
256,192,45338,1,8,0:0:0:0:
256,192,45398,1,8,0:0:0:0:
256,192,45458,1,0,0:0:0:0:
256,192,45518,1,0,0:0:0:0:
256,192,45578,1,8,0:0:0:0:
256,192,45638,1,0,0:0:0:0:
256,192,45698,1,8,0:0:0:0:
256,192,45758,1,8,0:0:0:0:
256,192,45818,1,8,0:0:0:0:
256,192,45878,1,0,0:0:0:0:
256,192,45938,1,8,0:0:0:0:
256,192,45998,1,0,0:0:0:0:
256,192,46058,1,8,0:0:0:0:
256,192,46118,1,8,0:0:0:0:
256,192,46178,1,0,0:0:0:0:
256,192,46238,1,0,0:0:0:0:
256,192,46298,1,8,0:0:0:0:
256,192,46358,1,8,0:0:0:0:
256,192,46418,1,0,0:0:0:0:
256,192,46478,1,0,0:0:0:0:
256,192,46538,1,8,0:0:0:0:
256,192,46598,1,0,0:0:0:0:
256,192,46658,1,8,0:0:0:0:
256,192,46718,1,0,0:0:0:0:
256,192,46778,1,8,0:0:0:0:
256,192,46838,1,8,0:0:0:0:
256,192,46898,1,0,0:0:0:0:
256,192,46958,1,0,0:0:0:0:
256,192,47018,1,8,0:0:0:0:
256,192,47078,1,8,0:0:0:0:
256,192,47138,1,0,0:0:0:0:
256,192,47198,1,0,0:0:0:0:
256,192,47258,1,8,0:0:0:0:
256,192,47318,1,8,0:0:0:0:
256,192,47378,1,8,0:0:0:0:
256,192,47438,1,8,0:0:0:0:
256,192,47498,1,0,0:0:0:0:
256,192,47558,1,0,0:0:0:0:
256,192,47618,1,0,0:0:0:0:
256,192,47678,1,0,0:0:0:0:
256,192,47738,1,8,0:0:0:0:
256,192,47798,1,8,0:0:0:0:
256,192,47858,1,0,0:0:0:0:
256,192,47978,1,12,0:0:0:0:
256,192,48098,1,0,0:0:0:0:
256,192,48218,1,0,0:0:0:0:
256,192,48338,1,0,0:0:0:0:
256,192,48458,1,8,0:0:0:0:
256,192,48578,1,0,0:0:0:0:
256,192,48698,1,8,0:0:0:0:
256,192,48818,1,0,0:0:0:0:
256,192,48938,1,12,0:0:0:0:
256,192,49058,1,0,0:0:0:0:
256,192,49178,1,0,0:0:0:0:
256,192,49298,1,0,0:0:0:0:
256,192,49418,1,8,0:0:0:0:
256,192,49538,1,0,0:0:0:0:
256,192,49658,1,8,0:0:0:0:
256,192,49778,1,0,0:0:0:0:
256,192,49898,1,12,0:0:0:0:
256,192,50018,1,0,0:0:0:0:
256,192,50138,1,0,0:0:0:0:
256,192,50258,1,0,0:0:0:0:
256,192,50378,1,8,0:0:0:0:
256,192,50498,1,0,0:0:0:0:
256,192,50618,1,8,0:0:0:0:
256,192,50738,1,0,0:0:0:0:
256,192,50858,1,12,0:0:0:0:
256,192,50978,1,0,0:0:0:0:
256,192,51098,1,0,0:0:0:0:
256,192,51218,1,12,0:0:0:0:
256,192,51338,1,0,0:0:0:0:
256,192,51458,1,0,0:0:0:0:
256,192,51578,1,12,0:0:0:0:
256,192,51698,1,0,0:0:0:0:
256,192,51818,1,12,0:0:0:0:
256,192,51938,1,0,0:0:0:0:
256,192,52058,1,0,0:0:0:0:
256,192,52178,1,0,0:0:0:0:
256,192,52298,1,8,0:0:0:0:
256,192,52418,1,0,0:0:0:0:
256,192,52538,1,8,0:0:0:0:
256,192,52658,1,0,0:0:0:0:
256,192,52778,1,12,0:0:0:0:
256,192,52898,1,0,0:0:0:0:
256,192,53018,1,0,0:0:0:0:
256,192,53138,1,0,0:0:0:0:
256,192,53258,1,8,0:0:0:0:
256,192,53378,1,0,0:0:0:0:
256,192,53498,1,8,0:0:0:0:
256,192,53618,1,8,0:0:0:0:
256,192,53738,1,12,0:0:0:0:
256,192,53858,1,0,0:0:0:0:
256,192,53978,1,8,0:0:0:0:
256,192,54098,1,0,0:0:0:0:
256,192,54218,1,8,0:0:0:0:
256,192,54338,1,0,0:0:0:0:
256,192,54458,1,8,0:0:0:0:
256,192,54578,1,0,0:0:0:0:
256,192,54698,1,8,0:0:0:0:
256,192,54758,1,8,0:0:0:0:
256,192,54818,1,8,0:0:0:0:
256,192,54878,1,0,0:0:0:0:
256,192,54938,1,8,0:0:0:0:
256,192,55058,1,0,0:0:0:0:
256,192,55178,1,8,0:0:0:0:
256,192,55298,1,0,0:0:0:0:
256,192,55418,1,8,0:0:0:0:
256,192,55538,1,8,0:0:0:0:
256,192,56138,1,0,0:0:0:0:
256,192,56618,1,8,0:0:0:0:
256,192,57098,1,0,0:0:0:0:
256,192,57578,1,4,0:0:0:0:
256,192,57818,1,8,0:0:0:0:
256,192,57938,1,0,0:0:0:0:
256,192,58058,1,0,0:0:0:0:
256,192,58178,1,0,0:0:0:0:
256,192,58298,1,8,0:0:0:0:
256,192,58418,1,0,0:0:0:0:
256,192,58538,1,8,0:0:0:0:
256,192,58778,1,8,0:0:0:0:
256,192,58898,1,0,0:0:0:0:
256,192,59018,1,0,0:0:0:0:
256,192,59138,1,8,0:0:0:0:
256,192,59258,1,8,0:0:0:0:
256,192,59498,1,0,0:0:0:0:
256,192,59738,1,8,0:0:0:0:
256,192,59858,1,0,0:0:0:0:
256,192,59978,1,0,0:0:0:0:
256,192,60098,1,8,0:0:0:0:
256,192,60218,1,8,0:0:0:0:
256,192,60338,1,0,0:0:0:0:
256,192,60458,1,8,0:0:0:0:
256,192,60698,1,8,0:0:0:0:
256,192,60818,1,0,0:0:0:0:
256,192,60938,1,8,0:0:0:0:
256,192,61058,1,0,0:0:0:0:
256,192,61178,1,8,0:0:0:0:
256,192,61298,1,8,0:0:0:0:
256,192,61418,1,0,0:0:0:0:
256,192,61658,1,8,0:0:0:0:
256,192,61778,1,0,0:0:0:0:
256,192,61898,1,0,0:0:0:0:
256,192,62018,1,8,0:0:0:0:
256,192,62138,1,8,0:0:0:0:
256,192,62378,1,8,0:0:0:0:
256,192,62618,1,8,0:0:0:0:
256,192,62738,1,8,0:0:0:0:
256,192,62858,1,8,0:0:0:0:
256,192,62978,1,0,0:0:0:0:
256,192,63098,1,8,0:0:0:0:
256,192,63338,1,8,0:0:0:0:
256,192,63458,1,8,0:0:0:0:
256,192,63578,1,8,0:0:0:0:
256,192,63698,1,0,0:0:0:0:
256,192,63818,1,0,0:0:0:0:
256,192,63938,1,0,0:0:0:0:
256,192,64058,1,8,0:0:0:0:
256,192,64178,1,8,0:0:0:0:
256,192,64298,1,0,0:0:0:0:
256,192,64418,1,8,0:0:0:0:
256,192,64478,1,8,0:0:0:0:
256,192,64538,1,8,0:0:0:0:
256,192,64658,1,0,0:0:0:0:
256,192,64778,1,8,0:0:0:0:
256,192,64898,1,0,0:0:0:0:
256,192,65018,1,8,0:0:0:0:
256,192,65138,1,0,0:0:0:0:
256,192,65258,1,4,0:0:0:0:
256,192,65378,1,8,0:0:0:0:
256,192,65498,1,0,0:0:0:0:
256,192,65618,1,8,0:0:0:0:
256,192,65738,1,0,0:0:0:0:
256,192,65858,1,8,0:0:0:0:
256,192,65978,1,0,0:0:0:0:
256,192,66098,1,8,0:0:0:0:
256,192,66218,1,0,0:0:0:0:
256,192,66338,1,0,0:0:0:0:
256,192,66458,1,8,0:0:0:0:
256,192,66578,1,8,0:0:0:0:
256,192,66698,1,0,0:0:0:0:
256,192,66818,1,0,0:0:0:0:
256,192,66938,1,8,0:0:0:0:
256,192,67058,1,8,0:0:0:0:
256,192,67178,1,0,0:0:0:0:
256,192,67298,1,8,0:0:0:0:
256,192,67418,1,8,0:0:0:0:
256,192,67538,1,0,0:0:0:0:
256,192,67658,1,8,0:0:0:0:
256,192,67778,1,8,0:0:0:0:
256,192,67898,1,0,0:0:0:0:
256,192,68018,1,8,0:0:0:0:
256,192,68138,1,0,0:0:0:0:
256,192,68258,1,0,0:0:0:0:
256,192,68378,1,8,0:0:0:0:
256,192,68498,1,8,0:0:0:0:
256,192,68618,1,0,0:0:0:0:
256,192,68738,1,8,0:0:0:0:
256,192,68858,1,0,0:0:0:0:
256,192,68978,1,8,0:0:0:0:
256,192,69098,1,0,0:0:0:0:
256,192,69158,1,0,0:0:0:0:
256,192,69218,1,8,0:0:0:0:
256,192,69338,1,0,0:0:0:0:
256,192,69458,1,8,0:0:0:0:
256,192,69518,1,0,0:0:0:0:
256,192,69578,1,8,0:0:0:0:
256,192,69698,1,0,0:0:0:0:
256,192,69818,1,8,0:0:0:0:
256,192,69878,1,8,0:0:0:0:
256,192,69938,1,0,0:0:0:0:
256,192,69998,1,0,0:0:0:0:
256,192,70058,1,8,0:0:0:0:
256,192,70118,1,8,0:0:0:0:
256,192,70178,1,8,0:0:0:0:
256,192,70238,1,8,0:0:0:0:
256,192,70298,1,0,0:0:0:0:
256,192,70358,1,0,0:0:0:0:
256,192,70418,1,8,0:0:0:0:
256,192,70478,1,8,0:0:0:0:
256,192,70538,1,8,0:0:0:0:
256,192,70598,1,8,0:0:0:0:
256,192,70658,1,0,0:0:0:0:
256,192,70718,1,0,0:0:0:0:
256,192,70778,1,8,0:0:0:0:
256,192,70838,1,8,0:0:0:0:
256,192,70898,1,0,0:0:0:0:
256,192,70958,1,0,0:0:0:0:
256,192,71018,1,8,0:0:0:0:
256,192,71498,1,0,0:0:0:0:
256,192,71978,1,8,0:0:0:0:
256,192,72458,1,0,0:0:0:0:
256,192,72938,1,8,0:0:0:0:
256,192,72998,1,8,0:0:0:0:
256,192,73058,1,0,0:0:0:0:
256,192,73118,1,0,0:0:0:0:
256,192,73178,1,8,0:0:0:0:
256,192,73238,1,0,0:0:0:0:
256,192,73298,1,8,0:0:0:0:
256,192,73358,1,0,0:0:0:0:
256,192,73418,1,8,0:0:0:0:
256,192,73478,1,0,0:0:0:0:
256,192,73538,1,0,0:0:0:0:
256,192,73598,1,0,0:0:0:0:
256,192,73658,1,8,0:0:0:0:
256,192,73718,1,8,0:0:0:0:
256,192,73778,1,8,0:0:0:0:
256,192,73838,1,0,0:0:0:0:
256,192,73898,1,8,0:0:0:0:
256,192,73958,1,8,0:0:0:0:
256,192,74018,1,0,0:0:0:0:
256,192,74078,1,0,0:0:0:0:
256,192,74138,1,0,0:0:0:0:
256,192,74198,1,0,0:0:0:0:
256,192,74258,1,8,0:0:0:0:
256,192,74318,1,8,0:0:0:0:
256,192,74378,1,8,0:0:0:0:
256,192,74438,1,0,0:0:0:0:
256,192,74498,1,8,0:0:0:0:
256,192,74558,1,0,0:0:0:0:
256,192,74618,1,8,0:0:0:0:
256,192,74678,1,8,0:0:0:0:
256,192,74738,1,0,0:0:0:0:
256,192,74798,1,0,0:0:0:0:
256,192,74858,1,8,0:0:0:0:
256,192,74918,1,8,0:0:0:0:
256,192,74978,1,0,0:0:0:0:
256,192,75038,1,0,0:0:0:0:
256,192,75098,1,8,0:0:0:0:
256,192,75158,1,0,0:0:0:0:
256,192,75218,1,8,0:0:0:0:
256,192,75278,1,0,0:0:0:0:
256,192,75338,1,8,0:0:0:0:
256,192,75398,1,0,0:0:0:0:
256,192,75458,1,0,0:0:0:0:
256,192,75518,1,0,0:0:0:0:
256,192,75578,1,8,0:0:0:0:
256,192,75638,1,8,0:0:0:0:
256,192,75698,1,8,0:0:0:0:
256,192,75758,1,0,0:0:0:0:
256,192,75818,1,8,0:0:0:0:
256,192,75878,1,8,0:0:0:0:
256,192,75938,1,0,0:0:0:0:
256,192,75998,1,8,0:0:0:0:
256,192,76058,1,0,0:0:0:0:
256,192,76118,1,0,0:0:0:0:
256,192,76178,1,8,0:0:0:0:
256,192,76238,1,8,0:0:0:0:
256,192,76298,1,0,0:0:0:0:
256,192,76358,1,8,0:0:0:0:
256,192,76418,1,0,0:0:0:0:
256,192,76478,1,0,0:0:0:0:
256,192,76538,1,8,0:0:0:0:
256,192,76598,1,0,0:0:0:0:
256,192,76658,1,0,0:0:0:0:
256,192,76718,1,0,0:0:0:0:
256,192,76778,1,8,0:0:0:0:
256,192,76838,1,0,0:0:0:0:
256,192,76898,1,8,0:0:0:0:
256,192,76958,1,8,0:0:0:0:
256,192,77018,1,0,0:0:0:0:
256,192,77078,1,0,0:0:0:0:
256,192,77138,1,8,0:0:0:0:
256,192,77198,1,0,0:0:0:0:
256,192,77258,1,8,0:0:0:0:
256,192,77318,1,8,0:0:0:0:
256,192,77378,1,0,0:0:0:0:
256,192,77438,1,0,0:0:0:0:
256,192,77498,1,8,0:0:0:0:
256,192,77558,1,0,0:0:0:0:
256,192,77618,1,8,0:0:0:0:
256,192,77678,1,0,0:0:0:0:
256,192,77738,1,8,0:0:0:0:
256,192,77798,1,8,0:0:0:0:
256,192,77858,1,0,0:0:0:0:
256,192,77918,1,0,0:0:0:0:
256,192,77978,1,8,0:0:0:0:
256,192,78038,1,8,0:0:0:0:
256,192,78098,1,0,0:0:0:0:
256,192,78158,1,0,0:0:0:0:
256,192,78218,1,8,0:0:0:0:
256,192,78278,1,8,0:0:0:0:
256,192,78338,1,8,0:0:0:0:
256,192,78398,1,8,0:0:0:0:
256,192,78458,1,0,0:0:0:0:
256,192,78518,1,0,0:0:0:0:
256,192,78578,1,0,0:0:0:0:
256,192,78638,1,0,0:0:0:0:
256,192,78698,1,8,0:0:0:0:
256,192,78758,1,0,0:0:0:0:
256,192,78818,1,0,0:0:0:0:
256,192,78878,1,0,0:0:0:0:
256,192,78938,1,8,0:0:0:0:
256,192,78998,1,0,0:0:0:0:
256,192,79058,1,0,0:0:0:0:
256,192,79118,1,0,0:0:0:0:
256,192,79178,1,8,0:0:0:0:
256,192,79238,1,0,0:0:0:0:
256,192,79298,1,8,0:0:0:0:
256,192,79358,1,0,0:0:0:0:
256,192,79418,1,8,0:0:0:0:
256,192,79478,1,8,0:0:0:0:
256,192,79538,1,0,0:0:0:0:
256,192,79598,1,0,0:0:0:0:
256,192,79658,1,8,0:0:0:0:
256,192,79778,1,8,0:0:0:0:
256,192,79838,1,8,0:0:0:0:
256,192,79898,1,8,0:0:0:0:
256,192,80018,1,8,0:0:0:0:
256,192,80138,1,0,0:0:0:0:
256,192,80198,1,0,0:0:0:0:
256,192,80258,1,0,0:0:0:0:
256,192,80318,1,0,0:0:0:0:
256,192,80378,1,8,0:0:0:0:
256,192,80438,1,0,0:0:0:0:
256,192,80498,1,0,0:0:0:0:
256,192,80558,1,0,0:0:0:0:
256,192,80618,1,8,0:0:0:0:
256,192,80738,1,8,0:0:0:0:
256,192,80798,1,8,0:0:0:0:
256,192,80858,1,0,0:0:0:0:
256,192,80978,1,8,0:0:0:0:
256,192,81098,1,0,0:0:0:0:
256,192,81218,1,8,0:0:0:0:
256,192,81338,1,0,0:0:0:0:
256,192,81458,1,8,0:0:0:0:
256,192,81578,1,0,0:0:0:0:
256,192,81698,1,0,0:0:0:0:
256,192,81758,1,0,0:0:0:0:
256,192,81818,1,8,0:0:0:0:
256,192,81938,1,0,0:0:0:0:
256,192,82058,1,0,0:0:0:0:
256,192,82178,1,8,0:0:0:0:
256,192,82298,1,8,0:0:0:0:
256,192,82418,1,0,0:0:0:0:
256,192,82538,1,8,0:0:0:0:
256,192,82658,1,8,0:0:0:0:
256,192,82718,1,8,0:0:0:0:
256,192,82778,1,0,0:0:0:0:
256,192,82898,1,8,0:0:0:0:
256,192,83018,1,0,0:0:0:0:
256,192,83138,1,8,0:0:0:0:
256,192,83258,1,0,0:0:0:0:
256,192,83378,1,8,0:0:0:0:
256,192,83498,1,0,0:0:0:0:
256,192,83618,1,0,0:0:0:0:
256,192,83678,1,0,0:0:0:0:
256,192,83738,1,8,0:0:0:0:
256,192,83858,1,0,0:0:0:0:
256,192,83978,1,8,0:0:0:0:
256,192,84038,1,8,0:0:0:0:
256,192,84098,1,0,0:0:0:0:
256,192,84158,1,0,0:0:0:0:
256,192,84218,1,8,0:0:0:0:
256,192,84338,1,0,0:0:0:0:
256,192,84458,1,8,0:0:0:0:
256,192,84578,1,8,0:0:0:0:
256,192,84638,1,8,0:0:0:0:
256,192,84698,1,0,0:0:0:0:
256,192,84818,1,8,0:0:0:0:
256,192,84938,1,0,0:0:0:0:
256,192,85058,1,8,0:0:0:0:
256,192,85178,1,0,0:0:0:0:
256,192,85298,1,8,0:0:0:0:
256,192,85418,1,0,0:0:0:0:
256,192,85538,1,0,0:0:0:0:
256,192,85598,1,0,0:0:0:0:
256,192,85658,1,8,0:0:0:0:
256,192,85778,1,0,0:0:0:0:
256,192,85898,1,8,0:0:0:0:
256,192,86018,1,0,0:0:0:0:
256,192,86138,1,8,0:0:0:0:
256,192,86258,1,8,0:0:0:0:
256,192,86378,1,0,0:0:0:0:
256,192,86438,1,0,0:0:0:0:
256,192,86498,1,8,0:0:0:0:
256,192,86618,1,0,0:0:0:0:
256,192,86738,1,8,0:0:0:0:
256,192,86798,1,0,0:0:0:0:
256,192,86858,1,8,0:0:0:0:
256,192,86978,1,0,0:0:0:0:
256,192,87098,1,8,0:0:0:0:
256,192,87158,1,0,0:0:0:0:
256,192,87218,1,0,0:0:0:0:
256,192,87278,1,0,0:0:0:0:
256,192,87338,1,8,0:0:0:0:
256,192,87398,1,8,0:0:0:0:
256,192,87458,1,8,0:0:0:0:
256,192,87518,1,8,0:0:0:0:
256,192,87578,1,0,0:0:0:0:
256,192,87638,1,8,0:0:0:0:
256,192,87698,1,0,0:0:0:0:
256,192,87758,1,0,0:0:0:0:
256,192,87818,1,8,0:0:0:0:
256,192,87938,1,0,0:0:0:0:
256,192,88058,1,0,0:0:0:0:
256,192,88178,1,8,0:0:0:0:
256,192,88298,1,4,0:0:0:0:
256,192,92138,1,4,0:0:0:0:
256,192,94058,1,12,0:0:0:0:
256,192,94178,1,0,0:0:0:0:
256,192,94298,1,0,0:0:0:0:
256,192,94418,1,12,0:0:0:0:
256,192,94538,1,0,0:0:0:0:
256,192,94658,1,0,0:0:0:0:
256,192,94778,1,12,0:0:0:0:
256,192,94898,1,0,0:0:0:0:
256,192,95018,1,0,0:0:0:0:
256,192,95138,1,12,0:0:0:0:
256,192,95258,1,0,0:0:0:0:
256,192,95378,1,0,0:0:0:0:
256,192,95498,1,12,0:0:0:0:
256,192,95618,1,0,0:0:0:0:
256,192,95738,1,0,0:0:0:0:
256,192,95858,1,0,0:0:0:0:
256,192,95978,1,12,0:0:0:0:
256,192,96098,1,0,0:0:0:0:
256,192,96218,1,0,0:0:0:0:
256,192,96338,1,0,0:0:0:0:
256,192,96458,1,8,0:0:0:0:
256,192,96578,1,0,0:0:0:0:
256,192,96698,1,8,0:0:0:0:
256,192,96818,1,0,0:0:0:0:
256,192,96938,1,8,0:0:0:0:
256,192,97058,1,0,0:0:0:0:
256,192,97178,1,0,0:0:0:0:
256,192,97298,1,0,0:0:0:0:
256,192,97418,1,8,0:0:0:0:
256,192,97538,1,0,0:0:0:0:
256,192,97658,1,8,0:0:0:0:
256,192,97778,1,0,0:0:0:0:
256,192,97898,1,8,0:0:0:0:
256,192,98018,1,8,0:0:0:0:
256,192,98138,1,0,0:0:0:0:
256,192,98258,1,0,0:0:0:0:
256,192,98378,1,8,0:0:0:0:
256,192,98498,1,8,0:0:0:0:
256,192,98618,1,0,0:0:0:0:
256,192,98738,1,0,0:0:0:0:
256,192,98858,1,8,0:0:0:0:
256,192,98978,1,8,0:0:0:0:
256,192,99098,1,0,0:0:0:0:
256,192,99218,1,0,0:0:0:0:
256,192,99338,1,8,0:0:0:0:
256,192,99458,1,0,0:0:0:0:
256,192,99578,1,8,0:0:0:0:
256,192,99698,1,0,0:0:0:0:
256,192,99818,1,8,0:0:0:0:
256,192,99938,1,0,0:0:0:0:
256,192,100058,1,0,0:0:0:0:
256,192,100178,1,0,0:0:0:0:
256,192,100298,1,8,0:0:0:0:
256,192,100418,1,0,0:0:0:0:
256,192,100538,1,0,0:0:0:0:
256,192,100658,1,0,0:0:0:0:
256,192,100778,1,8,0:0:0:0:
256,192,100898,1,0,0:0:0:0:
256,192,101018,1,0,0:0:0:0:
256,192,101138,1,0,0:0:0:0:
256,192,101258,1,8,0:0:0:0:
256,192,101378,1,0,0:0:0:0:
256,192,101498,1,8,0:0:0:0:
256,192,101618,1,8,0:0:0:0:
256,192,101738,1,0,0:0:0:0:
256,192,101858,1,0,0:0:0:0:
256,192,101978,1,8,0:0:0:0:
256,192,102098,1,0,0:0:0:0:
256,192,102218,1,0,0:0:0:0:
256,192,102338,1,0,0:0:0:0:
256,192,102458,1,8,0:0:0:0:
256,192,102578,1,0,0:0:0:0:
256,192,102698,1,8,0:0:0:0:
256,192,102818,1,8,0:0:0:0:
256,192,102938,1,8,0:0:0:0:
256,192,103058,1,0,0:0:0:0:
256,192,103178,1,8,0:0:0:0:
256,192,103298,1,0,0:0:0:0:
256,192,103418,1,8,0:0:0:0:
256,192,103538,1,8,0:0:0:0:
256,192,103658,1,8,0:0:0:0:
256,192,103738,1,0,0:0:0:0:
256,192,103818,1,0,0:0:0:0:
256,192,103898,1,8,0:0:0:0:
256,192,103978,1,8,0:0:0:0:
256,192,104058,1,8,0:0:0:0:
256,192,104138,1,0,0:0:0:0:
256,192,104218,1,0,0:0:0:0:
256,192,104298,1,0,0:0:0:0:
256,192,104378,1,8,0:0:0:0:
256,192,104458,1,0,0:0:0:0:
256,192,104538,1,0,0:0:0:0:
256,192,104618,1,8,0:0:0:0:
256,192,104698,1,8,0:0:0:0:
256,192,104778,1,8,0:0:0:0:
256,192,104858,1,0,0:0:0:0:
256,192,104938,1,0,0:0:0:0:
256,192,105018,1,0,0:0:0:0:
256,192,105098,1,8,0:0:0:0:
256,192,105178,1,8,0:0:0:0:
256,192,105258,1,8,0:0:0:0:
256,192,105338,1,0,0:0:0:0:
256,192,105418,1,8,0:0:0:0:
256,192,105498,1,8,0:0:0:0:
256,192,105578,1,0,0:0:0:0:
256,192,105658,1,0,0:0:0:0:
256,192,105738,1,0,0:0:0:0:
256,192,105818,1,8,0:0:0:0:
256,192,105898,1,8,0:0:0:0:
256,192,105978,1,8,0:0:0:0:
256,192,106058,1,0,0:0:0:0:
256,192,106138,1,8,0:0:0:0:
256,192,106218,1,0,0:0:0:0:
256,192,106298,1,0,0:0:0:0:
256,192,106378,1,8,0:0:0:0:
256,192,106458,1,0,0:0:0:0:
256,192,106538,1,8,0:0:0:0:
256,192,106618,1,8,0:0:0:0:
256,192,106698,1,0,0:0:0:0:
256,192,106778,1,8,0:0:0:0:
256,192,106858,1,0,0:0:0:0:
256,192,106938,1,0,0:0:0:0:
256,192,107018,1,8,0:0:0:0:
256,192,107098,1,8,0:0:0:0:
256,192,107178,1,0,0:0:0:0:
256,192,107258,1,8,0:0:0:0:
256,192,107338,1,8,0:0:0:0:
256,192,107418,1,0,0:0:0:0:
256,192,107498,1,8,0:0:0:0:
256,192,107578,1,0,0:0:0:0:
256,192,107658,1,8,0:0:0:0:
256,192,107738,1,0,0:0:0:0:
256,192,107818,1,0,0:0:0:0:
256,192,107898,1,0,0:0:0:0:
256,192,107978,1,8,0:0:0:0:
256,192,108058,1,0,0:0:0:0:
256,192,108138,1,0,0:0:0:0:
256,192,108218,1,8,0:0:0:0:
256,192,108298,1,0,0:0:0:0:
256,192,108378,1,0,0:0:0:0:
256,192,108458,1,8,0:0:0:0:
256,192,108538,1,8,0:0:0:0:
256,192,108618,1,8,0:0:0:0:
256,192,108698,1,0,0:0:0:0:
256,192,108778,1,0,0:0:0:0:
256,192,108858,1,0,0:0:0:0:
256,192,108938,1,8,0:0:0:0:
256,192,109018,1,8,0:0:0:0:
256,192,109098,1,0,0:0:0:0:
256,192,109178,1,8,0:0:0:0:
256,192,109258,1,8,0:0:0:0:
256,192,109338,1,8,0:0:0:0:
256,192,109418,1,0,0:0:0:0:
256,192,109498,1,0,0:0:0:0:
256,192,109578,1,0,0:0:0:0:
256,192,109658,1,8,0:0:0:0:
256,192,109738,1,0,0:0:0:0:
256,192,109818,1,0,0:0:0:0:
256,192,109898,1,8,0:0:0:0:
256,192,109978,1,8,0:0:0:0:
256,192,110058,1,0,0:0:0:0:
256,192,110138,1,8,0:0:0:0:
256,192,110218,1,0,0:0:0:0:
256,192,110298,1,0,0:0:0:0:
256,192,110378,1,8,0:0:0:0:
256,192,110498,1,8,0:0:0:0:
256,192,110618,1,0,0:0:0:0:
256,192,110738,1,0,0:0:0:0:
256,192,110858,1,12,0:0:0:0:
256,192,111098,1,4,0:0:0:0:
256,192,111338,1,12,0:0:0:0:
256,192,111578,1,0,0:0:0:0:
256,192,111698,1,0,0:0:0:0:
256,192,111818,1,0,0:0:0:0:
256,192,111938,1,0,0:0:0:0:
256,192,112058,1,8,0:0:0:0:
256,192,112178,1,0,0:0:0:0:
256,192,112298,1,8,0:0:0:0:
256,192,112538,1,0,0:0:0:0:
256,192,112658,1,8,0:0:0:0:
256,192,112898,1,0,0:0:0:0:
256,192,113018,1,8,0:0:0:0:
256,192,113138,1,0,0:0:0:0:
256,192,113258,1,8,0:0:0:0:
256,192,113498,1,0,0:0:0:0:
256,192,113618,1,0,0:0:0:0:
256,192,113738,1,0,0:0:0:0:
256,192,113858,1,0,0:0:0:0:
256,192,113978,1,8,0:0:0:0:
256,192,114098,1,8,0:0:0:0:
256,192,114218,1,8,0:0:0:0:
256,192,114338,1,0,0:0:0:0:
256,192,114458,1,0,0:0:0:0:
256,192,114578,1,8,0:0:0:0:
256,192,114698,1,0,0:0:0:0:
256,192,114818,1,0,0:0:0:0:
256,192,114938,1,8,0:0:0:0:
256,192,115058,1,0,0:0:0:0:
256,192,115178,1,8,0:0:0:0:
256,192,115418,1,0,0:0:0:0:
256,192,115538,1,0,0:0:0:0:
256,192,115658,1,0,0:0:0:0:
256,192,115778,1,0,0:0:0:0:
256,192,115898,1,8,0:0:0:0:
256,192,116018,1,8,0:0:0:0:
256,192,116138,1,8,0:0:0:0:
256,192,116378,1,0,0:0:0:0:
256,192,116498,1,0,0:0:0:0:
256,192,116618,1,8,0:0:0:0:
256,192,116738,1,0,0:0:0:0:
256,192,116858,1,8,0:0:0:0:
256,192,116978,1,0,0:0:0:0:
256,192,117098,1,8,0:0:0:0:
256,192,117218,1,0,0:0:0:0:
256,192,117338,1,0,0:0:0:0:
256,192,117458,1,8,0:0:0:0:
256,192,117578,1,0,0:0:0:0:
256,192,117698,1,0,0:0:0:0:
256,192,117818,1,8,0:0:0:0:
256,192,117938,1,0,0:0:0:0:
256,192,118058,1,8,0:0:0:0:
256,192,118298,1,0,0:0:0:0:
256,192,118418,1,0,0:0:0:0:
256,192,118538,1,8,0:0:0:0:
256,192,118658,1,0,0:0:0:0:
256,192,118778,1,0,0:0:0:0:
256,192,118898,1,8,0:0:0:0:
256,192,119018,1,4,0:0:0:0:
256,192,119258,1,8,0:0:0:0:
256,192,119378,1,0,0:0:0:0:
256,192,119498,1,8,0:0:0:0:
256,192,119618,1,8,0:0:0:0:
256,192,119738,1,0,0:0:0:0:
256,192,119858,1,8,0:0:0:0:
256,192,119978,1,0,0:0:0:0:
256,192,120098,1,0,0:0:0:0:
256,192,120218,1,0,0:0:0:0:
256,192,120338,1,8,0:0:0:0:
256,192,120458,1,8,0:0:0:0:
256,192,120578,1,0,0:0:0:0:
256,192,120698,1,8,0:0:0:0:
256,192,120818,1,0,0:0:0:0:
256,192,120938,1,8,0:0:0:0:
256,192,121058,1,8,0:0:0:0:
256,192,121178,1,0,0:0:0:0:
256,192,121258,1,8,0:0:0:0:
256,192,121338,1,8,0:0:0:0:
256,192,121418,1,0,0:0:0:0:
256,192,121538,1,0,0:0:0:0:
256,192,121658,1,8,0:0:0:0:
256,192,121778,1,0,0:0:0:0:
256,192,121898,1,8,0:0:0:0:
256,192,122018,1,8,0:0:0:0:
256,192,122138,1,0,0:0:0:0:
256,192,122258,1,0,0:0:0:0:
256,192,122378,1,8,0:0:0:0:
256,192,122498,1,0,0:0:0:0:
256,192,122618,1,8,0:0:0:0:
256,192,122738,1,0,0:0:0:0:
256,192,122858,1,0,0:0:0:0:
256,192,122978,1,0,0:0:0:0:
256,192,123098,1,0,0:0:0:0:
256,192,123218,1,8,0:0:0:0:
256,192,123338,1,8,0:0:0:0:
256,192,123458,1,0,0:0:0:0:
256,192,123578,1,8,0:0:0:0:
256,192,123698,1,0,0:0:0:0:
256,192,123818,1,8,0:0:0:0:
256,192,123938,1,0,0:0:0:0:
256,192,124058,1,0,0:0:0:0:
256,192,124178,1,8,0:0:0:0:
256,192,124298,1,0,0:0:0:0:
256,192,124418,1,0,0:0:0:0:
256,192,124538,1,8,0:0:0:0:
256,192,124658,1,0,0:0:0:0:
256,192,124778,1,8,0:0:0:0:
256,192,124898,1,0,0:0:0:0:
256,192,125018,1,0,0:0:0:0:
256,192,125138,1,8,0:0:0:0:
256,192,125258,1,8,0:0:0:0:
256,192,125378,1,0,0:0:0:0:
256,192,125498,1,8,0:0:0:0:
256,192,125618,1,0,0:0:0:0:
256,192,125738,1,8,0:0:0:0:
256,192,125818,1,8,0:0:0:0:
256,192,125898,1,8,0:0:0:0:
256,192,125978,1,0,0:0:0:0:
256,192,126098,1,0,0:0:0:0:
256,192,126218,1,8,0:0:0:0:
256,192,126338,1,0,0:0:0:0:
256,192,126458,1,8,0:0:0:0:
256,192,126578,1,0,0:0:0:0:
256,192,126698,1,8,0:0:0:0:
256,192,126818,1,0,0:0:0:0:
256,192,126878,1,8,0:0:0:0:
256,192,126938,1,8,0:0:0:0:
256,192,127058,1,8,0:0:0:0:
256,192,127178,1,0,0:0:0:0:
256,192,127238,1,0,0:0:0:0:
256,192,127298,1,8,0:0:0:0:
256,192,127358,1,8,0:0:0:0:
256,192,127418,1,8,0:0:0:0:
256,192,127538,1,8,0:0:0:0:
256,192,127658,1,8,0:0:0:0:
256,192,127718,1,8,0:0:0:0:
256,192,127778,1,0,0:0:0:0:
256,192,127898,1,0,0:0:0:0:
256,192,128018,1,8,0:0:0:0:
256,192,128138,1,0,0:0:0:0:
256,192,128258,1,0,0:0:0:0:
256,192,128318,1,0,0:0:0:0:
256,192,128378,1,8,0:0:0:0:
256,192,128618,1,8,0:0:0:0:
256,192,128678,1,0,0:0:0:0:
256,192,128738,1,0,0:0:0:0:
256,192,128798,1,0,0:0:0:0:
256,192,128858,1,8,0:0:0:0:
256,192,128918,1,0,0:0:0:0:
256,192,128978,1,0,0:0:0:0:
256,192,129038,1,0,0:0:0:0:
256,192,129098,1,8,0:0:0:0:
256,192,129158,1,0,0:0:0:0:
256,192,129218,1,0,0:0:0:0:
256,192,129278,1,0,0:0:0:0:
256,192,129338,1,8,0:0:0:0:
256,192,129398,1,0,0:0:0:0:
256,192,129458,1,8,0:0:0:0:
256,192,129518,1,0,0:0:0:0:
256,192,129578,1,8,0:0:0:0:
256,192,129638,1,0,0:0:0:0:
256,192,129698,1,0,0:0:0:0:
256,192,129758,1,0,0:0:0:0:
256,192,129818,1,8,0:0:0:0:
256,192,129878,1,8,0:0:0:0:
256,192,129938,1,0,0:0:0:0:
256,192,129998,1,0,0:0:0:0:
256,192,130058,1,8,0:0:0:0:
256,192,130118,1,0,0:0:0:0:
256,192,130178,1,8,0:0:0:0:
256,192,130238,1,8,0:0:0:0:
256,192,130298,1,0,0:0:0:0:
256,192,130358,1,0,0:0:0:0:
256,192,130418,1,8,0:0:0:0:
256,192,130478,1,0,0:0:0:0:
256,192,130538,1,8,0:0:0:0:
256,192,130598,1,8,0:0:0:0:
256,192,130658,1,0,0:0:0:0:
256,192,130718,1,0,0:0:0:0:
256,192,130778,1,8,0:0:0:0:
256,192,130838,1,0,0:0:0:0:
256,192,130898,1,0,0:0:0:0:
256,192,130958,1,0,0:0:0:0:
256,192,131018,1,8,0:0:0:0:
256,192,131078,1,8,0:0:0:0:
256,192,131138,1,8,0:0:0:0:
256,192,131198,1,0,0:0:0:0:
256,192,131258,1,8,0:0:0:0:
256,192,131318,1,0,0:0:0:0:
256,192,131378,1,0,0:0:0:0:
256,192,131438,1,0,0:0:0:0:
256,192,131498,1,8,0:0:0:0:
256,192,131558,1,0,0:0:0:0:
256,192,131618,1,8,0:0:0:0:
256,192,131678,1,8,0:0:0:0:
256,192,131738,1,0,0:0:0:0:
256,192,131798,1,0,0:0:0:0:
256,192,131858,1,8,0:0:0:0:
256,192,131918,1,0,0:0:0:0:
256,192,131978,1,8,0:0:0:0:
256,192,132038,1,8,0:0:0:0:
256,192,132098,1,0,0:0:0:0:
256,192,132158,1,0,0:0:0:0:
256,192,132218,1,8,0:0:0:0:
256,192,132278,1,8,0:0:0:0:
256,192,132338,1,0,0:0:0:0:
256,192,132398,1,0,0:0:0:0:
256,192,132458,1,8,0:0:0:0:
256,192,132518,1,0,0:0:0:0:
256,192,132578,1,0,0:0:0:0:
256,192,132638,1,0,0:0:0:0:
256,192,132698,1,8,0:0:0:0:
256,192,132758,1,0,0:0:0:0:
256,192,132818,1,0,0:0:0:0:
256,192,132878,1,0,0:0:0:0:
256,192,132938,1,8,0:0:0:0:
256,192,132998,1,8,0:0:0:0:
256,192,133058,1,0,0:0:0:0:
256,192,133118,1,0,0:0:0:0:
256,192,133178,1,8,0:0:0:0:
256,192,133238,1,0,0:0:0:0:
256,192,133298,1,8,0:0:0:0:
256,192,133358,1,0,0:0:0:0:
256,192,133418,1,8,0:0:0:0:
256,192,133478,1,8,0:0:0:0:
256,192,133538,1,0,0:0:0:0:
256,192,133598,1,0,0:0:0:0:
256,192,133658,1,8,0:0:0:0:
256,192,133718,1,0,0:0:0:0:
256,192,133778,1,0,0:0:0:0:
256,192,133838,1,0,0:0:0:0:
256,192,133898,1,8,0:0:0:0:
256,192,133958,1,8,0:0:0:0:
256,192,134018,1,0,0:0:0:0:
256,192,134078,1,8,0:0:0:0:
256,192,134138,1,0,0:0:0:0:
256,192,134198,1,0,0:0:0:0:
256,192,134258,1,8,0:0:0:0:
256,192,134318,1,0,0:0:0:0:
256,192,134378,1,8,0:0:0:0:
256,192,134438,1,8,0:0:0:0:
256,192,134498,1,8,0:0:0:0:
256,192,134558,1,8,0:0:0:0:
256,192,134618,1,0,0:0:0:0:
256,192,134678,1,0,0:0:0:0:
256,192,134738,1,8,0:0:0:0:
256,192,134798,1,8,0:0:0:0:
256,192,134858,1,8,0:0:0:0:
256,192,134918,1,8,0:0:0:0:
256,192,134978,1,0,0:0:0:0:
256,192,135038,1,0,0:0:0:0:
256,192,135098,1,8,0:0:0:0:
256,192,135158,1,8,0:0:0:0:
256,192,135218,1,0,0:0:0:0:
256,192,135278,1,0,0:0:0:0:
256,192,135338,1,8,0:0:0:0:
256,192,135398,1,8,0:0:0:0:
256,192,135458,1,0,0:0:0:0:
256,192,135518,1,8,0:0:0:0:
256,192,135578,1,0,0:0:0:0:
256,192,135638,1,0,0:0:0:0:
256,192,135698,1,8,0:0:0:0:
256,192,135758,1,8,0:0:0:0:
256,192,135818,1,0,0:0:0:0:
256,192,135878,1,8,0:0:0:0:
256,192,135938,1,0,0:0:0:0:
256,192,135998,1,0,0:0:0:0:
256,192,136058,1,8,0:0:0:0:
256,192,136118,1,8,0:0:0:0:
256,192,136178,1,8,0:0:0:0:
256,192,136298,1,4,0:0:0:0:
256,192,136538,1,8,0:0:0:0:
256,192,136658,1,0,0:0:0:0:
256,192,136778,1,8,0:0:0:0:
256,192,136898,1,8,0:0:0:0:
256,192,137018,1,0,0:0:0:0:
256,192,137138,1,8,0:0:0:0:
256,192,137258,1,4,0:0:0:0:
256,192,137498,1,0,0:0:0:0:
256,192,137618,1,0,0:0:0:0:
256,192,137738,1,8,0:0:0:0:
256,192,137858,1,8,0:0:0:0:
256,192,137978,1,0,0:0:0:0:
256,192,138098,1,8,0:0:0:0:
256,192,138218,1,4,0:0:0:0:
256,192,138458,1,0,0:0:0:0:
256,192,138578,1,8,0:0:0:0:
256,192,138698,1,0,0:0:0:0:
256,192,138818,1,0,0:0:0:0:
256,192,138938,1,8,0:0:0:0:
256,192,139058,1,0,0:0:0:0:
256,192,139178,1,4,0:0:0:0:
256,192,139418,1,0,0:0:0:0:
256,192,139538,1,12,0:0:0:0:
256,192,139778,1,8,0:0:0:0:
256,192,139898,1,4,0:0:0:0:
256,192,140138,1,4,0:0:0:0:
256,192,140258,1,8,0:0:0:0:
256,192,140378,1,8,0:0:0:0:
256,192,140498,1,8,0:0:0:0:
256,192,140618,1,0,0:0:0:0:
256,192,140738,1,0,0:0:0:0:
256,192,140858,1,8,0:0:0:0:
256,192,140978,1,8,0:0:0:0:
256,192,141098,1,4,0:0:0:0:
256,192,141218,1,0,0:0:0:0:
256,192,141338,1,8,0:0:0:0:
256,192,141458,1,8,0:0:0:0:
256,192,141578,1,0,0:0:0:0:
256,192,141698,1,8,0:0:0:0:
256,192,141818,1,0,0:0:0:0:
256,192,141938,1,8,0:0:0:0:
256,192,142058,1,4,0:0:0:0:
256,192,142178,1,0,0:0:0:0:
256,192,142298,1,8,0:0:0:0:
256,192,142418,1,0,0:0:0:0:
256,192,142538,1,0,0:0:0:0:
256,192,142658,1,8,0:0:0:0:
256,192,142778,1,0,0:0:0:0:
256,192,142898,1,8,0:0:0:0:
256,192,143018,1,4,0:0:0:0:
256,192,143258,1,8,0:0:0:0:
256,192,143378,1,0,0:0:0:0:
256,192,143498,1,8,0:0:0:0:
256,192,143558,1,8,0:0:0:0:
256,192,143618,1,8,0:0:0:0:
256,192,143678,1,0,0:0:0:0:
256,192,143738,1,8,0:0:0:0:
256,192,143858,1,0,0:0:0:0:
256,192,143978,1,12,0:0:0:0:
256,192,144218,1,0,0:0:0:0:
256,192,144338,1,8,0:0:0:0:
256,192,144578,1,8,0:0:0:0:
256,192,144698,1,0,0:0:0:0:
256,192,144938,1,8,0:0:0:0:
256,192,145178,1,0,0:0:0:0:
256,192,145298,1,0,0:0:0:0:
256,192,145418,1,8,0:0:0:0:
256,192,145538,1,0,0:0:0:0:
256,192,145658,1,8,0:0:0:0:
256,192,145898,1,8,0:0:0:0:
256,192,146138,1,0,0:0:0:0:
256,192,146258,1,8,0:0:0:0:
256,192,146498,1,8,0:0:0:0:
256,192,146618,1,0,0:0:0:0:
256,192,146858,1,8,0:0:0:0:
256,192,147098,1,8,0:0:0:0:
256,192,147218,1,8,0:0:0:0:
256,192,147338,1,0,0:0:0:0:
256,192,147458,1,0,0:0:0:0:
256,192,147578,1,8,0:0:0:0:
256,192,147818,1,8,0:0:0:0:
256,192,148058,1,0,0:0:0:0:
256,192,148178,1,8,0:0:0:0:
256,192,148418,1,0,0:0:0:0:
256,192,148538,1,8,0:0:0:0:
256,192,148778,1,8,0:0:0:0:
256,192,149018,1,8,0:0:0:0:
256,192,149138,1,8,0:0:0:0:
256,192,149258,1,0,0:0:0:0:
256,192,149378,1,0,0:0:0:0:
256,192,149498,1,8,0:0:0:0:
256,192,149738,1,0,0:0:0:0:
256,192,149978,1,0,0:0:0:0:
256,192,150098,1,8,0:0:0:0:
256,192,150338,1,8,0:0:0:0:
256,192,150458,1,0,0:0:0:0:
256,192,150578,1,0,0:0:0:0:
256,192,150698,1,8,0:0:0:0:
256,192,150818,1,0,0:0:0:0:
256,192,150878,1,8,0:0:0:0:
256,192,150938,1,8,0:0:0:0:
256,192,151058,1,8,0:0:0:0:
256,192,151178,1,0,0:0:0:0:
256,192,151238,1,0,0:0:0:0:
256,192,151298,1,0,0:0:0:0:
256,192,151358,1,0,0:0:0:0:
256,192,151418,1,8,0:0:0:0:
256,192,151538,1,0,0:0:0:0:
256,192,151658,1,12,0:0:0:0:
256,192,151778,1,0,0:0:0:0:
256,192,151898,1,8,0:0:0:0:
256,192,152018,1,0,0:0:0:0:
256,192,152138,1,8,0:0:0:0:
256,192,152258,1,0,0:0:0:0:
256,192,152378,1,8,0:0:0:0:
256,192,152498,1,0,0:0:0:0:
256,192,152618,1,8,0:0:0:0:
256,192,152738,1,8,0:0:0:0:
256,192,152858,1,0,0:0:0:0:
256,192,152978,1,8,0:0:0:0:
256,192,153098,1,0,0:0:0:0:
256,192,153218,1,0,0:0:0:0:
256,192,153338,1,8,0:0:0:0:
256,192,153458,1,8,0:0:0:0:
256,192,153578,1,0,0:0:0:0:
256,192,153698,1,8,0:0:0:0:
256,192,153818,1,8,0:0:0:0:
256,192,153938,1,0,0:0:0:0:
256,192,154058,1,8,0:0:0:0:
256,192,154178,1,8,0:0:0:0:
256,192,154298,1,0,0:0:0:0:
256,192,154418,1,8,0:0:0:0:
256,192,154538,1,0,0:0:0:0:
256,192,154658,1,0,0:0:0:0:
256,192,154778,1,8,0:0:0:0:
256,192,154898,1,8,0:0:0:0:
256,192,155018,1,0,0:0:0:0:
256,192,155138,1,0,0:0:0:0:
256,192,155258,1,8,0:0:0:0:
256,192,155378,1,0,0:0:0:0:
256,192,155498,1,8,0:0:0:0:
256,192,155558,1,0,0:0:0:0:
256,192,155618,1,0,0:0:0:0:
256,192,155738,1,0,0:0:0:0:
256,192,155858,1,8,0:0:0:0:
256,192,155918,1,0,0:0:0:0:
256,192,155978,1,8,0:0:0:0:
256,192,156098,1,0,0:0:0:0:
256,192,156158,1,8,0:0:0:0:
256,192,156218,1,8,0:0:0:0:
256,192,156278,1,8,0:0:0:0:
256,192,156338,1,0,0:0:0:0:
256,192,156398,1,0,0:0:0:0:
256,192,156458,1,8,0:0:0:0:
256,192,156578,1,0,0:0:0:0:
256,192,156698,1,0,0:0:0:0:
256,192,156818,1,8,0:0:0:0:
256,192,156938,1,8,0:0:0:0:
256,192,157058,1,0,0:0:0:0:
256,192,157178,1,8,0:0:0:0:
256,192,157298,1,0,0:0:0:0:
256,192,157418,1,12,0:0:0:0:
256,192,157538,1,0,0:0:0:0:
256,192,157598,1,8,0:0:0:0:
256,192,157658,1,8,0:0:0:0:
256,192,157778,1,8,0:0:0:0:
256,192,157898,1,0,0:0:0:0:
256,192,157958,1,0,0:0:0:0:
256,192,158018,1,0,0:0:0:0:
256,192,158078,1,0,0:0:0:0:
256,192,158138,1,8,0:0:0:0:
256,192,158258,1,0,0:0:0:0:
256,192,158378,1,8,0:0:0:0:
256,192,158438,1,8,0:0:0:0:
256,192,158498,1,0,0:0:0:0:
256,192,158558,1,0,0:0:0:0:
256,192,158618,1,8,0:0:0:0:
256,192,158738,1,0,0:0:0:0:
256,192,158858,1,0,0:0:0:0:
256,192,158918,1,0,0:0:0:0:
256,192,158978,1,0,0:0:0:0:
256,192,159098,1,8,0:0:0:0:
256,192,159218,1,0,0:0:0:0:
256,192,159338,1,12,0:0:0:0:
256,192,159578,1,8,0:0:0:0:
256,192,159698,1,0,0:0:0:0:
256,192,159818,1,8,0:0:0:0:
256,192,159938,1,8,0:0:0:0:
256,192,160058,1,8,0:0:0:0:
256,192,160178,1,0,0:0:0:0:
256,192,160298,1,8,0:0:0:0:
256,192,160418,1,0,0:0:0:0:
256,192,160478,1,0,0:0:0:0:
256,192,160538,1,0,0:0:0:0:
256,192,160658,1,8,0:0:0:0:
256,192,160778,1,8,0:0:0:0:
256,192,160898,1,0,0:0:0:0:
256,192,161018,1,8,0:0:0:0:
256,192,161138,1,0,0:0:0:0:
256,192,161258,1,8,0:0:0:0:
256,192,161498,1,8,0:0:0:0:
256,192,161618,1,0,0:0:0:0:
256,192,161738,1,0,0:0:0:0:
256,192,161858,1,8,0:0:0:0:
256,192,161978,1,8,0:0:0:0:
256,192,162098,1,0,0:0:0:0:
256,192,162218,1,8,0:0:0:0:
256,192,162338,1,0,0:0:0:0:
256,192,162398,1,0,0:0:0:0:
256,192,162458,1,0,0:0:0:0:
256,192,162578,1,8,0:0:0:0:
256,192,162698,1,0,0:0:0:0:
256,192,162818,1,0,0:0:0:0:
256,192,162938,1,8,0:0:0:0:
256,192,163058,1,0,0:0:0:0:
256,192,163118,1,0,0:0:0:0:
256,192,163178,1,8,0:0:0:0:
256,192,163238,1,8,0:0:0:0:
256,192,163298,1,0,0:0:0:0:
256,192,163418,1,0,0:0:0:0:
256,192,163538,1,8,0:0:0:0:
256,192,163598,1,8,0:0:0:0:
256,192,163658,1,0,0:0:0:0:
256,192,163778,1,0,0:0:0:0:
256,192,163898,1,8,0:0:0:0:
256,192,163958,1,8,0:0:0:0:
256,192,164018,1,0,0:0:0:0:
256,192,164078,1,0,0:0:0:0:
256,192,164138,1,8,0:0:0:0:
256,192,164258,1,0,0:0:0:0:
256,192,164318,1,0,0:0:0:0:
256,192,164378,1,8,0:0:0:0:
256,192,164498,1,0,0:0:0:0:
256,192,164618,1,8,0:0:0:0:
256,192,164738,1,0,0:0:0:0:
256,192,164858,1,8,0:0:0:0:
256,192,164978,1,0,0:0:0:0:
256,192,165098,1,8,0:0:0:0:
256,192,165218,1,0,0:0:0:0:
256,192,165278,1,8,0:0:0:0:
256,192,165338,1,8,0:0:0:0:
256,192,165458,1,8,0:0:0:0:
256,192,165578,1,0,0:0:0:0:
256,192,165638,1,0,0:0:0:0:
256,192,165698,1,8,0:0:0:0:
256,192,165818,1,8,0:0:0:0:
256,192,165938,1,0,0:0:0:0:
256,192,166058,1,0,0:0:0:0:
256,192,166178,1,8,0:0:0:0:
256,192,166238,1,8,0:0:0:0:
256,192,166298,1,0,0:0:0:0:
256,192,166418,1,0,0:0:0:0:
256,192,166538,1,8,0:0:0:0:
256,192,166658,1,0,0:0:0:0:
256,192,166778,1,0,0:0:0:0:
256,192,166898,1,8,0:0:0:0:
256,192,167018,1,8,0:0:0:0:
256,192,167078,1,8,0:0:0:0:
256,192,167138,1,8,0:0:0:0:
256,192,167198,1,0,0:0:0:0:
256,192,167258,1,8,0:0:0:0:
256,192,167318,1,0,0:0:0:0:
256,192,167378,1,0,0:0:0:0:
256,192,167438,1,0,0:0:0:0:
256,192,167498,1,8,0:0:0:0:
256,192,167558,1,0,0:0:0:0:
256,192,167618,1,8,0:0:0:0:
256,192,167678,1,0,0:0:0:0:
256,192,167738,1,8,0:0:0:0:
256,192,167798,1,0,0:0:0:0:
256,192,167858,1,8,0:0:0:0:
256,192,167918,1,0,0:0:0:0:
256,192,167978,1,8,0:0:0:0:
256,192,168038,1,8,0:0:0:0:
256,192,168098,1,8,0:0:0:0:
256,192,168158,1,0,0:0:0:0:
256,192,168218,1,8,0:0:0:0:
256,192,168278,1,8,0:0:0:0:
256,192,168338,1,0,0:0:0:0:
256,192,168398,1,0,0:0:0:0:
256,192,168458,1,8,0:0:0:0:
256,192,168518,1,0,0:0:0:0:
256,192,168578,1,0,0:0:0:0:
256,192,168638,1,0,0:0:0:0:
256,192,168698,1,8,0:0:0:0:
256,192,168758,1,8,0:0:0:0:
256,192,168818,1,0,0:0:0:0:
256,192,168878,1,0,0:0:0:0:
256,192,168938,1,8,0:0:0:0:
256,192,168998,1,8,0:0:0:0:
256,192,169058,1,8,0:0:0:0:
256,192,169118,1,0,0:0:0:0:
256,192,169178,1,8,0:0:0:0:
256,192,169238,1,0,0:0:0:0:
256,192,169298,1,8,0:0:0:0:
256,192,169358,1,0,0:0:0:0:
256,192,169418,1,8,0:0:0:0:
256,192,169478,1,0,0:0:0:0:
256,192,169538,1,8,0:0:0:0:
256,192,169598,1,0,0:0:0:0:
256,192,169658,1,8,0:0:0:0:
256,192,169718,1,0,0:0:0:0:
256,192,169778,1,8,0:0:0:0:
256,192,169838,1,0,0:0:0:0:
256,192,169898,1,8,0:0:0:0:
256,192,169958,1,8,0:0:0:0:
256,192,170018,1,0,0:0:0:0:
256,192,170078,1,0,0:0:0:0:
256,192,170138,1,8,0:0:0:0:
256,192,170198,1,8,0:0:0:0:
256,192,170258,1,0,0:0:0:0:
256,192,170318,1,0,0:0:0:0:
256,192,170378,1,8,0:0:0:0:
256,192,170438,1,0,0:0:0:0:
256,192,170498,1,8,0:0:0:0:
256,192,170558,1,8,0:0:0:0:
256,192,170618,1,0,0:0:0:0:
256,192,170678,1,8,0:0:0:0:
256,192,170738,1,0,0:0:0:0:
256,192,170798,1,0,0:0:0:0:
256,192,170858,1,8,0:0:0:0:
256,192,170918,1,0,0:0:0:0:
256,192,170978,1,0,0:0:0:0:
256,192,171038,1,0,0:0:0:0:
256,192,171098,1,8,0:0:0:0:
256,192,171158,1,0,0:0:0:0:
256,192,171218,1,8,0:0:0:0:
256,192,171278,1,0,0:0:0:0:
256,192,171338,1,8,0:0:0:0:
256,192,171398,1,0,0:0:0:0:
256,192,171458,1,8,0:0:0:0:
256,192,171518,1,0,0:0:0:0:
256,192,171578,1,8,0:0:0:0:
256,192,171638,1,0,0:0:0:0:
256,192,171698,1,8,0:0:0:0:
256,192,171758,1,0,0:0:0:0:
256,192,171818,1,8,0:0:0:0:
256,192,171878,1,8,0:0:0:0:
256,192,171938,1,0,0:0:0:0:
256,192,171998,1,0,0:0:0:0:
256,192,172058,1,8,0:0:0:0:
256,192,172118,1,8,0:0:0:0:
256,192,172178,1,0,0:0:0:0:
256,192,172238,1,0,0:0:0:0:
256,192,172298,1,8,0:0:0:0:
256,192,172358,1,0,0:0:0:0:
256,192,172418,1,8,0:0:0:0:
256,192,172478,1,8,0:0:0:0:
256,192,172538,1,0,0:0:0:0:
256,192,172598,1,8,0:0:0:0:
256,192,172658,1,0,0:0:0:0:
256,192,172718,1,0,0:0:0:0:
256,192,172778,1,8,0:0:0:0:
256,192,172838,1,8,0:0:0:0:
256,192,172898,1,0,0:0:0:0:
256,192,172958,1,8,0:0:0:0:
256,192,173018,1,0,0:0:0:0:
256,192,173078,1,0,0:0:0:0:
256,192,173138,1,8,0:0:0:0:
256,192,173198,1,8,0:0:0:0:
256,192,173258,1,0,0:0:0:0:
256,192,173318,1,8,0:0:0:0:
256,192,173378,1,0,0:0:0:0:
256,192,173438,1,0,0:0:0:0:
256,192,173498,1,8,0:0:0:0:
256,192,173558,1,8,0:0:0:0:
256,192,173618,1,0,0:0:0:0:
256,192,173678,1,0,0:0:0:0:
256,192,173738,1,8,0:0:0:0:
256,192,173798,1,8,0:0:0:0:
256,192,173858,1,8,0:0:0:0:
256,192,173918,1,8,0:0:0:0:
256,192,173978,1,0,0:0:0:0:
256,192,174038,1,0,0:0:0:0:
256,192,174098,1,8,0:0:0:0:
256,192,174158,1,8,0:0:0:0:
256,192,174218,1,0,0:0:0:0:
256,192,174278,1,0,0:0:0:0:
256,192,174338,1,0,0:0:0:0:
256,192,174398,1,0,0:0:0:0:
256,192,174458,1,8,0:0:0:0:
256,192,174518,1,8,0:0:0:0:
256,192,174578,1,0,0:0:0:0:
256,192,174698,1,12,0:0:0:0:
256,192,174818,1,0,0:0:0:0:
256,192,174878,1,0,0:0:0:0:
256,192,174938,1,0,0:0:0:0:
256,192,175058,1,8,0:0:0:0:
256,192,175298,1,0,0:0:0:0:
256,192,175418,1,8,0:0:0:0:
256,192,175538,1,0,0:0:0:0:
256,192,175658,1,8,0:0:0:0:
256,192,175778,1,8,0:0:0:0:
256,192,175838,1,8,0:0:0:0:
256,192,175898,1,0,0:0:0:0:
256,192,176018,1,8,0:0:0:0:
256,192,176138,1,0,0:0:0:0:
256,192,176198,1,0,0:0:0:0:
256,192,176258,1,0,0:0:0:0:
256,192,176318,1,0,0:0:0:0:
256,192,176378,1,8,0:0:0:0:
256,192,176498,1,0,0:0:0:0:
256,192,176618,1,8,0:0:0:0:
256,192,176738,1,0,0:0:0:0:
256,192,176798,1,0,0:0:0:0:
256,192,176858,1,0,0:0:0:0:
256,192,176978,1,8,0:0:0:0:
256,192,177218,1,0,0:0:0:0:
256,192,177338,1,8,0:0:0:0:
256,192,177458,1,0,0:0:0:0:
256,192,177578,1,8,0:0:0:0:
256,192,177698,1,8,0:0:0:0:
256,192,177758,1,8,0:0:0:0:
256,192,177818,1,0,0:0:0:0:
256,192,177938,1,8,0:0:0:0:
256,192,178058,1,0,0:0:0:0:
256,192,178118,1,8,0:0:0:0:
256,192,178178,1,0,0:0:0:0:
256,192,178238,1,0,0:0:0:0:
256,192,178298,1,8,0:0:0:0:
256,192,178358,1,0,0:0:0:0:
256,192,178418,1,8,0:0:0:0:
256,192,178478,1,8,0:0:0:0:
256,192,178538,1,8,0:0:0:0:
256,192,178658,1,0,0:0:0:0:
256,192,178718,1,0,0:0:0:0:
256,192,178778,1,0,0:0:0:0:
256,192,178898,1,8,0:0:0:0:
256,192,179138,1,0,0:0:0:0:
256,192,179258,1,8,0:0:0:0:
256,192,179378,1,0,0:0:0:0:
256,192,179498,1,8,0:0:0:0:
256,192,179618,1,8,0:0:0:0:
256,192,179678,1,8,0:0:0:0:
256,192,179738,1,0,0:0:0:0:
256,192,179858,1,8,0:0:0:0:
256,192,179978,1,0,0:0:0:0:
256,192,180038,1,0,0:0:0:0:
256,192,180098,1,0,0:0:0:0:
256,192,180158,1,0,0:0:0:0:
256,192,180218,1,8,0:0:0:0:
256,192,180338,1,0,0:0:0:0:
256,192,180458,1,8,0:0:0:0:
256,192,180578,1,0,0:0:0:0:
256,192,180638,1,0,0:0:0:0:
256,192,180698,1,0,0:0:0:0:
256,192,180818,1,8,0:0:0:0:
256,192,181058,1,0,0:0:0:0:
256,192,181178,1,8,0:0:0:0:
256,192,181298,1,0,0:0:0:0:
256,192,181418,1,8,0:0:0:0:
256,192,181478,1,0,0:0:0:0:
256,192,181538,1,0,0:0:0:0:
256,192,181598,1,0,0:0:0:0:
256,192,181658,1,8,0:0:0:0:
256,192,181718,1,8,0:0:0:0:
256,192,181778,1,8,0:0:0:0:
256,192,181838,1,8,0:0:0:0:
256,192,181898,1,0,0:0:0:0:
256,192,181958,1,8,0:0:0:0:
256,192,182018,1,0,0:0:0:0:
256,192,182078,1,0,0:0:0:0:
256,192,182138,1,8,0:0:0:0:
256,192,182198,1,0,0:0:0:0:
256,192,182258,1,8,0:0:0:0:
256,192,182378,1,4,0:0:0:0:
256,192,182618,1,8,0:0:0:0:
256,192,183098,1,8,0:0:0:0:
256,192,183578,1,8,0:0:0:0:
256,192,184058,1,8,0:0:0:0:
256,192,184538,1,8,0:0:0:0:
256,192,185018,1,8,0:0:0:0:
256,192,185498,1,8,0:0:0:0:
256,192,185978,1,8,0:0:0:0:
256,192,186098,1,8,0:0:0:0:
256,192,186218,1,0,0:0:0:0:
256,192,186458,1,8,0:0:0:0:
256,192,186938,1,8,0:0:0:0:
256,192,187418,1,8,0:0:0:0:
256,192,187898,1,8,0:0:0:0:
256,192,188018,1,0,0:0:0:0:
256,192,188138,1,8,0:0:0:0:
256,192,188378,1,0,0:0:0:0:
256,192,188498,1,8,0:0:0:0:
256,192,188738,1,0,0:0:0:0:
256,192,188858,1,8,0:0:0:0:
256,192,188978,1,8,0:0:0:0:
256,192,189098,1,0,0:0:0:0:
256,192,189218,1,8,0:0:0:0:
256,192,189278,1,8,0:0:0:0:
256,192,189338,1,0,0:0:0:0:
256,192,189398,1,0,0:0:0:0:
256,192,189458,1,0,0:0:0:0:
256,192,189518,1,0,0:0:0:0:
256,192,189578,1,8,0:0:0:0:
256,192,189698,1,0,0:0:0:0:
256,192,189818,1,0,0:0:0:0:
256,192,189938,1,8,0:0:0:0:
256,192,190058,1,8,0:0:0:0:
256,192,190118,1,0,0:0:0:0:
256,192,190178,1,0,0:0:0:0:
256,192,190238,1,0,0:0:0:0:
256,192,190298,1,8,0:0:0:0:
256,192,190358,1,0,0:0:0:0:
256,192,190418,1,0,0:0:0:0:
256,192,190478,1,0,0:0:0:0:
256,192,190538,1,8,0:0:0:0:
256,192,190598,1,0,0:0:0:0:
256,192,190658,1,0,0:0:0:0:
256,192,190718,1,0,0:0:0:0:
256,192,190778,1,8,0:0:0:0:
256,192,190838,1,0,0:0:0:0:
256,192,190898,1,8,0:0:0:0:
256,192,190958,1,0,0:0:0:0:
256,192,191018,1,8,0:0:0:0:
256,192,191078,1,0,0:0:0:0:
256,192,191138,1,0,0:0:0:0:
256,192,191198,1,0,0:0:0:0:
256,192,191258,1,8,0:0:0:0:
256,192,191318,1,0,0:0:0:0:
256,192,191378,1,0,0:0:0:0:
256,192,191438,1,0,0:0:0:0:
256,192,191498,1,8,0:0:0:0:
256,192,191558,1,0,0:0:0:0:
256,192,191618,1,8,0:0:0:0:
256,192,191678,1,8,0:0:0:0:
256,192,191738,1,0,0:0:0:0:
256,192,191798,1,0,0:0:0:0:
256,192,191858,1,8,0:0:0:0:
256,192,191918,1,0,0:0:0:0:
256,192,191978,1,8,0:0:0:0:
256,192,192038,1,0,0:0:0:0:
256,192,192098,1,0,0:0:0:0:
256,192,192158,1,0,0:0:0:0:
256,192,192218,1,8,0:0:0:0:
256,192,192278,1,0,0:0:0:0:
256,192,192338,1,0,0:0:0:0:
256,192,192398,1,0,0:0:0:0:
256,192,192458,1,8,0:0:0:0:
256,192,192518,1,8,0:0:0:0:
256,192,192578,1,0,0:0:0:0:
256,192,192638,1,0,0:0:0:0:
256,192,192698,1,8,0:0:0:0:
256,192,192758,1,0,0:0:0:0:
256,192,192818,1,0,0:0:0:0:
256,192,192878,1,0,0:0:0:0:
256,192,192938,1,8,0:0:0:0:
256,192,192998,1,0,0:0:0:0:
256,192,193058,1,8,0:0:0:0:
256,192,193118,1,8,0:0:0:0:
256,192,193178,1,0,0:0:0:0:
256,192,193238,1,0,0:0:0:0:
256,192,193298,1,8,0:0:0:0:
256,192,193358,1,0,0:0:0:0:
256,192,193418,1,8,0:0:0:0:
256,192,193478,1,8,0:0:0:0:
256,192,193538,1,0,0:0:0:0:
256,192,193598,1,0,0:0:0:0:
256,192,193658,1,8,0:0:0:0:
256,192,193718,1,8,0:0:0:0:
256,192,193778,1,0,0:0:0:0:
256,192,193838,1,0,0:0:0:0:
272,192,193898,1,8,0:0:0:0:
272,192,193958,1,0,0:0:0:0:
272,192,194018,1,0,0:0:0:0:
272,192,194078,1,0,0:0:0:0:
272,192,194138,1,8,0:0:0:0:
272,192,194198,1,0,0:0:0:0:
272,192,194258,1,0,0:0:0:0:
272,192,194318,1,0,0:0:0:0:
272,192,194378,1,8,0:0:0:0:
272,192,194438,1,0,0:0:0:0:
272,192,194498,1,0,0:0:0:0:
272,192,194558,1,0,0:0:0:0:
272,192,194618,1,8,0:0:0:0:
272,192,194678,1,0,0:0:0:0:
272,192,194738,1,8,0:0:0:0:
272,192,194798,1,0,0:0:0:0:
272,192,194858,1,8,0:0:0:0:
272,192,194918,1,0,0:0:0:0:
272,192,194978,1,0,0:0:0:0:
272,192,195038,1,0,0:0:0:0:
272,192,195098,1,8,0:0:0:0:
272,192,195158,1,0,0:0:0:0:
272,192,195218,1,0,0:0:0:0:
272,192,195278,1,0,0:0:0:0:
272,192,195338,1,8,0:0:0:0:
272,192,195398,1,0,0:0:0:0:
272,192,195458,1,8,0:0:0:0:
272,192,195518,1,8,0:0:0:0:
272,192,195578,1,0,0:0:0:0:
272,192,195638,1,0,0:0:0:0:
272,192,195698,1,8,0:0:0:0:
272,192,195758,1,0,0:0:0:0:
272,192,195818,1,8,0:0:0:0:
272,192,195878,1,0,0:0:0:0:
272,192,195938,1,0,0:0:0:0:
272,192,195998,1,0,0:0:0:0:
272,192,196058,1,8,0:0:0:0:
272,192,196118,1,0,0:0:0:0:
272,192,196178,1,0,0:0:0:0:
272,192,196238,1,0,0:0:0:0:
272,192,196298,1,8,0:0:0:0:
272,192,196358,1,8,0:0:0:0:
272,192,196418,1,8,0:0:0:0:
272,192,196478,1,0,0:0:0:0:
272,192,196538,1,8,0:0:0:0:
272,192,196598,1,0,0:0:0:0:
272,192,196658,1,0,0:0:0:0:
272,192,196718,1,0,0:0:0:0:
272,192,196778,1,8,0:0:0:0:
272,192,196838,1,8,0:0:0:0:
272,192,196898,1,0,0:0:0:0:
272,192,196958,1,0,0:0:0:0:
272,192,197018,1,8,0:0:0:0:
272,192,197078,1,8,0:0:0:0:
272,192,197138,1,8,0:0:0:0:
272,192,197198,1,8,0:0:0:0:
272,192,197258,1,0,0:0:0:0:
272,192,197318,1,0,0:0:0:0:
272,192,197378,1,0,0:0:0:0:
272,192,197438,1,0,0:0:0:0:
272,192,197498,1,8,0:0:0:0:
272,192,197558,1,8,0:0:0:0:
272,192,197618,1,0,0:0:0:0:
272,192,197678,1,0,0:0:0:0:
272,192,197738,1,8,0:0:0:0:
272,192,197798,1,0,0:0:0:0:
272,192,197858,1,0,0:0:0:0:
272,192,197918,1,0,0:0:0:0:
272,192,197978,1,8,0:0:0:0:
272,192,198038,1,0,0:0:0:0:
272,192,198098,1,8,0:0:0:0:
272,192,198158,1,0,0:0:0:0:
272,192,198218,1,8,0:0:0:0:
272,192,198278,1,0,0:0:0:0:
272,192,198338,1,8,0:0:0:0:
272,192,198398,1,0,0:0:0:0:
272,192,198458,1,8,0:0:0:0:
272,192,198518,1,8,0:0:0:0:
272,192,198578,1,0,0:0:0:0:
272,192,198638,1,0,0:0:0:0:
272,192,198698,1,8,0:0:0:0:
272,192,198758,1,0,0:0:0:0:
272,192,198818,1,0,0:0:0:0:
272,192,198878,1,0,0:0:0:0:
272,192,198938,1,8,0:0:0:0:
272,192,198998,1,0,0:0:0:0:
272,192,199058,1,8,0:0:0:0:
272,192,199118,1,0,0:0:0:0:
272,192,199178,1,8,0:0:0:0:
272,192,199238,1,8,0:0:0:0:
272,192,199298,1,8,0:0:0:0:
272,192,199358,1,0,0:0:0:0:
272,192,199418,1,8,0:0:0:0:
272,192,199478,1,8,0:0:0:0:
272,192,199538,1,0,0:0:0:0:
272,192,199598,1,0,0:0:0:0:
272,192,199658,1,8,0:0:0:0:
272,192,199718,1,8,0:0:0:0:
272,192,199778,1,0,0:0:0:0:
272,192,199838,1,0,0:0:0:0:
272,192,199898,1,8,0:0:0:0:
272,192,199958,1,0,0:0:0:0:
272,192,200018,1,8,0:0:0:0:
272,192,200078,1,0,0:0:0:0:
272,192,200138,1,8,0:0:0:0:
272,192,200198,1,0,0:0:0:0:
272,192,200258,1,8,0:0:0:0:
272,192,200318,1,0,0:0:0:0:
272,192,200378,1,8,0:0:0:0:
272,192,200438,1,8,0:0:0:0:
272,192,200498,1,0,0:0:0:0:
272,192,200558,1,0,0:0:0:0:
272,192,200618,1,8,0:0:0:0:
272,192,200678,1,0,0:0:0:0:
272,192,200738,1,8,0:0:0:0:
272,192,200798,1,8,0:0:0:0:
272,192,200858,1,0,0:0:0:0:
272,192,200918,1,0,0:0:0:0:
272,192,200978,1,8,0:0:0:0:
272,192,201038,1,0,0:0:0:0:
272,192,201098,1,8,0:0:0:0:
272,192,201158,1,8,0:0:0:0:
272,192,201218,1,0,0:0:0:0:
272,192,201278,1,0,0:0:0:0:
272,192,201338,1,8,0:0:0:0:
272,192,201398,1,8,0:0:0:0:
272,192,201458,1,0,0:0:0:0:
272,192,201518,1,0,0:0:0:0:
272,192,201578,1,8,0:0:0:0:
272,192,201638,1,8,0:0:0:0:
272,192,201698,1,0,0:0:0:0:
272,192,201758,1,0,0:0:0:0:
272,192,201818,1,8,0:0:0:0:
272,192,201878,1,0,0:0:0:0:
272,192,201938,1,8,0:0:0:0:
272,192,201998,1,0,0:0:0:0:
272,192,202058,1,8,0:0:0:0:
272,192,202118,1,0,0:0:0:0:
272,192,202178,1,8,0:0:0:0:
272,192,202238,1,0,0:0:0:0:
272,192,202298,1,8,0:0:0:0:
272,192,202358,1,8,0:0:0:0:
272,192,202418,1,0,0:0:0:0:
272,192,202478,1,0,0:0:0:0:
272,192,202538,1,8,0:0:0:0:
272,192,202598,1,0,0:0:0:0:
272,192,202658,1,8,0:0:0:0:
272,192,202718,1,0,0:0:0:0:
272,192,202778,1,8,0:0:0:0:
272,192,202838,1,0,0:0:0:0:
272,192,202898,1,8,0:0:0:0:
272,192,202958,1,0,0:0:0:0:
272,192,203018,1,8,0:0:0:0:
272,192,203078,1,8,0:0:0:0:
272,192,203138,1,0,0:0:0:0:
272,192,203198,1,0,0:0:0:0:
272,192,203258,1,8,0:0:0:0:
272,192,203318,1,8,0:0:0:0:
272,192,203378,1,0,0:0:0:0:
272,192,203438,1,0,0:0:0:0:
272,192,203498,1,8,0:0:0:0:
272,192,203558,1,8,0:0:0:0:
272,192,203618,1,0,0:0:0:0:
272,192,203678,1,0,0:0:0:0:
272,192,203738,1,8,0:0:0:0:
272,192,203798,1,0,0:0:0:0:
272,192,203858,1,8,0:0:0:0:
272,192,203918,1,0,0:0:0:0:
272,192,203978,1,8,0:0:0:0:
272,192,204038,1,8,0:0:0:0:
272,192,204098,1,0,0:0:0:0:
272,192,204158,1,0,0:0:0:0:
272,192,204218,1,8,0:0:0:0:
272,192,204278,1,8,0:0:0:0:
272,192,204338,1,0,0:0:0:0:
272,192,204398,1,0,0:0:0:0:
272,192,204458,1,8,0:0:0:0:
272,192,204578,1,0,0:0:0:0:
272,192,204698,1,0,0:0:0:0:
272,192,204818,1,8,0:0:0:0:
272,192,204938,1,0,0:0:0:0:
272,192,205058,1,0,0:0:0:0:
272,192,205178,1,8,0:0:0:0:
272,192,205298,1,0,0:0:0:0:
272,192,205418,1,12,0:0:0:0:
256,192,212618,5,0,0:0:0:0:
256,192,213098,1,8,0:0:0:0:
256,192,213578,1,0,0:0:0:0:
256,192,214058,1,12,0:0:0:0:
256,192,215978,1,4,0:0:0:0:
256,192,216938,1,12,0:0:0:0:
256,192,217058,1,0,0:0:0:0:
256,192,217178,1,0,0:0:0:0:
256,192,217298,1,12,0:0:0:0:
256,192,217418,1,0,0:0:0:0:
256,192,217538,1,0,0:0:0:0:
256,192,217658,1,12,0:0:0:0:
256,192,217778,1,0,0:0:0:0:
256,192,217898,1,4,0:0:0:0:
256,192,218138,1,8,0:0:0:0:
256,192,218258,1,0,0:0:0:0:
256,192,218378,1,8,0:0:0:0:
256,192,218498,1,8,0:0:0:0:
256,192,218618,1,0,0:0:0:0:
256,192,218738,1,8,0:0:0:0:
256,192,218858,1,0,0:0:0:0:
256,192,218978,1,0,0:0:0:0:
256,192,219098,1,8,0:0:0:0:
256,192,219218,1,0,0:0:0:0:
256,192,219338,1,0,0:0:0:0:
256,192,219458,1,8,0:0:0:0:
256,192,219578,1,8,0:0:0:0:
256,192,219698,1,0,0:0:0:0:
256,192,219818,1,8,0:0:0:0:
256,192,219878,1,8,0:0:0:0:
256,192,219938,1,0,0:0:0:0:
256,192,219998,1,8,0:0:0:0:
256,192,220058,1,0,0:0:0:0:
256,192,220178,1,8,0:0:0:0:
256,192,220298,1,0,0:0:0:0:
256,192,220418,1,8,0:0:0:0:
256,192,220538,1,0,0:0:0:0:
256,192,220598,1,0,0:0:0:0:
256,192,220658,1,0,0:0:0:0:
256,192,220718,1,0,0:0:0:0:
256,192,220778,1,8,0:0:0:0:
256,192,220898,1,8,0:0:0:0:
256,192,221018,1,0,0:0:0:0:
256,192,221138,1,0,0:0:0:0:
256,192,221258,1,0,0:0:0:0:
256,192,221378,1,8,0:0:0:0:
256,192,221498,1,0,0:0:0:0:
256,192,221618,1,0,0:0:0:0:
256,192,221738,1,12,0:0:0:0:
256,192,222458,1,4,0:0:0:0:
256,192,222698,1,12,0:0:0:0:
256,192,223418,1,12,0:0:0:0:
256,192,223658,1,4,0:0:0:0:
256,192,224018,1,12,0:0:0:0:
256,192,224378,1,12,0:0:0:0:
256,192,224618,1,4,0:0:0:0:
256,192,225098,1,8,0:0:0:0:
256,192,225578,1,12,0:0:0:0:
256,192,225698,1,0,0:0:0:0:
256,192,225818,1,0,0:0:0:0:
256,192,225938,1,8,0:0:0:0:
256,192,226178,1,0,0:0:0:0:
256,192,226298,1,8,0:0:0:0:
256,192,226418,1,0,0:0:0:0:
256,192,226538,1,8,0:0:0:0:
256,192,226598,1,8,0:0:0:0:
256,192,226658,1,0,0:0:0:0:
256,192,226778,1,0,0:0:0:0:
256,192,226898,1,8,0:0:0:0:
256,192,226958,1,0,0:0:0:0:
256,192,227018,1,0,0:0:0:0:
256,192,227138,1,0,0:0:0:0:
256,192,227258,1,8,0:0:0:0:
256,192,227378,1,0,0:0:0:0:
256,192,227498,1,12,0:0:0:0:
256,192,227978,1,0,0:0:0:0:
256,192,228458,1,8,0:0:0:0:
256,192,228938,1,0,0:0:0:0:
256,192,229418,1,8,0:0:0:0:
256,192,229478,1,0,0:0:0:0:
256,192,229538,1,0,0:0:0:0:
256,192,229598,1,0,0:0:0:0:
256,192,229658,1,8,0:0:0:0:
256,192,229718,1,0,0:0:0:0:
256,192,229778,1,8,0:0:0:0:
256,192,229838,1,0,0:0:0:0:
256,192,229898,1,8,0:0:0:0:
256,192,229958,1,0,0:0:0:0:
256,192,230018,1,0,0:0:0:0:
256,192,230078,1,0,0:0:0:0:
256,192,230138,1,8,0:0:0:0:
256,192,230198,1,8,0:0:0:0:
256,192,230258,1,8,0:0:0:0:
256,192,230318,1,0,0:0:0:0:
256,192,230378,1,8,0:0:0:0:
256,192,230438,1,0,0:0:0:0:
256,192,230498,1,0,0:0:0:0:
256,192,230558,1,0,0:0:0:0:
256,192,230618,1,8,0:0:0:0:
256,192,230678,1,0,0:0:0:0:
256,192,230738,1,8,0:0:0:0:
256,192,230798,1,8,0:0:0:0:
256,192,230858,1,0,0:0:0:0:
256,192,230918,1,8,0:0:0:0:
256,192,230978,1,0,0:0:0:0:
256,192,231038,1,0,0:0:0:0:
256,192,231098,1,8,0:0:0:0:
256,192,231158,1,8,0:0:0:0:
256,192,231218,1,0,0:0:0:0:
256,192,231278,1,0,0:0:0:0:
256,192,231338,1,8,0:0:0:0:
256,192,231398,1,0,0:0:0:0:
256,192,231458,1,0,0:0:0:0:
256,192,231518,1,0,0:0:0:0:
256,192,231578,1,8,0:0:0:0:
256,192,231638,1,8,0:0:0:0:
256,192,231698,1,8,0:0:0:0:
256,192,231758,1,0,0:0:0:0:
256,192,231818,1,8,0:0:0:0:
256,192,231878,1,0,0:0:0:0:
256,192,231938,1,0,0:0:0:0:
256,192,231998,1,0,0:0:0:0:
256,192,232058,1,8,0:0:0:0:
256,192,232118,1,8,0:0:0:0:
256,192,232178,1,0,0:0:0:0:
256,192,232238,1,0,0:0:0:0:
256,192,232298,1,8,0:0:0:0:
256,192,232358,1,0,0:0:0:0:
256,192,232418,1,8,0:0:0:0:
256,192,232478,1,8,0:0:0:0:
256,192,232538,1,0,0:0:0:0:
256,192,232598,1,0,0:0:0:0:
256,192,232658,1,8,0:0:0:0:
256,192,232718,1,0,0:0:0:0:
256,192,232778,1,8,0:0:0:0:
256,192,232838,1,8,0:0:0:0:
256,192,232898,1,0,0:0:0:0:
256,192,232958,1,0,0:0:0:0:
256,192,233018,1,8,0:0:0:0:
256,192,233078,1,8,0:0:0:0:
256,192,233138,1,0,0:0:0:0:
256,192,233198,1,0,0:0:0:0:
256,192,233258,1,8,0:0:0:0:
256,192,233318,1,8,0:0:0:0:
256,192,233378,1,0,0:0:0:0:
256,192,233438,1,8,0:0:0:0:
256,192,233498,1,0,0:0:0:0:
256,192,233558,1,0,0:0:0:0:
256,192,233618,1,8,0:0:0:0:
256,192,233678,1,8,0:0:0:0:
256,192,233738,1,0,0:0:0:0:
256,192,233798,1,8,0:0:0:0:
256,192,233858,1,0,0:0:0:0:
256,192,233918,1,0,0:0:0:0:
256,192,233978,1,8,0:0:0:0:
256,192,234038,1,0,0:0:0:0:
256,192,234098,1,8,0:0:0:0:
256,192,234158,1,0,0:0:0:0:
256,192,234218,1,8,0:0:0:0:
256,192,234278,1,8,0:0:0:0:
256,192,234338,1,0,0:0:0:0:
256,192,234398,1,8,0:0:0:0:
256,192,234458,1,0,0:0:0:0:
256,192,234518,1,0,0:0:0:0:
256,192,234578,1,8,0:0:0:0:
256,192,234638,1,8,0:0:0:0:
256,192,234698,1,0,0:0:0:0:
256,192,234758,1,8,0:0:0:0:
256,192,234818,1,0,0:0:0:0:
256,192,234878,1,0,0:0:0:0:
256,192,234938,1,8,0:0:0:0:
256,192,234998,1,0,0:0:0:0:
256,192,235058,1,8,0:0:0:0:
256,192,235118,1,0,0:0:0:0:
256,192,235178,1,8,0:0:0:0:
256,192,235238,1,8,0:0:0:0:
256,192,235298,1,8,0:0:0:0:
256,192,235358,1,8,0:0:0:0:
256,192,235418,1,0,0:0:0:0:
256,192,235478,1,0,0:0:0:0:
256,192,235538,1,8,0:0:0:0:
256,192,235598,1,8,0:0:0:0:
256,192,235658,1,8,0:0:0:0:
256,192,235718,1,8,0:0:0:0:
256,192,235778,1,0,0:0:0:0:
256,192,235838,1,0,0:0:0:0:
256,192,235898,1,8,0:0:0:0:
256,192,235958,1,0,0:0:0:0:
256,192,236018,1,0,0:0:0:0:
256,192,236078,1,0,0:0:0:0:
256,192,236138,1,8,0:0:0:0:
256,192,236258,1,0,0:0:0:0:
256,192,236318,1,8,0:0:0:0:
256,192,236378,1,8,0:0:0:0:
256,192,236498,1,8,0:0:0:0:
256,192,236618,1,0,0:0:0:0:
256,192,236738,1,0,0:0:0:0:
256,192,236858,1,8,0:0:0:0:
256,192,236978,1,0,0:0:0:0:
256,192,237098,1,4,0:0:0:0:
256,192,237218,1,8,0:0:0:0:
256,192,237278,1,8,0:0:0:0:
256,192,237338,1,0,0:0:0:0:
256,192,237458,1,8,0:0:0:0:
256,192,237578,1,0,0:0:0:0:
256,192,237698,1,8,0:0:0:0:
256,192,237818,1,0,0:0:0:0:
256,192,237938,1,8,0:0:0:0:
256,192,238058,1,0,0:0:0:0:
256,192,238178,1,8,0:0:0:0:
256,192,238238,1,8,0:0:0:0:
256,192,238298,1,0,0:0:0:0:
256,192,238418,1,8,0:0:0:0:
256,192,238538,1,0,0:0:0:0:
256,192,238598,1,0,0:0:0:0:
256,192,238658,1,0,0:0:0:0:
256,192,238718,1,0,0:0:0:0:
256,192,238778,1,8,0:0:0:0:
256,192,238898,1,8,0:0:0:0:
256,192,239018,1,0,0:0:0:0:
256,192,239138,1,8,0:0:0:0:
256,192,239198,1,8,0:0:0:0:
256,192,239258,1,0,0:0:0:0:
256,192,239378,1,8,0:0:0:0:
256,192,239498,1,0,0:0:0:0:
256,192,239618,1,8,0:0:0:0:
256,192,239738,1,0,0:0:0:0:
256,192,239858,1,8,0:0:0:0:
256,192,239978,1,0,0:0:0:0:
256,192,240098,1,8,0:0:0:0:
256,192,240158,1,8,0:0:0:0:
256,192,240218,1,0,0:0:0:0:
256,192,240338,1,8,0:0:0:0:
256,192,240458,1,0,0:0:0:0:
256,192,240518,1,8,0:0:0:0:
256,192,240578,1,8,0:0:0:0:
256,192,240638,1,8,0:0:0:0:
256,192,240698,1,0,0:0:0:0:
256,192,240818,1,8,0:0:0:0:
256,192,240938,1,4,0:0:0:0:
256,192,241058,1,8,0:0:0:0:
256,192,241118,1,8,0:0:0:0:
256,192,241178,1,0,0:0:0:0:
256,192,241298,1,8,0:0:0:0:
256,192,241418,1,0,0:0:0:0:
256,192,241538,1,8,0:0:0:0:
256,192,241658,1,0,0:0:0:0:
256,192,241778,1,8,0:0:0:0:
256,192,241898,1,0,0:0:0:0:
256,192,242018,1,0,0:0:0:0:
256,192,242078,1,0,0:0:0:0:
256,192,242138,1,8,0:0:0:0:
256,192,242258,1,0,0:0:0:0:
256,192,242378,1,8,0:0:0:0:
256,192,242438,1,8,0:0:0:0:
256,192,242498,1,0,0:0:0:0:
256,192,242558,1,0,0:0:0:0:
256,192,242618,1,8,0:0:0:0:
256,192,242738,1,0,0:0:0:0:
256,192,242858,1,8,0:0:0:0:
256,192,242918,1,0,0:0:0:0:
256,192,242978,1,8,0:0:0:0:
256,192,243098,1,0,0:0:0:0:
256,192,243218,1,8,0:0:0:0:
256,192,243278,1,8,0:0:0:0:
256,192,243338,1,8,0:0:0:0:
256,192,243458,1,0,0:0:0:0:
256,192,243518,1,0,0:0:0:0:
256,192,243578,1,8,0:0:0:0:
256,192,243638,1,8,0:0:0:0:
256,192,243698,1,0,0:0:0:0:
256,192,243758,1,0,0:0:0:0:
256,192,243818,1,8,0:0:0:0:
256,192,243878,1,8,0:0:0:0:
256,192,243938,1,8,0:0:0:0:
256,192,243998,1,8,0:0:0:0:
256,192,244058,1,0,0:0:0:0:
256,192,244178,1,8,0:0:0:0:
256,192,244298,1,0,0:0:0:0:
256,192,244418,1,0,0:0:0:0:
256,192,244538,1,8,0:0:0:0:
256,192,244658,1,0,0:0:0:0:
256,192,244778,1,12,0:0:0:0:
256,192,244898,1,0,0:0:0:0:
256,192,244958,1,0,0:0:0:0:
256,192,245018,1,8,0:0:0:0:
256,192,245138,1,0,0:0:0:0:
256,192,245258,1,8,0:0:0:0:
256,192,245378,1,0,0:0:0:0:
256,192,245498,1,8,0:0:0:0:
256,192,245618,1,8,0:0:0:0:
256,192,245678,1,8,0:0:0:0:
256,192,245738,1,8,0:0:0:0:
256,192,245858,1,0,0:0:0:0:
256,192,245978,1,8,0:0:0:0:
256,192,246098,1,0,0:0:0:0:
256,192,246218,1,8,0:0:0:0:
256,192,246278,1,8,0:0:0:0:
256,192,246338,1,0,0:0:0:0:
256,192,246398,1,0,0:0:0:0:
256,192,246458,1,8,0:0:0:0:
256,192,246578,1,0,0:0:0:0:
256,192,246698,1,8,0:0:0:0:
256,192,246758,1,8,0:0:0:0:
256,192,246818,1,0,0:0:0:0:
256,192,246878,1,8,0:0:0:0:
256,192,246938,1,0,0:0:0:0:
256,192,247058,1,0,0:0:0:0:
256,192,247178,1,8,0:0:0:0:
256,192,247298,1,0,0:0:0:0:
256,192,247418,1,8,0:0:0:0:
256,192,247478,1,8,0:0:0:0:
256,192,247538,1,0,0:0:0:0:
256,192,247598,1,8,0:0:0:0:
256,192,247658,1,0,0:0:0:0:
256,192,247778,1,0,0:0:0:0:
256,192,247898,1,8,0:0:0:0:
256,192,248018,1,0,0:0:0:0:
256,192,248138,1,8,0:0:0:0:
256,192,248198,1,8,0:0:0:0:
256,192,248258,1,0,0:0:0:0:
256,192,248318,1,0,0:0:0:0:
256,192,248378,1,8,0:0:0:0:
256,192,248498,1,0,0:0:0:0:
256,192,248618,1,12,0:0:0:0:
256,192,248738,1,0,0:0:0:0:
256,192,248798,1,0,0:0:0:0:
256,192,248858,1,0,0:0:0:0:
256,192,248978,1,0,0:0:0:0:
256,192,249098,1,8,0:0:0:0:
256,192,249218,1,0,0:0:0:0:
256,192,249338,1,8,0:0:0:0:
256,192,249458,1,0,0:0:0:0:
256,192,249578,1,8,0:0:0:0:
256,192,249698,1,8,0:0:0:0:
256,192,249758,1,8,0:0:0:0:
256,192,249818,1,0,0:0:0:0:
256,192,249938,1,8,0:0:0:0:
256,192,250058,1,0,0:0:0:0:
256,192,250178,1,8,0:0:0:0:
256,192,250298,1,0,0:0:0:0:
256,192,250418,1,8,0:0:0:0:
256,192,250538,1,0,0:0:0:0:
256,192,250658,1,0,0:0:0:0:
256,192,250718,1,0,0:0:0:0:
256,192,250778,1,8,0:0:0:0:
256,192,250898,1,0,0:0:0:0:
256,192,251018,1,0,0:0:0:0:
256,192,251138,1,8,0:0:0:0:
256,192,251198,1,0,0:0:0:0:
256,192,251258,1,8,0:0:0:0:
256,192,251378,1,0,0:0:0:0:
256,192,251498,1,8,0:0:0:0:
256,192,251558,1,0,0:0:0:0:
256,192,251618,1,0,0:0:0:0:
256,192,251678,1,0,0:0:0:0:
256,192,251738,1,8,0:0:0:0:
256,192,251858,1,0,0:0:0:0:
256,192,251978,1,0,0:0:0:0:
256,192,252038,1,0,0:0:0:0:
256,192,252098,1,0,0:0:0:0:
256,192,252158,1,0,0:0:0:0:
256,192,252218,1,8,0:0:0:0:
256,192,252338,1,0,0:0:0:0:
256,192,252458,1,12,0:0:0:0:
256,192,252578,1,8,0:0:0:0:
256,192,252638,1,8,0:0:0:0:
256,192,252698,1,0,0:0:0:0:
256,192,252818,1,8,0:0:0:0:
256,192,252938,1,0,0:0:0:0:
256,192,253058,1,8,0:0:0:0:
256,192,253178,1,0,0:0:0:0:
256,192,253298,1,8,0:0:0:0:
256,192,253418,1,0,0:0:0:0:
256,192,253538,1,0,0:0:0:0:
256,192,253598,1,0,0:0:0:0:
256,192,253658,1,8,0:0:0:0:
256,192,253778,1,0,0:0:0:0:
256,192,253898,1,8,0:0:0:0:
256,192,253958,1,8,0:0:0:0:
256,192,254018,1,0,0:0:0:0:
256,192,254078,1,0,0:0:0:0:
256,192,254138,1,8,0:0:0:0:
256,192,254258,1,0,0:0:0:0:
256,192,254378,1,8,0:0:0:0:
256,192,254498,1,8,0:0:0:0:
256,192,254558,1,8,0:0:0:0:
256,192,254618,1,0,0:0:0:0:
256,192,254738,1,8,0:0:0:0:
256,192,254858,1,0,0:0:0:0:
256,192,254978,1,8,0:0:0:0:
256,192,255098,1,0,0:0:0:0:
256,192,255218,1,8,0:0:0:0:
256,192,255338,1,0,0:0:0:0:
256,192,255458,1,0,0:0:0:0:
256,192,255518,1,0,0:0:0:0:
256,192,255578,1,8,0:0:0:0:
256,192,255698,1,0,0:0:0:0:
256,192,255818,1,0,0:0:0:0:
256,192,255878,1,8,0:0:0:0:
256,192,255938,1,0,0:0:0:0:
256,192,255998,1,0,0:0:0:0:
256,192,256058,1,8,0:0:0:0:
256,192,256178,1,0,0:0:0:0:
256,192,256298,1,12,0:0:0:0:
256,192,256418,1,8,0:0:0:0:
256,192,256478,1,8,0:0:0:0:
256,192,256538,1,0,0:0:0:0:
256,192,256658,1,8,0:0:0:0:
256,192,256778,1,0,0:0:0:0:
256,192,256898,1,8,0:0:0:0:
256,192,257018,1,0,0:0:0:0:
256,192,257138,1,8,0:0:0:0:
256,192,257258,1,12,0:0:0:0:
256,192,257378,1,0,0:0:0:0:
256,192,257438,1,0,0:0:0:0:
256,192,257498,1,8,0:0:0:0:
256,192,257618,1,8,0:0:0:0:
256,192,257738,1,0,0:0:0:0:
256,192,257798,1,0,0:0:0:0:
256,192,257858,1,8,0:0:0:0:
256,192,257918,1,0,0:0:0:0:
256,192,257978,1,8,0:0:0:0:
256,192,258098,1,8,0:0:0:0:
256,192,258218,1,4,0:0:0:0:
256,192,258338,1,8,0:0:0:0:
256,192,258398,1,8,0:0:0:0:
256,192,258458,1,0,0:0:0:0:
256,192,258578,1,8,0:0:0:0:
256,192,258698,1,0,0:0:0:0:
256,192,258758,1,0,0:0:0:0:
256,192,258818,1,0,0:0:0:0:
256,192,258878,1,0,0:0:0:0:
256,192,258938,1,8,0:0:0:0:
256,192,259058,1,0,0:0:0:0:
256,192,259178,1,12,0:0:0:0:
256,192,259298,1,8,0:0:0:0:
256,192,259358,1,8,0:0:0:0:
256,192,259418,1,0,0:0:0:0:
256,192,259538,1,8,0:0:0:0:
256,192,259658,1,8,0:0:0:0:
256,192,259778,1,0,0:0:0:0:
256,192,259838,1,0,0:0:0:0:
256,192,259898,1,8,0:0:0:0:
256,192,259958,1,0,0:0:0:0:
256,192,260018,1,8,0:0:0:0:
256,192,260138,1,12,0:0:0:0:
256,192,260258,1,0,0:0:0:0:
256,192,260378,1,0,0:0:0:0:
256,192,260498,1,8,0:0:0:0:
256,192,260618,1,0,0:0:0:0:
256,192,260738,1,0,0:0:0:0:
256,192,260858,1,8,0:0:0:0:
256,192,260978,1,0,0:0:0:0:
256,192,261098,1,12,0:0:0:0:
256,192,261218,1,8,0:0:0:0:
256,192,261338,1,0,0:0:0:0:
256,192,261458,1,8,0:0:0:0:
256,192,261578,1,8,0:0:0:0:
256,192,261698,1,0,0:0:0:0:
256,192,261818,1,8,0:0:0:0:
256,192,261938,1,0,0:0:0:0:
256,192,262058,1,12,0:0:0:0:
256,192,262178,1,0,0:0:0:0:
256,192,262298,1,8,0:0:0:0:
256,192,262418,1,0,0:0:0:0:
256,192,262538,1,8,0:0:0:0:
256,192,262658,1,0,0:0:0:0:
256,192,262778,1,8,0:0:0:0:
256,192,262898,1,0,0:0:0:0:
256,192,263018,1,12,0:0:0:0:
256,192,263138,1,8,0:0:0:0:
256,192,263258,1,0,0:0:0:0:
256,192,263378,1,12,0:0:0:0:
256,192,263498,1,8,0:0:0:0:
256,192,263618,1,0,0:0:0:0:
256,192,263738,1,12,0:0:0:0:
256,192,263858,1,12,0:0:0:0:
