osu file format v14

[General]
AudioFilename: audio.mp3
AudioLeadIn: 0
PreviewTime: 71498
Countdown: 0
SampleSet: Normal
StackLeniency: 0.7
Mode: 1
LetterboxInBreaks: 0
WidescreenStoryboard: 1

[Editor]
Bookmarks: 40298,128618,190058
DistanceSpacing: 0.85
BeatDivisor: 2
GridSize: 32
TimelineZoom: 3.799998

[Metadata]
Title:Shinbatsu o Tadori Kyoukotsu ni Itaru
TitleUnicode:神罰を辿り狂骨に至る
Artist:Imperial Circus Dead Decadence
ArtistUnicode:Imperial Circus Dead Decadence
Creator:Vulkin
Version:Fruko's Muzukashii
Source:osu!
Tags:リブユウキ Rib yuhki Hull KIM KIMI Hellnear 飯塚悠人 Yuto Iizuka Shuhei Kamada icdd 黄泉より聴こゆ、皇国の燈と焔の少女。 Yomi yori Kikoyu, Koukoku no Tou to Honoo no Shoujo. symphonic black metal dojin doujin japanese rock featured artist frukoyurdakul Ulqui
BeatmapID:1331992
BeatmapSetID:616902

[Difficulty]
HPDrainRate:5
CircleSize:2
OverallDifficulty:5
ApproachRate:10
SliderMultiplier:1.4
SliderTickRate:1

[Events]
//Background and Video events
0,0,"howl_at_the_universe_by_nanomortis-da02cbp.png",0,0
//Break Periods
2,205618,212168
//Storyboard Layer 0 (Background)
//Storyboard Layer 1 (Fail)
//Storyboard Layer 2 (Pass)
//Storyboard Layer 3 (Foreground)
//Storyboard Layer 4 (Overlay)
//Storyboard Sound Samples

[TimingPoints]
938,240,4,1,0,70,1,0
40298,-100,4,1,0,70,0,1
47978,-100,4,1,0,70,0,0
57578,-100,4,1,0,70,0,1
71018,-100,4,1,0,70,0,0
72938,-100,4,1,0,70,0,1
88298,-100,4,1,0,70,0,0
92138,-90.9090909090909,4,1,0,70,0,0
92258,-100,4,1,0,70,0,0
95978,-100,4,1,0,70,0,0
126698,-100,4,1,0,70,0,0
128618,-100,4,1,0,70,0,1
136298,-100,4,1,0,70,0,0
143978,-100,4,1,0,70,0,1
157418,-100,4,1,0,70,0,0
159338,-100,4,1,0,70,0,1
174698,-100,4,1,0,70,0,0
182378,-100,4,1,0,70,0,0
197738,-100,4,1,0,70,0,1
205418,-100,4,1,0,70,0,0
229418,-100,4,1,0,70,0,1
244778,-100,4,1,0,70,0,0

[HitObjects]
160,96,5498,5,0,0:0:0:0:
160,288,5738,1,4,0:0:0:0:
352,96,6698,1,8,0:0:0:0:
160,96,6818,1,0,0:0:0:0:
160,96,6938,1,0,0:0:0:0:
352,288,7058,1,12,0:0:0:0:
160,96,7298,1,0,0:0:0:0:
352,288,7418,1,12,0:0:0:0:
160,288,7658,1,4,0:0:0:0:
352,96,7898,1,8,0:0:0:0:
160,96,8138,1,0,0:0:0:0:
160,96,8258,1,0,0:0:0:0:
352,96,8378,1,8,0:0:0:0:
352,96,8618,1,8,0:0:0:0:
160,96,8738,1,0,0:0:0:0:
160,96,8858,1,0,0:0:0:0:
352,96,8978,1,8,0:0:0:0:
160,96,9218,1,0,0:0:0:0:
352,96,9338,1,8,0:0:0:0:
352,96,9458,1,8,0:0:0:0:
160,96,9578,1,0,0:0:0:0:
160,96,9818,1,0,0:0:0:0:
352,96,9938,1,8,0:0:0:0:
352,96,10178,1,8,0:0:0:0:
160,96,10298,1,0,0:0:0:0:
352,96,10538,1,8,0:0:0:0:
160,96,10658,1,0,0:0:0:0:
160,96,10778,1,0,0:0:0:0:
352,96,10898,1,8,0:0:0:0:
352,96,11018,1,8,0:0:0:0:
160,96,11258,1,0,0:0:0:0:
160,288,11498,1,4,0:0:0:0:
160,96,11738,1,0,0:0:0:0:
352,96,11858,1,8,0:0:0:0:
160,96,12098,1,0,0:0:0:0:
352,96,12218,1,8,0:0:0:0:
352,96,12338,1,8,0:0:0:0:
160,96,12458,1,0,0:0:0:0:
352,96,12698,1,8,0:0:0:0:
160,96,12818,1,0,0:0:0:0:
352,96,12938,1,8,0:0:0:0:
352,96,13058,1,8,0:0:0:0:
160,96,13178,1,0,0:0:0:0:
352,96,13418,1,8,0:0:0:0:
160,96,13538,1,0,0:0:0:0:
352,96,13658,1,8,0:0:0:0:
352,96,13778,1,8,0:0:0:0:
352,96,13898,1,8,0:0:0:0:
160,96,14018,1,0,0:0:0:0:
352,96,14138,1,8,0:0:0:0:
352,96,14378,1,8,0:0:0:0:
352,96,14618,1,8,0:0:0:0:
352,96,14738,1,8,0:0:0:0:
160,96,14858,1,0,0:0:0:0:
352,96,15098,1,8,0:0:0:0:
352,96,15218,1,8,0:0:0:0:
160,288,15338,1,4,0:0:0:0:
352,96,15578,1,8,0:0:0:0:
160,96,15698,1,0,0:0:0:0:
160,96,15938,1,0,0:0:0:0:
352,96,16058,1,8,0:0:0:0:
160,96,16178,1,0,0:0:0:0:
352,96,16298,1,8,0:0:0:0:
160,96,16538,1,0,0:0:0:0:
352,96,16778,1,8,0:0:0:0:
352,96,17018,1,8,0:0:0:0:
352,96,17138,1,8,0:0:0:0:
160,96,17258,1,0,0:0:0:0:
352,96,17498,1,8,0:0:0:0:
352,96,17618,1,8,0:0:0:0:
160,96,17858,1,0,0:0:0:0:
352,96,17978,1,8,0:0:0:0:
352,96,18218,1,8,0:0:0:0:
160,96,18458,1,0,0:0:0:0:
352,96,18698,1,8,0:0:0:0:
160,96,18818,1,0,0:0:0:0:
352,96,18938,1,8,0:0:0:0:
160,96,19058,1,0,0:0:0:0:
160,96,19178,1,0,0:0:0:0:
160,96,19418,1,0,0:0:0:0:
352,96,19538,1,8,0:0:0:0:
352,96,19778,1,8,0:0:0:0:
352,96,19898,1,8,0:0:0:0:
160,96,20018,1,0,0:0:0:0:
352,96,20138,1,8,0:0:0:0:
160,96,20378,1,0,0:0:0:0:
352,96,20618,1,8,0:0:0:0:
352,96,20738,1,8,0:0:0:0:
352,96,20858,1,8,0:0:0:0:
160,96,21098,1,0,0:0:0:0:
160,96,21218,1,0,0:0:0:0:
352,96,21338,1,8,0:0:0:0:
160,96,21458,1,0,0:0:0:0:
352,96,21578,1,8,0:0:0:0:
352,96,21818,1,8,0:0:0:0:
352,96,22058,1,8,0:0:0:0:
160,96,22178,1,0,0:0:0:0:
352,96,22298,1,8,0:0:0:0:
352,96,22418,1,8,0:0:0:0:
160,96,22538,1,0,0:0:0:0:
160,96,22658,1,0,0:0:0:0:
352,96,22778,1,8,0:0:0:0:
352,288,23018,1,12,0:0:0:0:
352,288,23138,1,12,0:0:0:0:
352,288,23978,1,12,0:0:0:0:
352,288,24098,1,12,0:0:0:0:
256,192,24458,2,0,L|192:192,4,35
160,288,24938,1,4,0:0:0:0:
160,96,25178,1,0,0:0:0:0:
352,96,25298,1,8,0:0:0:0:
160,96,25538,1,0,0:0:0:0:
352,96,25658,1,8,0:0:0:0:
352,96,25778,1,8,0:0:0:0:
160,96,25898,1,0,0:0:0:0:
352,96,26138,1,8,0:0:0:0:
160,96,26378,1,0,0:0:0:0:
352,96,26498,1,8,0:0:0:0:
160,96,26618,1,0,0:0:0:0:
160,96,26738,1,0,0:0:0:0:
160,96,26858,1,0,0:0:0:0:
352,96,27098,1,8,0:0:0:0:
352,96,27218,1,8,0:0:0:0:
352,96,27458,1,8,0:0:0:0:
160,96,27578,1,0,0:0:0:0:
352,96,27818,1,8,0:0:0:0:
352,96,28058,1,8,0:0:0:0:
160,96,28178,1,0,0:0:0:0:
352,96,28298,1,8,0:0:0:0:
352,96,28418,1,8,0:0:0:0:
160,96,28538,1,0,0:0:0:0:
352,288,28778,1,12,0:0:0:0:
352,96,29018,1,8,0:0:0:0:
160,96,29138,1,0,0:0:0:0:
352,96,29258,1,8,0:0:0:0:
160,96,29498,1,0,0:0:0:0:
352,96,29618,1,8,0:0:0:0:
160,96,29738,1,0,0:0:0:0:
160,96,29978,1,0,0:0:0:0:
352,96,30218,1,8,0:0:0:0:
352,96,30338,1,8,0:0:0:0:
160,96,30458,1,0,0:0:0:0:
160,96,30578,1,0,0:0:0:0:
352,96,30698,1,8,0:0:0:0:
352,96,30938,1,8,0:0:0:0:
160,96,31058,1,0,0:0:0:0:
352,96,31178,1,8,0:0:0:0:
160,96,31298,1,0,0:0:0:0:
352,96,31418,1,8,0:0:0:0:
160,96,31658,1,0,0:0:0:0:
352,96,31778,1,8,0:0:0:0:
352,96,31898,1,8,0:0:0:0:
160,96,32018,1,0,0:0:0:0:
352,96,32138,1,8,0:0:0:0:
160,96,32378,1,0,0:0:0:0:
160,288,32618,1,4,0:0:0:0:
160,96,32858,1,0,0:0:0:0:
352,96,32978,1,8,0:0:0:0:
160,96,33218,1,0,0:0:0:0:
352,96,33338,1,8,0:0:0:0:
352,288,33578,1,12,0:0:0:0:
160,288,33818,1,4,0:0:0:0:
352,288,34058,1,12,0:0:0:0:
352,96,34298,1,8,0:0:0:0:
160,96,34538,1,0,0:0:0:0:
160,96,34658,1,0,0:0:0:0:
160,96,34778,1,0,0:0:0:0:
352,96,34898,1,8,0:0:0:0:
160,96,35138,1,0,0:0:0:0:
352,96,35258,1,8,0:0:0:0:
352,288,35498,1,12,0:0:0:0:
160,96,35738,1,0,0:0:0:0:
352,96,35978,1,8,0:0:0:0:
352,96,36218,1,8,0:0:0:0:
352,96,36338,1,8,0:0:0:0:
160,288,36458,1,4,0:0:0:0:
160,96,36698,1,0,0:0:0:0:
352,96,36818,1,8,0:0:0:0:
160,96,37058,1,0,0:0:0:0:
352,96,37178,1,8,0:0:0:0:
352,96,37298,1,8,0:0:0:0:
352,96,37418,1,8,0:0:0:0:
160,96,37538,1,0,0:0:0:0:
352,96,37658,1,8,0:0:0:0:
352,96,37898,1,8,0:0:0:0:
352,96,38018,1,8,0:0:0:0:
160,96,38138,1,0,0:0:0:0:
160,96,38258,1,0,0:0:0:0:
160,96,38378,1,0,0:0:0:0:
160,96,38618,1,0,0:0:0:0:
352,96,38738,1,8,0:0:0:0:
352,96,38978,1,8,0:0:0:0:
160,96,39098,1,0,0:0:0:0:
160,96,39338,1,0,0:0:0:0:
352,96,39458,1,8,0:0:0:0:
160,96,39698,1,0,0:0:0:0:
352,96,39818,1,8,0:0:0:0:
352,96,39938,1,8,0:0:0:0:
160,96,40058,1,0,0:0:0:0:
352,288,40298,1,12,0:0:0:0:
352,96,40538,1,8,0:0:0:0:
160,96,40658,1,0,0:0:0:0:
352,96,40778,1,8,0:0:0:0:
160,96,41018,1,0,0:0:0:0:
160,96,41138,1,0,0:0:0:0:
352,96,41258,1,8,0:0:0:0:
352,96,41498,1,8,0:0:0:0:
160,96,41618,1,0,0:0:0:0:
352,96,41738,1,8,0:0:0:0:
352,96,41858,1,8,0:0:0:0:
160,96,41978,1,0,0:0:0:0:
352,96,42218,1,8,0:0:0:0:
352,96,42458,1,8,0:0:0:0:
160,96,42578,1,0,0:0:0:0:
352,96,42698,1,8,0:0:0:0:
352,96,42938,1,8,0:0:0:0:
352,96,43178,1,8,0:0:0:0:
160,96,43298,1,0,0:0:0:0:
160,96,43418,1,0,0:0:0:0:
352,96,43538,1,8,0:0:0:0:
160,96,43778,1,0,0:0:0:0:
352,96,43898,1,8,0:0:0:0:
160,96,44018,1,0,0:0:0:0:
352,96,44138,1,8,0:0:0:0:
160,96,44378,1,0,0:0:0:0:
160,96,44498,1,0,0:0:0:0:
352,96,44618,1,8,0:0:0:0:
160,96,44738,1,0,0:0:0:0:
352,96,44858,1,8,0:0:0:0:
352,96,45098,1,8,0:0:0:0:
352,96,45338,1,8,0:0:0:0:
160,96,45458,1,0,0:0:0:0:
160,96,45578,1,0,0:0:0:0:
160,96,45698,1,0,0:0:0:0:
352,96,45818,1,8,0:0:0:0:
352,96,46058,1,8,0:0:0:0:
160,96,46298,1,0,0:0:0:0:
352,96,46418,1,8,0:0:0:0:
160,96,46658,1,0,0:0:0:0:
352,96,46778,1,8,0:0:0:0:
352,96,46898,1,8,0:0:0:0:
160,96,47018,1,0,0:0:0:0:
352,96,47258,1,8,0:0:0:0:
352,96,47378,1,8,0:0:0:0:
160,96,47498,1,0,0:0:0:0:
160,96,47618,1,0,0:0:0:0:
352,96,47738,1,8,0:0:0:0:
352,96,47858,1,8,0:0:0:0:
352,96,47978,1,8,0:0:0:0:
160,96,48218,1,0,0:0:0:0:
352,96,48458,1,8,0:0:0:0:
160,96,48698,1,0,0:0:0:0:
160,96,48818,1,0,0:0:0:0:
352,96,48938,1,8,0:0:0:0:
160,96,49178,1,0,0:0:0:0:
352,96,49418,1,8,0:0:0:0:
160,96,49658,1,0,0:0:0:0:
160,96,49778,1,0,0:0:0:0:
352,96,49898,1,8,0:0:0:0:
160,96,50138,1,0,0:0:0:0:
352,96,50378,1,8,0:0:0:0:
160,96,50618,1,0,0:0:0:0:
352,288,50858,1,12,0:0:0:0:
160,96,51098,1,0,0:0:0:0:
352,288,51218,1,12,0:0:0:0:
160,96,51458,1,0,0:0:0:0:
352,288,51578,1,12,0:0:0:0:
352,288,51818,1,12,0:0:0:0:
160,96,52058,1,0,0:0:0:0:
160,96,52178,1,0,0:0:0:0:
352,96,52298,1,8,0:0:0:0:
160,96,52538,1,0,0:0:0:0:
352,96,52778,1,8,0:0:0:0:
160,96,53018,1,0,0:0:0:0:
160,96,53138,1,0,0:0:0:0:
352,96,53258,1,8,0:0:0:0:
160,96,53498,1,0,0:0:0:0:
352,96,53738,1,8,0:0:0:0:
352,96,53978,1,8,0:0:0:0:
160,96,54098,1,0,0:0:0:0:
352,96,54218,1,8,0:0:0:0:
352,96,54458,1,8,0:0:0:0:
160,96,54698,1,0,0:0:0:0:
160,96,54818,1,0,0:0:0:0:
160,96,54938,1,0,0:0:0:0:
160,96,55178,1,0,0:0:0:0:
160,96,55298,1,0,0:0:0:0:
160,96,55418,1,0,0:0:0:0:
160,96,55538,1,0,0:0:0:0:
160,96,56138,1,0,0:0:0:0:
352,96,56618,1,8,0:0:0:0:
160,96,57098,1,0,0:0:0:0:
160,288,57578,1,4,0:0:0:0:
352,96,57818,1,8,0:0:0:0:
160,96,58178,1,0,0:0:0:0:
352,96,58298,1,8,0:0:0:0:
160,96,58538,1,0,0:0:0:0:
352,96,58778,1,8,0:0:0:0:
160,96,59138,1,0,0:0:0:0:
352,96,59258,1,8,0:0:0:0:
160,96,59498,1,0,0:0:0:0:
352,96,59738,1,8,0:0:0:0:
160,96,60098,1,0,0:0:0:0:
352,96,60218,1,8,0:0:0:0:
160,96,60458,1,0,0:0:0:0:
352,96,60698,1,8,0:0:0:0:
160,96,60938,1,0,0:0:0:0:
160,96,61058,1,0,0:0:0:0:
352,96,61178,1,8,0:0:0:0:
160,96,61418,1,0,0:0:0:0:
352,96,61658,1,8,0:0:0:0:
160,96,61778,1,0,0:0:0:0:
160,96,62018,1,0,0:0:0:0:
352,96,62138,1,8,0:0:0:0:
160,96,62378,1,0,0:0:0:0:
352,96,62618,1,8,0:0:0:0:
160,96,62858,1,0,0:0:0:0:
160,96,62978,1,0,0:0:0:0:
352,96,63098,1,8,0:0:0:0:
160,96,63338,1,0,0:0:0:0:
352,96,63578,1,8,0:0:0:0:
160,96,63698,1,0,0:0:0:0:
160,96,63938,1,0,0:0:0:0:
352,96,64058,1,8,0:0:0:0:
160,96,64178,1,0,0:0:0:0:
160,96,64298,1,0,0:0:0:0:
352,96,64418,1,8,0:0:0:0:
160,96,64658,1,0,0:0:0:0:
352,96,64778,1,8,0:0:0:0:
352,96,65018,1,8,0:0:0:0:
160,96,65138,1,0,0:0:0:0:
160,288,65258,1,4,0:0:0:0:
160,96,65498,1,0,0:0:0:0:
352,96,65618,1,8,0:0:0:0:
352,96,65858,1,8,0:0:0:0:
352,96,65978,1,8,0:0:0:0:
160,96,66218,1,0,0:0:0:0:
160,96,66458,1,0,0:0:0:0:
352,96,66578,1,8,0:0:0:0:
160,96,66698,1,0,0:0:0:0:
352,96,66938,1,8,0:0:0:0:
352,96,67058,1,8,0:0:0:0:
160,96,67178,1,0,0:0:0:0:
160,96,67418,1,0,0:0:0:0:
352,96,67538,1,8,0:0:0:0:
352,96,67778,1,8,0:0:0:0:
160,96,67898,1,0,0:0:0:0:
352,96,68138,1,8,0:0:0:0:
352,96,68258,1,8,0:0:0:0:
160,96,68378,1,0,0:0:0:0:
352,288,68618,1,12,0:0:0:0:
160,96,68858,1,0,0:0:0:0:
160,96,68978,1,0,0:0:0:0:
352,96,69098,1,8,0:0:0:0:
352,96,69218,1,8,0:0:0:0:
352,96,69458,1,8,0:0:0:0:
352,96,69578,1,8,0:0:0:0:
352,96,69818,1,8,0:0:0:0:
352,96,69938,1,8,0:0:0:0:
352,96,70058,1,8,0:0:0:0:
160,96,70178,1,0,0:0:0:0:
160,96,70298,1,0,0:0:0:0:
352,96,70418,1,8,0:0:0:0:
160,96,70658,1,0,0:0:0:0:
352,96,70778,1,8,0:0:0:0:
352,288,71018,1,12,0:0:0:0:
160,96,71498,1,0,0:0:0:0:
352,96,71978,1,8,0:0:0:0:
160,96,72458,1,0,0:0:0:0:
160,288,72938,1,4,0:0:0:0:
352,96,73178,1,8,0:0:0:0:
160,96,73298,1,0,0:0:0:0:
352,96,73418,1,8,0:0:0:0:
160,96,73538,1,0,0:0:0:0:
352,96,73658,1,8,0:0:0:0:
352,96,73898,1,8,0:0:0:0:
160,96,74018,1,0,0:0:0:0:
352,96,74138,1,8,0:0:0:0:
352,96,74258,1,8,0:0:0:0:
160,96,74498,1,0,0:0:0:0:
352,96,74618,1,8,0:0:0:0:
352,96,74738,1,8,0:0:0:0:
352,96,74858,1,8,0:0:0:0:
160,96,75098,1,0,0:0:0:0:
160,96,75218,1,0,0:0:0:0:
352,96,75338,1,8,0:0:0:0:
160,96,75458,1,0,0:0:0:0:
352,96,75578,1,8,0:0:0:0:
352,96,75818,1,8,0:0:0:0:
160,96,75938,1,0,0:0:0:0:
160,96,76058,1,0,0:0:0:0:
352,96,76178,1,8,0:0:0:0:
352,96,76298,1,8,0:0:0:0:
352,96,76538,1,8,0:0:0:0:
352,96,76778,1,8,0:0:0:0:
160,96,76898,1,0,0:0:0:0:
160,96,77018,1,0,0:0:0:0:
352,96,77138,1,8,0:0:0:0:
160,96,77378,1,0,0:0:0:0:
352,96,77498,1,8,0:0:0:0:
352,96,77738,1,8,0:0:0:0:
160,96,77858,1,0,0:0:0:0:
352,96,77978,1,8,0:0:0:0:
160,96,78098,1,0,0:0:0:0:
352,96,78218,1,8,0:0:0:0:
160,96,78458,1,0,0:0:0:0:
352,96,78698,1,8,0:0:0:0:
160,96,78818,1,0,0:0:0:0:
160,96,78938,1,0,0:0:0:0:
352,96,79058,1,8,0:0:0:0:
160,96,79298,1,0,0:0:0:0:
352,96,79418,1,8,0:0:0:0:
160,96,79658,1,0,0:0:0:0:
352,96,79778,1,8,0:0:0:0:
352,96,79898,1,8,0:0:0:0:
160,96,80018,1,0,0:0:0:0:
160,96,80138,1,0,0:0:0:0:
160,96,80378,1,0,0:0:0:0:
160,288,80618,1,4,0:0:0:0:
160,96,80858,1,0,0:0:0:0:
352,96,80978,1,8,0:0:0:0:
160,96,81098,1,0,0:0:0:0:
352,96,81338,1,8,0:0:0:0:
160,96,81458,1,0,0:0:0:0:
352,96,81578,1,8,0:0:0:0:
160,96,81818,1,0,0:0:0:0:
352,96,82058,1,8,0:0:0:0:
160,96,82178,1,0,0:0:0:0:
352,96,82298,1,8,0:0:0:0:
352,96,82418,1,8,0:0:0:0:
160,96,82538,1,0,0:0:0:0:
352,96,82778,1,8,0:0:0:0:
160,96,82898,1,0,0:0:0:0:
352,96,83018,1,8,0:0:0:0:
160,96,83258,1,0,0:0:0:0:
352,96,83378,1,8,0:0:0:0:
160,96,83498,1,0,0:0:0:0:
352,96,83738,1,8,0:0:0:0:
352,96,83978,1,8,0:0:0:0:
160,96,84098,1,0,0:0:0:0:
352,96,84218,1,8,0:0:0:0:
352,96,84338,1,8,0:0:0:0:
160,288,84458,1,4,0:0:0:0:
160,96,84698,1,0,0:0:0:0:
352,96,84818,1,8,0:0:0:0:
160,96,84938,1,0,0:0:0:0:
352,96,85178,1,8,0:0:0:0:
160,96,85298,1,0,0:0:0:0:
352,96,85418,1,8,0:0:0:0:
160,96,85658,1,0,0:0:0:0:
352,96,85898,1,8,0:0:0:0:
352,96,86018,1,8,0:0:0:0:
160,96,86138,1,0,0:0:0:0:
352,96,86378,1,8,0:0:0:0:
160,96,86498,1,0,0:0:0:0:
352,96,86618,1,8,0:0:0:0:
352,96,86738,1,8,0:0:0:0:
160,96,86978,1,0,0:0:0:0:
352,96,87098,1,8,0:0:0:0:
352,96,87218,1,8,0:0:0:0:
352,96,87338,1,8,0:0:0:0:
160,96,87458,1,0,0:0:0:0:
160,96,87578,1,0,0:0:0:0:
352,96,87698,1,8,0:0:0:0:
160,96,87938,1,0,0:0:0:0:
352,96,88058,1,8,0:0:0:0:
352,96,88178,1,8,0:0:0:0:
160,288,88298,1,4,0:0:0:0:
160,288,92138,1,4,0:0:0:0:
352,96,94058,1,8,0:0:0:0:
160,96,94178,1,0,0:0:0:0:
160,96,94298,1,0,0:0:0:0:
352,96,94418,1,8,0:0:0:0:
160,96,94658,1,0,0:0:0:0:
352,96,94778,1,8,0:0:0:0:
160,96,94898,1,0,0:0:0:0:
160,96,95018,1,0,0:0:0:0:
352,96,95138,1,8,0:0:0:0:
160,96,95378,1,0,0:0:0:0:
352,96,95498,1,8,0:0:0:0:
160,96,95618,1,0,0:0:0:0:
160,96,95738,1,0,0:0:0:0:
352,288,95978,1,12,0:0:0:0:
160,96,96218,1,0,0:0:0:0:
352,96,96458,1,8,0:0:0:0:
160,96,96578,1,0,0:0:0:0:
352,96,96698,1,8,0:0:0:0:
352,96,96938,1,8,0:0:0:0:
160,96,97178,1,0,0:0:0:0:
352,96,97418,1,8,0:0:0:0:
160,96,97658,1,0,0:0:0:0:
352,96,97778,1,8,0:0:0:0:
352,96,97898,1,8,0:0:0:0:
352,96,98138,1,8,0:0:0:0:
160,96,98258,1,0,0:0:0:0:
352,96,98378,1,8,0:0:0:0:
160,96,98618,1,0,0:0:0:0:
352,96,98858,1,8,0:0:0:0:
160,96,99098,1,0,0:0:0:0:
160,96,99218,1,0,0:0:0:0:
352,96,99338,1,8,0:0:0:0:
352,96,99578,1,8,0:0:0:0:
160,96,99698,1,0,0:0:0:0:
352,96,99818,1,8,0:0:0:0:
160,96,100058,1,0,0:0:0:0:
160,96,100178,1,0,0:0:0:0:
352,96,100298,1,8,0:0:0:0:
160,96,100538,1,0,0:0:0:0:
352,96,100778,1,8,0:0:0:0:
352,96,100898,1,8,0:0:0:0:
160,96,101018,1,0,0:0:0:0:
352,96,101258,1,8,0:0:0:0:
160,96,101498,1,0,0:0:0:0:
352,96,101738,1,8,0:0:0:0:
160,96,101978,1,0,0:0:0:0:
352,96,102098,1,8,0:0:0:0:
160,96,102218,1,0,0:0:0:0:
160,96,102338,1,0,0:0:0:0:
352,96,102458,1,8,0:0:0:0:
352,96,102698,1,8,0:0:0:0:
352,96,102818,1,8,0:0:0:0:
160,96,102938,1,0,0:0:0:0:
352,288,103178,1,12,0:0:0:0:
352,288,103418,1,12,0:0:0:0:
160,288,103658,1,4,0:0:0:0:
160,96,103898,1,0,0:0:0:0:
160,96,104018,1,0,0:0:0:0:
352,96,104138,1,8,0:0:0:0:
352,96,104378,1,8,0:0:0:0:
160,96,104498,1,0,0:0:0:0:
352,96,104618,1,8,0:0:0:0:
160,96,104858,1,0,0:0:0:0:
352,96,105098,1,8,0:0:0:0:
160,96,105218,1,0,0:0:0:0:
160,96,105338,1,0,0:0:0:0:
352,96,105578,1,8,0:0:0:0:
160,96,105818,1,0,0:0:0:0:
160,96,105938,1,0,0:0:0:0:
352,96,106058,1,8,0:0:0:0:
352,96,106298,1,8,0:0:0:0:
160,96,106418,1,0,0:0:0:0:
352,96,106538,1,8,0:0:0:0:
352,96,106658,1,8,0:0:0:0:
160,96,106778,1,0,0:0:0:0:
352,96,107018,1,8,0:0:0:0:
352,96,107138,1,8,0:0:0:0:
352,96,107258,1,8,0:0:0:0:
352,96,107498,1,8,0:0:0:0:
160,96,107738,1,0,0:0:0:0:
352,96,107858,1,8,0:0:0:0:
352,96,107978,1,8,0:0:0:0:
160,96,108218,1,0,0:0:0:0:
352,96,108458,1,8,0:0:0:0:
160,96,108578,1,0,0:0:0:0:
160,96,108818,1,0,0:0:0:0:
352,96,108938,1,8,0:0:0:0:
352,96,109178,1,8,0:0:0:0:
160,96,109298,1,0,0:0:0:0:
352,96,109418,1,8,0:0:0:0:
352,96,109538,1,8,0:0:0:0:
160,96,109658,1,0,0:0:0:0:
352,96,109898,1,8,0:0:0:0:
160,96,110138,1,0,0:0:0:0:
160,96,110258,1,0,0:0:0:0:
352,96,110378,1,8,0:0:0:0:
160,96,110618,1,0,0:0:0:0:
352,288,110858,1,12,0:0:0:0:
160,288,111098,1,4,0:0:0:0:
352,288,111338,1,12,0:0:0:0:
160,96,111578,1,0,0:0:0:0:
160,96,111698,1,0,0:0:0:0:
160,96,111818,1,0,0:0:0:0:
352,96,112058,1,8,0:0:0:0:
352,96,112298,1,8,0:0:0:0:
160,96,112538,1,0,0:0:0:0:
352,96,112658,1,8,0:0:0:0:
160,96,112898,1,0,0:0:0:0:
352,96,113018,1,8,0:0:0:0:
352,96,113258,1,8,0:0:0:0:
160,96,113498,1,0,0:0:0:0:
160,96,113618,1,0,0:0:0:0:
160,96,113738,1,0,0:0:0:0:
352,96,113978,1,8,0:0:0:0:
352,96,114098,1,8,0:0:0:0:
352,96,114218,1,8,0:0:0:0:
160,96,114458,1,0,0:0:0:0:
352,96,114578,1,8,0:0:0:0:
160,96,114818,1,0,0:0:0:0:
352,96,114938,1,8,0:0:0:0:
352,96,115178,1,8,0:0:0:0:
160,96,115418,1,0,0:0:0:0:
160,96,115538,1,0,0:0:0:0:
160,96,115778,1,0,0:0:0:0:
160,96,115898,1,0,0:0:0:0:
160,96,116018,1,0,0:0:0:0:
352,96,116138,1,8,0:0:0:0:
160,96,116378,1,0,0:0:0:0:
160,96,116618,1,0,0:0:0:0:
160,96,116738,1,0,0:0:0:0:
352,96,116858,1,8,0:0:0:0:
352,96,117098,1,8,0:0:0:0:
160,96,117338,1,0,0:0:0:0:
352,96,117458,1,8,0:0:0:0:
160,96,117698,1,0,0:0:0:0:
352,96,117818,1,8,0:0:0:0:
352,96,118058,1,8,0:0:0:0:
160,96,118298,1,0,0:0:0:0:
352,96,118538,1,8,0:0:0:0:
160,96,118658,1,0,0:0:0:0:
160,96,118778,1,0,0:0:0:0:
160,96,118898,1,0,0:0:0:0:
352,96,119018,1,8,0:0:0:0:
160,96,119258,1,0,0:0:0:0:
352,96,119378,1,8,0:0:0:0:
160,96,119618,1,0,0:0:0:0:
352,96,119738,1,8,0:0:0:0:
352,96,119978,1,8,0:0:0:0:
352,96,120218,1,8,0:0:0:0:
160,96,120338,1,0,0:0:0:0:
352,96,120458,1,8,0:0:0:0:
352,96,120578,1,8,0:0:0:0:
160,96,120698,1,0,0:0:0:0:
352,96,120938,1,8,0:0:0:0:
160,96,121058,1,0,0:0:0:0:
352,96,121178,1,8,0:0:0:0:
160,96,121298,1,0,0:0:0:0:
352,96,121538,1,8,0:0:0:0:
352,96,121658,1,8,0:0:0:0:
160,96,121778,1,0,0:0:0:0:
352,96,121898,1,8,0:0:0:0:
160,96,122138,1,0,0:0:0:0:
352,96,122258,1,8,0:0:0:0:
352,96,122378,1,8,0:0:0:0:
160,96,122498,1,0,0:0:0:0:
160,96,122618,1,0,0:0:0:0:
160,96,122858,1,0,0:0:0:0:
160,96,123098,1,0,0:0:0:0:
352,96,123218,1,8,0:0:0:0:
352,96,123338,1,8,0:0:0:0:
352,96,123578,1,8,0:0:0:0:
160,96,123698,1,0,0:0:0:0:
352,96,123818,1,8,0:0:0:0:
160,96,124058,1,0,0:0:0:0:
160,96,124298,1,0,0:0:0:0:
352,96,124418,1,8,0:0:0:0:
352,96,124538,1,8,0:0:0:0:
160,96,124658,1,0,0:0:0:0:
352,96,124778,1,8,0:0:0:0:
160,96,125018,1,0,0:0:0:0:
160,96,125138,1,0,0:0:0:0:
352,96,125258,1,8,0:0:0:0:
352,96,125498,1,8,0:0:0:0:
160,96,125618,1,0,0:0:0:0:
352,96,125738,1,8,0:0:0:0:
352,96,125858,1,8,0:0:0:0:
160,96,125978,1,0,0:0:0:0:
160,96,126218,1,0,0:0:0:0:
352,96,126338,1,8,0:0:0:0:
160,96,126458,1,0,0:0:0:0:
160,96,126698,1,0,0:0:0:0:
352,96,126818,1,8,0:0:0:0:
352,96,126938,1,8,0:0:0:0:
352,96,127178,1,8,0:0:0:0:
352,96,127298,1,8,0:0:0:0:
160,96,127418,1,0,0:0:0:0:
352,96,127538,1,8,0:0:0:0:
160,96,127658,1,0,0:0:0:0:
160,96,127898,1,0,0:0:0:0:
160,96,128018,1,0,0:0:0:0:
160,96,128138,1,0,0:0:0:0:
352,96,128378,1,8,0:0:0:0:
352,288,128618,1,12,0:0:0:0:
352,96,128858,1,8,0:0:0:0:
160,96,128978,1,0,0:0:0:0:
352,96,129098,1,8,0:0:0:0:
160,96,129338,1,0,0:0:0:0:
160,96,129458,1,0,0:0:0:0:
352,96,129578,1,8,0:0:0:0:
352,96,129818,1,8,0:0:0:0:
160,96,129938,1,0,0:0:0:0:
352,96,130058,1,8,0:0:0:0:
352,96,130178,1,8,0:0:0:0:
160,96,130298,1,0,0:0:0:0:
352,96,130538,1,8,0:0:0:0:
352,96,130778,1,8,0:0:0:0:
160,96,130898,1,0,0:0:0:0:
352,96,131018,1,8,0:0:0:0:
352,96,131258,1,8,0:0:0:0:
352,96,131498,1,8,0:0:0:0:
160,96,131618,1,0,0:0:0:0:
160,96,131738,1,0,0:0:0:0:
352,96,131858,1,8,0:0:0:0:
160,96,132098,1,0,0:0:0:0:
352,96,132218,1,8,0:0:0:0:
160,96,132338,1,0,0:0:0:0:
352,96,132458,1,8,0:0:0:0:
160,96,132698,1,0,0:0:0:0:
160,96,132818,1,0,0:0:0:0:
352,96,132938,1,8,0:0:0:0:
160,96,133058,1,0,0:0:0:0:
352,96,133178,1,8,0:0:0:0:
352,96,133418,1,8,0:0:0:0:
352,96,133658,1,8,0:0:0:0:
160,96,133778,1,0,0:0:0:0:
160,96,133898,1,0,0:0:0:0:
160,96,134018,1,0,0:0:0:0:
352,96,134138,1,8,0:0:0:0:
352,96,134378,1,8,0:0:0:0:
160,96,134618,1,0,0:0:0:0:
352,96,134738,1,8,0:0:0:0:
160,96,134978,1,0,0:0:0:0:
352,96,135098,1,8,0:0:0:0:
352,96,135218,1,8,0:0:0:0:
160,96,135338,1,0,0:0:0:0:
352,96,135578,1,8,0:0:0:0:
352,96,135698,1,8,0:0:0:0:
160,96,135818,1,0,0:0:0:0:
160,96,135938,1,0,0:0:0:0:
352,96,136058,1,8,0:0:0:0:
352,96,136178,1,8,0:0:0:0:
352,96,136298,1,8,0:0:0:0:
160,96,136538,1,0,0:0:0:0:
352,96,136778,1,8,0:0:0:0:
160,96,137018,1,0,0:0:0:0:
160,96,137138,1,0,0:0:0:0:
352,96,137258,1,8,0:0:0:0:
160,96,137498,1,0,0:0:0:0:
352,96,137738,1,8,0:0:0:0:
160,96,137978,1,0,0:0:0:0:
160,96,138098,1,0,0:0:0:0:
352,96,138218,1,8,0:0:0:0:
160,96,138458,1,0,0:0:0:0:
352,96,138698,1,8,0:0:0:0:
160,96,138938,1,0,0:0:0:0:
352,288,139178,1,12,0:0:0:0:
160,96,139418,1,0,0:0:0:0:
352,288,139538,1,12,0:0:0:0:
160,96,139778,1,0,0:0:0:0:
352,288,139898,1,12,0:0:0:0:
352,288,140138,1,12,0:0:0:0:
160,96,140378,1,0,0:0:0:0:
160,96,140498,1,0,0:0:0:0:
352,96,140618,1,8,0:0:0:0:
160,96,140858,1,0,0:0:0:0:
352,96,141098,1,8,0:0:0:0:
160,96,141338,1,0,0:0:0:0:
160,96,141458,1,0,0:0:0:0:
352,96,141578,1,8,0:0:0:0:
160,96,141818,1,0,0:0:0:0:
352,96,142058,1,8,0:0:0:0:
352,96,142298,1,8,0:0:0:0:
160,96,142418,1,0,0:0:0:0:
352,96,142538,1,8,0:0:0:0:
352,96,142778,1,8,0:0:0:0:
160,96,143018,1,0,0:0:0:0:
160,96,143138,1,0,0:0:0:0:
160,96,143258,1,0,0:0:0:0:
160,96,143498,1,0,0:0:0:0:
160,96,143618,1,0,0:0:0:0:
160,96,143738,1,0,0:0:0:0:
160,288,143978,1,4,0:0:0:0:
352,96,144218,1,8,0:0:0:0:
160,96,144578,1,0,0:0:0:0:
352,96,144698,1,8,0:0:0:0:
160,96,144938,1,0,0:0:0:0:
352,96,145178,1,8,0:0:0:0:
160,96,145538,1,0,0:0:0:0:
352,96,145658,1,8,0:0:0:0:
160,96,145898,1,0,0:0:0:0:
352,96,146138,1,8,0:0:0:0:
160,96,146498,1,0,0:0:0:0:
352,96,146618,1,8,0:0:0:0:
160,96,146858,1,0,0:0:0:0:
352,96,147098,1,8,0:0:0:0:
160,96,147338,1,0,0:0:0:0:
160,96,147458,1,0,0:0:0:0:
352,96,147578,1,8,0:0:0:0:
160,96,147818,1,0,0:0:0:0:
352,96,148058,1,8,0:0:0:0:
160,96,148178,1,0,0:0:0:0:
160,96,148418,1,0,0:0:0:0:
352,96,148538,1,8,0:0:0:0:
160,96,148778,1,0,0:0:0:0:
352,96,149018,1,8,0:0:0:0:
160,96,149258,1,0,0:0:0:0:
160,96,149378,1,0,0:0:0:0:
352,96,149498,1,8,0:0:0:0:
160,96,149738,1,0,0:0:0:0:
352,96,149978,1,8,0:0:0:0:
160,96,150098,1,0,0:0:0:0:
160,96,150338,1,0,0:0:0:0:
352,96,150458,1,8,0:0:0:0:
160,96,150578,1,0,0:0:0:0:
160,96,150698,1,0,0:0:0:0:
352,96,150818,1,8,0:0:0:0:
160,96,151058,1,0,0:0:0:0:
352,96,151178,1,8,0:0:0:0:
352,96,151418,1,8,0:0:0:0:
160,96,151538,1,0,0:0:0:0:
160,288,151658,1,4,0:0:0:0:
160,96,151898,1,0,0:0:0:0:
352,96,152018,1,8,0:0:0:0:
352,96,152258,1,8,0:0:0:0:
352,96,152378,1,8,0:0:0:0:
160,96,152618,1,0,0:0:0:0:
160,96,152858,1,0,0:0:0:0:
352,96,152978,1,8,0:0:0:0:
160,96,153098,1,0,0:0:0:0:
352,96,153338,1,8,0:0:0:0:
352,96,153458,1,8,0:0:0:0:
160,96,153578,1,0,0:0:0:0:
160,96,153818,1,0,0:0:0:0:
352,96,153938,1,8,0:0:0:0:
352,96,154178,1,8,0:0:0:0:
160,96,154298,1,0,0:0:0:0:
352,96,154538,1,8,0:0:0:0:
352,96,154658,1,8,0:0:0:0:
160,96,154778,1,0,0:0:0:0:
352,288,155018,1,12,0:0:0:0:
160,96,155258,1,0,0:0:0:0:
160,96,155378,1,0,0:0:0:0:
352,96,155498,1,8,0:0:0:0:
352,96,155618,1,8,0:0:0:0:
352,96,155858,1,8,0:0:0:0:
352,96,155978,1,8,0:0:0:0:
352,96,156218,1,8,0:0:0:0:
352,96,156338,1,8,0:0:0:0:
352,96,156458,1,8,0:0:0:0:
160,96,156578,1,0,0:0:0:0:
160,96,156698,1,0,0:0:0:0:
352,96,156818,1,8,0:0:0:0:
160,96,157058,1,0,0:0:0:0:
352,96,157178,1,8,0:0:0:0:
352,96,157418,1,8,0:0:0:0:
352,96,157538,1,8,0:0:0:0:
160,96,157658,1,0,0:0:0:0:
352,96,157898,1,8,0:0:0:0:
352,96,158018,1,8,0:0:0:0:
352,96,158138,1,8,0:0:0:0:
160,96,158378,1,0,0:0:0:0:
160,96,158498,1,0,0:0:0:0:
160,96,158618,1,0,0:0:0:0:
160,96,158858,1,0,0:0:0:0:
352,288,159098,1,12,0:0:0:0:
160,288,159338,1,4,0:0:0:0:
352,96,159458,1,8,0:0:0:0:
352,96,159698,1,8,0:0:0:0:
352,96,159938,1,8,0:0:0:0:
352,96,160178,1,8,0:0:0:0:
160,96,160298,1,0,0:0:0:0:
352,96,160418,1,8,0:0:0:0:
160,96,160538,1,0,0:0:0:0:
352,96,160658,1,8,0:0:0:0:
352,96,160898,1,8,0:0:0:0:
352,96,161138,1,8,0:0:0:0:
160,96,161258,1,0,0:0:0:0:
352,96,161378,1,8,0:0:0:0:
352,96,161618,1,8,0:0:0:0:
352,96,161858,1,8,0:0:0:0:
160,96,161978,1,0,0:0:0:0:
352,96,162098,1,8,0:0:0:0:
352,96,162218,1,8,0:0:0:0:
352,96,162338,1,8,0:0:0:0:
352,96,162578,1,8,0:0:0:0:
160,96,162698,1,0,0:0:0:0:
352,96,162818,1,8,0:0:0:0:
352,96,163058,1,8,0:0:0:0:
160,96,163178,1,0,0:0:0:0:
352,96,163298,1,8,0:0:0:0:
352,96,163538,1,8,0:0:0:0:
160,96,163658,1,0,0:0:0:0:
160,96,163898,1,0,0:0:0:0:
352,96,164018,1,8,0:0:0:0:
160,96,164138,1,0,0:0:0:0:
352,96,164258,1,8,0:0:0:0:
352,96,164498,1,8,0:0:0:0:
352,96,164738,1,8,0:0:0:0:
160,96,164858,1,0,0:0:0:0:
352,96,164978,1,8,0:0:0:0:
160,96,165098,1,0,0:0:0:0:
352,96,165218,1,8,0:0:0:0:
352,96,165458,1,8,0:0:0:0:
160,96,165578,1,0,0:0:0:0:
160,96,165698,1,0,0:0:0:0:
160,96,165818,1,0,0:0:0:0:
352,96,166058,1,8,0:0:0:0:
352,96,166178,1,8,0:0:0:0:
160,96,166298,1,0,0:0:0:0:
160,96,166538,1,0,0:0:0:0:
160,96,166658,1,0,0:0:0:0:
160,96,166778,1,0,0:0:0:0:
160,288,167018,1,4,0:0:0:0:
352,96,167258,1,8,0:0:0:0:
160,96,167378,1,0,0:0:0:0:
352,96,167498,1,8,0:0:0:0:
352,96,167618,1,8,0:0:0:0:
160,96,167738,1,0,0:0:0:0:
352,96,167978,1,8,0:0:0:0:
352,96,168098,1,8,0:0:0:0:
160,96,168218,1,0,0:0:0:0:
160,96,168338,1,0,0:0:0:0:
352,96,168458,1,8,0:0:0:0:
352,96,168698,1,8,0:0:0:0:
352,96,168938,1,8,0:0:0:0:
160,96,169058,1,0,0:0:0:0:
352,96,169178,1,8,0:0:0:0:
352,96,169418,1,8,0:0:0:0:
352,96,169538,1,8,0:0:0:0:
160,96,169658,1,0,0:0:0:0:
352,96,169898,1,8,0:0:0:0:
160,96,170018,1,0,0:0:0:0:
160,96,170138,1,0,0:0:0:0:
352,96,170378,1,8,0:0:0:0:
160,96,170498,1,0,0:0:0:0:
352,96,170618,1,8,0:0:0:0:
352,96,170738,1,8,0:0:0:0:
352,96,170858,1,8,0:0:0:0:
352,96,171098,1,8,0:0:0:0:
160,96,171218,1,0,0:0:0:0:
352,96,171338,1,8,0:0:0:0:
160,96,171458,1,0,0:0:0:0:
352,96,171578,1,8,0:0:0:0:
352,96,171818,1,8,0:0:0:0:
160,96,171938,1,0,0:0:0:0:
160,96,172058,1,0,0:0:0:0:
352,96,172298,1,8,0:0:0:0:
160,96,172538,1,0,0:0:0:0:
160,96,172658,1,0,0:0:0:0:
352,96,172778,1,8,0:0:0:0:
160,96,172898,1,0,0:0:0:0:
160,96,173018,1,0,0:0:0:0:
352,96,173138,1,8,0:0:0:0:
352,96,173378,1,8,0:0:0:0:
352,96,173498,1,8,0:0:0:0:
352,96,173618,1,8,0:0:0:0:
160,96,173738,1,0,0:0:0:0:
160,96,173978,1,0,0:0:0:0:
352,96,174098,1,8,0:0:0:0:
160,96,174218,1,0,0:0:0:0:
160,96,174338,1,0,0:0:0:0:
352,96,174458,1,8,0:0:0:0:
352,96,174578,1,8,0:0:0:0:
160,288,174698,1,4,0:0:0:0:
352,96,174938,1,8,0:0:0:0:
160,96,175178,1,0,0:0:0:0:
160,96,175298,1,0,0:0:0:0:
352,96,175418,1,8,0:0:0:0:
352,96,175658,1,8,0:0:0:0:
160,96,175778,1,0,0:0:0:0:
160,96,175898,1,0,0:0:0:0:
352,96,176018,1,8,0:0:0:0:
160,96,176258,1,0,0:0:0:0:
352,96,176378,1,8,0:0:0:0:
352,96,176498,1,8,0:0:0:0:
160,96,176618,1,0,0:0:0:0:
160,96,176858,1,0,0:0:0:0:
352,96,176978,1,8,0:0:0:0:
352,96,177218,1,8,0:0:0:0:
160,96,177338,1,0,0:0:0:0:
352,96,177578,1,8,0:0:0:0:
160,96,177698,1,0,0:0:0:0:
160,96,177818,1,0,0:0:0:0:
352,96,177938,1,8,0:0:0:0:
352,96,178058,1,8,0:0:0:0:
160,96,178298,1,0,0:0:0:0:
160,288,178538,1,4,0:0:0:0:
160,96,178778,1,0,0:0:0:0:
352,96,178898,1,8,0:0:0:0:
160,96,179138,1,0,0:0:0:0:
352,96,179258,1,8,0:0:0:0:
352,96,179378,1,8,0:0:0:0:
160,96,179498,1,0,0:0:0:0:
352,96,179738,1,8,0:0:0:0:
160,96,179858,1,0,0:0:0:0:
352,96,179978,1,8,0:0:0:0:
352,96,180098,1,8,0:0:0:0:
160,96,180218,1,0,0:0:0:0:
352,96,180458,1,8,0:0:0:0:
160,96,180578,1,0,0:0:0:0:
352,96,180698,1,8,0:0:0:0:
352,96,180818,1,8,0:0:0:0:
352,96,180938,1,8,0:0:0:0:
160,96,181058,1,0,0:0:0:0:
352,96,181178,1,8,0:0:0:0:
352,96,181418,1,8,0:0:0:0:
352,96,181658,1,8,0:0:0:0:
352,96,181778,1,8,0:0:0:0:
160,96,181898,1,0,0:0:0:0:
352,96,182138,1,8,0:0:0:0:
352,96,182258,1,8,0:0:0:0:
160,288,182378,1,4,0:0:0:0:
352,96,182618,1,8,0:0:0:0:
160,96,182858,1,0,0:0:0:0:
352,96,183098,1,8,0:0:0:0:
160,96,183338,1,0,0:0:0:0:
352,96,183578,1,8,0:0:0:0:
160,96,183818,1,0,0:0:0:0:
352,96,184058,1,8,0:0:0:0:
160,96,184298,1,0,0:0:0:0:
352,96,184538,1,8,0:0:0:0:
160,96,184778,1,0,0:0:0:0:
352,96,185018,1,8,0:0:0:0:
160,96,185258,1,0,0:0:0:0:
352,96,185498,1,8,0:0:0:0:
160,96,185738,1,0,0:0:0:0:
352,96,185978,1,8,0:0:0:0:
352,96,186098,1,8,0:0:0:0:
160,96,186218,1,0,0:0:0:0:
352,96,186458,1,8,0:0:0:0:
160,96,186698,1,0,0:0:0:0:
352,96,186938,1,8,0:0:0:0:
160,96,187178,1,0,0:0:0:0:
352,96,187418,1,8,0:0:0:0:
160,96,187658,1,0,0:0:0:0:
352,96,187898,1,8,0:0:0:0:
160,96,188018,1,0,0:0:0:0:
160,96,188138,1,0,0:0:0:0:
352,96,188378,1,8,0:0:0:0:
160,96,188498,1,0,0:0:0:0:
160,96,188738,1,0,0:0:0:0:
352,96,188858,1,8,0:0:0:0:
352,96,188978,1,8,0:0:0:0:
160,96,189098,1,0,0:0:0:0:
352,96,189218,1,8,0:0:0:0:
160,96,189458,1,0,0:0:0:0:
352,96,189578,1,8,0:0:0:0:
352,96,189698,1,8,0:0:0:0:
160,96,189818,1,0,0:0:0:0:
352,288,190058,1,12,0:0:0:0:
352,96,190298,1,8,0:0:0:0:
160,96,190418,1,0,0:0:0:0:
352,96,190538,1,8,0:0:0:0:
160,96,190778,1,0,0:0:0:0:
160,96,190898,1,0,0:0:0:0:
352,96,191018,1,8,0:0:0:0:
352,96,191258,1,8,0:0:0:0:
160,96,191378,1,0,0:0:0:0:
352,96,191498,1,8,0:0:0:0:
352,96,191618,1,8,0:0:0:0:
160,96,191738,1,0,0:0:0:0:
352,96,191978,1,8,0:0:0:0:
352,96,192218,1,8,0:0:0:0:
160,96,192338,1,0,0:0:0:0:
352,96,192458,1,8,0:0:0:0:
352,96,192698,1,8,0:0:0:0:
352,96,192938,1,8,0:0:0:0:
160,96,193058,1,0,0:0:0:0:
160,96,193178,1,0,0:0:0:0:
352,96,193298,1,8,0:0:0:0:
160,96,193538,1,0,0:0:0:0:
352,96,193658,1,8,0:0:0:0:
160,96,193778,1,0,0:0:0:0:
352,96,193898,1,8,0:0:0:0:
160,96,194138,1,0,0:0:0:0:
160,96,194258,1,0,0:0:0:0:
352,96,194378,1,8,0:0:0:0:
160,96,194498,1,0,0:0:0:0:
352,96,194618,1,8,0:0:0:0:
352,96,194858,1,8,0:0:0:0:
352,96,195098,1,8,0:0:0:0:
160,96,195218,1,0,0:0:0:0:
160,96,195338,1,0,0:0:0:0:
160,96,195458,1,0,0:0:0:0:
352,96,195578,1,8,0:0:0:0:
352,96,195818,1,8,0:0:0:0:
160,96,196058,1,0,0:0:0:0:
352,96,196178,1,8,0:0:0:0:
160,96,196418,1,0,0:0:0:0:
352,96,196538,1,8,0:0:0:0:
352,96,196658,1,8,0:0:0:0:
160,96,196778,1,0,0:0:0:0:
352,96,197018,1,8,0:0:0:0:
352,96,197138,1,8,0:0:0:0:
160,96,197258,1,0,0:0:0:0:
160,96,197378,1,0,0:0:0:0:
352,96,197498,1,8,0:0:0:0:
352,288,197738,1,12,0:0:0:0:
352,96,197978,1,8,0:0:0:0:
160,96,198098,1,0,0:0:0:0:
352,96,198218,1,8,0:0:0:0:
352,96,198338,1,8,0:0:0:0:
160,96,198458,1,0,0:0:0:0:
352,288,198698,1,12,0:0:0:0:
352,96,198938,1,8,0:0:0:0:
352,96,199058,1,8,0:0:0:0:
160,96,199178,1,0,0:0:0:0:
352,96,199298,1,8,0:0:0:0:
160,96,199418,1,0,0:0:0:0:
352,288,199658,1,12,0:0:0:0:
352,96,199898,1,8,0:0:0:0:
352,96,200018,1,8,0:0:0:0:
352,96,200138,1,8,0:0:0:0:
352,96,200258,1,8,0:0:0:0:
160,96,200378,1,0,0:0:0:0:
352,288,200618,1,12,0:0:0:0:
160,96,200858,1,0,0:0:0:0:
352,288,200978,1,12,0:0:0:0:
160,96,201218,1,0,0:0:0:0:
352,288,201338,1,12,0:0:0:0:
352,288,201578,1,12,0:0:0:0:
352,96,201818,1,8,0:0:0:0:
160,96,201938,1,0,0:0:0:0:
352,96,202058,1,8,0:0:0:0:
352,96,202178,1,8,0:0:0:0:
160,96,202298,1,0,0:0:0:0:
352,288,202538,1,12,0:0:0:0:
352,96,202778,1,8,0:0:0:0:
352,96,202898,1,8,0:0:0:0:
160,96,203018,1,0,0:0:0:0:
352,96,203138,1,8,0:0:0:0:
160,96,203258,1,0,0:0:0:0:
352,288,203498,1,12,0:0:0:0:
160,96,203738,1,0,0:0:0:0:
352,96,203858,1,8,0:0:0:0:
352,96,203978,1,8,0:0:0:0:
352,96,204098,1,8,0:0:0:0:
160,96,204218,1,0,0:0:0:0:
352,96,204458,1,8,0:0:0:0:
352,96,204578,1,8,0:0:0:0:
160,96,204698,1,0,0:0:0:0:
352,96,204938,1,8,0:0:0:0:
160,96,205058,1,0,0:0:0:0:
160,96,205178,1,0,0:0:0:0:
160,288,205418,1,4,0:0:0:0:
160,96,212618,5,0,0:0:0:0:
352,96,213098,1,8,0:0:0:0:
160,96,213578,1,0,0:0:0:0:
160,288,214058,1,4,0:0:0:0:
160,288,215978,1,4,0:0:0:0:
352,96,216938,1,8,0:0:0:0:
160,96,217058,1,0,0:0:0:0:
160,96,217178,1,0,0:0:0:0:
352,96,217298,1,8,0:0:0:0:
160,96,217538,1,0,0:0:0:0:
352,96,217658,1,8,0:0:0:0:
160,96,217778,1,0,0:0:0:0:
160,96,217898,1,0,0:0:0:0:
160,96,218138,1,0,0:0:0:0:
160,96,218378,1,0,0:0:0:0:
160,96,218618,1,0,0:0:0:0:
352,96,218858,1,8,0:0:0:0:
160,96,219098,1,0,0:0:0:0:
160,96,219218,1,0,0:0:0:0:
160,96,219338,1,0,0:0:0:0:
160,96,219578,1,0,0:0:0:0:
352,96,219818,1,8,0:0:0:0:
352,96,219938,1,8,0:0:0:0:
160,96,220298,1,0,0:0:0:0:
352,96,220418,1,8,0:0:0:0:
160,96,220658,1,0,0:0:0:0:
160,96,220778,1,0,0:0:0:0:
352,96,220898,1,8,0:0:0:0:
160,96,221138,1,0,0:0:0:0:
160,96,221258,1,0,0:0:0:0:
352,96,221378,1,8,0:0:0:0:
352,96,221498,1,8,0:0:0:0:
160,288,221738,1,4,0:0:0:0:
352,288,222458,1,12,0:0:0:0:
352,288,222698,1,12,0:0:0:0:
352,288,223418,1,12,0:0:0:0:
352,288,223658,1,12,0:0:0:0:
352,288,224018,1,12,0:0:0:0:
160,288,224378,1,4,0:0:0:0:
352,288,224618,1,12,0:0:0:0:
160,96,225578,1,0,0:0:0:0:
160,96,225698,1,0,0:0:0:0:
160,96,225818,1,0,0:0:0:0:
352,96,225938,1,8,0:0:0:0:
160,96,226178,1,0,0:0:0:0:
160,96,226298,1,0,0:0:0:0:
352,96,226418,1,8,0:0:0:0:
352,96,226538,1,8,0:0:0:0:
160,96,226778,1,0,0:0:0:0:
352,96,226898,1,8,0:0:0:0:
160,96,227138,1,0,0:0:0:0:
352,96,227258,1,8,0:0:0:0:
160,288,227498,1,4,0:0:0:0:
160,96,227978,1,0,0:0:0:0:
352,96,228458,1,8,0:0:0:0:
160,96,228938,1,0,0:0:0:0:
160,288,229418,1,4,0:0:0:0:
352,96,229658,1,8,0:0:0:0:
160,96,229778,1,0,0:0:0:0:
352,96,229898,1,8,0:0:0:0:
160,96,230018,1,0,0:0:0:0:
352,96,230138,1,8,0:0:0:0:
352,96,230378,1,8,0:0:0:0:
160,96,230498,1,0,0:0:0:0:
352,96,230618,1,8,0:0:0:0:
352,96,230738,1,8,0:0:0:0:
160,96,230978,1,0,0:0:0:0:
352,96,231098,1,8,0:0:0:0:
352,96,231218,1,8,0:0:0:0:
352,96,231338,1,8,0:0:0:0:
160,96,231578,1,0,0:0:0:0:
160,96,231698,1,0,0:0:0:0:
352,96,231818,1,8,0:0:0:0:
160,96,231938,1,0,0:0:0:0:
352,96,232058,1,8,0:0:0:0:
352,96,232298,1,8,0:0:0:0:
160,96,232418,1,0,0:0:0:0:
160,96,232538,1,0,0:0:0:0:
352,96,232658,1,8,0:0:0:0:
352,96,232778,1,8,0:0:0:0:
352,96,233018,1,8,0:0:0:0:
352,96,233258,1,8,0:0:0:0:
160,96,233378,1,0,0:0:0:0:
160,96,233498,1,0,0:0:0:0:
352,96,233618,1,8,0:0:0:0:
160,96,233858,1,0,0:0:0:0:
352,96,233978,1,8,0:0:0:0:
352,96,234218,1,8,0:0:0:0:
160,96,234338,1,0,0:0:0:0:
352,96,234458,1,8,0:0:0:0:
160,96,234578,1,0,0:0:0:0:
352,96,234698,1,8,0:0:0:0:
160,96,234938,1,0,0:0:0:0:
352,96,235178,1,8,0:0:0:0:
160,96,235298,1,0,0:0:0:0:
160,96,235418,1,0,0:0:0:0:
352,96,235538,1,8,0:0:0:0:
160,96,235778,1,0,0:0:0:0:
352,96,235898,1,8,0:0:0:0:
160,96,236138,1,0,0:0:0:0:
352,96,236258,1,8,0:0:0:0:
352,96,236378,1,8,0:0:0:0:
160,96,236498,1,0,0:0:0:0:
160,96,236618,1,0,0:0:0:0:
160,96,236858,1,0,0:0:0:0:
160,96,236978,1,0,0:0:0:0:
160,288,237098,1,4,0:0:0:0:
160,96,237338,1,0,0:0:0:0:
352,96,237458,1,8,0:0:0:0:
160,96,237578,1,0,0:0:0:0:
352,96,237818,1,8,0:0:0:0:
160,96,237938,1,0,0:0:0:0:
352,96,238058,1,8,0:0:0:0:
160,96,238298,1,0,0:0:0:0:
352,96,238538,1,8,0:0:0:0:
160,96,238658,1,0,0:0:0:0:
352,96,238778,1,8,0:0:0:0:
352,96,238898,1,8,0:0:0:0:
160,96,239018,1,0,0:0:0:0:
352,96,239258,1,8,0:0:0:0:
160,96,239378,1,0,0:0:0:0:
352,96,239498,1,8,0:0:0:0:
160,96,239738,1,0,0:0:0:0:
352,96,239858,1,8,0:0:0:0:
160,96,239978,1,0,0:0:0:0:
352,96,240218,1,8,0:0:0:0:
352,96,240458,1,8,0:0:0:0:
160,96,240578,1,0,0:0:0:0:
352,96,240698,1,8,0:0:0:0:
352,96,240818,1,8,0:0:0:0:
160,288,240938,1,4,0:0:0:0:
160,96,241178,1,0,0:0:0:0:
352,96,241298,1,8,0:0:0:0:
160,96,241418,1,0,0:0:0:0:
352,96,241658,1,8,0:0:0:0:
160,96,241778,1,0,0:0:0:0:
352,96,241898,1,8,0:0:0:0:
160,96,242138,1,0,0:0:0:0:
352,96,242378,1,8,0:0:0:0:
352,96,242498,1,8,0:0:0:0:
160,96,242618,1,0,0:0:0:0:
352,96,242858,1,8,0:0:0:0:
160,96,242978,1,0,0:0:0:0:
352,96,243098,1,8,0:0:0:0:
352,96,243218,1,8,0:0:0:0:
160,96,243458,1,0,0:0:0:0:
352,96,243578,1,8,0:0:0:0:
352,96,243698,1,8,0:0:0:0:
352,96,243818,1,8,0:0:0:0:
160,96,243938,1,0,0:0:0:0:
160,96,244058,1,0,0:0:0:0:
352,96,244178,1,8,0:0:0:0:
160,96,244418,1,0,0:0:0:0:
352,96,244538,1,8,0:0:0:0:
352,96,244658,1,8,0:0:0:0:
160,288,244778,1,4,0:0:0:0:
160,96,245018,1,0,0:0:0:0:
352,96,245138,1,8,0:0:0:0:
160,96,245258,1,0,0:0:0:0:
352,96,245498,1,8,0:0:0:0:
160,96,245738,1,0,0:0:0:0:
352,96,245858,1,8,0:0:0:0:
160,96,245978,1,0,0:0:0:0:
352,96,246098,1,8,0:0:0:0:
352,96,246338,1,8,0:0:0:0:
160,96,246458,1,0,0:0:0:0:
352,96,246578,1,8,0:0:0:0:
160,96,246698,1,0,0:0:0:0:
352,96,246938,1,8,0:0:0:0:
160,96,247058,1,0,0:0:0:0:
352,96,247178,1,8,0:0:0:0:
160,96,247418,1,0,0:0:0:0:
352,96,247658,1,8,0:0:0:0:
160,96,247778,1,0,0:0:0:0:
352,96,247898,1,8,0:0:0:0:
160,96,248018,1,0,0:0:0:0:
352,96,248258,1,8,0:0:0:0:
160,96,248378,1,0,0:0:0:0:
160,96,248618,1,0,0:0:0:0:
160,96,248858,1,0,0:0:0:0:
352,96,248978,1,8,0:0:0:0:
352,96,249098,1,8,0:0:0:0:
160,96,249338,1,0,0:0:0:0:
352,96,249458,1,8,0:0:0:0:
160,96,249578,1,0,0:0:0:0:
352,96,249698,1,8,0:0:0:0:
352,96,249938,1,8,0:0:0:0:
160,96,250058,1,0,0:0:0:0:
352,96,250298,1,8,0:0:0:0:
160,96,250538,1,0,0:0:0:0:
352,96,250658,1,8,0:0:0:0:
160,96,250778,1,0,0:0:0:0:
352,96,251018,1,8,0:0:0:0:
160,96,251138,1,0,0:0:0:0:
352,96,251258,1,8,0:0:0:0:
352,96,251378,1,8,0:0:0:0:
160,96,251498,1,0,0:0:0:0:
160,96,251738,1,0,0:0:0:0:
352,96,251858,1,8,0:0:0:0:
352,96,252218,1,8,0:0:0:0:
352,96,252338,1,8,0:0:0:0:
160,288,252458,1,4,0:0:0:0:
160,96,252698,1,0,0:0:0:0:
352,96,252818,1,8,0:0:0:0:
160,96,252938,1,0,0:0:0:0:
352,96,253178,1,8,0:0:0:0:
352,96,253418,1,8,0:0:0:0:
160,96,253658,1,0,0:0:0:0:
352,96,253778,1,8,0:0:0:0:
352,96,253898,1,8,0:0:0:0:
160,96,254138,1,0,0:0:0:0:
352,96,254378,1,8,0:0:0:0:
352,96,254618,1,8,0:0:0:0:
160,96,254738,1,0,0:0:0:0:
352,96,254858,1,8,0:0:0:0:
160,96,255098,1,0,0:0:0:0:
352,96,255338,1,8,0:0:0:0:
160,96,255578,1,0,0:0:0:0:
352,96,255698,1,8,0:0:0:0:
160,96,255818,1,0,0:0:0:0:
352,96,256058,1,8,0:0:0:0:
352,96,256178,1,8,0:0:0:0:
160,288,256298,1,4,0:0:0:0:
160,96,256538,1,0,0:0:0:0:
352,96,256658,1,8,0:0:0:0:
160,96,256778,1,0,0:0:0:0:
352,96,257018,1,8,0:0:0:0:
160,288,257258,1,4,0:0:0:0:
160,96,257498,1,0,0:0:0:0:
352,96,257618,1,8,0:0:0:0:
352,96,257858,1,8,0:0:0:0:
160,96,257978,1,0,0:0:0:0:
352,288,258218,1,12,0:0:0:0:
160,96,258458,1,0,0:0:0:0:
352,96,258578,1,8,0:0:0:0:
160,96,258698,1,0,0:0:0:0:
352,96,258938,1,8,0:0:0:0:
352,96,259058,1,8,0:0:0:0:
160,96,259178,1,0,0:0:0:0:
352,96,259298,1,8,0:0:0:0:
160,96,259418,1,0,0:0:0:0:
160,96,259658,1,0,0:0:0:0:
160,96,259778,1,0,0:0:0:0:
352,96,259898,1,8,0:0:0:0:
160,288,260138,1,4,0:0:0:0:
160,96,260378,1,0,0:0:0:0:
352,96,260618,1,8,0:0:0:0:
160,96,260858,1,0,0:0:0:0:
352,96,261098,1,8,0:0:0:0:
160,96,261338,1,0,0:0:0:0:
160,96,261458,1,0,0:0:0:0:
352,96,261578,1,8,0:0:0:0:
160,96,261818,1,0,0:0:0:0:
352,96,262058,1,8,0:0:0:0:
352,96,262178,1,8,0:0:0:0:
160,96,262418,1,0,0:0:0:0:
160,96,262538,1,0,0:0:0:0:
352,96,262778,1,8,0:0:0:0:
352,96,262898,1,8,0:0:0:0:
160,96,263018,1,0,0:0:0:0:
160,96,263138,1,0,0:0:0:0:
160,96,263378,1,0,0:0:0:0:
352,96,263618,1,8,0:0:0:0:
352,96,263738,1,8,0:0:0:0:
352,96,263858,1,8,0:0:0:0:
