osu file format v14

[General]
AudioFilename: audio.mp3
AudioLeadIn: 0
PreviewTime: 159330
Countdown: 1
SampleSet: Soft
StackLeniency: 0.7
Mode: 0
LetterboxInBreaks: 0
WidescreenStoryboard: 0

[Editor]
Bookmarks: 15330,40290,44130,47010,47970,55650,72930,78690,82530,110850,159330,197730,204450
DistanceSpacing: 1.5
BeatDivisor: 4
GridSize: 32
TimelineZoom: 2.699999

[Metadata]
Title:Shinbatsu o Tadori Kyoukotsu ni Itaru
TitleUnicode:神罰を辿り狂骨に至る
Artist:Imperial Circus Dead Decadence
ArtistUnicode:Imperial Circus Dead Decadence
Creator:Najmsb
Version:.
Source:
Tags:
BeatmapID:2668838
BeatmapSetID:1285383

[Difficulty]
HPDrainRate:5
CircleSize:4
OverallDifficulty:9.6
ApproachRate:9.8
SliderMultiplier:1.6
SliderTickRate:1

[Events]
//Background and Video events
0,0,"sport.jpg",0,0
//Break Periods
2,89330,91651
//Storyboard Layer 0 (Background)
//Storyboard Layer 1 (Fail)
//Storyboard Layer 2 (Pass)
//Storyboard Layer 3 (Foreground)
//Storyboard Layer 4 (Overlay)
//Storyboard Sound Samples

[TimingPoints]
5730,240,4,2,0,5,1,0
15330,-200,4,2,0,5,0,0
16290,-100,4,2,0,5,0,0
16770,-200,4,2,0,5,0,0
17250,-100,4,2,0,5,0,0
18690,-200,4,2,0,5,0,0
19050,-100,4,2,0,5,0,0
20610,-200,4,2,0,5,0,0
20970,-100,4,2,0,5,0,0
21570,-200,4,2,0,5,0,0
21930,-100,4,2,0,5,0,0
26370,-83.3333333333333,4,2,0,5,0,0
26730,-100,4,2,0,5,0,0
36450,-83.3333333333333,4,2,0,5,0,0
39810,-200,4,2,0,5,0,0
40290,-117.647058823529,4,2,0,5,0,0
44130,-142.857142857143,4,2,0,5,0,0
44850,-100,4,2,0,5,0,0
45330,-142.857142857143,4,2,0,5,0,0
47010,-200,4,2,0,5,0,0
47970,-133.333333333333,4,2,0,5,0,0
53730,-100,4,2,0,5,0,0
56130,-200,4,2,0,5,0,0
57570,-117.647058823529,4,2,0,5,0,0
64410,-200,4,2,0,5,0,0
64650,-117.647058823529,4,2,0,5,0,0
65250,-100,4,2,0,5,0,0
69750,-133.333333333333,4,2,0,5,0,0
70050,-333.333333333333,4,2,0,5,0,0
70290,-100,4,2,0,5,0,0
71010,-76.9230769230769,4,2,0,5,0,0
71490,-500,4,2,0,5,0,0
72930,-200,4,2,0,5,0,0
74850,-153.846153846154,4,2,0,5,0,0
75810,-200,4,2,0,5,0,0
76770,-333.333333333333,4,2,0,5,0,0
78690,-133.333333333333,4,2,0,5,0,0
79770,-83.3333333333333,4,2,0,5,0,0
80610,-100,4,2,0,5,0,0
87330,-133.333333333333,4,2,0,5,0,0
87570,-100,4,2,0,5,0,0
87810,-133.333333333333,4,2,0,5,0,0
88290,-200,4,2,0,5,0,0
94050,-100,4,2,0,5,0,0

[Colours]
Combo1 : 57,199,50
Combo2 : 220,160,200
Combo3 : 255,230,140
Combo4 : 17,61,234

[HitObjects]
112,118,5490,5,0,0:0:0:0:
112,118,5730,2,0,B|149:117|150:88|227:183|229:144|284:137,3,160
170,233,6690,5,0,0:0:0:0:
170,233,6750,1,0,0:0:0:0:
170,233,6810,1,0,0:0:0:0:
170,233,6870,1,0,0:0:0:0:
170,233,6930,1,0,0:0:0:0:
170,233,6990,1,0,0:0:0:0:
170,233,7050,6,0,P|230:233|269:232,1,80
384,145,7290,1,0,0:0:0:0:
328,312,7410,2,0,P|288:312|248:312,1,80
42,328,7650,6,0,P|95:312|124:307,1,80
403,246,7890,2,0,P|350:230|321:225,1,80
46,141,8130,2,0,P|84:153|123:161,1,80
406,59,8370,2,0,P|367:71|328:79,1,80
160,241,8610,5,0,0:0:0:0:
256,53,8730,1,0,0:0:0:0:
251,225,8850,1,0,0:0:0:0:
163,20,8970,1,0,0:0:0:0:
321,163,9090,2,0,B|371:167|400:179|400:179|404:235|396:271,1,160
505,151,9450,5,0,0:0:0:0:
376,331,9570,2,0,P|392:299|395:230,1,80
401,72,9810,1,0,0:0:0:0:
490,266,9930,2,0,P|484:305|467:341,1,80
397,180,10170,1,0,0:0:0:0:
506,41,10290,2,0,P|472:19|433:9,1,80
155,31,10530,6,0,L|162:131,1,80
140,310,10770,1,0,0:0:0:0:
274,162,10890,1,0,0:0:0:0:
34,167,11010,1,0,0:0:0:0:
230,305,11130,1,0,0:0:0:0:
160,110,11250,2,0,L|155:31,1,80
430,210,11490,6,0,L|345:220,1,80
88,372,11730,2,0,L|167:362,1,80
455,345,11970,2,0,L|375:335,1,80
81,210,12210,2,0,L|166:220,1,80
384,267,12450,5,0,0:0:0:0:
177,89,12570,1,0,0:0:0:0:
256,266,12690,1,0,0:0:0:0:
100,52,12810,1,0,0:0:0:0:
384,186,12930,2,0,P|461:250|368:349,1,240
98,297,13410,6,0,P|163:295|179:296,1,80
463,184,13650,2,0,P|398:186|382:185,1,80
49,184,13890,2,0,P|114:186|130:185,1,80
395,348,14130,2,0,P|330:346|314:347,1,80
30,290,14370,6,0,L|81:272,4,40
1,261,14670,2,0,P|22:216|55:187,1,80
76,216,14850,2,0,L|127:198,4,40
43,194,15150,2,0,L|66:161,1,40
98,138,15330,5,0,0:0:0:0:
116,129,15390,1,0,0:0:0:0:
134,121,15450,1,0,0:0:0:0:
152,113,15510,1,0,0:0:0:0:
160,94,15570,5,0,0:0:0:0:
179,100,15630,1,0,0:0:0:0:
198,106,15690,1,0,0:0:0:0:
217,112,15750,1,0,0:0:0:0:
235,118,15810,1,0,0:0:0:0:
255,124,15870,1,0,0:0:0:0:
274,130,15930,1,0,0:0:0:0:
293,136,15990,1,0,0:0:0:0:
305,152,16050,5,0,0:0:0:0:
323,145,16110,1,0,0:0:0:0:
342,138,16170,1,0,0:0:0:0:
361,131,16230,1,0,0:0:0:0:
380,126,16290,6,0,L|410:188,1,40
512,277,16410,2,0,L|494:313,1,40
351,384,16530,2,0,L|333:347,1,40
219,233,16650,2,0,L|236:196,1,40
261,15,16770,5,0,0:0:0:0:
243,48,16830,1,0,0:0:0:0:
223,28,16890,1,0,0:0:0:0:
205,61,16950,1,0,0:0:0:0:
185,41,17010,1,0,0:0:0:0:
167,75,17070,1,0,0:0:0:0:
147,54,17130,1,0,0:0:0:0:
129,88,17190,1,0,0:0:0:0:
119,65,17250,6,0,L|118:114,1,40
31,313,17370,2,0,L|32:264,1,40
0,72,17490,6,0,L|13:119,1,40
149,288,17610,2,0,L|135:240,1,40
287,33,17730,6,0,L|273:80,1,40
137,249,17850,2,0,L|150:201,1,40
175,2,17970,6,0,L|185:47,1,40
321,216,18090,2,0,L|307:168,1,40
123,118,18210,6,0,L|176:125,1,40
402,107,18330,2,0,L|349:100,1,40
137,249,18450,6,0,L|190:242,1,40
416,260,18570,2,0,L|363:267,1,40
170,332,18690,5,0,0:0:0:0:
150,334,18750,1,0,0:0:0:0:
130,337,18810,1,0,0:0:0:0:
110,340,18870,1,0,0:0:0:0:
90,343,18930,1,0,0:0:0:0:
71,346,18990,1,0,0:0:0:0:
51,351,19050,6,0,L|40:301,1,40
0,210,19170,5,0,0:0:0:0:
6,190,19230,1,0,0:0:0:0:
13,172,19290,1,0,0:0:0:0:
20,154,19350,1,0,0:0:0:0:
12,135,19410,5,0,0:0:0:0:
30,125,19470,1,0,0:0:0:0:
48,116,19530,1,0,0:0:0:0:
65,107,19590,1,0,0:0:0:0:
83,98,19650,1,0,0:0:0:0:
101,89,19710,1,0,0:0:0:0:
118,79,19770,1,0,0:0:0:0:
136,70,19830,1,0,0:0:0:0:
156,73,19890,5,0,0:0:0:0:
164,55,19950,1,0,0:0:0:0:
172,37,20010,1,0,0:0:0:0:
181,19,20070,1,0,0:0:0:0:
189,0,20130,6,0,L|236:39,1,40
401,200,20250,2,0,L|354:161,1,40
346,0,20370,2,0,L|299:39,1,40
134,200,20490,2,0,L|181:161,1,40
360,98,20610,5,0,0:0:0:0:
393,99,20670,1,0,0:0:0:0:
389,70,20730,1,0,0:0:0:0:
422,71,20790,1,0,0:0:0:0:
418,43,20850,1,0,0:0:0:0:
451,44,20910,1,0,0:0:0:0:
445,14,20970,6,0,L|478:47,1,40
507,182,21090,2,0,L|446:181,1,40
284,184,21210,2,0,L|313:221,1,40
461,357,21330,2,0,L|400:356,1,40
209,300,21450,2,0,L|234:332,1,40
389,215,21570,5,0,0:0:0:0:
403,189,21630,1,0,0:0:0:0:
379,176,21690,1,0,0:0:0:0:
393,150,21750,1,0,0:0:0:0:
370,137,21810,1,0,0:0:0:0:
384,111,21870,1,0,0:0:0:0:
360,98,21930,6,0,L|313:111,1,40
141,141,22050,5,0,0:0:0:0:
130,158,22110,1,0,0:0:0:0:
120,175,22170,1,0,0:0:0:0:
109,193,22230,1,0,0:0:0:0:
99,209,22290,1,0,0:0:0:0:
88,227,22350,1,0,0:0:0:0:
78,244,22410,6,0,L|120:268,1,40
294,339,22530,5,0,0:0:0:0:
310,334,22590,1,0,0:0:0:0:
325,330,22650,1,0,0:0:0:0:
341,326,22710,1,0,0:0:0:0:
356,323,22770,1,0,0:0:0:0:
372,319,22830,1,0,0:0:0:0:
387,315,22890,6,0,L|376:277,1,40
254,48,23010,6,0,L|229:109,1,40
172,294,23130,2,0,L|221:274,1,40
179,66,23970,6,0,L|190:132,1,40
240,339,24090,2,0,L|251:273,1,40
336,370,24450,5,0,0:0:0:0:
336,370,24510,1,0,0:0:0:0:
336,370,24570,1,0,0:0:0:0:
336,370,24630,1,0,0:0:0:0:
336,370,24690,1,0,0:0:0:0:
149,212,24930,5,0,0:0:0:0:
175,380,25050,1,0,0:0:0:0:
228,179,25170,2,0,P|171:134|150:131,1,80
377,46,25410,2,0,P|434:1|455:-2,1,80
450,213,25650,2,0,P|507:258|528:261,1,80
303,110,25890,5,0,0:0:0:0:
304,328,26010,1,0,0:0:0:0:
374,163,26130,1,0,0:0:0:0:
436,378,26250,1,0,0:0:0:0:
226,161,26370,2,0,P|179:136|214:209,1,191.999994140625
512,171,26730,5,0,0:0:0:0:
351,384,26850,2,0,P|367:352|370:283,1,80
337,97,27090,1,0,0:0:0:0:
459,302,27210,2,0,P|453:341|436:377,1,80
366,216,27450,1,0,0:0:0:0:
475,77,27570,2,0,P|441:55|402:45,1,80
154,17,27810,6,0,L|171:107,1,80
223,346,28050,2,0,L|210:286,1,40
255,120,28170,1,0,0:0:0:0:
124,299,28290,1,0,0:0:0:0:
65,115,28410,1,0,0:0:0:0:
227,233,28530,1,0,0:0:0:0:
32,349,28650,1,0,0:0:0:0:
153,68,28770,6,0,L|225:134,1,80
285,351,29010,2,0,L|357:285,1,80
335,33,29250,2,0,L|263:99,1,80
203,316,29490,2,0,L|131:250,1,80
69,17,29730,6,0,P|69:90|69:113,1,80
245,227,29970,1,0,0:0:0:0:
69,109,30090,1,0,0:0:0:0:
326,161,30210,2,0,L|425:162,1,80
139,277,30450,2,0,L|40:278,1,80
225,26,30690,6,0,L|224:139,1,80
262,368,30930,2,0,L|262:288,1,80
355,10,31170,2,0,L|274:89,1,80
139,277,31410,2,0,L|196:220,1,80
196,13,31650,5,0,0:0:0:0:
196,13,31710,1,0,0:0:0:0:
196,13,31770,1,0,0:0:0:0:
438,65,31890,2,0,L|437:165,1,80
390,298,32130,5,0,0:0:0:0:
370,332,32190,1,0,0:0:0:0:
339,358,32250,1,0,0:0:0:0:
302,371,32310,1,0,0:0:0:0:
262,370,32370,1,0,0:0:0:0:
178,194,32490,1,0,0:0:0:0:
366,215,32610,6,0,P|448:231|472:330,1,160
196,284,32970,2,0,P|114:268|90:169,1,160
219,14,33330,2,0,P|224:105|226:123,1,80
280,354,33570,6,0,L|379:346,1,80
83,204,33810,2,0,L|-16:196,1,80
345,84,34050,2,0,B|384:81|385:43|458:158|463:104|510:99,1,160
225,31,34410,1,0,0:0:0:0:
299,239,34530,5,0,0:0:0:0:
33,292,34650,2,0,L|31:382,1,80
157,89,34890,1,0,0:0:0:0:
388,167,35010,2,0,P|380:223|399:307,1,120
387,333,35250,2,0,P|327:329|269:343,1,120
223,358,35490,6,0,L|184:265,1,80
0,53,35730,2,0,L|33:149,1,80
95,331,35970,1,0,0:0:0:0:
90,171,36090,1,0,0:0:0:0:
262,256,36210,1,0,0:0:0:0:
490,260,36330,1,0,0:0:0:0:
490,260,36390,1,0,0:0:0:0:
490,260,36450,6,0,L|394:261,1,95.9999970703126
512,35,36690,2,0,B|472:34|453:84|370:-41|367:16|318:18,1,191.999994140625
506,178,37050,1,0,0:0:0:0:
213,14,37170,2,0,L|214:119,1,95.9999970703126
54,383,37410,6,0,L|125:312,1,95.9999970703126
282,136,37650,2,0,P|271:65|150:144,1,287.999991210938
296,308,38130,1,0,0:0:0:0:
213,109,38250,1,0,0:0:0:0:
404,27,38370,6,0,P|442:37|496:75,1,95.9999970703126
366,197,38610,1,0,0:0:0:0:
436,359,38730,2,0,P|453:323|452:256,1,95.9999970703126
337,78,38970,1,0,0:0:0:0:
374,290,39090,2,0,P|368:329|336:385,1,95.9999970703126
104,384,39330,6,0,L|106:282,1,95.9999970703126
174,8,39570,2,0,L|172:110,1,95.9999970703126
176,256,39810,5,0,0:0:0:0:
181,275,39870,1,0,0:0:0:0:
192,291,39930,1,0,0:0:0:0:
209,301,39990,1,0,0:0:0:0:
229,305,40050,1,0,0:0:0:0:
248,300,40110,1,0,0:0:0:0:
264,289,40170,1,0,0:0:0:0:
275,272,40230,1,0,0:0:0:0:
279,253,40290,5,0,0:0:0:0:
264,222,40350,1,0,0:0:0:0:
258,189,40410,1,0,0:0:0:0:
261,155,40470,1,0,0:0:0:0:
272,124,40530,1,0,0:0:0:0:
292,96,40590,1,0,0:0:0:0:
318,74,40650,1,0,0:0:0:0:
349,61,40710,1,0,0:0:0:0:
383,55,40770,1,0,0:0:0:0:
416,59,40830,1,0,0:0:0:0:
448,72,40890,1,0,0:0:0:0:
475,93,40950,1,0,0:0:0:0:
495,120,41010,1,0,0:0:0:0:
508,151,41070,1,0,0:0:0:0:
512,185,41130,1,0,0:0:0:0:
506,218,41190,1,0,0:0:0:0:
493,249,41250,5,0,0:0:0:0:
459,249,41310,1,0,0:0:0:0:
426,240,41370,1,0,0:0:0:0:
397,223,41430,1,0,0:0:0:0:
372,199,41490,1,0,0:0:0:0:
355,170,41550,1,0,0:0:0:0:
331,147,41610,1,0,0:0:0:0:
299,136,41670,1,0,0:0:0:0:
265,138,41730,1,0,0:0:0:0:
236,155,41790,1,0,0:0:0:0:
216,182,41850,1,0,0:0:0:0:
208,215,41910,1,0,0:0:0:0:
216,248,41970,1,0,0:0:0:0:
240,272,42030,1,0,0:0:0:0:
265,291,42090,1,0,0:0:0:0:
297,300,42150,1,0,0:0:0:0:
304,270,42210,5,0,0:0:0:0:
293,237,42270,1,0,0:0:0:0:
271,211,42330,1,0,0:0:0:0:
242,194,42390,1,0,0:0:0:0:
209,188,42450,1,0,0:0:0:0:
176,194,42510,1,0,0:0:0:0:
146,210,42570,1,0,0:0:0:0:
125,237,42630,1,0,0:0:0:0:
114,269,42690,1,0,0:0:0:0:
114,303,42750,1,0,0:0:0:0:
126,334,42810,1,0,0:0:0:0:
149,360,42870,1,0,0:0:0:0:
178,376,42930,1,0,0:0:0:0:
211,380,42990,1,0,0:0:0:0:
244,373,43050,1,0,0:0:0:0:
273,355,43110,1,0,0:0:0:0:
294,329,43170,5,0,0:0:0:0:
261,326,43230,1,0,0:0:0:0:
229,312,43290,1,0,0:0:0:0:
203,291,43350,1,0,0:0:0:0:
183,264,43410,1,0,0:0:0:0:
172,231,43470,1,0,0:0:0:0:
170,198,43530,1,0,0:0:0:0:
178,164,43590,1,0,0:0:0:0:
195,135,43650,1,0,0:0:0:0:
220,112,43710,1,0,0:0:0:0:
250,96,43770,1,0,0:0:0:0:
282,89,43830,1,0,0:0:0:0:
316,92,43890,1,0,0:0:0:0:
348,104,43950,1,0,0:0:0:0:
375,124,44010,1,0,0:0:0:0:
395,152,44070,1,0,0:0:0:0:
407,183,44130,5,0,0:0:0:0:
434,176,44190,1,0,0:0:0:0:
461,179,44250,1,0,0:0:0:0:
486,192,44310,1,0,0:0:0:0:
504,213,44370,1,0,0:0:0:0:
512,240,44430,1,0,0:0:0:0:
509,267,44490,1,0,0:0:0:0:
496,291,44550,1,0,0:0:0:0:
475,310,44610,1,0,0:0:0:0:
448,318,44670,1,0,0:0:0:0:
420,315,44730,1,0,0:0:0:0:
395,303,44790,1,0,0:0:0:0:
377,281,44850,6,0,L|318:274,1,40
123,313,44970,2,0,L|143:260,1,40
196,80,45090,2,0,L|138:97,1,40
1,202,45210,2,0,L|70:225,1,40
193,364,45330,5,0,0:0:0:0:
216,379,45390,1,0,0:0:0:0:
243,386,45450,1,0,0:0:0:0:
270,384,45510,1,0,0:0:0:0:
296,373,45570,1,0,0:0:0:0:
317,354,45630,1,0,0:0:0:0:
330,329,45690,1,0,0:0:0:0:
334,302,45750,1,0,0:0:0:0:
330,274,45810,1,0,0:0:0:0:
316,250,45870,1,0,0:0:0:0:
296,231,45930,1,0,0:0:0:0:
270,220,45990,1,0,0:0:0:0:
263,192,46050,5,0,0:0:0:0:
269,162,46110,1,0,0:0:0:0:
270,133,46170,1,0,0:0:0:0:
264,103,46230,1,0,0:0:0:0:
251,76,46290,1,0,0:0:0:0:
233,53,46350,1,0,0:0:0:0:
210,33,46410,1,0,0:0:0:0:
184,20,46470,1,0,0:0:0:0:
155,12,46530,1,0,0:0:0:0:
125,11,46590,1,0,0:0:0:0:
96,17,46650,1,0,0:0:0:0:
69,28,46710,1,0,0:0:0:0:
44,46,46770,1,0,0:0:0:0:
28,69,46830,1,0,0:0:0:0:
19,95,46890,1,0,0:0:0:0:
26,123,46950,1,0,0:0:0:0:
49,142,47010,5,0,0:0:0:0:
67,134,47070,1,0,0:0:0:0:
87,130,47130,1,0,0:0:0:0:
107,131,47190,1,0,0:0:0:0:
126,137,47250,1,0,0:0:0:0:
144,146,47310,1,0,0:0:0:0:
159,160,47370,1,0,0:0:0:0:
192,188,47430,1,0,0:0:0:0:
224,162,47490,1,0,0:0:0:0:
227,173,47550,1,0,0:0:0:0:
227,185,47610,1,0,0:0:0:0:
228,196,47670,1,0,0:0:0:0:
228,215,47730,5,0,0:0:0:0:
264,228,47790,1,0,0:0:0:0:
286,261,47850,1,0,0:0:0:0:
285,300,47910,1,0,0:0:0:0:
248,334,47970,6,0,P|330:310|309:165,1,240.000009155274
228,215,48570,1,0,0:0:0:0:
197,47,48690,2,0,P|234:17|271:18,1,60.0000022888184
406,113,48930,6,0,P|368:147|267:87,1,180.000006866455
465,5,49410,1,0,0:0:0:0:
341,78,49530,1,0,0:0:0:0:
465,151,49650,2,0,B|471:181|468:235,1,60.0000022888184
404,346,49890,6,0,P|397:272|228:320,1,300.000011444092
231,137,50610,2,0,L|306:133,1,60.0000022888184
464,96,50850,6,0,P|396:78|336:44,1,120.000004577637
258,0,51210,2,0,P|204:26|146:40,1,120.000004577637
231,137,51570,2,0,L|306:133,1,60.0000022888184
371,21,51810,6,0,P|403:63|360:239,1,240.000009155274
290,133,52410,1,0,0:0:0:0:
255,322,52530,2,0,P|316:351|328:348,1,60.0000022888184
230,214,52770,6,0,P|268:180|369:240,1,180.000006866455
171,322,53250,1,0,0:0:0:0:
295,249,53370,1,0,0:0:0:0:
171,176,53490,2,0,B|165:146|168:92,1,60.0000022888184
333,0,53730,6,0,L|336:84,1,80
441,379,53970,2,0,L|438:295,1,80
258,5,54210,2,0,L|255:89,1,80
150,384,54450,2,0,L|153:300,1,80
41,108,54690,5,0,0:0:0:0:
116,234,54810,1,0,0:0:0:0:
151,125,54930,1,0,0:0:0:0:
203,219,55050,1,0,0:0:0:0:
240,146,55170,1,0,0:0:0:0:
278,205,55290,1,0,0:0:0:0:
312,159,55410,2,0,P|353:108|366:70,1,80
97,17,56130,6,0,L|150:140,1,120
238,124,56610,2,0,L|185:247,1,120
93,228,57090,2,0,L|146:351,1,120
4,372,57570,6,0,P|5:313|26:250,1,102.000001945496
35,170,57810,2,0,P|74:143|161:195,1,136.000002593994
224,277,58170,1,0,0:0:0:0:
185,25,58290,2,0,P|127:24|95:26,1,68.0000012969971
0,88,58530,6,0,P|58:89|90:87,1,68.0000012969971
276,18,58770,2,0,P|350:31|415:6,1,136.000002593994
508,148,59130,1,0,0:0:0:0:
280,108,59250,2,0,L|280:183,1,68.0000012969971
508,283,59490,6,0,P|450:282|418:284,1,68.0000012969971
232,371,59730,2,0,P|158:358|93:383,1,136.000002593994
0,241,60090,1,0,0:0:0:0:
228,281,60210,2,0,L|228:206,1,68.0000012969971
118,11,60450,6,0,L|118:100,1,68.0000012969971
0,241,60690,2,0,L|0:158,1,68.0000012969971
0,83,60930,1,0,0:0:0:0:
134,271,61050,1,0,0:0:0:0:
212,62,61170,2,0,L|212:139,1,68.0000012969971
235,300,61410,6,0,L|309:300,1,68.0000012969971
291,129,61650,1,0,0:0:0:0:
504,235,61770,2,0,L|430:235,1,68.0000012969971
212,62,62010,1,0,0:0:0:0:
460,134,62130,2,0,L|386:134,1,68.0000012969971
173,359,62370,6,0,L|173:270,1,68.0000012969971
291,129,62610,2,0,L|291:212,1,68.0000012969971
291,287,62850,1,0,0:0:0:0:
157,99,62970,1,0,0:0:0:0:
79,308,63090,2,0,L|79:231,1,68.0000012969971
11,64,63330,6,0,P|24:106|69:161,1,102.000001945496
88,168,63570,1,0,0:0:0:0:
160,3,63690,2,0,P|208:27|232:54,1,68.0000012969971
235,171,63930,1,0,0:0:0:0:
374,52,64050,1,0,0:0:0:0:
354,188,64170,1,0,0:0:0:0:
218,36,64290,5,0,0:0:0:0:
406,132,64410,1,0,0:0:0:0:
422,142,64470,1,0,0:0:0:0:
439,153,64530,1,0,0:0:0:0:
456,163,64590,1,0,0:0:0:0:
475,173,64650,2,0,L|439:237,1,68.0000012969971
267,333,64890,5,0,0:0:0:0:
354,188,65010,1,0,0:0:0:0:
441,333,65130,1,0,0:0:0:0:
250,185,65250,6,0,L|169:185,1,80
0,52,65490,2,0,L|81:52,1,80
346,36,65730,1,0,0:0:0:0:
70,143,65850,1,0,0:0:0:0:
319,141,65970,2,0,P|323:203|320:236,2,80
196,11,66330,5,0,0:0:0:0:
45,242,66450,2,0,B|84:239|85:201|158:316|163:262|210:257,1,160
0,122,66810,1,0,0:0:0:0:
239,139,66930,2,0,P|281:139|329:141,1,80
461,384,67170,6,0,P|513:352|420:225,1,240
229,347,67650,1,0,0:0:0:0:
453,306,67770,1,0,0:0:0:0:
231,215,67890,1,0,0:0:0:0:
343,329,68010,1,0,0:0:0:0:
73,240,68130,6,0,L|257:210,1,160
313,32,68490,1,0,0:0:0:0:
339,252,68610,1,0,0:0:0:0:
340,291,68670,1,0,0:0:0:0:
343,329,68730,2,0,L|432:323,1,80
507,160,68970,1,0,0:0:0:0:
248,45,69090,6,0,L|254:148,1,80
272,384,69330,2,0,L|276:304,1,80
379,43,69570,2,0,L|373:146,1,80
362,242,69750,1,0,0:0:0:0:
361,271,69810,1,0,0:0:0:0:
368,300,69870,1,0,0:0:0:0:
383,326,69930,1,0,0:0:0:0:
404,347,69990,1,0,0:0:0:0:
430,361,70050,5,0,0:0:0:0:
436,351,70110,1,0,0:0:0:0:
441,340,70170,1,0,0:0:0:0:
446,329,70230,1,0,0:0:0:0:
452,318,70290,5,0,0:0:0:0:
509,127,70410,2,0,L|422:132,1,80
243,178,70650,1,0,0:0:0:0:
365,0,70770,2,0,L|291:46,1,80
25,201,71010,6,0,L|110:292,1,103.999995239258
223,326,71490,6,0,P|254:299|264:272,2,64
493,200,72930,5,0,0:0:0:0:
498,219,72990,1,0,0:0:0:0:
499,238,73050,1,0,0:0:0:0:
495,258,73110,1,0,0:0:0:0:
485,275,73170,1,0,0:0:0:0:
472,290,73230,1,0,0:0:0:0:
455,300,73290,1,0,0:0:0:0:
436,306,73350,1,0,0:0:0:0:
416,306,73410,1,0,0:0:0:0:
396,302,73470,1,0,0:0:0:0:
379,292,73530,1,0,0:0:0:0:
365,278,73590,1,0,0:0:0:0:
355,261,73650,1,0,0:0:0:0:
349,241,73710,1,0,0:0:0:0:
349,222,73770,1,0,0:0:0:0:
355,202,73830,1,0,0:0:0:0:
365,185,73890,5,0,0:0:0:0:
377,170,73950,1,0,0:0:0:0:
387,152,74010,1,0,0:0:0:0:
392,133,74070,1,0,0:0:0:0:
393,113,74130,1,0,0:0:0:0:
390,93,74190,1,0,0:0:0:0:
384,74,74250,1,0,0:0:0:0:
373,57,74310,1,0,0:0:0:0:
359,43,74370,1,0,0:0:0:0:
343,32,74430,1,0,0:0:0:0:
324,24,74490,1,0,0:0:0:0:
305,20,74550,1,0,0:0:0:0:
285,21,74610,1,0,0:0:0:0:
265,25,74670,1,0,0:0:0:0:
247,33,74730,1,0,0:0:0:0:
231,45,74790,1,0,0:0:0:0:
211,62,74850,5,0,0:0:0:0:
193,81,74910,1,0,0:0:0:0:
181,103,74970,1,0,0:0:0:0:
175,129,75030,1,0,0:0:0:0:
175,155,75090,1,0,0:0:0:0:
181,180,75150,1,0,0:0:0:0:
194,202,75210,1,0,0:0:0:0:
212,222,75270,1,0,0:0:0:0:
233,236,75330,1,0,0:0:0:0:
258,244,75390,1,0,0:0:0:0:
284,246,75450,1,0,0:0:0:0:
310,242,75510,1,0,0:0:0:0:
334,231,75570,1,0,0:0:0:0:
354,216,75630,1,0,0:0:0:0:
369,195,75690,1,0,0:0:0:0:
380,171,75750,1,0,0:0:0:0:
387,152,75810,5,0,0:0:0:0:
407,154,75870,1,0,0:0:0:0:
425,162,75930,1,0,0:0:0:0:
441,174,75990,1,0,0:0:0:0:
453,190,76050,1,0,0:0:0:0:
461,208,76110,1,0,0:0:0:0:
463,228,76170,1,0,0:0:0:0:
460,248,76230,1,0,0:0:0:0:
452,266,76290,1,0,0:0:0:0:
439,281,76350,1,0,0:0:0:0:
423,293,76410,1,0,0:0:0:0:
404,299,76470,1,0,0:0:0:0:
384,301,76530,1,0,0:0:0:0:
365,297,76590,1,0,0:0:0:0:
347,289,76650,1,0,0:0:0:0:
332,275,76710,1,0,0:0:0:0:
321,259,76770,5,0,0:0:0:0:
310,262,76830,1,0,0:0:0:0:
298,265,76890,1,0,0:0:0:0:
286,267,76950,1,0,0:0:0:0:
274,268,77010,1,0,0:0:0:0:
262,268,77070,1,0,0:0:0:0:
250,267,77130,1,0,0:0:0:0:
239,265,77190,1,0,0:0:0:0:
227,263,77250,1,0,0:0:0:0:
215,259,77310,1,0,0:0:0:0:
204,254,77370,1,0,0:0:0:0:
194,249,77430,1,0,0:0:0:0:
184,242,77490,1,0,0:0:0:0:
174,235,77550,1,0,0:0:0:0:
165,227,77610,1,0,0:0:0:0:
156,219,77670,1,0,0:0:0:0:
149,210,77730,5,0,0:0:0:0:
144,221,77790,1,0,0:0:0:0:
140,232,77850,1,0,0:0:0:0:
139,244,77910,1,0,0:0:0:0:
138,256,77970,1,0,0:0:0:0:
140,268,78030,1,0,0:0:0:0:
143,279,78090,1,0,0:0:0:0:
148,290,78150,1,0,0:0:0:0:
154,301,78210,1,0,0:0:0:0:
161,310,78270,1,0,0:0:0:0:
170,318,78330,1,0,0:0:0:0:
180,325,78390,1,0,0:0:0:0:
191,330,78450,1,0,0:0:0:0:
202,335,78510,1,0,0:0:0:0:
214,337,78570,1,0,0:0:0:0:
226,338,78630,1,0,0:0:0:0:
238,337,78690,5,0,0:0:0:0:
223,310,78750,1,0,0:0:0:0:
215,282,78810,1,0,0:0:0:0:
213,252,78870,1,0,0:0:0:0:
218,222,78930,1,0,0:0:0:0:
229,195,78990,1,0,0:0:0:0:
247,170,79050,1,0,0:0:0:0:
269,150,79110,1,0,0:0:0:0:
295,136,79170,5,0,0:0:0:0:
324,127,79230,1,0,0:0:0:0:
354,129,79290,1,0,0:0:0:0:
380,116,79350,1,0,0:0:0:0:
398,92,79410,1,0,0:0:0:0:
401,62,79470,1,0,0:0:0:0:
390,35,79530,1,0,0:0:0:0:
368,16,79590,1,0,0:0:0:0:
339,10,79650,5,0,0:0:0:0:
309,12,79710,1,0,0:0:0:0:
279,17,79770,2,0,L|83:7,1,191.999994140625
0,134,80130,5,0,0:0:0:0:
81,179,80250,1,0,0:0:0:0:
5,213,80370,1,0,0:0:0:0:
67,255,80490,1,0,0:0:0:0:
161,372,80610,6,0,P|161:279|161:273,1,80
197,14,80850,2,0,P|197:107|197:113,1,80
282,372,81090,2,0,P|282:279|282:273,1,80
81,179,81330,1,0,0:0:0:0:
353,152,81450,1,0,0:0:0:0:
62,27,81570,6,0,P|32:122|73:195,1,160
176,345,81930,1,0,0:0:0:0:
54,175,82050,1,0,0:0:0:0:
258,311,82170,2,0,P|327:309|349:315,1,80
143,204,82410,1,0,0:0:0:0:
501,240,82530,6,0,P|408:240|402:240,1,80
143,204,82770,2,0,P|235:203|241:203,1,80
501,118,83010,2,0,P|408:118|401:118,1,80
301,381,83250,1,0,0:0:0:0:
300,101,83370,1,0,0:0:0:0:
371,340,83490,6,0,P|300:303|222:356,1,160
380,186,83850,1,0,0:0:0:0:
233,335,83970,1,0,0:0:0:0:
300,101,84090,2,0,P|286:33|288:10,1,80
246,242,84330,1,0,0:0:0:0:
98,63,84450,6,0,L|96:162,1,80
38,381,84690,2,0,L|39:279,1,80
184,14,84930,2,0,L|182:113,1,80
124,332,85170,2,0,L|125:230,1,80
295,20,85410,6,0,P|305:78|377:154,1,160
510,332,85770,1,0,0:0:0:0:
446,68,85890,1,0,0:0:0:0:
353,332,86010,1,0,0:0:0:0:
512,152,86130,1,0,0:0:0:0:
295,20,86250,1,0,0:0:0:0:
305,266,86370,6,0,L|216:266,1,80
0,227,86610,2,0,L|99:228,1,80
312,120,86850,2,0,L|218:121,1,80
215,126,87030,1,0,0:0:0:0:
176,134,87090,1,0,0:0:0:0:
152,165,87150,1,0,0:0:0:0:
153,204,87210,1,0,0:0:0:0:
179,234,87270,1,0,0:0:0:0:
208,241,87330,5,0,0:0:0:0:
227,238,87390,1,0,0:0:0:0:
247,237,87450,1,0,0:0:0:0:
267,236,87510,1,0,0:0:0:0:
287,234,87570,6,0,L|369:225,1,80
474,73,87810,2,0,P|506:148|478:294,1,210.000008010865
402,126,88290,2,0,P|339:137|220:306,1,280
126,95,92130,5,0,0:0:0:0:
189,306,94050,5,0,0:0:0:0:
126,95,94170,1,0,0:0:0:0:
319,237,94290,1,0,0:0:0:0:
57,204,94410,2,0,L|111:215,1,40
230,231,94530,5,0,0:0:0:0:
226,31,94650,1,0,0:0:0:0:
354,161,94770,2,0,L|354:111,1,40
201,151,94890,1,0,0:0:0:0:
357,8,95010,5,0,0:0:0:0:
506,196,95130,2,0,B|448:206|406:221,1,80
228,306,95370,1,0,0:0:0:0:
512,352,95490,2,0,B|492:344|434:334,1,80
285,183,95730,1,0,0:0:0:0:
334,373,95850,1,0,0:0:0:0:
335,96,95970,6,0,P|287:83|242:77,1,80
46,133,96210,1,0,0:0:0:0:
197,2,96330,1,0,0:0:0:0:
126,189,96450,2,0,P|113:237|107:282,1,80
278,373,96690,1,0,0:0:0:0:
30,309,96810,1,0,0:0:0:0:
182,110,96930,6,0,P|129:86|44:136,1,160
152,294,97290,1,0,0:0:0:0:
2,39,97410,1,0,0:0:0:0:
126,189,97530,1,0,0:0:0:0:
251,43,97650,1,0,0:0:0:0:
271,226,97770,1,0,0:0:0:0:
362,350,97890,5,0,0:0:0:0:
271,319,98010,1,0,0:0:0:0:
271,226,98130,1,0,0:0:0:0:
362,198,98250,1,0,0:0:0:0:
180,198,98370,5,0,0:0:0:0:
239,122,98490,1,0,0:0:0:0:
188,44,98610,1,0,0:0:0:0:
97,70,98730,1,0,0:0:0:0:
279,18,98850,5,0,0:0:0:0:
356,2,98970,1,0,0:0:0:0:
372,81,99090,1,0,0:0:0:0:
293,96,99210,1,0,0:0:0:0:
449,62,99330,5,0,0:0:0:0:
443,158,99450,1,0,0:0:0:0:
487,63,99570,1,0,0:0:0:0:
484,160,99690,1,0,0:0:0:0:
352,189,99810,5,0,0:0:0:0:
443,158,99930,1,0,0:0:0:0:
443,65,100050,1,0,0:0:0:0:
352,37,100170,1,0,0:0:0:0:
271,175,100290,5,0,0:0:0:0:
180,144,100410,1,0,0:0:0:0:
180,51,100530,1,0,0:0:0:0:
271,23,100650,1,0,0:0:0:0:
368,149,100770,5,0,0:0:0:0:
375,245,100890,1,0,0:0:0:0:
306,312,101010,1,0,0:0:0:0:
210,301,101130,1,0,0:0:0:0:
90,194,101250,5,0,0:0:0:0:
201,197,101370,1,0,0:0:0:0:
142,291,101490,1,0,0:0:0:0:
31,288,101610,1,0,0:0:0:0:
201,197,101730,5,0,0:0:0:0:
312,194,101850,1,0,0:0:0:0:
253,100,101970,1,0,0:0:0:0:
142,103,102090,1,0,0:0:0:0:
25,212,102210,5,0,0:0:0:0:
16,126,102330,1,0,0:0:0:0:
57,49,102450,1,0,0:0:0:0:
134,9,102570,1,0,0:0:0:0:
293,14,102690,2,0,P|355:56|222:181,1,320
4,103,103290,5,0,0:0:0:0:
263,103,103410,1,0,0:0:0:0:
54,256,103530,1,0,0:0:0:0:
134,9,103650,2,0,L|153:116,1,80
160,166,103890,5,0,0:0:0:0:
193,255,104010,1,0,0:0:0:0:
139,362,104130,5,0,0:0:0:0:
232,339,104250,1,0,0:0:0:0:
305,276,104370,1,0,0:0:0:0:
273,185,104490,1,0,0:0:0:0:
384,228,104610,5,0,0:0:0:0:
401,322,104730,1,0,0:0:0:0:
493,348,104850,1,0,0:0:0:0:
476,254,104970,1,0,0:0:0:0:
380,146,105090,5,0,0:0:0:0:
472,172,105210,1,0,0:0:0:0:
484,76,105330,1,0,0:0:0:0:
392,50,105450,1,0,0:0:0:0:
276,17,105570,5,0,0:0:0:0:
267,112,105690,1,0,0:0:0:0:
244,205,105810,1,0,0:0:0:0:
171,267,105930,1,0,0:0:0:0:
51,260,106050,5,0,0:0:0:0:
120,323,106170,1,0,0:0:0:0:
200,377,106290,1,0,0:0:0:0:
295,375,106410,1,0,0:0:0:0:
235,300,106530,5,0,0:0:0:0:
244,205,106650,1,0,0:0:0:0:
267,112,106770,1,0,0:0:0:0:
340,50,106890,1,0,0:0:0:0:
336,175,107010,5,0,0:0:0:0:
267,112,107130,1,0,0:0:0:0:
187,58,107250,1,0,0:0:0:0:
92,60,107370,1,0,0:0:0:0:
180,140,107490,5,0,0:0:0:0:
160,234,107610,1,0,0:0:0:0:
89,299,107730,1,0,0:0:0:0:
3,342,107850,1,0,0:0:0:0:
116,379,107970,5,0,0:0:0:0:
190,318,108090,1,0,0:0:0:0:
285,316,108210,1,0,0:0:0:0:
357,378,108330,1,0,0:0:0:0:
355,258,108450,5,0,0:0:0:0:
436,207,108570,1,0,0:0:0:0:
484,124,108690,1,0,0:0:0:0:
484,28,108810,1,0,0:0:0:0:
405,118,108930,5,0,0:0:0:0:
323,169,109050,1,0,0:0:0:0:
316,73,109170,1,0,0:0:0:0:
234,124,109290,1,0,0:0:0:0:
273,237,109410,5,0,0:0:0:0:
367,251,109530,1,0,0:0:0:0:
445,306,109650,1,0,0:0:0:0:
367,361,109770,1,0,0:0:0:0:
251,329,109890,5,0,0:0:0:0:
187,256,110010,1,0,0:0:0:0:
150,167,110130,1,0,0:0:0:0:
152,71,110250,1,0,0:0:0:0:
49,7,110370,5,0,0:0:0:0:
35,103,110490,1,0,0:0:0:0:
52,197,110610,1,0,0:0:0:0:
106,277,110730,1,0,0:0:0:0:
192,359,110850,6,0,L|297:358,1,80
488,299,111090,2,0,L|383:298,1,80
250,151,111330,2,0,P|223:88|297:17,1,160
