osu file format v14

[General]
AudioFilename: shinbatsu.mp3
AudioLeadIn: 0
PreviewTime: 71581
Countdown: 0
SampleSet: None
StackLeniency: 0.7
Mode: 0
LetterboxInBreaks: 0
WidescreenStoryboard: 0

[Editor]
Bookmarks: 28860,32618,40380,48060,65258,88380,96060,103670,111338,119018,128640,143978,167018,171578,179978,182378,197738,205440,244778
DistanceSpacing: 0.5
BeatDivisor: 4
GridSize: 32
TimelineZoom: 2

[Metadata]
Title:Shinbatsu o Tadori Kyoukotsu ni Itaru
TitleUnicode:神罰を辿り狂骨に至る
Artist:Imperial Circus Dead Decadence
ArtistUnicode:Imperial Circus Dead Decadence
Creator:Kite
Version:Mun's Expert
Source:osu!
Tags:japanese rock featured artist mappers' guild Mun Riven Hakura egg and cheese Foxy Grandpa リブユウキ Rib yuhki Hull KIM KIMI Hellnear 飯塚悠人 Yuto Iizuka Shuhei Kamada icdd 黄泉より聴こゆ、皇国の燈と焔の少女。 Yomi yori Kikoyu, Koukoku no Tou to Honoo no Shoujo. symphonic black metal dojin doujin
BeatmapID:2039544
BeatmapSetID:482382

[Difficulty]
HPDrainRate:5
CircleSize:3.8
OverallDifficulty:9
ApproachRate:9.6
SliderMultiplier:2
SliderTickRate:1

[Events]
//Background and Video events
0,0,"shinbatsu.jpg",0,0
//Break Periods
2,88581,91712
2,205701,212192
//Storyboard Layer 0 (Background)
//Storyboard Layer 1 (Fail)
//Storyboard Layer 2 (Pass)
//Storyboard Layer 3 (Foreground)
//Storyboard Sound Samples

[TimingPoints]
4861,240,4,3,1,40,1,0
5686,-100,4,3,1,5,0,0
5821,-500,4,3,3,50,0,0
6781,-500,4,3,2,50,0,0
7021,-166.666666666667,4,3,2,50,0,0
7141,-83.3333333333333,4,3,1,50,0,0
7741,-100,4,3,1,60,0,0
9181,-166.666666666667,4,3,1,60,0,0
9661,-100,4,3,1,60,0,0
13441,-100,4,3,1,65,0,0
14701,-100,4,3,6,55,0,0
14941,-100,4,3,1,70,0,0
15361,-100,4,3,1,60,0,0
15421,-125,4,3,1,60,0,0
16381,-125,4,3,1,70,0,0
16861,-125,4,3,1,55,0,0
17281,-125,4,3,1,60,0,0
18241,-125,4,3,1,20,0,0
18301,-125,4,3,1,70,0,0
18781,-125,4,3,1,55,0,0
19261,-125,4,3,1,60,0,0
20221,-125,4,3,1,70,0,0
20701,-125,4,3,1,55,0,0
21181,-125,4,3,1,75,0,0
22141,-125,4,3,1,70,0,0
22621,-125,4,3,6,60,0,0
23101,-125,4,3,1,70,0,0
24541,-125,4,3,2,70,0,0
25021,-125,4,3,1,60,0,0
28861,-125,4,3,1,65,0,0
29581,-125,4,3,1,60,0,0
30781,-76.9230769230769,4,3,1,70,0,0
30961,-76.9230769230769,4,3,1,20,0,0
31021,-76.9230769230769,4,3,1,70,0,0
31741,-76.9230769230769,4,3,1,65,0,0
32221,-76.9230769230769,4,3,6,60,0,0
32701,-100,4,3,1,50,0,0
33601,-100,4,3,1,20,0,0
33661,-100,4,3,1,70,0,0
33781,-100,4,3,1,5,0,0
33901,-100,4,3,1,70,0,0
34021,-100,4,3,1,5,0,0
34141,-100,4,3,1,70,0,0
34261,-100,4,3,1,5,0,0
34381,-100,4,3,1,70,0,0
34621,-100,4,3,1,50,0,0
35281,-100,4,3,1,20,0,0
35341,-100,4,3,1,50,0,0
35581,-100,4,3,1,70,0,0
36361,-100,4,3,6,55,0,0
36541,-100,4,3,1,60,0,0
39421,-100,4,3,6,55,0,0
39901,-66.6666666666667,4,3,1,70,0,0
40381,-100,4,3,4,50,0,1
40441,-100,4,3,1,50,0,1
41341,-100,4,3,4,50,0,1
41401,-100,4,3,1,50,0,1
42061,-100,4,3,4,50,0,1
42121,-100,4,3,1,50,0,1
42301,-100,4,3,4,50,0,1
42361,-100,4,3,1,50,0,1
43261,-100,4,3,4,50,0,1
43321,-100,4,3,1,50,0,1
43621,-100,4,3,4,50,0,1
43681,-100,4,3,1,50,0,1
43981,-100,4,3,4,50,0,1
44041,-100,4,3,1,50,0,1
44221,-100,4,3,4,50,0,1
44281,-100,4,3,1,50,0,1
44941,-100,4,3,4,50,0,1
45001,-100,4,3,1,50,0,1
45181,-100,4,3,4,50,0,1
45241,-100,4,3,1,50,0,1
46141,-100,4,3,4,50,0,1
46201,-100,4,3,1,50,0,1
47101,-100,4,3,2,50,0,1
47341,-100,4,3,1,50,0,1
47581,-100,4,3,2,50,0,1
47821,-100,4,3,1,50,0,1
48061,-100,4,3,1,45,0,1
50941,-100,4,3,5,50,0,1
51901,-100,4,3,1,55,0,1
53821,-100,4,3,1,65,0,1
54781,-100,4,3,1,55,0,1
55261,-100,4,3,6,45,0,1
56221,-133.333333333333,3,3,2,30,0,0
57661,-100,4,3,1,55,0,0
58801,-100,4,3,1,20,0,0
58861,-100,4,3,1,55,0,0
60721,-100,4,3,1,20,0,0
60781,-100,4,3,1,55,0,0
64501,-100,4,3,4,40,0,0
64621,-100,4,3,6,50,0,0
64861,-100,4,3,5,55,0,0
65341,-100,4,3,1,60,0,0
69601,-100,4,3,6,60,0,0
70501,-100,4,3,1,70,0,0
70861,-100,4,3,1,50,0,0
71101,-100,4,3,5,55,0,0
71581,-133.333333333333,3,3,2,30,0,0
73021,-100,4,3,1,70,0,1
73141,-100,4,3,1,50,0,1
80101,-100,4,3,6,50,0,1
80701,-100,4,3,1,65,0,1
80881,-100,4,3,1,20,0,1
80941,-100,4,3,1,65,0,1
81901,-100,4,3,1,55,0,1
82021,-100,4,3,1,65,0,1
83821,-100,4,3,1,55,0,1
83941,-100,4,3,1,65,0,1
84721,-100,4,3,1,20,0,1
84781,-100,4,3,1,65,0,1
87181,-100,4,3,6,70,0,1
87421,-100,4,3,6,60,0,1
88381,-100,4,3,5,45,0,0
92221,-100,4,3,5,60,0,0
94141,-100,4,3,1,60,0,0
95221,-100,4,3,6,60,0,0
95821,-100,4,3,1,70,0,0
96061,-100,4,3,1,55,0,0
97921,-100,4,3,1,20,0,0
97981,-100,4,3,1,55,0,0
98641,-100,4,3,1,20,0,0
98701,-100,4,3,1,55,0,0
99361,-100,4,3,1,20,0,0
99421,-100,4,3,1,55,0,0
102781,-100,4,3,1,60,0,0
103501,-100,4,3,6,65,0,0
103741,-100,4,3,2,55,0,0
107341,-100,4,3,2,70,0,0
107581,-100,4,3,2,55,0,0
110461,-100,4,3,1,65,0,0
111421,-100,4,3,1,60,0,0
111901,-100,4,3,9,50,0,0
112141,-100,4,3,1,50,0,0
112861,-100,4,3,9,50,0,0
113101,-100,4,3,1,50,0,0
113821,-100,4,3,9,50,0,0
114061,-100,4,3,1,50,0,0
114781,-100,4,3,9,50,0,0
115021,-100,4,3,1,50,0,0
117121,-100,4,3,1,20,0,0
117181,-100,4,3,1,50,0,0
118621,-100,4,3,9,50,0,0
118861,-100,4,3,1,50,0,0
119101,-100,4,3,1,60,0,0
122941,-100,4,3,6,45,0,0
123061,-100,4,3,1,55,0,0
126421,-100,4,3,2,65,0,0
126781,-142.857142857143,4,3,5,70,0,0
126901,-142.857142857143,4,3,6,60,0,0
127741,-142.857142857143,4,3,6,70,0,0
127981,-142.857142857143,4,3,6,60,0,0
128221,-142.857142857143,4,3,6,50,0,0
128461,-142.857142857143,4,3,6,40,0,0
128701,-100,4,3,4,50,0,1
128821,-100,4,3,1,50,0,1
129661,-100,4,3,4,50,0,1
129721,-100,4,3,1,50,0,1
130381,-100,4,3,4,50,0,1
130441,-100,4,3,1,50,0,1
130621,-100,4,3,4,50,0,1
130681,-100,4,3,1,50,0,1
131581,-100,4,3,4,50,0,1
131641,-100,4,3,1,50,0,1
131941,-100,4,3,4,50,0,1
132001,-100,4,3,1,50,0,1
132301,-100,4,3,4,50,0,1
132361,-100,4,3,1,50,0,1
132541,-100,4,3,4,50,0,1
132601,-100,4,3,1,50,0,1
133261,-100,4,3,4,50,0,1
133321,-100,4,3,1,50,0,1
133501,-100,4,3,4,50,0,1
133561,-100,4,3,1,50,0,1
134221,-100,4,3,4,50,0,1
134281,-100,4,3,1,50,0,1
134461,-100,4,3,4,50,0,1
134521,-100,4,3,1,50,0,1
135421,-100,4,3,2,50,0,1
135661,-100,4,3,1,50,0,1
135901,-100,4,3,2,50,0,1
136141,-100,4,3,1,50,0,1
136381,-100,4,3,1,45,0,0
139261,-100,4,3,5,55,0,0
140221,-100,4,3,1,55,0,0
142141,-100,4,3,1,60,0,0
142321,-100,4,3,1,20,0,0
142381,-100,4,3,1,60,0,0
142561,-100,4,3,1,20,0,0
142621,-100,4,3,1,60,0,0
143101,-100,4,3,6,60,0,0
143821,-100,4,3,6,65,0,0
144061,-100,4,3,1,60,0,0
147121,-100,4,3,1,20,0,0
147181,-100,4,3,1,60,0,0
148801,-100,4,3,1,20,0,0
148861,-100,4,3,1,60,0,0
149761,-100,4,3,1,20,0,0
149821,-100,4,3,1,60,0,0
151021,-100,4,3,6,55,0,0
151261,-100,4,3,5,65,0,0
151741,-100,4,3,1,65,0,1
152641,-100,4,3,1,20,0,1
152701,-100,4,3,1,65,0,1
155941,-100,4,3,6,55,0,1
157021,-100,4,3,1,70,0,1
157501,-100,4,3,1,55,0,0
157561,-100,4,3,6,55,0,0
158941,-100,4,3,1,70,0,0
159361,-100,4,3,1,20,0,0
159421,-100,4,3,1,65,0,1
162001,-100,4,3,1,20,0,1
162061,-100,4,3,1,65,0,1
165481,-100,4,3,1,20,0,1
165541,-100,4,3,1,65,0,1
165781,-100,4,3,6,70,0,1
167101,-100,4,3,5,50,0,1
167221,-100,4,3,1,50,0,1
173941,-100,4,3,6,50,0,1
174781,-100,4,3,1,60,0,0
181741,-100,4,3,6,55,0,0
182221,-100,4,3,1,50,0,0
182461,-125,4,3,1,40,0,0
187981,-125,4,3,1,50,0,0
188401,-125,4,3,1,20,0,0
188461,-125,4,3,1,60,0,0
189421,-125,4,3,1,50,0,0
189661,-125,4,3,1,60,0,0
189901,-125,4,3,1,45,0,0
190141,-100,4,3,5,55,0,1
190261,-100,4,3,1,55,0,1
196861,-100,4,3,2,55,0,1
197101,-100,4,3,1,55,0,1
197341,-100,4,3,2,55,0,1
197581,-100,4,3,1,55,0,1
197821,-100,4,3,1,70,0,0
204541,-100,4,3,1,75,0,0
204781,-100,4,3,1,65,0,0
205021,-100,4,3,1,55,0,0
205261,-100,4,3,1,35,0,0
205501,-100,4,3,1,50,0,0
212701,-133.333333333333,4,3,2,30,0,0
214141,-100,4,3,1,60,0,0
214261,-100,4,3,2,50,0,0
214501,-166.666666666667,4,3,2,50,0,0
216061,-100,4,3,6,60,0,0
216181,-100,4,3,6,50,0,0
216421,-166.666666666667,4,3,6,50,0,0
217021,-100,4,3,1,60,0,0
217741,-100,4,3,6,60,0,0
217981,-142.857142857143,4,3,1,60,0,0
219061,-142.857142857143,4,3,6,60,0,0
219901,-142.857142857143,4,3,1,60,0,0
220921,-142.857142857143,4,3,6,60,0,0
221581,-142.857142857143,4,3,1,70,0,0
221821,-142.857142857143,4,3,1,60,0,0
223741,-100,4,3,1,60,0,0
225661,-100,4,3,1,65,0,0
226621,-100,4,3,6,60,0,0
227581,-100,4,3,1,70,0,0
228061,-133.333333333333,4,3,2,30,0,0
229501,-100,4,3,1,60,0,1
229621,-100,4,3,1,60,0,1
236221,-100,4,3,1,50,0,1
236281,-100,4,3,6,50,0,1
237181,-100,4,3,1,65,0,1
238381,-100,4,3,1,55,0,1
238501,-100,4,3,1,65,0,1
240301,-100,4,3,1,55,0,1
240421,-100,4,3,1,65,0,1
243661,-100,4,3,6,60,0,1
243901,-100,4,3,6,55,0,1
244861,-100,4,3,1,65,0,1
252301,-100,4,3,1,60,0,1
252541,-100,4,3,1,65,0,1
252781,-100,4,3,1,55,0,1
252901,-100,4,3,2,65,0,1
253021,-100,4,3,1,65,0,1
254701,-100,4,3,1,55,0,1
254821,-100,4,3,2,65,0,1
254941,-100,4,3,1,65,0,1
259741,-100,4,3,6,60,0,1
259981,-100,4,3,6,50,0,1
260221,-100,4,3,1,70,0,1
261181,-100,4,3,1,75,0,1
262141,-100,4,3,1,80,0,1
263101,-100,4,3,1,85,0,1
263821,-100,4,3,1,90,0,1
263941,-100,4,3,1,90,0,0

[Colours]
Combo1 : 241,199,223
Combo2 : 200,242,224
Combo3 : 187,206,242

[HitObjects]
98,300,5581,6,0,P|151:283|207:296,1,100,4|0,3:0|0:0,0:0:0:0:
199,279,5821,6,0,P|141:273|78:301,1,120,4|0,0:1|0:0,0:0:0:0:
281,361,6781,1,0,0:0:0:0:
279,351,6841,1,0,0:0:0:0:
278,342,6901,1,0,0:0:0:0:
277,333,6961,1,0,0:0:0:0:
275,324,7021,2,0,L|271:282,1,29.9999990844727,0|0,0:0|0:0,0:0:0:0:
268,205,7141,6,0,B|302:216|348:194|348:194|335:231|354:273|354:273|393:243|447:264,1,239.999992675781,8|4,0:0|0:0,0:0:0:0:
512,379,7501,2,0,P|493:321|516:246,1,119.999996337891,8|0,0:0|0:0,0:0:0:0:
505,93,7741,6,0,B|460:113|460:113|381:111,1,100,4|8,0:1|0:0,0:0:0:0:
198,73,7981,2,0,B|241:49|241:49|319:44,1,100,0|8,0:0|0:0,0:0:0:0:
503,251,8221,2,0,L|479:365,1,100,0|8,0:0|0:0,0:0:0:0:
285,256,8461,2,0,L|261:142,1,100,0|8,0:0|0:0,0:0:0:0:
409,111,8701,5,0,0:0:0:0:
356,336,8821,1,8,0:0:0:0:
328,132,8941,1,0,0:0:0:0:
427,225,9061,1,8,0:0:0:0:
299,266,9181,6,0,L|313:207,1,59.9999981689454,0|8,0:0|0:0,0:0:0:0:
441,303,9421,2,0,L|458:372,1,59.9999981689454,0|8,0:0|0:0,0:0:0:0:
351,347,9661,5,0,0:0:0:0:
417,192,9781,2,0,L|406:74,1,100,8|0,0:0|0:0,0:0:0:0:
215,302,10021,2,0,B|224:326|206:358|206:358|257:306|355:332,1,200,8|8,0:0|0:0,0:0:0:0:
256,135,10381,2,0,P|193:144|144:134,1,100,0|8,0:0|0:0,0:0:0:0:
357,13,10621,6,0,L|399:114,1,100,0|8,0:0|0:0,0:0:0:0:
341,225,10861,1,4,0:0:0:0:
144,130,10981,1,8,0:0:0:0:
45,252,11101,5,4,0:0:0:0:
53,263,11221,1,8,0:0:0:0:
209,222,11341,1,4,0:0:0:0:
217,211,11461,1,8,0:0:0:0:
135,291,11581,6,0,P|121:350|132:395,1,100,4|8,0:1|0:0,0:0:0:0:
228,374,11821,1,0,0:0:0:0:
104,168,11941,2,0,B|78:186|75:229|75:229|141:288|223:223,1,200,8|8,0:0|0:0,0:0:0:0:
255,138,12301,2,0,L|265:30,1,100,0|8,0:0|0:0,0:0:0:0:
328,284,12541,6,0,B|346:327|346:327|338:392,1,100,0|8,0:0|0:0,0:0:0:0:
464,167,12781,2,0,B|446:210|446:210|454:275,1,100,0|8,0:0|0:0,0:0:0:0:
510,68,13021,2,0,B|409:102|409:102|395:134|395:134|303:168,1,200,4|0,0:3|0:0,0:0:0:0:
264,21,13381,1,8,0:0:0:0:
435,262,13501,6,0,B|448:291|448:291|439:341|439:341|455:375,1,100,4|8,0:0|0:0,0:0:0:0:
170,303,13741,2,0,B|132:296|132:296|50:311,1,100,4|8,0:0|0:0,0:0:0:0:
336,254,13981,2,0,B|400:261|400:261|441:239,1,100,4|8,0:0|0:0,0:0:0:0:
108,213,14221,2,0,B|61:229|61:229|2:189,1,100,4|8,0:0|0:0,0:0:0:0:
216,91,14461,5,8,0:0:0:0:
229,85,14521,1,8,0:0:0:0:
248,86,14581,1,8,0:0:0:0:
266,93,14641,1,8,0:0:0:0:
283,110,14701,1,8,0:0:0:0:
291,133,14761,1,8,0:0:0:0:
285,162,14821,1,4,0:0:0:0:
265,185,14881,1,4,0:0:0:0:
247,221,14941,1,4,0:0:0:0:
252,260,15001,1,0,0:0:0:0:
277,290,15061,1,0,0:0:0:0:
315,302,15121,1,0,0:0:0:0:
354,294,15181,1,12,0:1:0:0:
403,142,15301,1,0,0:0:0:0:
475,255,15421,6,0,L|477:352,1,80,12|0,0:3|0:3,0:0:0:0:
511,179,15661,1,8,0:3:0:0:
410,373,15781,2,0,P|349:354|245:381,1,160,8|0,0:3|0:3,0:0:0:0:
166,313,16141,2,0,P|99:327|64:318,1,80,8|0,0:3|0:3,0:0:0:0:
185,103,16381,6,0,B|194:137|216:156|216:156|228:214|156:256,1,160,12|8,0:0|0:0,0:0:0:0:
103,211,16741,1,0,0:0:0:0:
151,36,16861,2,0,B|170:51|194:47|194:47|184:118|241:163,1,160,12|0,0:0|0:0,0:0:0:0:
306,136,17221,1,0,0:0:0:0:
433,53,17341,6,0,L|416:162,1,80,12|0,0:3|0:3,0:0:0:0:
512,377,17581,2,0,L|495:268,1,80,8|0,0:3|0:3,0:0:0:0:
420,144,17821,1,8,0:3:0:0:
346,292,17941,1,0,0:3:0:0:
300,121,18061,2,0,P|247:107|183:163,1,120,8|0,0:3|0:0,0:0:0:0:
185,157,18301,6,0,L|208:257,1,80,12|0,0:0|0:0,0:0:0:0:
303,106,18541,2,0,L|326:6,1,80,8|0,0:0|0:0,0:0:0:0:
176,170,18781,2,0,B|164:211|192:245|192:245|156:281|91:259,1,160,12|0,0:3|0:0,0:0:0:0:
48,225,19141,1,0,0:0:0:0:
240,358,19261,6,0,P|292:357|333:377,1,80,8|0,0:3|0:3,0:0:0:0:
212,283,19501,1,8,0:3:0:0:
403,381,19621,2,0,B|438:360|434:316|434:316|402:264|432:212,1,160,8|0,0:3|0:3,0:0:0:0:
510,158,19981,2,0,L|403:160,1,80,8|0,0:3|0:3,0:0:0:0:
304,87,20221,6,0,B|315:106|344:114|344:114|374:171|313:248,1,160,12|8,0:0|0:0,0:0:0:0:
259,253,20581,1,0,0:0:0:0:
183,86,20701,2,0,B|237:97|288:57|288:57|302:85|345:102,1,160,14|0,0:3|0:0,0:0:0:0:
387,44,21061,1,0,0:0:0:0:
166,85,21181,6,0,L|151:170,1,80,12|0,0:3|0:3,0:0:0:0:
272,331,21421,2,0,L|258:252,1,80,8|0,0:3|0:3,0:0:0:0:
76,258,21661,1,12,0:3:0:0:
122,323,21781,1,0,0:3:0:0:
260,243,21901,1,8,0:3:0:0:
272,163,22021,1,0,0:3:0:0:
105,245,22141,5,12,0:0:0:0:
66,247,22201,1,0,0:0:0:0:
35,222,22261,1,0,0:0:0:0:
36,182,22321,1,0,0:0:0:0:
60,159,22381,2,0,L|105:149,3,40,8|0|0|0,0:0|0:0|0:0|0:0,0:0:0:0:
177,136,22621,5,0,0:0:0:0:
207,128,22681,1,0,0:0:0:0:
232,109,22741,1,0,0:0:0:0:
244,80,22801,1,0,0:0:0:0:
239,48,22861,1,0,0:0:0:0:
215,27,22921,1,0,0:0:0:0:
183,24,22981,1,0,0:0:0:0:
156,42,23041,1,0,0:0:0:0:
150,73,23101,5,8,0:3:0:0:
224,257,23221,1,8,0:3:0:0:
150,73,24061,5,8,0:3:0:0:
287,166,24181,1,8,0:3:0:0:
150,73,24541,5,0,0:0:0:0:
181,69,24601,1,0,0:0:0:0:
212,65,24661,1,0,0:0:0:0:
243,61,24721,1,0,0:0:0:0:
274,57,24781,1,0,0:0:0:0:
434,240,25021,6,0,L|443:320,1,80,4|8,0:1|0:0,0:0:0:0:
378,176,25261,2,0,L|387:96,1,80,0|8,0:0|0:0,0:0:0:0:
455,333,25501,2,0,P|411:330|360:339,1,80,0|8,0:0|0:0,0:0:0:0:
280,195,25741,2,0,P|319:201|358:192,1,80,0|8,0:0|0:0,0:0:0:0:
228,142,25981,5,0,0:0:0:0:
271,299,26101,1,8,0:0:0:0:
303,92,26221,1,0,0:0:0:0:
271,315,26341,2,0,L|169:316,1,80,8|0,0:0|0:0,0:0:0:0:
40,238,26581,1,8,0:0:0:0:
106,281,26701,2,0,L|103:376,1,80,0|8,0:0|0:0,0:0:0:0:
25,153,26941,5,0,0:0:0:0:
258,226,27061,2,0,B|234:239|234:239|192:235|154:215,1,80,8|0,0:0|0:0,0:0:0:0:
328,105,27301,2,0,B|342:109|355:127|355:127|320:182|361:251,1,160,8|8,0:0|0:0,0:0:0:0:
478,181,27661,2,0,L|492:90,1,80,0|8,0:0|0:0,0:0:0:0:
362,266,27901,6,0,B|401:255|401:255|456:265,1,80,0|8,0:0|0:0,0:0:0:0:
498,315,28141,1,4,0:0:0:0:
318,369,28261,1,8,0:0:0:0:
277,299,28381,2,0,L|262:207,1,80,4|8,0:0|0:0,0:0:0:0:
452,183,28621,2,0,L|437:275,1,80,4|8,0:0|0:0,0:0:0:0:
258,207,28861,6,0,B|241:188|226:185|226:185|194:212|132:209|112:187,1,160,4|0,0:1|0:0,0:0:0:0:
103,107,29221,1,8,0:0:0:0:
0,293,29341,2,0,B|-1:271|4:257|4:257|68:239|122:304,1,160,4|0,0:0|0:0,0:0:0:0:
135,373,29701,1,8,0:0:0:0:
234,221,29821,6,0,L|224:301,1,80,0|8,0:0|0:0,0:0:0:0:
356,384,30061,2,0,B|344:355|344:355|345:304,1,80,0|8,0:0|0:0,0:0:0:0:
227,207,30301,2,0,P|190:193|151:188,1,80,0|8,0:0|0:0,0:0:0:0:
453,362,30541,2,0,P|416:376|377:381,1,80,0|8,0:0|0:0,0:0:0:0:
502,223,30781,6,0,B|480:227|464:242|464:242|406:242|379:206|379:206|363:243|326:247,1,194.999991073609,4|0,0:0|0:0,0:0:0:0:
318,248,31021,2,0,P|280:191|301:122,1,129.999994049073,4|8,0:0|0:0,0:0:0:0:
493,94,31261,2,0,B|446:111|446:111|347:77,1,129.999994049073,4|8,0:0|0:0,0:0:0:0:
248,28,31501,2,0,B|201:11|201:11|174:46|102:45,1,129.999994049073,4|8,0:0|0:0,0:0:0:0:
9,38,31741,5,4,0:1:0:0:
19,45,31801,1,0,0:0:0:0:
25,56,31861,1,0,0:0:0:0:
27,68,31921,1,0,0:0:0:0:
25,80,31981,2,0,P|16:118|24:150,3,64.9999970245363,4|0|0|0,0:0|0:0|0:0|0:0,0:0:0:0:
93,217,32221,5,8,0:0:0:0:
144,211,32281,1,8,0:0:0:0:
195,205,32341,1,4,0:0:0:0:
246,200,32401,1,4,0:0:0:0:
297,195,32461,2,0,L|373:188,3,64.9999970245363,8|8|8|0,0:3|0:3|0:3|0:3,0:0:0:0:
408,119,32701,5,12,0:0:0:0:
374,272,32821,2,0,P|430:291|482:278,1,100,0|8,0:0|0:0,0:0:0:0:
417,110,33061,1,0,0:0:0:0:
291,202,33181,2,0,P|209:214|157:187,1,100,4|0,0:0|0:0,0:0:0:0:
128,94,33421,2,0,B|129:128|152:149|152:149|169:202|109:252,1,150,8|0,0:0|0:0,0:0:0:0:
106,240,33661,6,0,L|116:362,1,100,2|0,0:0|0:0,0:0:0:0:
226,99,33901,2,0,L|236:-23,1,100,10|0,0:0|0:0,0:0:0:0:
84,246,34141,2,0,B|107:296|94:353|94:353|132:318|211:333,1,200,2|10,0:0|0:0,0:0:0:0:
269,373,34501,1,0,0:0:0:0:
315,180,34621,5,4,0:0:0:0:
354,271,34741,2,0,P|307:253|257:254,1,100,0|8,0:0|0:0,0:0:0:0:
183,321,34981,1,0,0:0:0:0:
367,286,35101,2,0,B|395:278|408:245|408:245|465:254|474:315,1,150,4|0,0:0|0:0,0:0:0:0:
487,314,35341,2,0,P|485:254|506:207,1,100,8|0,0:0|0:0,0:0:0:0:
508,110,35581,6,0,B|453:113|453:113|425:104|425:104|340:127,1,150,0|0,0:0|0:0,0:0:0:0:
345,132,35821,2,0,P|324:68|278:27,1,100,8|0,0:0|0:0,0:0:0:0:
271,228,36061,2,0,B|320:217|320:217|370:216,2,100,0|0|8,0:0|0:0|0:0,0:0:0:0:
193,289,36421,1,8,0:3:0:0:
181,305,36481,1,8,0:3:0:0:
172,323,36541,6,0,L|169:211,1,100,4|8,0:1|0:0,0:0:0:0:
118,106,36781,2,0,P|95:181|75:205,1,100,0|8,0:0|0:0,0:0:0:0:
4,260,37021,1,0,0:0:0:0:
7,122,37141,1,8,0:0:0:0:
181,227,37261,6,0,B|243:235|243:235|280:199,1,100,0|8,0:0|0:0,0:0:0:0:
264,42,37501,2,0,P|271:81|302:140,1,100,0|8,0:0|0:0,0:0:0:0:
490,169,37741,2,0,P|413:164|377:170,1,100,0|8,0:0|0:0,0:0:0:0:
297,290,37981,1,0,0:0:0:0:
347,376,38101,1,8,0:0:0:0:
468,250,38221,1,0,0:0:0:0:
462,350,38341,1,8,0:0:0:0:
228,202,38461,6,0,B|206:224|206:224|240:247|248:290|248:290|218:315|221:388,1,200,4|4,0:0|0:0,0:0:0:0:
52,147,38821,2,0,B|99:138|130:176|130:176|187:156|197:87,1,200,8|8,0:0|0:0,0:0:0:0:
307,18,39181,2,0,P|294:109|306:137,1,100,8|0,0:0|0:0,0:0:0:0:
379,201,39421,5,8,0:3:0:0:
401,189,39481,1,8,0:3:0:0:
412,166,39541,1,8,0:3:0:0:
412,141,39601,1,8,0:3:0:0:
399,119,39661,2,0,L|343:121,3,50,2|2|8|4,0:0|0:0|0:0|0:0,0:0:0:0:
287,164,39901,6,0,B|271:209|271:209|321:342,1,150.000005722046,12|0,0:1|0:0,0:0:0:0:
134,151,40141,2,0,L|196:-12,1,150.000005722046,0|0,0:0|0:0,0:0:0:0:
206,239,40381,5,4,0:1:0:0:
194,243,40441,1,0,0:0:0:0:
182,247,40501,1,0,0:0:0:0:
170,249,40561,1,0,0:0:0:0:
157,250,40621,2,0,L|104:245,3,50,10|0|0|0,0:0|0:0|0:0|0:0,0:0:0:0:
0,310,40861,2,0,L|53:304,3,50,10|0|0|0,0:0|0:0|0:0|0:0,0:0:0:0:
115,355,41101,1,10,0:0:0:0:
127,352,41161,1,0,0:0:0:0:
139,350,41221,1,0,0:0:0:0:
152,350,41281,1,0,0:0:0:0:
164,350,41341,5,10,0:0:0:0:
177,356,41401,1,0,0:0:0:0:
187,359,41461,1,0,0:0:0:0:
199,360,41521,1,0,0:0:0:0:
212,359,41581,2,0,P|233:328|236:308,3,50,10|0|0|0,0:0|0:0|0:0|0:0,0:0:0:0:
294,250,41821,2,0,P|301:273|317:293,3,50,10|0|0|0,0:0|0:0|0:0|0:0,0:0:0:0:
402,331,42061,1,10,0:0:0:0:
405,316,42121,1,0,0:0:0:0:
408,301,42181,1,0,0:0:0:0:
411,286,42241,1,0,0:0:0:0:
414,271,42301,5,10,0:0:0:0:
425,261,42361,1,0,0:0:0:0:
439,256,42421,1,0,0:0:0:0:
453,254,42481,1,0,0:0:0:0:
467,254,42541,2,0,P|495:264|525:288,3,50,10|0|0|0,0:0|0:0|0:0|0:0,0:0:0:0:
449,161,42781,2,0,P|427:174|404:182,3,50,10|0|0|0,0:0|0:0|0:0|0:0,0:0:0:0:
311,198,43021,1,10,0:0:0:0:
312,185,43081,1,0,0:0:0:0:
314,173,43141,1,0,0:0:0:0:
315,160,43201,1,0,0:0:0:0:
318,146,43261,6,0,P|266:119|251:116,3,50,10|0|0|0,0:0|0:0|0:0|0:0,0:0:0:0:
203,155,43501,1,10,0:0:0:0:
203,155,43561,1,0,0:0:0:0:
203,155,43621,2,0,P|166:161|129:156,3,50,0|0|10|0,0:0|0:0|0:0|0:0,0:0:0:0:
55,125,43861,1,0,0:0:0:0:
55,125,43921,1,0,0:0:0:0:
55,125,43981,1,10,0:0:0:0:
59,136,44041,1,0,0:0:0:0:
63,148,44101,1,0,0:0:0:0:
65,160,44161,1,0,0:0:0:0:
65,175,44221,6,0,L|55:236,3,50,10|0|0|0,0:0|0:0|0:0|0:0,0:0:0:0:
131,262,44461,2,0,L|141:323,3,50,10|0|0|0,0:0|0:0|0:0|0:0,0:0:0:0:
222,331,44701,2,0,L|242:389,3,50,10|0|0|0,0:0|0:0|0:0|0:0,0:0:0:0:
284,266,44941,5,10,0:0:0:0:
287,253,45001,1,0,0:0:0:0:
290,241,45061,1,0,0:0:0:0:
293,229,45121,1,0,0:0:0:0:
296,217,45181,2,0,P|341:204|370:212,3,50,10|0|0|0,0:0|0:0|0:0|0:0,0:0:0:0:
437,157,45421,2,0,P|392:143|363:151,3,50,10|0|0|0,0:0|0:0|0:0|0:0,0:0:0:0:
296,96,45661,2,0,P|340:82|369:90,3,50,10|0|0|0,0:0|0:0|0:0|0:0,0:0:0:0:
432,73,45901,1,10,0:0:0:0:
445,79,45961,1,0,0:0:0:0:
458,86,46021,1,0,0:0:0:0:
471,93,46081,1,0,0:0:0:0:
485,97,46141,5,10,0:0:0:0:
472,112,46201,1,0,0:0:0:0:
468,131,46261,1,0,0:0:0:0:
471,150,46321,1,0,0:0:0:0:
481,166,46381,2,0,P|485:189|485:239,3,50,10|0|0|0,0:0|0:0|0:0|0:0,0:0:0:0:
414,247,46621,2,0,P|409:270|410:320,3,50,10|0|0|0,0:0|0:0|0:0|0:0,0:0:0:0:
447,353,46861,1,10,0:0:0:0:
429,342,46921,1,0,0:0:0:0:
409,337,46981,1,0,0:0:0:0:
389,335,47041,1,0,0:0:0:0:
370,341,47101,6,0,L|296:335,3,50,0|0|0|0,0:0|0:0|0:0|0:0,0:0:0:0:
250,358,47341,1,8,0:0:0:0:
244,328,47401,1,8,0:0:0:0:
239,298,47461,1,8,0:0:0:0:
234,268,47521,1,8,0:0:0:0:
229,238,47581,2,0,P|181:239|171:236,3,50,0|0|0|0,0:0|0:0|0:0|0:0,0:0:0:0:
106,196,47821,1,8,0:0:0:0:
121,221,47881,1,8,0:0:0:0:
126,250,47941,1,8,0:0:0:0:
116,278,48001,1,8,0:0:0:0:
93,297,48061,6,0,L|-19:292,1,100,4|0,0:1|0:0,0:0:0:0:
54,145,48301,2,0,L|166:140,1,100,0|0,0:0|0:0,0:0:0:0:
99,305,48541,2,0,L|-13:300,1,100,4|0,0:2|0:0,0:0:0:0:
40,144,48781,1,0,0:0:0:0:
121,221,48901,1,0,0:0:0:0:
228,103,49021,6,0,P|241:45|225:-6,1,100,12|0,0:2|0:0,0:0:0:0:
131,232,49261,2,0,P|121:280|134:328,1,100,0|0,0:0|0:0,0:0:0:0:
221,116,49501,2,0,L|83:102,1,100,4|0,0:2|0:0,0:0:0:0:
251,197,49741,1,0,0:0:0:0:
314,78,49861,1,0,0:0:0:0:
283,271,49981,6,0,P|368:279|404:265,1,100,12|0,0:2|0:0,0:0:0:0:
247,183,50221,2,0,P|197:176|149:187,1,100,0|0,0:0|0:0,0:0:0:0:
393,271,50461,2,0,L|409:156,1,100,4|0,0:2|0:0,0:0:0:0:
391,283,50701,1,0,0:0:0:0:
470,343,50821,1,0,0:0:0:0:
447,62,50941,6,0,B|395:61|395:61|348:74,1,100,12|0,0:1|0:0,0:0:0:0:
254,110,51181,1,0,0:0:0:0:
330,332,51301,2,0,B|278:323|278:323|235:302,1,100,12|0,0:0|0:0,0:0:0:0:
148,251,51541,1,0,0:0:0:0:
343,89,51661,5,12,0:1:0:0:
151,142,51781,1,0,0:0:0:0:
366,255,51901,6,0,P|354:213|312:168,1,100,12|0,0:3|0:0,0:0:0:0:
403,329,52141,2,0,P|445:339|505:325,1,100,0|0,0:0|0:0,0:0:0:0:
295,287,52381,2,0,L|187:295,1,100,12|0,0:0|0:0,0:0:0:0:
108,344,52621,1,0,0:0:0:0:
29,281,52741,1,0,0:0:0:0:
135,252,52861,6,0,P|140:302|131:351,1,100,12|0,0:0|0:0,0:0:0:0:
19,178,53101,2,0,P|9:122|33:39,1,100,0|0,0:0|0:0,0:0:0:0:
168,61,53341,2,0,L|159:184,1,100,12|0,0:0|0:0,0:0:0:0:
124,254,53581,1,0,0:0:0:0:
216,216,53701,1,0,0:0:0:0:
330,359,53821,6,0,L|325:232,1,100,12|0,0:3|0:0,0:0:0:0:
375,27,54061,2,0,L|370:154,1,100,12|0,0:3|0:0,0:0:0:0:
227,335,54301,2,0,L|222:208,1,100,12|0,0:3|0:0,0:0:0:0:
425,191,54541,2,0,B|377:210|377:210|294:193,1,100,12|0,0:0|0:0,0:0:0:0:
209,102,54781,5,12,0:0:0:0:
194,108,54841,1,0,0:0:0:0:
179,113,54901,1,12,0:0:0:0:
301,56,55021,5,4,0:0:0:0:
217,235,55141,1,4,0:0:0:0:
334,175,55261,5,2,0:0:0:0:
360,283,55381,1,2,0:0:0:0:
468,106,55501,5,8,0:0:0:0:
450,222,55621,1,8,0:0:0:0:
450,222,56221,6,0,B|368:249|368:249|276:153|357:53,2,300.000011444092,2|2|2,0:0|0:0|0:0,0:0:0:0:
257,71,57661,6,0,L|254:204,1,100,4|0,0:1|0:0,0:0:0:0:
255,270,57901,1,10,0:0:0:0:
390,159,58021,2,0,B|331:147|331:147|257:170|243:289,1,200,4|4,0:0|0:0,0:0:0:0:
318,325,58381,2,0,L|419:309,1,100,10|0,0:0|0:0,0:0:0:0:
175,297,58621,6,0,B|134:305|119:349|119:349|53:361|29:308,1,150,4|0,0:0|0:0,0:0:0:0:
43,332,58861,2,0,L|29:214,1,100,10|0,0:0|0:0,0:0:0:0:
25,78,59101,1,4,0:0:0:0:
81,160,59221,1,4,0:0:0:0:
150,88,59341,2,0,P|201:69|280:89,1,100,10|0,0:0|0:0,0:0:0:0:
268,228,59581,6,0,B|290:149|290:149|311:131|311:131|312:91|338:45,1,200,4|10,0:0|0:0,0:0:0:0:
351,286,59941,2,0,P|299:263|205:363,1,200,4|4,0:0|0:0,0:0:0:0:
433,362,60301,2,0,P|425:315|446:242,1,100,10|0,0:0|0:0,0:0:0:0:
512,178,60541,6,0,B|478:203|478:203|439:189|410:157|429:100,1,150,4|0,0:0|0:0,0:0:0:0:
437,101,60781,2,0,P|449:47|421:2,1,100,10|0,0:0|0:0,0:0:0:0:
327,138,61021,1,4,0:0:0:0:
283,48,61141,1,4,0:0:0:0:
309,144,61261,2,0,P|316:225|307:270,1,100,10|0,0:0|0:0,0:0:0:0:
172,251,61501,6,0,B|151:272|152:299|152:299|200:279|261:293|293:331,1,200,4|10,0:0|0:0,0:0:0:0:
68,316,61861,2,0,B|55:289|76:251|76:251|85:247|85:247|16:207|52:99,1,200,4|4,0:0|0:0,0:0:0:0:
110,68,62221,2,0,L|214:84,1,100,10|0,0:0|0:0,0:0:0:0:
191,219,62461,6,0,L|87:235,1,100,4|0,0:0|0:0,0:0:0:0:
265,189,62701,2,0,B|291:178|291:178|328:182|351:228|351:228|364:196|397:175,1,150,10|0,0:0|0:0,0:0:0:0:
386,187,62941,2,0,P|417:231|422:279,1,100,4|4,0:0|0:0,0:0:0:0:
493,193,63181,2,0,B|493:134|452:108|452:108|476:33,1,150,10|0,0:0|0:0,0:0:0:0:
480,51,63421,6,0,B|416:100|352:101|352:101|353:66|371:19,1,200,4|10,0:0|0:0,0:0:0:0:
235,16,63781,2,0,B|279:56|279:56|267:129|220:212,1,200,4|4,0:0|0:0,0:0:0:0:
137,217,64141,1,10,0:0:0:0:
65,147,64261,1,0,0:0:0:0:
133,312,64381,5,4,0:0:0:0:
180,127,64501,1,8,0:0:0:0:
180,127,64561,1,8,0:0:0:0:
180,127,64621,2,0,L|207:9,1,100,2|8,0:0|0:0,0:0:0:0:
254,277,64861,2,0,P|323:299|362:291,1,100,8|0,0:1|0:0,0:0:0:0:
189,138,65101,2,0,P|123:111|62:117,1,100,0|0,0:0|0:0,0:0:0:0:
382,219,65341,6,0,B|429:196|429:196|447:137|403:79|349:84,1,200,4|2,0:1|0:2,0:0:0:0:
246,266,65701,2,0,B|270:300|264:350|264:350|303:291|370:305,1,200,8|8,0:0|0:0,0:0:0:0:
483,368,66061,2,0,P|465:300|471:268,1,100,2|0,0:2|0:0,0:0:0:0:
508,80,66301,5,2,0:2:0:0:
477,175,66421,1,8,0:0:0:0:
393,120,66541,2,0,P|306:103|260:110,1,100,2|8,0:2|0:0,0:0:0:0:
83,211,66781,2,0,P|170:194|216:201,1,100,2|8,0:2|0:0,0:0:0:0:
308,272,67021,2,0,L|291:371,1,100,2|8,0:2|0:0,0:0:0:0:
196,204,67261,6,0,B|270:191|270:191|304:215|304:215|409:209,1,200,2|2,0:2|0:2,0:0:0:0:
487,206,67621,1,8,0:0:0:0:
286,153,67741,2,0,P|273:91|299:44,1,100,2|0,0:2|0:0,0:0:0:0:
406,226,67981,2,0,L|386:342,1,100,2|8,0:2|0:0,0:0:0:0:
204,261,68221,5,2,0:2:0:0:
261,179,68341,1,0,0:0:0:0:
286,335,68461,1,2,0:2:0:0:
200,124,68581,1,8,0:0:0:0:
149,333,68701,2,0,L|35:345,1,100,4|0,0:1|0:0,0:0:0:0:
266,194,68941,2,0,L|380:206,1,100,8|0,0:0|0:0,0:0:0:0:
437,274,69181,5,4,0:1:0:0:
135,226,69301,2,0,B|119:184|119:184|148:101,1,100,8|4,0:0|0:0,0:0:0:0:
325,100,69541,2,0,P|275:113|213:115,1,100,8|2,0:0|0:0,0:0:0:0:
53,150,69781,1,4,0:0:0:0:
23,143,69841,1,4,0:0:0:0:
0,123,69901,5,8,0:1:0:0:
7,162,69961,1,8,0:1:0:0:
14,201,70021,1,8,0:1:0:0:
21,240,70081,1,8,0:1:0:0:
29,279,70141,6,0,L|85:286,3,50,2|2|8|8,0:0|0:0|0:0|0:0,0:0:0:0:
139,365,70381,2,0,L|83:372,3,50,4|4|4|0,0:0|0:0|0:0|0:0,0:0:0:0:
173,288,70621,5,0,0:0:0:0:
399,336,70741,1,0,0:0:0:0:
262,352,70861,1,12,0:0:0:0:
259,255,70981,1,0,0:0:0:0:
370,177,71101,5,12,0:0:0:0:
499,328,71581,6,0,B|495:270|446:237|446:237|536:167|495:59,2,300.000011444092,2|2|2,0:0|0:0|0:0,0:0:0:0:
389,310,73021,5,4,0:1:0:0:
361,297,73081,1,0,0:3:0:0:
332,288,73141,1,0,0:3:0:0:
302,289,73201,1,0,0:3:0:0:
274,301,73261,1,8,0:3:0:0:
252,322,73321,1,0,0:3:0:0:
223,332,73381,1,4,0:3:0:0:
193,324,73441,1,0,0:3:0:0:
172,301,73501,2,0,L|167:249,3,50,8|0|0|0,0:3|0:3|0:3|0:3,0:0:0:0:
213,178,73741,2,0,L|218:126,3,50,12|0|0|0,0:3|0:3|0:3|0:3,0:0:0:0:
223,47,73981,5,12,0:3:0:0:
252,54,74041,1,0,0:3:0:0:
276,70,74101,1,0,0:3:0:0:
292,95,74161,1,0,0:3:0:0:
292,124,74221,1,8,0:3:0:0:
298,153,74281,1,0,0:3:0:0:
319,173,74341,1,4,0:3:0:0:
347,181,74401,1,0,0:3:0:0:
376,173,74461,1,8,0:3:0:0:
394,149,74521,1,0,0:3:0:0:
400,119,74581,1,0,0:3:0:0:
386,92,74641,1,0,0:3:0:0:
359,78,74701,2,0,P|326:71|283:77,3,50,12|0|0|0,0:3|0:3|0:3|0:3,0:0:0:0:
258,150,74941,6,0,L|266:215,3,50,12|0|0|0,0:3|0:3|0:3|0:3,0:0:0:0:
331,250,75181,2,0,L|323:315,3,50,8|0|4|0,0:3|0:3|0:3|0:3,0:0:0:0:
410,177,75421,1,8,0:3:0:0:
422,150,75481,1,0,0:3:0:0:
425,120,75541,1,0,0:3:0:0:
416,91,75601,1,0,0:3:0:0:
398,68,75661,1,12,0:3:0:0:
373,52,75721,1,0,0:3:0:0:
343,47,75781,1,0,0:3:0:0:
314,55,75841,1,0,0:3:0:0:
289,72,75901,6,0,L|294:135,3,50,12|0|0|0,0:3|0:3|0:3|0:3,0:0:0:0:
193,154,76141,2,0,L|196:104,3,50,12|0|0|0,0:3|0:3|0:3|0:3,0:0:0:0:
324,206,76381,2,0,L|329:269,3,50,12|0|0|0,0:3|0:3|0:3|0:3,0:0:0:0:
154,278,76621,2,0,L|157:228,3,50,12|0|0|0,0:3|0:3|0:3|0:3,0:0:0:0:
208,345,76861,5,12,0:3:0:0:
232,351,76921,1,0,0:3:0:0:
256,352,76981,1,0,0:3:0:0:
280,345,77041,1,0,0:3:0:0:
307,333,77101,1,8,0:3:0:0:
336,334,77161,1,0,0:3:0:0:
362,348,77221,1,4,0:3:0:0:
357,323,77281,1,0,0:3:0:0:
358,298,77341,1,8,0:3:0:0:
365,274,77401,1,0,0:3:0:0:
385,251,77461,1,0,0:3:0:0:
412,240,77521,1,0,0:3:0:0:
441,238,77581,2,0,P|423:262|401:274,3,50,12|0|0|0,0:3|0:3|0:3|0:3,0:0:0:0:
357,169,77821,6,0,P|363:197|359:230,3,50,12|0|0|0,0:3|0:3|0:3|0:3,0:0:0:0:
250,163,78061,2,0,P|269:184|282:214,3,50,12|0|0|0,0:3|0:3|0:3|0:3,0:0:0:0:
370,155,78301,2,0,P|383:134|391:111,3,50,12|0|0|0,0:3|0:3|0:3|0:3,0:0:0:0:
512,128,78541,2,0,P|490:147|460:160,3,50,12|0|0|0,0:3|0:3|0:3|0:3,0:0:0:0:
385,94,78781,5,12,0:3:0:0:
361,75,78841,1,0,0:3:0:0:
333,62,78901,1,0,0:3:0:0:
303,59,78961,1,0,0:3:0:0:
273,64,79021,2,0,L|256:113,3,50,8|0|4|0,0:3|0:3|0:3|0:3,0:0:0:0:
187,186,79261,2,0,L|170:137,3,50,8|0|0|0,0:3|0:3|0:3|0:3,0:0:0:0:
105,88,79501,1,12,0:3:0:0:
76,87,79561,1,0,0:3:0:0:
49,99,79621,1,0,0:3:0:0:
30,122,79681,1,0,0:3:0:0:
22,150,79741,5,4,0:0:0:0:
191,198,79861,1,8,0:0:0:0:
96,314,79981,2,0,P|47:312|0:296,1,100,8|2,0:0|0:0,0:0:0:0:
247,372,80221,2,0,L|344:348,1,100,8|0,0:0|0:0,0:0:0:0:
301,128,80461,2,0,L|204:105,1,100,0|0,0:0|0:0,0:0:0:0:
112,333,80701,6,0,B|118:258|118:258|187:222,1,150,4|0,0:1|0:0,0:0:0:0:
206,215,80941,2,0,L|117:163,1,100,0|8,0:0|0:0,0:0:0:0:
306,227,81181,2,0,L|287:114,1,100,0|8,0:0|0:0,0:0:0:0:
392,279,81421,2,0,L|411:166,1,100,0|8,0:0|0:0,0:0:0:0:
450,347,81661,6,0,B|391:383|334:344|334:344|267:337|222:377,1,200,4|2,0:0|0:0,0:0:0:0:
176,376,82021,1,0,0:0:0:0:
107,296,82141,2,0,B|91:250|91:250|95:178,1,100,8|0,0:0|0:0,0:0:0:0:
289,128,82381,2,0,B|288:183|288:183|266:229,1,100,0|0,0:0|0:0,0:0:0:0:
171,93,82621,6,0,B|198:86|213:57|213:57|285:109|370:62,1,200,4|0,0:1|0:0,0:0:0:0:
416,6,82981,1,8,0:0:0:0:
351,187,83101,2,0,P|339:125|347:76,1,100,0|8,0:0|0:0,0:0:0:0:
372,278,83341,2,0,P|312:257|273:225,1,100,0|8,0:0|0:0,0:0:0:0:
459,367,83581,6,0,B|414:332|355:360|355:360|341:353|341:353|239:359,1,200,4|2,0:0|0:0,0:0:0:0:
175,368,83941,1,0,0:0:0:0:
115,296,84061,2,0,P|126:217|146:186,1,100,8|0,0:0|0:0,0:0:0:0:
0,284,84301,2,0,P|19:329|20:379,1,100,0|0,0:0|0:0,0:0:0:0:
44,125,84541,6,0,P|126:84|181:144,1,150,4|0,0:1|0:0,0:0:0:0:
179,139,84781,2,0,P|238:141|279:119,1,100,0|8,0:0|0:0,0:0:0:0:
373,60,85021,2,0,L|360:171,1,100,0|8,0:0|0:0,0:0:0:0:
467,8,85261,2,0,L|480:119,1,100,0|8,0:0|0:0,0:0:0:0:
312,268,85501,6,0,B|297:218|297:218|376:161|454:247,1,200,4|0,0:0|0:0,0:0:0:0:
467,313,85861,1,8,0:0:0:0:
237,323,85981,2,0,L|202:211,1,100,0|4,0:0|0:0,0:0:0:0:
308,31,86221,2,0,P|303:85|278:126,1,100,8|4,0:0|0:0,0:0:0:0:
73,152,86461,5,4,0:0:0:0:
222,229,86581,2,0,L|342:224,1,100,8|0,0:0|0:0,0:0:0:0:
347,240,86761,1,0,0:0:0:0:
365,263,86821,2,0,B|377:295|356:326|356:326|352:360,1,100,8|4,0:0|0:0,0:0:0:0:
450,375,87061,1,0,0:0:0:0:
473,356,87121,1,0,0:0:0:0:
496,337,87181,1,8,0:3:0:0:
497,307,87241,1,8,0:3:0:0:
497,277,87301,1,4,0:3:0:0:
497,247,87361,1,0,0:1:0:0:
497,217,87421,6,0,L|496:152,3,50,8|8|8|8,0:0|0:0|0:0|0:0,0:0:0:0:
443,97,87661,1,4,0:0:0:0:
279,120,87781,1,8,0:3:0:0:
452,78,87901,2,0,P|370:68|332:83,1,100,2|8,0:0|0:0,0:0:0:0:
227,206,88141,2,0,P|276:212|324:200,1,100,4|0,0:0|0:0,0:0:0:0:
176,50,88381,5,12,0:1:0:0:
179,8,92221,5,4,0:0:0:0:
179,8,94141,6,0,B|163:71|163:71|171:138,1,100,8|0,0:2|0:0,0:0:0:0:
219,204,94381,1,0,0:0:0:0:
74,38,94501,2,0,B|120:83|120:83|182:109,1,100,12|0,0:1|0:0,0:0:0:0:
330,104,94741,1,0,0:0:0:0:
296,278,94861,2,0,P|266:222|215:199,1,100,12|0,0:0|0:0,0:0:0:0:
58,312,95101,1,0,0:0:0:0:
297,299,95221,6,0,L|416:288,2,100,2|2|8,0:0|0:0|0:0,0:0:0:0:
100,219,95581,2,0,P|146:257|168:310,1,100,12|4,0:1|0:0,0:0:0:0:
290,125,95821,2,0,P|244:163|222:216,1,100,4|4,0:0|0:0,0:0:0:0:
407,279,96061,6,0,L|392:55,1,200,8|0,0:0|0:0,0:0:0:0:
392,66,96421,1,0,0:0:0:0:
231,214,96541,2,0,L|361:200,1,100,8|0,0:0|0:0,0:0:0:0:
112,216,96781,2,0,L|242:230,1,100,4|0,0:0|0:0,0:0:0:0:
84,384,97021,6,0,B|46:359|50:312|50:312|114:276|97:191,1,200,8|0,0:0|0:0,0:0:0:0:
47,143,97381,1,0,0:0:0:0:
131,66,97501,2,0,P|174:63|251:80,1,100,0|0,0:0|0:0,0:0:0:0:
314,215,97741,2,0,B|313:151|313:151|304:139|304:139|313:38,1,150,4|0,0:0|0:0,0:0:0:0:
325,52,97981,6,0,L|436:40,1,100,12|0,0:0|0:2,0:0:0:0:
413,195,98221,2,0,L|524:207,1,100,4|0,0:2|0:2,0:0:0:0:
316,274,98461,2,0,B|309:223|309:223|330:175|419:181,1,150,12|0,0:0|0:0,0:0:0:0:
413,195,98701,6,0,P|411:243|399:308,1,100,4|0,0:2|0:2,0:0:0:0:
248,357,98941,2,0,P|234:313|228:227,1,100,12|0,0:0|0:2,0:0:0:0:
303,119,99181,2,0,B|283:145|283:145|271:76|181:62,1,150,4|0,0:2|0:0,0:0:0:0:
188,69,99421,6,0,L|76:80,1,100,12|0,0:0|0:2,0:0:0:0:
317,106,99661,2,0,L|429:117,1,100,4|0,0:2|0:2,0:0:0:0:
215,264,99901,6,0,P|201:199|227:148,1,100,12|0,0:0|0:0,0:0:0:0:
333,93,100141,2,0,P|344:141|329:188,1,100,4|0,0:2|0:2,0:0:0:0:
214,282,100381,2,0,L|100:268,1,100,12|0,0:0|0:2,0:0:0:0:
401,239,100621,2,0,L|515:225,1,100,4|0,0:2|0:2,0:0:0:0:
356,384,100861,6,0,P|335:338|335:260,1,100,12|0,0:0|0:0,0:0:0:0:
474,199,101101,2,0,P|494:153|495:75,1,100,4|0,0:2|0:0,0:0:0:0:
317,88,101341,2,0,P|395:101|429:98,1,100,12|0,0:0|0:0,0:0:0:0:
227,99,101581,2,0,P|254:173|274:200,1,100,4|0,0:2|0:0,0:0:0:0:
373,344,101821,5,12,0:0:0:0:
397,265,101941,1,0,0:2:0:0:
281,354,102061,2,0,L|170:361,1,100,4|0,0:2|0:2,0:0:0:0:
50,274,102301,1,12,0:0:0:0:
147,213,102421,1,0,0:2:0:0:
71,362,102541,1,4,0:2:0:0:
0,211,102661,1,0,0:2:0:0:
192,288,102781,6,0,B|219:304|246:302|246:302|309:255|401:313,1,200,12|0,0:0|0:0,0:0:0:0:
420,373,103141,1,0,0:0:0:0:
306,245,103261,2,0,L|328:135,1,100,4|0,0:3|0:0,0:0:0:0:
493,283,103501,2,0,L|515:393,1,100,12|0,0:3|0:0,0:0:0:0:
390,218,103741,6,0,P|426:208|471:209,2,66.6666666666667,8|0|0,0:3|0:0|0:0,0:0:0:0:
331,139,103981,2,0,P|295:129|250:130,2,66.6666666666667,2|0|0,0:3|0:2|0:2,0:0:0:0:
495,69,104221,5,8,0:3:0:0:
485,36,104301,1,0,0:0:0:0:
456,19,104381,1,0,0:0:0:0:
423,24,104461,2,0,P|365:43|318:38,1,66.6666666666667,2|0,0:0|0:0,0:0:0:0:
218,16,104621,1,0,0:0:0:0:
151,49,104701,6,0,P|142:85|157:119,2,66.6666666666667,8|0|0,0:3|0:0|0:0,0:0:0:0:
312,53,104941,1,2,0:0:0:0:
318,82,105021,1,0,0:0:0:0:
307,107,105101,1,0,0:0:0:0:
286,118,105181,6,0,B|241:108|241:108|189:135,1,100,8|0,0:3|0:2,0:0:0:0:
195,159,105361,2,0,L|210:219,1,50,0|2,0:2|0:3,0:0:0:0:
92,149,105501,2,0,L|105:83,1,66.6666666666667,0|0,0:2|0:2,0:0:0:0:
106,231,105661,5,8,0:3:0:0:
98,263,105741,1,0,0:0:0:0:
74,286,105821,1,0,0:0:0:0:
44,300,105901,1,2,0:0:0:0:
96,311,105981,1,0,0:2:0:0:
136,345,106061,6,0,L|220:329,1,66.6666666666667,0|8,0:2|0:3,0:0:0:0:
391,273,106221,1,0,0:0:0:0:
338,262,106301,1,0,0:0:0:0:
295,293,106381,2,0,P|281:345|289:380,2,66.6666666666667,2|0|0,0:0|0:0|0:0,0:0:0:0:
364,164,106621,5,8,0:3:0:0:
295,189,106701,1,0,0:0:0:0:
245,135,106781,1,0,0:0:0:0:
274,67,106861,2,0,P|284:22|276:-9,2,66.6666666666667,2|0|0,0:3|0:0|0:0,0:0:0:0:
112,131,107101,5,8,0:0:0:0:
87,153,107181,1,0,0:2:0:0:
78,185,107261,1,0,0:2:0:0:
82,217,107341,1,2,0:3:0:0:
117,256,107421,1,0,0:2:0:0:
183,263,107501,1,0,0:2:0:0:
243,210,107581,6,0,P|261:197|289:190,3,50,8|0|0|0,0:3|0:0|0:0|0:0,0:0:0:0:
295,271,107821,1,2,0:3:0:0:
341,275,107901,1,0,0:0:0:0:
383,254,107981,1,0,0:0:0:0:
404,212,108061,2,0,P|414:266|441:308,2,66.6666666666667,8|0|0,0:3|0:0|0:0,0:0:0:0:
471,150,108301,2,0,P|482:119|486:86,2,66.6666666666667,2|0|0,0:3|0:0|0:0,0:0:0:0:
293,73,108541,5,8,0:3:0:0:
316,40,108621,1,0,0:0:0:0:
356,35,108701,1,0,0:0:0:0:
389,58,108781,2,0,L|403:133,2,66.6666666666667,2|0|0,0:3|0:0|0:0,0:0:0:0:
246,81,109021,1,8,0:3:0:0:
211,67,109101,1,0,0:0:0:0:
168,84,109181,1,0,0:0:0:0:
145,128,109261,2,0,L|136:197,2,66.6666666666667,2|0|0,0:3|0:0|0:0,0:0:0:0:
51,58,109501,5,8,0:3:0:0:
93,24,109581,1,0,0:0:0:0:
145,36,109661,1,0,0:0:0:0:
168,84,109741,1,2,0:3:0:0:
212,115,109821,1,0,0:0:0:0:
265,104,109901,1,0,0:0:0:0:
303,82,109981,2,0,P|310:43|309:-13,2,66.6666666666667,8|0|0,0:3|0:0|0:0,0:0:0:0:
270,251,110221,2,0,L|261:184,2,66.6666666666667,2|0|0,0:3|0:0|0:0,0:0:0:0:
293,344,110461,6,0,B|327:373|371:364|371:364|416:295|508:322,1,200,8|0,0:0|0:0,0:0:0:0:
502,330,110821,1,0,0:0:0:0:
322,267,110941,2,0,B|294:247|294:247|214:245,1,100,12|0,0:3|0:0,0:0:0:0:
386,153,111181,2,0,B|415:135|415:135|495:140,1,100,4|0,0:3|0:0,0:0:0:0:
220,253,111421,6,0,B|186:205|186:205|212:112|333:130,1,200,12|0,0:0|0:0,0:0:0:0:
365,155,111781,1,0,0:0:0:0:
480,116,111901,2,0,L|486:12,1,100,0|0,0:0|0:0,0:0:0:0:
328,231,112141,2,0,L|334:335,1,100,4|0,0:0|0:0,0:0:0:0:
472,239,112381,6,0,B|468:210|484:184|484:184|421:227|319:233,1,200,12|0,0:2|0:0,0:0:0:0:
203,352,112741,2,0,P|248:302|171:171,1,200,0|0,0:2|0:0,0:0:0:0:
75,116,113101,2,0,P|159:102|216:124,1,100,4|0,0:0|0:0,0:0:0:0:
438,137,113341,6,0,B|407:163|365:152|365:152|338:72|411:7,1,200,12|0,0:2|0:0,0:0:0:0:
463,37,113701,1,0,0:0:0:0:
509,212,113821,2,0,L|507:331,1,100,0|0,0:0|0:0,0:0:0:0:
448,129,114061,1,4,0:0:0:0:
280,227,114181,1,4,0:0:0:0:
208,24,114301,6,0,B|244:74|244:74|189:215,1,200,12|0,0:2|0:0,0:0:0:0:
18,142,114661,2,0,B|1:127|-9:84|-9:84|44:68|121:106,1,200,0|0,0:0|0:0,0:0:0:0:
187,211,115021,2,0,L|26:254,1,150,0|0,0:0|0:0,0:0:0:0:
23,243,115261,6,0,P|90:252|95:376,1,200,12|0,0:2|0:0,0:0:0:0:
24,360,115621,1,0,0:0:0:0:
208,327,115741,2,0,P|251:327|327:350,1,100,4|0,0:2|0:0,0:0:0:0:
428,371,115981,1,4,0:0:0:0:
328,217,116101,1,4,0:0:0:0:
450,378,116221,6,0,B|452:299|452:299|474:274|474:274|455:160,1,200,12|0,0:2|0:0,0:0:0:0:
423,115,116581,1,0,0:0:0:0:
325,232,116701,2,0,P|253:231|217:187,1,100,4|0,0:2|0:0,0:0:0:0:
152,28,116941,2,0,B|189:39|189:39|220:104|171:166,1,150,4|0,0:0|0:0,0:0:0:0:
170,157,117181,6,0,P|275:76|381:92,1,200,12|0,0:2|0:0,0:0:0:0:
253,284,117541,2,0,L|26:237,1,200,2|0,0:2|0:0,0:0:0:0:
344,273,117901,2,0,P|348:334|329:398,1,100,4|0,0:2|0:0,0:0:0:0:
271,188,118141,6,0,B|389:161|389:161|474:229,1,200,12|0,0:1|0:0,0:0:0:0:
503,270,118501,1,0,0:0:0:0:
349,140,118621,2,0,P|338:78|349:27,1,100,0|0,0:0|0:0,0:0:0:0:
506,289,118861,2,0,P|444:300|393:289,1,100,0|0,0:0|0:0,0:0:0:0:
241,158,119101,6,0,B|285:190|285:190|271:195|271:195|231:259|283:332,1,200,12|0,0:3|0:0,0:0:0:0:
187,372,119461,2,0,B|163:296|163:296|90:314|69:378,1,200,8|0,0:0|0:0,0:0:0:0:
11,197,119821,2,0,P|78:224|118:211,1,100,4|0,0:0|0:0,0:0:0:0:
183,47,120061,5,8,0:3:0:0:
183,47,120301,1,0,0:0:0:0:
151,131,120421,1,0,0:0:0:0:
282,177,120541,5,4,0:2:0:0:
284,87,120661,1,0,0:0:0:0:
221,282,120781,5,0,0:0:0:0:
308,261,120901,1,0,0:0:0:0:
98,240,121021,6,0,L|-7:222,1,100,4|0,0:2|0:0,0:0:0:0:
303,285,121261,2,0,P|356:284|394:273,2,66.6666666666667,0|0|0,0:0|0:0|0:0,0:0:0:0:
207,268,121501,1,4,0:2:0:0:
268,96,121621,2,0,P|338:75|396:81,2,100,0|0|0,0:0|0:0|0:0,0:0:0:0:
207,268,121981,5,12,0:3:0:0:
169,144,122101,1,0,0:0:0:0:
153,328,122221,2,0,L|23:341,1,100,0|0,0:0|0:0,0:0:0:0:
294,354,122461,2,0,P|311:298|301:230,2,100,4|0|0,0:2|0:0|0:0,0:0:0:0:
62,126,122941,5,4,0:1:0:0:
148,101,123061,1,0,0:0:0:0:
211,209,123181,5,0,0:0:0:0:
312,123,123301,1,0,0:0:0:0:
382,240,123421,5,4,0:2:0:0:
409,47,123541,1,0,0:0:0:0:
256,45,123661,5,0,0:0:0:0:
448,173,123781,1,0,0:0:0:0:
205,225,123901,6,0,L|89:215,2,100,12|0|0,0:2|0:0|0:0,0:0:0:0:
269,287,124261,1,0,0:0:0:0:
341,162,124381,2,0,L|360:37,1,100,4|0,0:2|0:0,0:0:0:0:
95,229,124621,2,0,L|114:354,1,100,0|0,0:0|0:0,0:0:0:0:
373,256,124861,6,0,P|364:177|338:145,2,100,4|0|0,0:1|0:0|0:0,0:0:0:0:
269,287,125221,1,0,0:0:0:0:
305,85,125341,2,0,B|330:75|330:75|432:92,1,100,4|0,0:2|0:0,0:0:0:0:
198,158,125581,2,0,B|166:168|166:168|71:165,1,100,0|0,0:0|0:0,0:0:0:0:
24,43,125821,5,12,0:2:0:0:
24,43,125881,1,0,0:0:0:0:
24,43,125941,1,0,0:0:0:0:
167,53,126061,2,0,L|191:164,1,100,0|0,0:0|0:0,0:0:0:0:
0,294,126301,2,0,L|21:196,1,100,4|0,0:2|0:3,0:0:0:0:
118,220,126541,1,2,0:3:0:0:
170,363,126661,1,0,0:2:0:0:
272,160,126781,6,0,L|281:71,1,69.9999978637696,8|4,0:1|0:3,0:0:0:0:
281,62,126961,1,4,0:3:0:0:
283,34,127021,1,4,0:3:0:0:
359,154,127141,1,8,0:0:0:0:
495,78,127261,1,4,0:3:0:0:
480,54,127321,1,4,0:3:0:0:
454,41,127381,1,4,0:3:0:0:
426,42,127441,1,4,0:3:0:0:
400,53,127501,1,8,0:3:0:0:
386,73,127561,1,0,0:0:0:0:
383,97,127621,2,0,P|407:107|438:111,2,34.9999989318848,0|2|8,0:1|0:0|0:0,0:0:0:0:
322,17,127861,5,0,0:0:0:0:
290,113,127981,1,8,0:0:0:0:
210,43,128101,1,8,0:0:0:0:
119,88,128221,1,4,0:0:0:0:
90,187,128341,5,4,0:0:0:0:
102,0,128461,1,8,0:1:0:0:
102,0,128701,5,4,0:1:0:0:
107,11,128761,1,0,0:0:0:0:
105,23,128821,1,0,0:0:0:0:
103,35,128881,1,0,0:0:0:0:
97,46,128941,2,0,L|45:56,3,50,10|0|0|0,0:0|0:0|0:0|0:0,0:0:0:0:
152,119,129181,2,0,L|204:129,3,50,10|0|0|0,0:0|0:0|0:0|0:0,0:0:0:0:
88,184,129421,1,10,0:0:0:0:
83,195,129481,1,0,0:0:0:0:
83,207,129541,1,0,0:0:0:0:
87,218,129601,1,0,0:0:0:0:
88,230,129661,5,10,0:0:0:0:
87,242,129721,1,0,0:0:0:0:
84,254,129781,1,0,0:0:0:0:
78,265,129841,1,0,0:0:0:0:
69,274,129901,2,0,L|16:271,3,50,10|0|0|0,0:0|0:0|0:0|0:0,0:0:0:0:
96,352,130141,2,0,L|149:349,3,50,10|0|0|0,0:0|0:0|0:0|0:0,0:0:0:0:
238,316,130381,1,10,0:0:0:0:
250,316,130441,1,0,0:0:0:0:
262,317,130501,1,0,0:0:0:0:
274,318,130561,1,0,0:0:0:0:
286,317,130621,5,10,0:0:0:0:
298,315,130681,1,0,0:0:0:0:
308,307,130741,1,0,0:0:0:0:
312,295,130801,1,0,0:0:0:0:
307,283,130861,2,0,P|301:259|305:222,3,50,10|0|0|0,0:0|0:0|0:0|0:0,0:0:0:0:
363,177,131101,2,0,P|369:153|365:116,3,50,10|0|0|0,0:0|0:0|0:0|0:0,0:0:0:0:
352,38,131341,1,10,0:0:0:0:
339,39,131401,1,0,0:0:0:0:
326,41,131461,1,0,0:0:0:0:
313,43,131521,1,0,0:0:0:0:
300,45,131581,6,0,L|239:56,3,50,10|0|0|0,0:0|0:0|0:0|0:0,0:0:0:0:
170,130,131821,1,10,0:0:0:0:
170,130,131881,1,0,0:0:0:0:
170,130,131941,2,0,P|196:160|206:204,3,50,0|0|10|0,0:0|0:0|0:0|0:0,0:0:0:0:
151,243,132181,1,0,0:0:0:0:
151,243,132241,1,0,0:0:0:0:
151,243,132301,1,10,0:0:0:0:
131,244,132361,1,0,0:0:0:0:
111,245,132421,1,0,0:0:0:0:
91,247,132481,1,0,0:0:0:0:
71,247,132541,6,0,L|15:248,3,50,10|0|0|0,0:0|0:0|0:0|0:0,0:0:0:0:
121,341,132781,2,0,L|71:340,3,50,10|0|0|0,0:0|0:0|0:0|0:0,0:0:0:0:
211,273,133021,2,0,L|161:273,3,50,10|0|0|0,0:0|0:0|0:0|0:0,0:0:0:0:
268,338,133261,1,10,0:0:0:0:
275,328,133321,1,0,0:0:0:0:
283,318,133381,1,0,0:0:0:0:
287,306,133441,1,0,0:0:0:0:
289,293,133501,5,10,0:0:0:0:
290,280,133561,1,0,0:0:0:0:
288,267,133621,1,0,0:0:0:0:
287,254,133681,1,0,0:0:0:0:
281,242,133741,2,0,L|346:240,3,50,10|0|0|0,0:0|0:0|0:0|0:0,0:0:0:0:
395,287,133981,2,0,L|460:289,3,50,10|0|0|0,0:0|0:0|0:0|0:0,0:0:0:0:
505,238,134221,1,10,0:0:0:0:
500,226,134281,1,0,0:0:0:0:
498,213,134341,1,0,0:0:0:0:
499,200,134401,1,0,0:0:0:0:
501,187,134461,5,10,0:0:0:0:
488,187,134521,1,0,0:0:0:0:
475,187,134581,1,0,0:0:0:0:
462,187,134641,1,0,0:0:0:0:
449,187,134701,2,0,L|389:191,3,50,10|0|0|0,0:0|0:0|0:0|0:0,0:0:0:0:
351,123,134941,2,0,L|291:119,3,50,10|0|0|0,0:0|0:0|0:0|0:0,0:0:0:0:
246,193,135181,1,10,0:0:0:0:
233,195,135241,1,0,0:0:0:0:
220,198,135301,1,0,0:0:0:0:
207,201,135361,1,0,0:0:0:0:
194,204,135421,6,0,P|184:168|186:142,3,50,0|0|0|0,0:0|0:0|0:0|0:0,0:0:0:0:
161,86,135661,1,8,0:0:0:0:
139,97,135721,1,8,0:0:0:0:
114,100,135781,1,8,0:0:0:0:
89,93,135841,1,8,0:0:0:0:
74,72,135901,2,0,L|72:8,3,50,0|0|0|0,0:0|0:0|0:0|0:0,0:0:0:0:
176,69,136141,1,8,0:0:0:0:
200,69,136201,1,8,0:0:0:0:
224,69,136261,1,8,0:0:0:0:
248,70,136321,1,8,0:0:0:0:
272,69,136381,6,0,P|300:128|296:205,1,100,4|0,0:1|0:0,0:0:0:0:
401,243,136621,2,0,P|408:193|432:150,1,100,0|0,0:0|0:0,0:0:0:0:
511,80,136861,2,0,L|384:57,1,100,4|0,0:2|0:0,0:0:0:0:
272,69,137101,1,0,0:0:0:0:
444,143,137221,1,0,0:0:0:0:
217,154,137341,6,0,L|89:135,1,100,12|0,0:2|0:0,0:0:0:0:
254,324,137581,2,0,P|280:283|290:230,1,100,0|0,0:0|0:0,0:0:0:0:
10,135,137821,2,0,P|19:183|46:225,1,100,4|0,0:2|0:0,0:0:0:0:
69,42,138061,1,0,0:0:0:0:
69,42,138181,1,0,0:0:0:0:
58,237,138301,6,0,B|144:234|144:234|159:239|159:239|263:237,1,200,12|0,0:2|0:0,0:0:0:0:
356,232,138661,1,0,0:0:0:0:
423,158,138781,2,0,P|433:95|416:61,1,100,4|0,0:2|0:0,0:0:0:0:
343,245,139021,2,0,L|358:348,1,100,0|0,0:0|0:0,0:0:0:0:
327,93,139261,6,0,P|270:71|170:156,1,200,12|0,0:1|0:0,0:0:0:0:
197,285,139621,2,0,B|226:305|226:305|223:249|129:222|79:275,1,200,12|0,0:0|0:0,0:0:0:0:
31,342,139981,2,0,L|57:183,1,150,12|0,0:1|0:0,0:0:0:0:
0,99,140221,6,0,P|75:117|123:103,1,100,12|0,0:1|0:0,0:0:0:0:
232,37,140461,2,0,L|217:141,1,100,0|0,0:0|0:0,0:0:0:0:
157,333,140701,2,0,L|142:229,1,100,12|0,0:0|0:0,0:0:0:0:
284,254,140941,1,0,0:0:0:0:
284,254,141061,1,0,0:0:0:0:
222,29,141181,6,0,P|280:26|341:137,1,200,12|0,0:0|0:0,0:0:0:0:
243,161,141541,1,0,0:0:0:0:
414,214,141661,2,0,L|524:192,1,100,12|0,0:0|0:0,0:0:0:0:
302,268,141901,2,0,L|192:246,1,100,0|0,0:0|0:0,0:0:0:0:
425,361,142141,6,0,B|446:308|446:308|406:272|409:194,1,150,4|0,0:1|0:0,0:0:0:0:
403,201,142381,2,0,B|406:145|374:112|374:112|395:59,1,150,8|0,0:0|0:0,0:0:0:0:
408,42,142621,1,4,0:0:0:0:
500,170,142741,1,4,0:0:0:0:
329,261,142861,1,8,0:0:0:0:
507,167,142981,1,0,0:0:0:0:
315,175,143101,6,0,P|251:167|212:174,1,100,2|2,0:0|0:0,0:0:0:0:
198,190,143281,1,8,0:0:0:0:
186,212,143341,1,4,0:0:0:0:
196,320,143461,1,0,0:0:0:0:
94,236,143581,5,0,0:0:0:0:
94,236,143641,1,0,0:0:0:0:
94,236,143701,1,0,0:0:0:0:
268,268,143821,2,0,P|287:325|275:374,1,100,0|8,0:0|0:1,0:0:0:0:
206,159,144061,6,0,B|196:103|196:103|273:57|351:141,1,200,4|10,0:1|0:0,0:0:0:0:
403,231,144421,2,0,B|405:145|405:145|418:140|418:140|387:85|425:22,1,200,4|4,0:0|0:0,0:0:0:0:
486,204,144781,2,0,P|420:168|396:116,1,100,10|0,0:0|0:0,0:0:0:0:
345,327,145021,6,0,L|462:317,1,100,4|0,0:0|0:0,0:0:0:0:
233,273,145261,2,0,L|116:263,1,100,10|0,0:0|0:0,0:0:0:0:
321,221,145501,1,4,0:0:0:0:
321,221,145621,1,4,0:0:0:0:
124,255,145741,2,0,P|119:205|136:158,1,100,10|0,0:0|0:0,0:0:0:0:
276,71,145981,6,0,B|222:98|182:68|182:68|186:56|186:56|129:27|68:76,1,200,4|10,0:0|0:0,0:0:0:0:
317,156,146341,2,0,P|316:107|298:61,1,100,4|0,0:0|0:0,0:0:0:0:
202,5,146581,1,4,0:0:0:0:
313,178,146701,2,0,L|431:169,1,100,10|0,0:0|0:0,0:0:0:0:
247,256,146941,6,0,B|212:268|212:268|155:262|132:204|147:149,1,150,4|0,0:0|0:0,0:0:0:0:
124,173,147181,2,0,P|115:232|68:262,1,100,10|0,0:0|0:0,0:0:0:0:
16,347,147421,2,0,L|129:339,1,100,4|4,0:0|0:0,0:0:0:0:
390,272,147661,2,0,L|277:264,1,100,10|0,0:0|0:0,0:0:0:0:
66,113,147901,6,0,B|115:132|156:94|156:94|210:111|207:183,1,200,4|10,0:0|0:0,0:0:0:0:
209,314,148261,2,0,B|175:268|175:268|191:174|305:181,1,200,4|4,0:0|0:0,0:0:0:0:
505,153,148621,2,0,B|468:177|430:161|434:145|393:133|356:157,1,150,10|0,0:0|0:0,0:0:0:0:
350,172,148861,2,0,P|320:88|294:74,1,100,4|0,0:0|0:0,0:0:0:0:
112,88,149101,6,0,P|168:85|223:58,1,100,10|0,0:0|0:0,0:0:0:0:
344,9,149341,2,0,P|318:58|314:120,1,100,4|4,0:0|0:0,0:0:0:0:
350,227,149581,2,0,B|317:188|317:188|204:202,1,150,10|0,0:0|0:0,0:0:0:0:
194,203,149821,6,0,B|143:282|143:282|185:391,1,200,4|10,0:0|0:0,0:0:0:0:
440,291,150181,2,0,P|353:261|239:311,1,200,4|4,0:0|0:0,0:0:0:0:
64,380,150541,2,0,P|67:314|50:269,1,100,10|0,0:0|0:0,0:0:0:0:
5,199,150781,5,4,0:0:0:0:
139,265,150901,1,8,0:0:0:0:
108,123,151021,2,0,L|91:6,1,100,2|8,0:0|0:0,0:0:0:0:
250,272,151261,2,0,L|233:389,1,100,8|0,0:1|0:0,0:0:0:0:
317,110,151501,1,4,0:0:0:0:
174,184,151621,1,0,0:0:0:0:
453,298,151741,5,4,0:1:0:0:
349,259,151861,2,0,L|229:274,1,100,8|2,0:0|0:2,0:0:0:0:
378,366,152101,2,0,P|438:343|457:308,1,100,8|2,0:0|0:2,0:0:0:0:
397,188,152341,1,8,0:0:0:0:
156,297,152461,2,0,B|109:315|109:315|144:197,1,150,2|0,0:2|0:0,0:0:0:0:
151,217,152701,6,0,L|132:102,1,100,2|8,0:2|0:0,0:0:0:0:
18,15,152941,2,0,P|63:34|156:32,1,100,2|8,0:2|0:0,0:0:0:0:
341,105,153181,2,0,P|291:110|245:129,1,100,2|8,0:2|0:0,0:0:0:0:
51,265,153421,2,0,L|40:151,1,100,2|8,0:2|0:0,0:0:0:0:
175,328,153661,6,0,B|228:334|228:334|311:310,2,100,2|0|2,0:2|0:0|0:2,0:0:0:0:
63,273,154021,1,8,0:0:0:0:
366,336,154141,2,0,B|378:263|328:249|310:235|304:172|356:152,1,200,2|2,0:2|0:2,0:0:0:0:
428,169,154501,1,8,0:0:0:0:
239,243,154621,6,0,L|228:126,1,100,2|0,0:2|0:0,0:0:0:0:
305,0,154861,2,0,L|294:117,1,100,2|8,0:2|0:0,0:0:0:0:
161,104,155101,1,4,0:1:0:0:
161,104,155161,1,0,0:0:0:0:
161,104,155221,1,0,0:0:0:0:
367,151,155341,2,0,P|405:192|415:251,1,100,8|0,0:0|0:0,0:0:0:0:
307,345,155581,5,4,0:1:0:0:
301,104,155701,2,0,B|275:68|275:68|219:124|262:213,1,200,4|0,0:2|0:0,0:0:0:0:
153,124,156061,2,0,P|101:112|56:127,1,100
40,143,156241,1,8,0:3:0:0:
27,164,156301,1,8,0:3:0:0:
27,189,156361,1,2,0:0:0:0:
36,212,156421,1,2,0:0:0:0:
53,230,156481,1,2,0:0:0:0:
77,235,156541,6,0,L|179:251,1,100,8|8,0:0|0:0,0:0:0:0:
247,328,156781,1,4,0:0:0:0:
422,165,157021,5,4,0:0:0:0:
387,258,157141,1,0,0:0:0:0:
348,86,157261,1,8,0:0:0:0:
508,154,157381,1,8,0:0:0:0:
258,124,157501,6,0,L|157:108,1,100,4|8,0:1|0:3,0:0:0:0:
129,111,157681,1,8,0:3:0:0:
103,126,157741,1,8,0:3:0:0:
45,263,157861,1,0,0:0:0:0:
217,203,157981,1,12,0:3:0:0:
241,222,158041,1,8,0:3:0:0:
255,248,158101,2,0,L|238:306,2,50,8|4|4,0:3|0:3|0:3,0:0:0:0:
361,199,158341,1,2,0:3:0:0:
438,335,158461,5,0,0:0:0:0:
341,312,158581,1,8,0:0:0:0:
341,312,158701,1,4,0:0:0:0:
500,273,158821,1,4,0:0:0:0:
321,320,158941,2,0,P|280:270|272:192,1,100,0|0,0:0|0:0,0:0:0:0:
314,40,159181,2,0,B|326:91|302:142|302:142|254:132|237:89,1,150,12|0,0:3|0:0,0:0:0:0:
239,102,159421,5,4,0:1:0:0:
452,123,159541,2,0,P|468:168|468:233,1,100,8|2,0:0|0:2,0:0:0:0:
268,332,159781,2,0,L|377:313,1,100,0|2,0:0|0:0,0:0:0:0:
443,113,160021,2,0,B|386:107|386:107|319:172|357:278,1,200
448,359,160381,5,2,0:2:0:0:
278,110,160501,2,0,P|215:156|205:202,1,100,8|2,0:0|0:2,0:0:0:0:
380,195,160741,1,8,0:0:0:0:
145,251,160861,2,0,P|191:314|237:324,1,100,2|8,0:2|0:0,0:0:0:0:
401,203,161101,2,0,L|417:91,1,100,2|8,0:2|0:0,0:0:0:0:
92,109,161341,6,0,B|67:146|81:192|81:192|72:204|72:204|67:316,1,200,2|2,0:2|0:2,0:0:0:0:
127,383,161701,1,8,0:0:0:0:
107,101,161821,2,0,B|137:111|155:131|155:131|211:104|281:166,1,150
261,160,162061,2,0,P|276:211|260:278,1,100,2|8,0:2|0:0,0:0:0:0:
211,45,162301,6,0,L|337:24,1,100,2|8,0:2|0:0,0:0:0:0:
483,158,162541,2,0,L|357:137,1,100,2|8,0:2|0:0,0:0:0:0:
254,269,162781,2,0,P|316:265|359:292,1,100,2|8,0:2|0:0,0:0:0:0:
493,372,163021,2,0,L|478:252,1,100,2|8,0:2|0:0,0:0:0:0:
367,137,163261,5,2,0:2:0:0:
239,275,163381,2,0,P|273:342|300:367,1,100,0|2,0:0|0:2,0:0:0:0:
372,152,163621,1,8,0:0:0:0:
181,48,163741,2,0,L|65:43,1,100,0|8,0:0|0:0,0:0:0:0:
228,267,163981,2,0,P|246:203|241:160,1,100,2|8,0:2|0:0,0:0:0:0:
16,209,164221,6,0,L|121:228,1,100,2|8,0:2|0:0,0:0:0:0:
338,139,164461,2,0,L|233:158,1,100,2|8,0:2|0:0,0:0:0:0:
52,304,164701,2,0,L|157:323,1,100,2|8,0:2|0:0,0:0:0:0:
375,215,164941,2,0,L|270:234,1,100,2|8,0:2|0:0,0:0:0:0:
247,329,165181,5,2,0:0:0:0:
462,120,165301,2,0,B|406:89|406:89|288:117,1,150,0|0,0:0|0:0,0:0:0:0:
303,101,165541,2,0,P|243:138|194:127,1,100,8|0,0:0|0:0,0:0:0:0:
88,23,165781,2,0,B|140:20|140:20|182:62,2,100,2|2|8,0:0|0:0|0:0,0:0:0:0:
17,95,166141,5,4,0:1:0:0:
220,238,166261,1,8,0:0:0:0:
224,223,166321,1,0,0:0:0:0:
229,208,166381,1,4,0:0:0:0:
53,239,166501,1,4,0:0:0:0:
132,373,166621,2,0,L|265:376,1,100,0|0,0:0|0:0,0:0:0:0:
452,259,166861,2,0,L|353:262,1,100,0|0,0:0|0:0,0:0:0:0:
228,68,167101,5,12,0:1:0:0:
203,63,167161,1,0,0:0:0:0:
178,68,167221,1,0,0:0:0:0:
156,81,167281,1,0,0:0:0:0:
145,103,167341,2,0,L|140:166,3,50,12|0|0|0,0:0|0:0|0:0|0:0,0:0:0:0:
219,194,167581,2,0,L|224:257,3,50,12|0|0|0,0:0|0:0|0:0|0:0,0:0:0:0:
145,296,167821,2,0,L|140:359,3,50,12|0|0|0,0:0|0:0|0:0|0:0,0:0:0:0:
219,377,168061,5,12,0:0:0:0:
243,370,168121,1,0,0:0:0:0:
267,366,168181,1,0,0:0:0:0:
291,363,168241,1,0,0:0:0:0:
315,358,168301,1,8,0:0:0:0:
337,347,168361,1,0,0:0:0:0:
352,327,168421,1,0,0:0:0:0:
358,302,168481,1,0,0:0:0:0:
352,277,168541,2,0,L|336:216,3,50,8|0|0|0,0:0|0:0|0:0|0:0,0:0:0:0:
458,291,168781,2,0,L|445:339,3,50,8|0|0|0,0:0|0:0|0:0|0:0,0:0:0:0:
416,215,169021,5,12,0:1:0:0:
421,190,169081,1,0,0:0:0:0:
415,165,169141,1,0,0:0:0:0:
399,145,169201,1,0,0:0:0:0:
375,135,169261,1,12,0:0:0:0:
350,135,169321,1,0,0:0:0:0:
327,146,169381,1,0,0:0:0:0:
303,153,169441,1,0,0:0:0:0:
278,151,169501,2,0,P|243:132|223:106,3,50,12|0|0|0,0:0|0:0|0:0|0:0,0:0:0:0:
157,166,169741,2,0,P|136:132|131:99,3,50,12|0|0|0,0:0|0:0|0:0|0:0,0:0:0:0:
34,92,169981,5,12,0:0:0:0:
45,114,170041,1,0,0:0:0:0:
50,138,170101,1,0,0:0:0:0:
51,162,170161,1,0,0:0:0:0:
44,186,170221,1,8,0:0:0:0:
40,210,170281,1,0,0:0:0:0:
45,234,170341,1,0,0:0:0:0:
57,255,170401,1,0,0:0:0:0:
75,271,170461,2,0,L|146:275,3,50,8|0|0|0,0:0|0:0|0:0|0:0,0:0:0:0:
181,363,170701,2,0,L|252:359,3,50,8|0|0|0,0:0|0:0|0:0|0:0,0:0:0:0:
270,282,170941,5,12,0:1:0:0:
287,264,171001,1,0,0:0:0:0:
310,255,171061,1,0,0:0:0:0:
334,255,171121,1,0,0:0:0:0:
356,265,171181,1,12,0:0:0:0:
373,282,171241,1,0,0:0:0:0:
379,306,171301,1,0,0:0:0:0:
374,330,171361,1,0,0:0:0:0:
361,351,171421,2,0,P|403:338|434:340,3,50,12|0|0|0,0:0|0:0|0:0|0:0,0:0:0:0:
490,275,171661,2,0,P|448:262|417:264,3,50,12|0|0|0,0:0|0:0|0:0|0:0,0:0:0:0:
371,209,171901,5,12,0:0:0:0:
356,188,171961,1,0,0:0:0:0:
351,163,172021,1,0,0:0:0:0:
360,139,172081,1,0,0:0:0:0:
384,122,172141,1,8,0:0:0:0:
413,120,172201,1,0,0:0:0:0:
440,132,172261,2,0,L|499:160,3,50,4|0|8|0,0:0|0:0|0:0|0:0,0:0:0:0:
442,38,172501,1,4,0:0:0:0:
442,38,172561,1,0,0:0:0:0:
442,38,172621,2,0,L|358:55,3,50,12|0|4|0,0:0|0:0|0:0|0:0,0:0:0:0:
281,67,172861,5,12,0:0:0:0:
348,245,172981,1,0,0:0:0:0:
348,245,173041,1,0,0:0:0:0:
348,245,173101,1,8,0:0:0:0:
348,245,173161,1,0,0:0:0:0:
348,245,173221,2,0,P|356:190|351:171,5,50,4|0|8|0|0|0,0:0|0:0|0:0|0:0|0:0|0:0,0:0:0:0:
277,157,173581,1,8,0:0:0:0:
366,361,173701,1,8,0:0:0:0:
480,244,173821,6,0,L|458:146,1,100,4|2,0:0|0:0,0:0:0:0:
455,121,174001,1,2,0:0:0:0:
463,97,174061,1,8,0:0:0:0:
359,175,174181,1,8,0:1:0:0:
275,103,174301,2,0,L|247:2,1,100,4|8,0:1|0:0,0:0:0:0:
393,265,174541,2,0,L|365:366,1,100,4|4,0:0|0:0,0:0:0:0:
188,317,174781,6,0,P|259:305|310:324,1,100,4|8,0:1|0:0,0:0:0:0:
363,374,175021,1,0,0:0:0:0:
454,332,175141,1,8,0:0:0:0:
188,203,175261,2,0,L|177:311,1,100,0|8,0:0|0:0,0:0:0:0:
365,164,175501,2,0,L|376:272,1,100,0|8,0:0|0:0,0:0:0:0:
182,188,175741,6,0,P|244:192|282:225,1,100,0|8,0:0|0:0,0:0:0:0:
394,81,175981,2,0,P|332:85|294:118,1,100,0|8,0:0|0:0,0:0:0:0:
470,232,176221,1,0,0:0:0:0:
508,139,176341,1,8,0:0:0:0:
286,228,176461,1,0,0:0:0:0:
319,322,176581,1,8,0:0:0:0:
365,164,176701,5,0,0:0:0:0:
290,107,176821,2,0,P|214:103|159:129,1,100,8|0,0:0|0:0,0:0:0:0:
32,59,177061,2,0,B|42:91|64:103|64:103|17:170|68:248,1,200,8|8,0:0|0:0,0:0:0:0:
178,328,177421,2,0,L|168:220,1,100,0|8,0:0|0:0,0:0:0:0:
33,47,177661,6,0,P|93:62|145:48,1,100,0|0,0:0|0:0,0:0:0:0:
217,8,177901,1,4,0:0:0:0:
125,160,178021,1,8,0:0:0:0:
272,230,178141,2,0,L|274:125,1,100,4|8,0:0|0:0,0:0:0:0:
177,239,178381,2,0,L|179:344,1,100,4|8,0:0|0:0,0:0:0:0:
400,130,178621,6,0,B|353:111|353:111|292:125,1,100,4|8,0:1|0:0,0:0:0:0:
210,155,178861,1,0,0:0:0:0:
423,231,178981,2,0,B|374:206|374:206|290:238|313:344,1,200,8|8,0:0|0:0,0:0:0:0:
207,249,179341,2,0,L|107:253,1,100,0|8,0:0|0:0,0:0:0:0:
320,337,179581,6,0,P|365:347|419:341,1,100,0|8,0:0|0:0,0:0:0:0:
220,244,179821,2,0,P|203:299|225:366,1,100,0|8,0:0|0:0,0:0:0:0:
286,167,180061,2,0,B|269:151|269:151|246:167|246:167|166:119|91:167,1,200,2|0,0:2|0:0,0:0:0:0:
49,242,180421,1,0,0:0:0:0:
329,245,180541,6,0,B|355:240|355:240|386:137,1,100,4|8,0:0|0:0,0:0:0:0:
124,267,180781,2,0,B|145:337|145:337|171:342,1,100,4|8,0:0|0:0,0:0:0:0:
434,241,181021,2,0,P|387:257|338:262,1,100,4|8,0:0|0:0,0:0:0:0:
79,163,181261,2,0,P|126:178|175:183,1,100,4|8,0:0|0:0,0:0:0:0:
321,149,181501,5,8,0:0:0:0:
335,122,181561,1,8,0:0:0:0:
336,92,181621,1,8,0:0:0:0:
344,68,181681,1,8,0:0:0:0:
359,55,181741,1,8,0:0:0:0:
373,51,181801,1,8,0:0:0:0:
382,53,181861,1,4,0:0:0:0:
385,56,181921,1,0,0:0:0:0:
388,59,181981,6,0,P|361:64|297:58,2,66.6666666666667,4|0|0,0:0|0:0|0:0,0:0:0:0:
510,30,182221,2,0,P|483:105|487:145,1,100,12|4,0:1|0:0,0:0:0:0:
506,267,182461,5,4,0:0:0:0:
348,237,182701,1,8,0:0:0:0:
502,277,182941,1,4,0:0:0:0:
344,247,183181,1,8,0:0:0:0:
498,287,183421,5,4,0:0:0:0:
340,257,183661,1,8,0:0:0:0:
494,297,183901,1,4,0:0:0:0:
336,267,184141,1,8,0:0:0:0:
238,354,184381,5,4,0:0:0:0:
396,324,184621,1,8,0:0:0:0:
242,364,184861,1,4,0:0:0:0:
400,334,185101,1,8,0:0:0:0:
246,374,185341,5,4,0:0:0:0:
404,344,185581,1,8,0:0:0:0:
250,384,185821,1,4,0:0:0:0:
408,354,186061,5,8,0:0:0:0:
318,286,186181,1,8,0:0:0:0:
168,354,186301,5,4,0:1:0:0:
187,195,186541,1,8,0:0:0:0:
156,352,186781,1,4,0:0:0:0:
175,193,187021,1,8,0:0:0:0:
144,350,187261,5,4,0:0:0:0:
163,191,187501,1,8,0:0:0:0:
132,348,187741,1,4,0:0:0:0:
151,189,187981,5,8,0:0:0:0:
37,232,188101,1,4,0:0:0:0:
230,271,188221,6,0,P|260:207|255:149,1,120,4|0,0:0|0:0,0:0:0:0:
238,123,188461,1,8,0:0:0:0:
316,321,188581,2,0,P|360:299|387:263,1,80,4|4,0:0|0:0,0:0:0:0:
413,203,188821,1,0,0:0:0:0:
233,370,188941,5,12,0:1:0:0:
151,189,189061,1,4,0:0:0:0:
95,296,189181,1,4,0:0:0:0:
230,229,189301,5,4,0:0:0:0:
235,218,189361,1,0,0:0:0:0:
238,206,189421,1,8,0:1:0:0:
239,194,189481,1,8,0:1:0:0:
234,182,189541,2,0,L|218:138,2,40,8|0|4,0:1|0:0|0:1,0:0:0:0:
260,68,189781,1,0,0:0:0:0:
139,57,189901,1,4,0:0:0:0:
265,354,190141,5,4,0:1:0:0:
279,349,190201,1,0,0:0:0:0:
293,347,190261,1,0,0:0:0:0:
307,348,190321,1,0,0:0:0:0:
321,351,190381,2,0,L|392:371,3,50,10|0|0|0,0:0|0:0|0:0|0:0,0:0:0:0:
482,279,190621,2,0,L|411:299,3,50,10|0|0|0,0:0|0:0|0:0|0:0,0:0:0:0:
365,239,190861,1,10,0:0:0:0:
359,224,190921,1,0,0:0:0:0:
360,209,190981,1,0,0:0:0:0:
367,196,191041,1,0,0:0:0:0:
377,185,191101,5,10,0:0:0:0:
382,171,191161,1,0,0:0:0:0:
380,156,191221,1,0,0:0:0:0:
375,141,191281,1,0,0:0:0:0:
364,130,191341,2,0,L|295:118,3,50,10|0|0|0,0:0|0:0|0:0|0:0,0:0:0:0:
233,172,191581,2,0,L|164:184,3,50,10|0|0|0,0:0|0:0|0:0|0:0,0:0:0:0:
116,129,191821,1,10,0:0:0:0:
114,114,191881,1,0,0:0:0:0:
112,99,191941,1,0,0:0:0:0:
110,84,192001,1,0,0:0:0:0:
108,69,192061,5,10,0:0:0:0:
94,63,192121,1,0,0:0:0:0:
79,61,192181,1,0,0:0:0:0:
64,64,192241,1,0,0:0:0:0:
50,70,192301,2,0,P|23:100|16:129,3,50,10|0|0|0,0:0|0:0|0:0|0:0,0:0:0:0:
0,195,192541,2,0,P|27:225|34:254,3,50,10|0|0|0,0:0|0:0|0:0|0:0,0:0:0:0:
26,316,192781,1,10,0:0:0:0:
40,311,192841,1,0,0:0:0:0:
54,307,192901,1,0,0:0:0:0:
68,303,192961,1,0,0:0:0:0:
82,297,193021,6,0,L|158:278,3,50,10|0|0|0,0:0|0:0|0:0|0:0,0:0:0:0:
195,375,193261,1,10,0:0:0:0:
195,375,193321,1,0,0:0:0:0:
195,375,193381,2,0,P|207:335|210:291,3,50,0|0|10|0,0:0|0:0|0:0|0:0,0:0:0:0:
289,279,193621,1,0,0:0:0:0:
289,279,193681,1,0,0:0:0:0:
289,279,193741,2,0,P|279:238|259:198,3,50,10|0|0|0,0:0|0:0|0:0|0:0,0:0:0:0:
227,148,193981,5,10,0:0:0:0:
241,148,194041,1,0,0:0:0:0:
255,148,194101,1,0,0:0:0:0:
269,148,194161,1,0,0:0:0:0:
283,148,194221,2,0,L|380:151,3,50,10|0|0|0,0:0|0:0|0:0|0:0,0:0:0:0:
398,219,194461,2,0,L|495:216,3,50,10|0|0|0,0:0|0:0|0:0|0:0,0:0:0:0:
510,154,194701,1,10,0:0:0:0:
508,139,194761,1,0,0:0:0:0:
502,125,194821,1,0,0:0:0:0:
490,115,194881,1,0,0:0:0:0:
475,111,194941,5,10,0:0:0:0:
460,105,195001,1,0,0:0:0:0:
447,96,195061,1,0,0:0:0:0:
437,84,195121,1,0,0:0:0:0:
432,69,195181,2,0,P|471:52|505:48,3,50,10|0|0|0,0:0|0:0|0:0|0:0,0:0:0:0:
334,56,195421,2,0,P|359:21|386:1,3,50,10|0|0|0,0:0|0:0|0:0|0:0,0:0:0:0:
377,138,195661,1,10,0:0:0:0:
362,142,195721,1,0,0:0:0:0:
347,141,195781,1,0,0:0:0:0:
332,138,195841,1,0,0:0:0:0:
318,131,195901,5,10,0:0:0:0:
303,134,195961,1,0,0:0:0:0:
293,145,196021,1,0,0:0:0:0:
289,159,196081,1,0,0:0:0:0:
289,173,196141,2,0,L|301:245,3,50,10|0|0|0,0:0|0:0|0:0|0:0,0:0:0:0:
216,245,196381,2,0,L|204:317,3,50,10|0|0|0,0:0|0:0|0:0|0:0,0:0:0:0:
286,329,196621,2,0,L|298:401,3,50,10|0|0|0,0:0|0:0|0:0|0:0,0:0:0:0:
383,377,196861,5,0,0:0:0:0:
386,362,196921,1,0,0:0:0:0:
389,347,196981,1,0,0:0:0:0:
393,332,197041,1,0,0:0:0:0:
397,317,197101,1,8,0:0:0:0:
423,302,197161,1,8,0:0:0:0:
449,288,197221,1,8,0:0:0:0:
475,274,197281,1,8,0:0:0:0:
502,261,197341,2,0,L|491:202,3,50,0|0|0|0,0:0|0:0|0:0|0:0,0:0:0:0:
512,132,197581,5,8,0:0:0:0:
481,132,197641,1,0,0:0:0:0:
452,132,197701,1,0,0:0:0:0:
422,133,197761,1,0,0:0:0:0:
392,132,197821,6,0,P|322:127|285:115,1,100,4|2,0:1|0:2,0:0:0:0:
125,4,198061,2,0,P|155:67|163:105,1,100,2|2,0:2|0:2,0:0:0:0:
33,235,198301,2,0,L|145:226,1,100,2|2,0:2|0:2,0:0:0:0:
298,305,198541,1,2,0:2:0:0:
237,384,198661,1,2,0:2:0:0:
279,145,198781,6,0,L|306:39,1,100,4|2,0:1|0:2,0:0:0:0:
226,280,199021,2,0,P|276:282|323:297,1,100,2|2,0:2|0:2,0:0:0:0:
479,259,199261,2,0,P|445:222|403:195,1,100,2|2,0:2|0:2,0:0:0:0:
376,368,199501,1,2,0:2:0:0:
474,352,199621,1,2,0:2:0:0:
356,114,199741,6,0,L|245:101,1,100,4|2,0:1|0:2,0:0:0:0:
0,192,199981,2,0,L|111:179,1,100,2|2,0:2|0:2,0:0:0:0:
263,11,200221,2,0,P|242:85|257:127,1,100,2|2,0:2|0:2,0:0:0:0:
330,208,200461,1,2,0:2:0:0:
375,119,200581,1,2,0:2:0:0:
168,340,200701,6,0,B|231:346|231:346|286:321,1,100,4|2,0:1|0:2,0:0:0:0:
257,231,200941,1,2,0:2:0:0:
36,195,201061,2,0,B|87:231|87:231|147:237,1,100,4|2,0:0|0:2,0:0:0:0:
167,145,201301,1,2,0:2:0:0:
14,7,201421,2,0,B|40:63|40:63|89:98,1,100,2|2,0:2|0:2,0:0:0:0:
312,70,201661,6,0,L|182:49,1,100,4|2,0:1|0:2,0:0:0:0:
414,201,201901,2,0,L|512:185,1,100,2|2,0:2|0:2,0:0:0:0:
157,155,202141,2,0,P|145:217|165:268,1,100,2|2,0:2|0:2,0:0:0:0:
296,368,202381,1,2,0:2:0:0:
336,276,202501,1,2,0:2:0:0:
148,268,202621,6,0,L|41:291,1,100,4|2,0:1|0:2,0:0:0:0:
306,180,202861,2,0,L|298:80,1,100,2|2,0:2|0:2,0:0:0:0:
281,361,203101,2,0,P|341:379|393:373,1,100,2|2,0:2|0:2,0:0:0:0:
484,274,203341,1,2,0:2:0:0:
393,232,203461,1,2,0:2:0:0:
179,345,203581,6,0,P|163:298|166:249,1,100,4|2,0:1|0:2,0:0:0:0:
304,73,203821,2,0,P|270:110|226:133,1,100,2|2,0:2|0:2,0:0:0:0:
0,86,204061,2,0,B|45:68|45:68|107:69,1,100,2|2,0:2|0:2,0:0:0:0:
217,237,204301,1,2,0:2:0:0:
306,191,204421,1,2,0:2:0:0:
54,209,204541,6,0,L|38:313,1,100,0|0,0:0|0:0,0:0:0:0:
314,384,204781,2,0,L|298:285,1,100,0|0,0:0|0:0,0:0:0:0:
145,71,205021,2,0,L|129:175,1,100,0|0,0:0|0:0,0:0:0:0:
353,208,205261,2,0,L|337:109,1,100,0|0,0:0|0:0,0:0:0:0:
252,18,205501,5,4,0:0:0:0:
136,346,212701,6,0,B|172:277|151:213|151:213|176:188|176:188|149:119|188:56,2,300.000011444092,2|2|2,0:0|0:0|0:0,0:0:0:0:
136,346,214141,6,0,L|235:350,1,100,4|2,0:1|0:2,0:0:0:0:
402,363,214381,1,0,0:0:0:0:
331,307,214501,6,0,P|314:265|333:189,1,119.999996337891,2|0,0:0|0:0,0:0:0:0:
412,160,214861,2,0,L|491:167,1,59.9999981689454,2|0,0:2|0:2,0:0:0:0:
334,99,215101,2,0,L|255:106,1,59.9999981689454,2|0,0:2|0:0,0:0:0:0:
174,212,215341,2,0,B|199:178|199:178|190:77,2,119.999996337891,4|4|2,0:2|0:2|0:2,0:0:0:0:
452,326,216061,6,0,L|350:340,1,100,4|0,0:1|0:0,0:0:0:0:
205,366,216301,1,0,0:0:0:0:
269,303,216421,2,0,P|277:245|230:190,1,119.999996337891,2|0,0:2|0:0,0:0:0:0:
152,200,216781,2,0,P|103:210|66:202,1,59.9999981689454,2|0,0:2|0:0,0:0:0:0:
299,28,217021,6,0,B|317:79|317:79|299:155,1,100,12|4,0:0|0:0,0:0:0:0:
206,132,217261,1,0,0:0:0:0:
396,167,217381,2,0,B|386:220|386:220|332:276,1,100,12|0,0:1|0:0,0:0:0:0:
263,210,217621,1,0,0:0:0:0:
413,330,217741,2,0,B|377:371|377:371|303:393,1,100,4|0,0:1|0:0,0:0:0:0:
100,332,217981,6,0,L|107:249,1,69.9999978637696,4|0,0:0|0:0,0:0:0:0:
252,201,218221,2,0,L|245:118,1,69.9999978637696,0|0,0:0|0:0,0:0:0:0:
92,328,218461,2,0,L|99:245,1,69.9999978637696,4|0,0:0|0:0,0:0:0:0:
263,198,218701,2,0,L|256:115,1,69.9999978637696,0|0,0:0|0:0,0:0:0:0:
105,37,218941,6,0,B|130:71|130:71|190:79|231:34,1,139.999995727539,4|8,0:2|0:0,0:0:0:0:
329,3,219301,1,4,0:0:0:0:
339,124,219421,2,0,P|305:130|271:123,1,69.9999978637696,4|4,0:0|0:0,0:0:0:0:
465,97,219661,2,0,P|432:84|406:61,1,69.9999978637696,0|0,0:0|0:0,0:0:0:0:
509,211,219901,5,8,0:3:0:0:
488,215,219961,1,8,0:3:0:0:
467,220,220021,1,8,0:3:0:0:
446,224,220081,1,8,0:3:0:0:
425,228,220141,1,8,0:0:0:0:
338,199,220261,1,4,0:0:0:0:
410,311,220381,2,0,L|411:386,1,69.9999978637696,8|8,0:0|0:3,0:0:0:0:
237,272,220621,1,2,0:0:0:0:
257,275,220681,1,2,0:0:0:0:
277,279,220741,1,8,0:0:0:0:
297,283,220801,1,4,0:0:0:0:
317,287,220861,5,0,0:0:0:0:
166,375,220981,2,0,P|158:330|173:297,2,69.9999978637696,12|8|8,0:1|0:0|0:0,0:0:0:0:
261,381,221341,1,4,0:0:0:0:
227,182,221461,1,8,0:1:0:0:
76,265,221581,1,8,0:1:0:0:
322,234,221701,1,8,0:1:0:0:
58,168,221821,5,12,0:3:0:0:
58,168,222541,1,12,0:3:0:0:
373,95,222781,1,12,0:3:0:0:
373,95,223501,1,4,0:3:0:0:
58,168,223741,6,0,B|115:205|180:189|180:189|200:212|200:212|240:203|260:224|259:228|291:253|365:228,2,300,4|6|4,0:3|0:3|0:3,0:0:0:0:
222,15,224701,1,12,0:3:0:0:
222,15,225661,6,0,P|232:87|202:132,1,100,2|4,0:0|0:0,0:0:0:0:
129,149,225901,1,4,0:0:0:0:
355,134,226021,2,0,P|327:201|279:225,1,100,8|0,0:0|0:0,0:0:0:0:
207,203,226261,1,0,0:0:0:0:
410,303,226381,2,0,P|352:347|298:344,1,100,4|8,0:0|0:0,0:0:0:0:
345,117,226621,5,8,0:0:0:0:
450,200,226741,1,12,0:0:0:0:
450,200,226801,1,8,0:0:0:0:
450,200,226861,1,2,0:0:0:0:
198,198,226981,1,2,0:0:0:0:
262,54,227101,2,0,P|348:34|385:46,1,100,2|8,0:0|0:0,0:0:0:0:
99,145,227341,2,0,P|49:146|3:126,1,100,8|4,0:0|0:0,0:0:0:0:
185,125,227581,5,4,0:0:0:0:
329,152,228061,6,0,B|307:164|307:164|282:165|264:155|264:155|241:202|193:211|193:211|191:230|199:250|199:250|147:267|115:313,2,300.000011444092,2|2|2,0:0|0:0|0:0,0:0:0:0:
329,152,229501,5,10,0:1:0:0:
349,173,229561,1,0,0:3:0:0:
361,200,229621,1,0,0:3:0:0:
361,229,229681,1,0,0:3:0:0:
346,255,229741,2,0,L|281:260,3,50,8|0|0|0,0:3|0:3|0:3|0:3,0:0:0:0:
236,321,229981,2,0,L|186:317,3,50,8|0|0|0,0:3|0:3|0:3|0:3,0:0:0:0:
142,216,230221,2,0,L|92:220,3,50,8|0|0|0,0:3|0:3|0:3|0:3,0:0:0:0:
33,293,230461,5,12,0:3:0:0:
55,303,230521,1,0,0:3:0:0:
77,312,230581,1,0,0:3:0:0:
100,321,230641,1,0,0:3:0:0:
123,330,230701,1,8,0:3:0:0:
151,340,230761,1,0,0:3:0:0:
177,354,230821,2,0,P|198:353|231:342,3,50,4|0|8|0,0:3|0:3|0:3|0:3,0:0:0:0:
222,234,231061,1,0,0:3:0:0:
222,234,231121,1,0,0:3:0:0:
222,234,231181,1,12,0:3:0:0:
250,224,231241,1,0,0:3:0:0:
279,229,231301,1,0,0:3:0:0:
304,244,231361,1,0,0:3:0:0:
318,270,231421,6,0,L|328:342,3,50,12|0|0|0,0:3|0:3|0:3|0:3,0:0:0:0:
405,227,231661,2,0,L|411:177,3,50,8|0|0|0,0:3|0:3|0:3|0:3,0:0:0:0:
342,102,231901,1,12,0:3:0:0:
340,72,231961,1,0,0:3:0:0:
327,44,232021,1,0,0:3:0:0:
304,24,232081,1,0,0:3:0:0:
276,12,232141,2,0,P|248:10|222:12,3,50,12|0|0|0,0:3|0:3|0:3|0:3,0:0:0:0:
339,121,232381,6,0,L|423:110,3,50,12|0|0|0,0:3|0:3|0:3|0:3,0:0:0:0:
244,156,232621,2,0,L|160:145,3,50,8|0|0|0,0:3|0:3|0:3|0:3,0:0:0:0:
371,195,232861,2,0,L|455:184,3,50,8|0|0|0,0:3|0:3|0:3|0:3,0:0:0:0:
251,234,233101,2,0,L|167:223,3,50,8|0|0|0,0:3|0:3|0:3|0:3,0:0:0:0:
330,273,233341,5,12,0:3:0:0:
338,301,233401,1,0,0:3:0:0:
334,330,233461,1,0,0:3:0:0:
316,354,233521,1,0,0:3:0:0:
288,366,233581,1,8,0:3:0:0:
258,367,233641,1,0,0:3:0:0:
233,350,233701,1,4,0:3:0:0:
223,321,233761,1,0,0:3:0:0:
200,300,233821,1,8,0:3:0:0:
170,296,233881,1,0,0:3:0:0:
142,309,233941,1,0,0:3:0:0:
128,335,234001,1,0,0:3:0:0:
128,365,234061,1,12,0:3:0:0:
109,341,234121,1,0,0:3:0:0:
84,323,234181,1,0,0:3:0:0:
55,312,234241,1,0,0:3:0:0:
25,313,234301,6,0,L|29:228,3,50,12|0|0|0,0:3|0:3|0:3|0:3,0:0:0:0:
165,221,234541,2,0,L|161:136,3,50,12|0|0|0,0:3|0:3|0:3|0:3,0:0:0:0:
72,122,234781,2,0,L|76:37,3,50,12|0|0|0,0:3|0:3|0:3|0:3,0:0:0:0:
184,65,235021,2,0,L|180:-20,3,50,12|0|0|0,0:3|0:3|0:3|0:3,0:0:0:0:
283,65,235261,5,12,0:3:0:0:
311,75,235321,1,0,0:3:0:0:
340,77,235381,1,0,0:3:0:0:
368,69,235441,1,0,0:3:0:0:
391,50,235501,1,8,0:3:0:0:
420,43,235561,1,0,0:3:0:0:
449,49,235621,1,0,0:3:0:0:
470,69,235681,1,0,0:3:0:0:
476,98,235741,2,0,L|475:164,3,50,8|0|0|0,0:3|0:3|0:3|0:3,0:0:0:0:
424,198,235981,1,12,0:3:0:0:
432,226,236041,1,0,0:3:0:0:
440,254,236101,1,0,0:3:0:0:
449,282,236161,1,0,0:3:0:0:
459,310,236221,5,4,0:0:0:0:
320,256,236341,1,8,0:0:0:0:
320,256,236401,1,0,0:0:0:0:
320,256,236461,1,4,0:0:0:0:
228,363,236581,1,2,0:0:0:0:
159,209,236701,2,0,L|143:98,1,100,8|0,0:0|0:0,0:0:0:0:
48,286,236941,2,0,L|32:397,1,100,4|0,0:0|0:0,0:0:0:0:
160,102,237181,6,0,P|106:81|53:90,1,100,4|8,0:1|0:0,0:0:0:0:
296,170,237421,2,0,P|350:149|403:158,1,100,0|8,0:0|0:0,0:0:0:0:
191,15,237661,2,0,L|170:113,1,100,0|8,0:0|0:0,0:0:0:0:
430,252,237901,2,0,B|434:202|434:202|414:157,1,100,0|8,0:0|0:0,0:0:0:0:
105,162,238141,6,0,B|107:214|107:214|160:282|238:236,1,200,4|2,0:0|0:0,0:0:0:0:
277,144,238501,1,8,0:0:0:0:
95,165,238621,2,0,L|88:284,1,100,0|8,0:0|0:0,0:0:0:0:
259,344,238861,2,0,L|253:244,1,100,0|8,0:0|0:0,0:0:0:0:
134,78,239101,6,0,P|230:122|341:68,1,200,0|0,0:1|0:0,0:0:0:0:
365,7,239461,1,8,0:0:0:0:
253,224,239581,2,0,B|302:245|302:245|366:232,1,100,0|8,0:0|0:0,0:0:0:0:
512,145,239821,2,0,B|463:166|463:166|417:156,1,100,0|8,0:0|0:0,0:0:0:0:
186,174,240061,6,0,B|144:222|144:222|202:374,1,200,4|2,0:0|0:0,0:0:0:0:
292,365,240421,1,8,0:0:0:0:
140,272,240541,2,0,P|76:259|18:274,1,100,0|8,0:0|0:0,0:0:0:0:
311,379,240781,2,0,P|360:384|408:371,1,100,0|8,0:0|0:0,0:0:0:0:
417,179,241021,6,0,B|367:178|340:223|340:223|273:226|238:192,1,200,4|0,0:1|0:0,0:0:0:0:
221,95,241381,1,8,0:0:0:0:
416,264,241501,2,0,L|430:369,1,100,0|8,0:0|0:0,0:0:0:0:
126,263,241741,2,0,L|139:163,1,100,0|8,0:0|0:0,0:0:0:0:
337,76,241981,6,0,B|305:135|305:135|218:91|257:-13,1,200,4|0,0:0|0:0,0:0:0:0:
395,0,242341,1,8,0:0:0:0:
383,183,242461,2,0,L|366:290,1,100,0|4,0:0|0:0,0:0:0:0:
146,138,242701,2,0,P|194:117|244:122,1,100,8|4,0:0|0:0,0:0:0:0:
370,295,242941,5,4,0:0:0:0:
102,333,243061,2,0,L|107:231,1,100,8|0,0:0|0:0,0:0:0:0:
131,215,243241,1,0,0:0:0:0:
160,207,243301,2,0,B|213:192|256:219|256:219|253:237|253:237|292:258|303:316,1,200,8|4,0:0|0:0,0:0:0:0:
294,331,243601,1,4,0:0:0:0:
307,357,243661,1,8,0:3:0:0:
334,368,243721,1,8,0:3:0:0:
363,365,243781,1,8,0:3:0:0:
385,345,243841,1,0,0:3:0:0:
391,315,243901,5,8,0:0:0:0:
391,315,243961,1,8,0:0:0:0:
391,315,244021,1,8,0:0:0:0:
261,217,244141,1,4,0:0:0:0:
499,182,244261,1,8,0:1:0:0:
237,220,244381,2,0,P|221:169|233:95,1,100,2|8,0:0|0:0,0:0:0:0:
413,30,244621,2,0,P|415:79|399:126,1,100,4|0,0:0|0:0,0:0:0:0:
53,104,244861,6,0,B|107:111|145:64|145:64|116:120|141:175,1,200,4|0,0:1|0:0,0:0:0:0:
220,206,245221,1,8,0:0:0:0:
326,108,245341,2,0,L|338:-13,1,100,0|8,0:0|0:0,0:0:0:0:
215,222,245581,2,0,L|224:321,1,100
493,307,245821,6,0,B|434:254|434:254|296:293,1,200,4|0,0:0|0:0,0:0:0:0:
224,321,246181,1,8,0:0:0:0:
117,216,246301,2,0,P|105:153|121:103,1,100,0|8,0:0|0:0,0:0:0:0:
314,181,246541,2,0,P|322:229|310:277,1,100,0|8,0:0|0:0,0:0:0:0:
29,252,246781,6,0,B|69:220|69:220|117:223|140:290|122:357,1,200,4|0,0:0|0:0,0:0:0:0:
33,380,247141,1,8,0:0:0:0:
9,138,247261,2,0,P|65:116|120:110,1,100,0|8,0:0|0:0,0:0:0:0:
229,204,247501,6,0,B|245:222|248:260|248:260|275:187|207:103,1,200,0|4,0:0|0:0,0:0:0:0:
125,116,247861,1,8,0:0:0:0:
329,183,247981,2,0,P|378:182|423:161,1,100,0|8,0:0|0:0,0:0:0:0:
454,53,248221,2,0,B|454:139|454:139|461:151|461:151|459:280,1,200,4|0,0:0|0:0,0:0:0:0:
395,329,248581,1,8,0:0:0:0:
214,116,248701,6,0,L|223:-26,1,100,4|8,0:1|0:0,0:0:0:0:
333,200,248941,2,0,P|317:278|283:308,1,100,4|8,0:0|0:0,0:0:0:0:
125,150,249181,2,0,L|238:125,1,100,0|8,0:0|0:0,0:0:0:0:
308,309,249421,2,0,P|232:334|189:319,1,100,0|8,0:0|0:0,0:0:0:0:
327,192,249661,6,0,B|394:166|464:195|464:195|515:279,1,200,4|0,0:0|0:0,0:0:0:0:
507,350,250021,1,8,0:0:0:0:
316,202,250141,2,0,L|331:82,1,100,4|8,0:0|0:0,0:0:0:0:
413,308,250381,2,0,P|362:321|313:320,1,100,0|8,0:0|0:0,0:0:0:0:
129,190,250621,6,0,B|153:197|177:207|177:207|227:292|146:361,1,200,4|0,0:1|0:0,0:0:0:0:
64,353,250981,1,8,0:0:0:0:
122,180,251101,2,0,P|175:196|231:220,1,100,4|8,0:0|0:0,0:0:0:0:
302,339,251341,2,0,P|355:323|411:299,1,100,4|8,0:0|0:0,0:0:0:0:
394,105,251581,5,4,0:0:0:0:
341,190,251701,1,8,0:0:0:0:
503,252,251821,1,4,0:0:0:0:
504,152,251941,1,8,0:0:0:0:
322,208,252061,2,0,P|246:210|191:195,1,100,4|8,0:0|0:0,0:0:0:0:
83,60,252301,1,8,0:0:0:0:
210,13,252421,1,8,0:0:0:0:
146,260,252541,6,0,L|39:265,1,100,4|8,0:1|0:0,0:0:0:0:
322,195,252781,2,0,L|429:200,1,100,2|8,0:3|0:0,0:0:0:0:
161,369,253021,2,0,P|148:313|161:260,1,100,0|8,0:0|0:0,0:0:0:0:
304,184,253261,2,0,P|311:233|298:281,1,100,0|8,0:0|0:0,0:0:0:0:
242,101,253501,6,0,P|287:88|354:87,1,100,4|0,0:0|0:0,0:0:0:0:
206,190,253741,2,0,P|161:177|94:176,1,100,0|8,0:0|0:0,0:0:0:0:
414,138,253981,2,0,L|433:237,1,100,4|8,0:0|0:0,0:0:0:0:
296,324,254221,2,0,L|315:225,1,100,0|8,0:0|0:0,0:0:0:0:
461,47,254461,6,0,P|396:64|356:53,1,100,4|8,0:1|0:0,0:0:0:0:
108,174,254701,2,0,P|157:167|203:184,1,100,2|8,0:3|0:0,0:0:0:0:
357,284,254941,2,0,L|363:383,1,100,0|8,0:0|0:0,0:0:0:0:
213,299,255181,2,0,L|219:199,1,100,0|8,0:0|0:0,0:0:0:0:
456,149,255421,6,0,B|423:154|409:177|409:177|355:114|246:114,1,200,4|0,0:0|0:0,0:0:0:0:
219,199,255781,1,8,0:0:0:0:
132,104,255901,2,0,L|120:-17,1,100,0|8,0:0|0:0,0:0:0:0:
232,189,256141,1,0,0:0:0:0:
176,272,256261,1,8,0:0:0:0:
362,276,256381,6,0,P|411:270|455:247,1,100,4|8,0:1|0:0,0:0:0:0:
247,183,256621,2,0,P|202:160|153:154,1,100,0|8,0:0|0:0,0:0:0:0:
352,287,256861,2,0,B|358:229|387:192|387:192|390:142|346:71,1,200,0|0,0:0|0:0,0:0:0:0:
268,61,257221,1,8,0:0:0:0:
348,306,257341,6,0,B|400:313|400:313|471:296,1,100,4|8,0:0|0:0,0:0:0:0:
501,213,257581,1,4,0:0:0:0:
162,299,257701,2,0,B|200:332|200:332|273:351,1,100,8|4,0:0|0:0,0:0:0:0:
341,294,257941,1,8,0:0:0:0:
4,199,258061,2,0,B|20:250|20:250|74:300,1,100,4|8,0:0|0:0,0:0:0:0:
229,93,258301,6,0,B|143:95|143:95|113:79|113:79|16:94,1,200,4|4,0:1|0:0,0:0:0:0:
8,187,258661,1,4,0:0:0:0:
246,98,258781,2,0,P|266:38|254:-19,1,100,8|4,0:0|0:0,0:0:0:0:
175,174,259021,2,0,P|172:223|191:269,1,100,4|8,0:0|0:0,0:0:0:0:
328,182,259261,5,4,0:1:0:0:
328,182,259321,1,0,0:1:0:0:
328,182,259381,1,8,0:1:0:0:
204,287,259501,2,0,L|70:280,1,100,4|8,0:3|0:1,0:0:0:0:
300,338,259741,2,0,L|434:331,1,100,8|8,0:0|0:0,0:0:0:0:
475,267,259981,1,4,0:0:0:0:
417,185,260101,1,4,0:0:0:0:
209,298,260221,6,0,B|232:249|232:249|213:156|89:149,1,200,14|0,0:0|0:0,0:0:0:0:
39,191,260581,1,0,0:0:0:0:
114,33,260701,2,0,P|162:77|210:80,1,100,14|0,0:0|0:0,0:0:0:0:
393,93,260941,2,0,P|345:105|312:142,1,100,0|0,0:0|0:0,0:0:0:0:
453,222,261181,6,0,B|454:148|454:148|478:115|478:115|463:12,1,200,14|0,0:0|0:0,0:0:0:0:
204,97,261541,2,0,B|198:47|198:47|220:-5,1,100,0|14,0:0|0:0,0:0:0:0:
272,186,261780,1,0,0:0:0:0:
133,234,261901,2,0,L|10:212,1,100,0|0,0:0|0:0,0:0:0:0:
233,331,262141,5,14,0:3:0:0:
233,331,262201,1,0,0:0:0:0:
233,331,262261,2,0,P|276:331|332:312,1,100,2|0,0:3|0:0,0:0:0:0:
441,135,262501,2,0,L|437:253,1,100,4|0,0:0|0:0,0:0:0:0:
499,312,262741,1,6,0:0:0:0:
451,122,262861,2,0,P|393:115|347:132,1,100,0|0,0:0|0:0,0:0:0:0:
270,182,263101,5,4,0:1:0:0:
256,188,263161,1,0,0:0:0:0:
241,188,263221,1,0,0:0:0:0:
226,182,263281,1,0,0:0:0:0:
214,172,263341,2,0,L|208:57,1,100,0|0,0:0|0:0,0:0:0:0:
316,266,263581,2,0,L|310:381,1,100,8|8,0:3|0:3,0:0:0:0:
122,203,263821,5,8,0:3:0:0:
429,258,263941,1,8,0:3:0:0:
