osu file format v14

[General]
AudioFilename: shinbatsu.mp3
AudioLeadIn: 0
PreviewTime: 71581
Countdown: 0
SampleSet: None
StackLeniency: 0.5
Mode: 0
LetterboxInBreaks: 0
WidescreenStoryboard: 0

[Editor]
Bookmarks: 28860,32618,40380,48060,65258,88380,96060,103670,111338,119018,128640,143978,167018,179978,182378,197738,205440,244778
DistanceSpacing: 1
BeatDivisor: 3
GridSize: 8
TimelineZoom: 1.4

[Metadata]
Title:Shinbatsu o Tadori Kyoukotsu ni Itaru
TitleUnicode:神罰を辿り狂骨に至る
Artist:Imperial Circus Dead Decadence
ArtistUnicode:Imperial Circus Dead Decadence
Creator:Kite
Version:Extreme
Source:osu!
Tags:japanese rock featured artist mappers' guild Mun Riven Hakura egg and cheese Foxy Grandpa リブユウキ Rib yuhki Hull KIM KIMI Hellnear 飯塚悠人 Yuto Iizuka Shuhei Kamada icdd 黄泉より聴こゆ、皇国の燈と焔の少女。 Yomi yori Kikoyu, Koukoku no Tou to Honoo no Shoujo. symphonic black metal dojin doujin
BeatmapID:2039543
BeatmapSetID:482382

[Difficulty]
HPDrainRate:5
CircleSize:4
OverallDifficulty:9.4
ApproachRate:9.7
SliderMultiplier:2
SliderTickRate:1

[Events]
//Background and Video events
0,0,"shinbatsu.jpg",0,0
//Break Periods
2,205701,212018
//Storyboard Layer 0 (Background)
//Storyboard Layer 1 (Fail)
//Storyboard Layer 2 (Pass)
//Storyboard Layer 3 (Foreground)
//Storyboard Sound Samples

[TimingPoints]
4861,240,4,3,1,40,1,0
5821,-100,4,3,3,50,0,0
6781,-100,4,3,2,60,0,0
7141,-100,4,3,1,60,0,0
7741,-100,4,3,1,55,0,0
13021,-80,4,3,1,60,0,0
13441,-100,4,3,1,60,0,0
14701,-100,4,3,6,55,0,0
14941,-71.4285714285714,4,3,1,70,0,0
15361,-100,4,3,1,60,0,0
16381,-83.3333333333333,4,3,1,70,0,0
16861,-71.4285714285714,4,3,1,55,0,0
17281,-100,4,3,1,60,0,0
18301,-83.3333333333333,4,3,1,70,0,0
18781,-71.4285714285714,4,3,1,55,0,0
19261,-100,4,3,1,60,0,0
20221,-83.3333333333333,4,3,1,70,0,0
20701,-66.6666666666667,4,3,1,55,0,0
21181,-100,4,3,1,75,0,0
22141,-76.9230769230769,4,3,1,70,0,0
22321,-100,4,3,1,70,0,0
22621,-100,4,3,6,60,0,0
23101,-100,4,3,1,70,0,0
24541,-100,4,3,2,70,0,0
25021,-100,4,3,1,60,0,0
28861,-76.9230769230769,4,3,1,65,0,0
29581,-100,4,3,1,60,0,0
30781,-76.9230769230769,4,3,1,70,0,0
31741,-100,4,3,1,65,0,0
32221,-100,4,3,6,70,0,0
32701,-100,4,3,1,50,0,0
33661,-66.6666666666667,4,3,1,70,0,0
33781,-66.6666666666667,4,3,1,5,0,0
33901,-66.6666666666667,4,3,1,70,0,0
34021,-66.6666666666667,4,3,1,5,0,0
34141,-66.6666666666667,4,3,1,70,0,0
34261,-66.6666666666667,4,3,1,5,0,0
34381,-100,4,3,1,70,0,0
34621,-100,4,3,1,50,0,0
35581,-71.4285714285714,4,3,1,70,0,0
36061,-83.3333333333333,4,3,1,70,0,0
36361,-100,4,3,6,55,0,0
36541,-100,4,3,1,60,0,0
39421,-100,4,3,6,55,0,0
39901,-71.4285714285714,4,3,1,60,0,0
40381,-100,4,3,4,50,0,1
40441,-100,4,3,1,50,0,1
41341,-100,4,3,4,50,0,1
41401,-100,4,3,1,50,0,1
42061,-100,4,3,4,50,0,1
42121,-100,4,3,1,50,0,1
42301,-100,4,3,4,50,0,1
42361,-100,4,3,1,50,0,1
43261,-100,4,3,4,50,0,1
43321,-100,4,3,1,50,0,1
43621,-100,4,3,4,50,0,1
43681,-100,4,3,1,50,0,1
43981,-100,4,3,4,50,0,1
44041,-100,4,3,1,50,0,1
44221,-100,4,3,4,50,0,1
44281,-100,4,3,1,50,0,1
44941,-100,4,3,4,50,0,1
45001,-100,4,3,1,50,0,1
45181,-100,4,3,4,50,0,1
45241,-100,4,3,1,50,0,1
46141,-100,4,3,4,50,0,1
46201,-100,4,3,1,50,0,1
47101,-100,4,3,2,50,0,1
47341,-100,4,3,1,50,0,1
47581,-100,4,3,2,50,0,1
47821,-100,4,3,1,50,0,1
48061,-100,4,3,1,45,0,0
50941,-100,4,3,5,50,0,0
51901,-100,4,3,1,55,0,0
53821,-90.9090909090909,4,3,1,65,0,0
54781,-100,4,3,1,55,0,0
55261,-100,4,3,6,45,0,0
56221,-181.818181818182,3,3,2,30,0,0
57661,-111.111111111111,4,3,1,55,0,0
64501,-100,4,3,4,40,0,0
64621,-111.111111111111,4,3,6,50,0,0
64861,-90.9090909090908,4,3,5,55,0,0
65341,-99.9999999999999,4,3,1,60,0,0
67261,-90.9090909090909,4,3,1,60,0,0
69181,-111.111111111111,4,3,1,60,0,0
69601,-111.111111111111,4,3,6,60,0,0
70501,-111.111111111111,4,3,1,70,0,0
70861,-83.3333333333333,4,3,1,50,0,0
71101,-83.3333333333333,4,3,5,55,0,0
71581,-181.818181818182,3,3,2,30,0,0
73021,-90.9090909090909,4,3,1,70,0,1
73141,-90.9090909090909,4,3,1,50,0,1
80101,-90.9090909090909,4,3,6,50,0,1
80701,-90.9090909090909,4,3,1,65,0,1
81901,-90.9090909090909,4,3,1,55,0,1
82021,-90.9090909090909,4,3,1,65,0,1
83821,-90.9090909090909,4,3,1,55,0,1
83941,-90.9090909090909,4,3,1,65,0,1
87181,-90.9090909090909,4,3,6,70,0,1
87421,-90.9090909090909,4,3,6,60,0,1
88381,-100,4,3,5,45,0,0
89821,-100,4,3,5,40,0,0
90301,-100,4,3,5,35,0,0
90781,-100,4,3,5,30,0,0
91261,-100,4,3,5,25,0,0
91741,-100,4,3,5,10,0,0
92221,-100,4,3,5,60,0,0
94141,-100,4,3,1,60,0,0
95221,-100,4,3,6,60,0,0
95821,-100,4,3,1,70,0,0
96061,-100,4,3,1,55,0,0
102781,-100,4,3,1,60,0,0
103501,-100,4,3,6,65,0,0
103741,-100,4,3,2,60,0,0
107341,-100,4,3,2,70,0,0
107581,-100,4,3,2,60,0,0
110461,-100,4,3,1,65,0,0
111421,-100,4,3,1,60,0,0
111901,-100,4,3,1,50,0,0
112141,-100,4,3,1,50,0,0
112861,-100,4,3,1,50,0,0
113101,-100,4,3,1,50,0,0
113821,-100,4,3,1,50,0,0
114061,-100,4,3,1,50,0,0
114781,-100,4,3,1,50,0,0
115021,-100,4,3,1,50,0,0
118621,-100,4,3,9,50,0,0
118861,-100,4,3,1,50,0,0
119101,-86.9565217391304,4,3,1,60,0,0
120301,-100,4,3,1,60,0,0
122941,-100,4,3,6,45,0,0
123061,-100,4,3,1,55,0,0
126421,-100,4,3,2,65,0,0
126781,-100,4,3,5,70,0,0
126901,-100,4,3,6,60,0,0
127741,-100,4,3,6,50,0,0
127981,-100,4,3,6,45,0,0
128221,-100,4,3,6,40,0,0
128461,-181.818181818182,4,3,6,40,0,0
128701,-100,4,3,4,50,0,1
128821,-100,4,3,1,50,0,1
129661,-100,4,3,4,50,0,1
129721,-100,4,3,1,50,0,1
130381,-100,4,3,4,50,0,1
130441,-100,4,3,1,50,0,1
130621,-100,4,3,4,50,0,1
130681,-100,4,3,1,50,0,1
131581,-100,4,3,4,50,0,1
131641,-100,4,3,1,50,0,1
131941,-100,4,3,4,50,0,1
132001,-100,4,3,1,50,0,1
132301,-100,4,3,4,50,0,1
132361,-100,4,3,1,50,0,1
132541,-100,4,3,4,50,0,1
132601,-100,4,3,1,50,0,1
133261,-100,4,3,4,50,0,1
133321,-100,4,3,1,50,0,1
133501,-100,4,3,4,50,0,1
133561,-100,4,3,1,50,0,1
134221,-100,4,3,4,50,0,1
134281,-100,4,3,1,50,0,1
134461,-100,4,3,4,50,0,1
134521,-100,4,3,1,50,0,1
135421,-100,4,3,2,50,0,1
135661,-100,4,3,1,50,0,1
135901,-100,4,3,2,50,0,1
136141,-100,4,3,1,50,0,1
136381,-100,4,3,1,45,0,0
139261,-100,4,3,5,55,0,0
140221,-100,4,3,1,55,0,0
142141,-100,4,3,1,60,0,0
143101,-100,4,3,6,60,0,0
143821,-100,4,3,6,65,0,0
144061,-111.111111111111,4,3,1,60,0,0
151021,-111.111111111111,4,3,6,55,0,0
151261,-111.111111111111,4,3,5,65,0,0
151741,-100,4,3,1,65,0,1
153661,-90.9090909090909,4,3,1,65,0,1
155101,-100,4,3,1,65,0,1
155941,-100,4,3,6,55,0,1
157021,-100,4,3,1,70,0,1
157261,-90.9090909090909,4,3,1,70,0,1
157501,-100,4,3,1,55,0,0
157561,-100,4,3,6,55,0,0
158941,-76.9230769230769,4,3,1,70,0,0
159421,-100,4,3,1,65,0,1
165781,-100,4,3,6,70,0,1
167101,-100,4,3,5,50,0,1
167221,-100,4,3,1,50,0,1
173941,-100,4,3,6,50,0,1
174781,-100,4,3,1,60,0,0
180061,-83.3333333333333,4,3,1,60,0,0
180541,-100,4,3,1,60,0,0
181741,-100,4,3,6,55,0,0
182221,-100,4,3,1,50,0,0
182461,-200,4,3,1,40,0,0
187981,-200,4,3,1,50,0,0
188461,-200,4,3,1,60,0,0
189421,-166.666666666667,4,3,1,50,0,0
189661,-142.857142857143,4,3,1,60,0,0
189901,-125,4,3,1,45,0,0
190141,-100,4,3,5,55,0,1
190261,-100,4,3,1,55,0,1
196861,-100,4,3,2,55,0,1
197101,-100,4,3,1,55,0,1
197341,-100,4,3,2,55,0,1
197581,-100,4,3,1,55,0,1
197821,-100,4,3,1,60,0,0
204541,-100,4,3,1,75,0,0
204781,-100,4,3,1,65,0,0
205021,-100,4,3,1,55,0,0
205261,-100,4,3,1,35,0,0
205501,-100,4,3,1,50,0,0
212701,-181.818181818182,3,3,2,30,0,0
214141,-100,4,3,1,60,0,0
214261,-100,4,3,2,50,0,0
216061,-100,4,3,6,60,0,0
216181,-100,4,3,6,50,0,0
217021,-100,4,3,1,60,0,0
219061,-100,4,3,6,60,0,0
219901,-100,4,3,1,60,0,0
220921,-100,4,3,6,60,0,0
221581,-100,4,3,1,70,0,0
221821,-100,4,3,1,60,0,0
225661,-100,4,3,1,65,0,0
226621,-100,4,3,6,60,0,0
227581,-50,4,3,1,70,0,0
228061,-153.846153846154,3,3,2,30,0,0
229501,-90.9090909090909,4,3,1,50,0,1
229621,-90.9090909090909,4,3,1,50,0,1
236221,-90.9090909090909,4,3,1,50,0,1
236281,-90.9090909090909,4,3,6,50,0,1
237181,-90.9090909090909,4,3,1,65,0,1
238381,-90.9090909090909,4,3,1,55,0,1
238501,-90.9090909090909,4,3,1,65,0,1
240301,-90.9090909090909,4,3,1,55,0,1
240421,-90.9090909090909,4,3,1,65,0,1
243481,-90.9090909090909,4,3,1,60,0,1
243661,-90.9090909090909,4,3,6,60,0,1
243901,-90.9090909090909,4,3,6,55,0,1
244861,-90.9090909090909,4,3,1,65,0,1
252301,-90.9090909090909,4,3,1,60,0,1
252541,-90.9090909090909,4,3,1,65,0,1
252781,-90.9090909090909,4,3,1,55,0,1
252901,-90.9090909090909,4,3,2,65,0,1
253021,-90.9090909090909,4,3,1,65,0,1
254701,-90.9090909090909,4,3,1,55,0,1
254821,-90.9090909090909,4,3,2,65,0,1
254941,-90.9090909090909,4,3,1,65,0,1
259741,-90.9090909090909,4,3,6,60,0,1
259981,-90.9090909090909,4,3,6,50,0,1
260221,-90.9090909090909,4,3,1,70,0,1
261181,-90.9090909090909,4,3,1,75,0,1
262141,-90.9090909090909,4,3,1,80,0,1
263101,-90.9090909090909,4,3,1,85,0,1
263821,-90.9090909090909,4,3,1,90,0,1
263941,-100,4,3,1,90,0,0

[Colours]
Combo1 : 241,199,223
Combo2 : 200,242,224
Combo3 : 187,206,242

[HitObjects]
75,104,5581,6,0,B|67:56|27:37|27:37|55:27|92:36|92:36|83:42|83:42|113:46|129:74,1,200,4|4,3:0|0:1,0:0:0:0:
148,230,6781,5,0,0:0:0:0:
148,230,6841,1,0,0:0:0:0:
148,230,6901,1,0,0:0:0:0:
148,230,6961,1,0,0:0:0:0:
148,230,7021,1,0,0:0:0:0:
148,230,7081,1,0,0:0:0:0:
148,230,7141,2,0,B|263:278|263:278|356:251,1,200,8|0,0:0|0:0,0:0:0:0:
413,225,7501,1,8,0:0:0:0:
444,40,7741,6,0,P|390:30|345:63,1,100,4|8,0:1|0:0,0:0:0:0:
274,112,7981,2,0,P|230:89|183:100,1,100,0|8,0:0|0:0,0:0:0:0:
34,155,8221,2,0,B|59:131|64:78|64:78|85:116|90:163|81:192,1,200,0|0,0:0|0:0,0:0:0:0:
63,281,8581,1,8,0:0:0:0:
149,260,8701,2,0,B|178:249|178:249|246:271,1,100,0|8,0:0|0:0,0:0:0:0:
125,348,8941,1,0,0:0:0:0:
274,341,9061,2,0,P|318:284|249:193,1,200,8|8,0:0|0:0,0:0:0:0:
94,191,9421,1,0,0:0:0:0:
94,191,9541,1,8,0:0:0:0:
196,61,9661,6,0,B|229:49|229:49|300:63,1,100,0|8,0:0|0:0,0:0:0:0:
412,97,9901,1,0,0:0:0:0:
331,260,10021,2,0,P|308:211|327:161,1,100,8|0,0:0|0:0,0:0:0:0:
420,303,10261,1,8,0:0:0:0:
346,354,10381,2,0,B|313:366|313:366|242:352,1,100,0|8,0:0|0:0,0:0:0:0:
66,226,10621,6,0,L|73:337,1,100,0|8,0:0|0:0,0:0:0:0:
72,211,10861,1,4,0:0:0:0:
147,145,10981,1,8,0:0:0:0:
257,179,11101,1,4,0:0:0:0:
362,109,11221,1,8,0:0:0:0:
451,278,11341,2,0,P|470:228|452:177,1,100,4|8,0:0|0:0,0:0:0:0:
252,35,11581,6,0,B|219:25|219:25|156:43,1,100,4|8,0:1|0:0,0:0:0:0:
257,179,11821,1,0,0:0:0:0:
147,144,11941,2,0,B|102:129|59:147|46:192|46:192|61:232|34:262,1,200,8|8,0:0|0:0,0:0:0:0:
63,352,12301,1,0,0:0:0:0:
161,308,12421,1,8,0:0:0:0:
307,337,12541,6,0,B|272:364|234:350|234:350|244:337|243:315,1,100,0|8,0:0|0:0,0:0:0:0:
455,315,12781,2,0,B|420:288|382:302|382:302|392:315|391:337,1,100,0|8,0:0|0:0,0:0:0:0:
310,248,13021,2,0,B|257:213|248:124|313:75|313:75|311:89|311:89|342:83|372:104|372:104|371:117|371:117|400:129|416:160|416:197,1,375,2|8,0:2|0:0,0:0:0:0:
350,318,13501,6,0,P|326:328|259:309,1,100,4|8,0:0|0:0,0:0:0:0:
155,180,13741,1,4,0:0:0:0:
93,307,13861,1,8,0:0:0:0:
58,190,13981,2,0,B|121:173|121:173|155:180,1,100,4|8,0:0|0:0,0:0:0:0:
350,318,14221,2,0,P|326:328|259:309,1,100,4|8,0:0|0:0,0:0:0:0:
363,147,14461,5,8,0:0:0:0:
387,154,14521,1,8,0:0:0:0:
405,174,14581,1,8,0:0:0:0:
414,198,14641,1,8,0:0:0:0:
417,225,14701,1,8,0:0:0:0:
389,211,14761,1,8,0:0:0:0:
376,182,14821,1,4,0:0:0:0:
380,152,14881,1,4,0:0:0:0:
399,127,14941,6,0,B|422:95|467:98|467:98|460:112|460:112|488:164|459:222|459:222|446:215|446:215|448:248|428:269,1,279.999991455078,4|12,0:0|0:1,0:0:0:0:
161,103,15421,5,12,0:3:0:0:
90,161,15541,1,0,0:3:0:0:
149,232,15661,1,8,0:3:0:0:
220,172,15781,1,0,0:3:0:0:
113,118,15901,5,8,0:3:0:0:
106,210,16021,1,0,0:3:0:0:
197,217,16141,1,8,0:3:0:0:
205,125,16261,1,0,0:3:0:0:
113,118,16381,6,0,B|61:104|25:83|25:83|41:98|48:111,1,119.999996337891,12|0,0:0|0:0,0:0:0:0:
149,232,16621,2,0,B|162:284|162:325|162:325|167:304|175:291,1,119.999996337891,8|0,0:0|0:0,0:0:0:0:
234,109,16861,2,0,B|274:90|310:117|310:117|320:111|320:111|365:121|393:88|393:88|391:43|420:15|420:15|441:53|466:68|466:68|494:118|469:158,1,419.999987182618,12|0,0:0|0:0,0:0:0:0:
329,343,17341,5,12,0:3:0:0:
274,271,17461,1,0,0:3:0:0:
274,271,17581,1,8,0:3:0:0:
361,258,17701,1,0,0:3:0:0:
473,102,17821,5,8,0:3:0:0:
418,174,17941,1,0,0:3:0:0:
418,174,18061,1,8,0:3:0:0:
505,187,18181,1,0,0:3:0:0:
380,81,18301,6,0,P|314:59|263:94,1,119.999996337891,12|0,0:0|0:0,0:0:0:0:
169,206,18541,2,0,P|123:169|65:178,1,119.999996337891,8|0,0:0|0:0,0:0:0:0:
275,362,18781,2,0,B|317:382|364:381|401:345|407:293|407:293|435:273|500:271|500:271|489:250|453:231|453:231|469:195|453:147,1,419.999987182618,12|0,0:3|0:0,0:0:0:0:
401,55,19261,5,8,0:3:0:0:
401,55,19381,1,0,0:3:0:0:
331,159,19501,1,8,0:3:0:0:
331,159,19621,1,0,0:3:0:0:
168,97,19741,1,8,0:3:0:0:
168,97,19861,1,0,0:3:0:0:
193,257,19981,1,8,0:3:0:0:
193,257,20101,1,0,0:3:0:0:
9,197,20221,6,0,P|59:167|113:188,1,119.999996337891,12|0,0:0|0:0,0:0:0:0:
263,348,20461,2,0,P|318:365|370:333,1,119.999996337891,8|0,0:0|0:0,0:0:0:0:
437,178,20701,2,0,B|390:144|313:153|284:208|284:208|302:235|308:287|308:287|276:252|236:252|236:252|225:257|225:257|173:232|132:263,1,450.000017166138,14|0,0:3|0:0,0:0:0:0:
63,321,21181,5,12,0:3:0:0:
21,169,21301,1,0,0:3:0:0:
55,337,21421,1,8,0:3:0:0:
70,240,21541,1,0,0:3:0:0:
221,49,21661,5,12,0:3:0:0:
179,201,21781,1,0,0:3:0:0:
211,32,21901,2,0,P|263:16|309:34,1,100,8|0,0:3|0:3,0:0:0:0:
474,226,22141,6,0,B|422:252|364:238|337:170|337:170|285:185|271:244|271:244|278:252|278:252|256:297|288:353,1,389.999982147218,12|0,0:0|0:0,0:0:0:0:
173,286,22621,5,8,0:0:0:0:
158,283,22681,1,8,0:0:0:0:
143,283,22741,1,8,0:0:0:0:
128,287,22801,1,4,0:0:0:0:
115,295,22861,1,4,0:0:0:0:
105,306,22921,1,0,0:0:0:0:
97,318,22981,1,0,0:0:0:0:
92,332,23041,1,0,0:0:0:0:
90,346,23101,5,8,0:3:0:0:
39,190,23221,1,8,0:3:0:0:
39,190,24061,5,8,0:3:0:0:
90,346,24181,1,8,0:3:0:0:
90,346,24541,5,0,0:0:0:0:
77,307,24601,1,0,0:0:0:0:
64,268,24661,1,0,0:0:0:0:
51,229,24721,1,0,0:0:0:0:
39,190,24781,1,0,0:0:0:0:
21,146,25021,6,0,L|33:35,1,100,4|8,0:1|0:0,0:0:0:0:
177,18,25261,1,0,0:0:0:0:
177,18,25381,1,8,0:0:0:0:
248,122,25501,2,0,P|292:133|341:102,1,100,0|8,0:0|0:0,0:0:0:0:
501,216,25741,2,0,P|447:221|404:189,1,100,0|8,0:0|0:0,0:0:0:0:
263,334,25981,5,0,0:0:0:0:
259,234,26101,1,8,0:0:0:0:
346,280,26221,1,0,0:0:0:0:
263,334,26341,2,0,B|215:356|172:326|172:326|147:330|124:349|124:349|96:349|75:329,1,200,8|8,0:0|0:0,0:0:0:0:
27,251,26701,1,0,0:0:0:0:
27,251,26821,1,8,0:0:0:0:
148,164,26941,6,0,P|167:110|145:62,2,100,0|8|0,0:0|0:0|0:0,0:0:0:0:
74,64,27301,2,0,P|137:-4|222:34,1,200,8|8,0:0|0:0,0:0:0:0:
315,191,27661,2,0,P|354:208|406:191,1,100,0|8,0:0|0:0,0:0:0:0:
316,22,27901,2,0,B|288:12|288:12|219:35,1,100,0|8,0:0|0:0,0:0:0:0:
98,151,28141,5,4,0:0:0:0:
74,64,28261,1,8,0:0:0:0:
32,222,28381,1,4,0:0:0:0:
32,222,28501,1,8,0:0:0:0:
194,168,28621,1,4,0:0:0:0:
194,168,28741,1,8,0:0:0:0:
366,231,28861,6,0,B|400:208|439:211|439:211|404:163|335:173|335:173|331:184|331:184|295:189|275:215,1,259.999988098145,4|0,0:1|0:0,0:0:0:0:
238,275,29221,1,8,0:0:0:0:
55,319,29341,2,0,B|20:296|-18:299|-18:299|16:251|85:261|85:261|89:272|89:272|125:277|145:303,1,259.999988098145,4|0,0:0|0:0,0:0:0:0:
185,362,29701,1,8,0:0:0:0:
365,323,29821,6,0,P|381:276|365:230,1,100,0|8,0:0|0:0,0:0:0:0:
265,137,30061,1,0,0:0:0:0:
238,275,30181,1,8,0:0:0:0:
134,182,30301,2,0,B|99:169|99:169|77:149|77:149|42:159,1,100,0|8,0:0|0:0,0:0:0:0:
210,78,30541,2,0,P|251:57|305:67,1,100,0|8,0:0|0:0,0:0:0:0:
410,316,30781,6,0,P|358:352|297:337,1,129.999994049073,4|8,0:0|0:0,0:0:0:0:
185,362,31021,2,0,P|130:330|70:351,1,129.999994049073,4|8,0:0|0:0,0:0:0:0:
344,274,31261,2,0,B|359:233|359:233|336:148,1,129.999994049073,4|8,0:0|0:0,0:0:0:0:
177,16,31501,2,0,L|163:146,1,129.999994049073,4|8,0:0|0:0,0:0:0:0:
64,278,31741,5,4,0:1:0:0:
64,278,31801,1,0,0:0:0:0:
64,278,31861,1,0,0:0:0:0:
64,278,31921,1,0,0:0:0:0:
64,278,31981,2,0,P|113:277|148:317,1,100,4|0,0:0|0:0,0:0:0:0:
250,363,32221,5,8,0:0:0:0:
252,349,32281,1,8,0:0:0:0:
254,335,32341,1,4,0:0:0:0:
256,321,32401,1,4,0:0:0:0:
258,307,32461,1,4,0:3:0:0:
260,293,32521,1,4,0:3:0:0:
262,279,32581,1,4,0:3:0:0:
369,227,32701,5,4,0:0:0:0:
265,155,32821,2,0,P|249:98|269:57,2,100,0|8|0,0:0|0:0|0:0,0:0:0:0:
445,130,33181,2,0,B|422:85|361:71|323:108|323:108|347:78|335:41,1,200,4|8,0:0|0:0,0:0:0:0:
376,165,33661,6,0,B|397:219|385:268|385:268|393:246|408:228,1,150.000005722046,2|0,0:0|0:0,0:0:0:0:
304,330,33901,2,0,B|246:320|209:286|209:286|224:303|233:326,1,150.000005722046,10|0,0:0|0:0,0:0:0:0:
192,200,34141,2,0,B|228:155|277:140|277:140|254:144|230:140,1,150.000005722046,2|0,0:0|0:0,0:0:0:0:
155,85,34381,1,10,0:0:0:0:
75,122,34501,1,0,0:0:0:0:
81,38,34621,5,4,0:0:0:0:
71,206,34741,2,0,B|88:283|88:283|99:257,1,100,0|8,0:0|0:0,0:0:0:0:
220,317,34981,1,0,0:0:0:0:
184,202,35101,2,0,B|219:43|219:43|242:98,1,200,4|8,0:0|0:0,0:0:0:0:
352,30,35461,1,0,0:0:0:0:
432,127,35581,6,0,B|454:158|437:201|437:201|455:264|511:286|511:286|466:280|436:317,1,279.999991455078,0|8,0:0|0:0,0:0:0:0:
391,381,35941,1,0,0:0:0:0:
298,305,36061,2,0,P|236:293|190:338,1,119.999996337891,0|0,0:0|0:0,0:0:0:0:
0,194,36301,2,0,P|61:182|107:227,1,119.999996337891,8|8,0:0|0:3,0:0:0:0:
124,294,36481,1,8,0:3:0:0:
124,294,36541,6,0,B|102:375|102:375|81:335,1,100,4|8,0:1|0:0,0:0:0:0:
201,136,36781,2,0,B|179:55|179:55|158:95,1,100,0|8,0:0|0:0,0:0:0:0:
329,287,37021,2,0,B|307:368|307:368|286:328,1,100,0|8,0:0|0:0,0:0:0:0:
423,123,37261,2,0,B|401:42|401:42|380:82,1,100,0|8,0:0|0:0,0:0:0:0:
321,171,37501,5,0,0:0:0:0:
321,171,37621,1,8,0:0:0:0:
441,317,37741,5,0,0:0:0:0:
441,317,37861,1,8,0:0:0:0:
215,363,37981,5,0,0:0:0:0:
215,363,38101,1,8,0:0:0:0:
96,191,38221,5,0,0:0:0:0:
96,191,38341,1,8,0:0:0:0:
246,277,38461,6,0,B|258:273|268:261|268:261|233:244|194:254,1,100,4|8,0:0|0:0,0:0:0:0:
52,307,38701,1,0,0:0:0:0:
8,128,38821,2,0,B|-1:79|32:34|82:33|82:33|116:60|111:85,1,200,12|8,0:0|0:0,0:0:0:0:
246,277,39181,2,0,B|258:273|268:261|268:261|233:244|194:254,1,100,12|0,0:0|0:0,0:0:0:0:
52,307,39421,5,8,0:3:0:0:
36,311,39481,1,8,0:3:0:0:
25,321,39541,1,8,0:3:0:0:
16,333,39601,1,8,0:3:0:0:
14,348,39661,1,2,0:0:0:0:
19,363,39721,1,2,0:0:0:0:
34,364,39781,1,8,0:0:0:0:
48,358,39841,1,4,0:0:0:0:
57,349,39901,6,0,B|84:307|75:265|75:265|85:260|85:260|103:204|76:156|76:156|84:151|93:158|93:158|98:179|127:204,1,279.999991455078,12|0,0:1|0:0,0:0:0:0:
422,316,40381,5,4,0:1:0:0:
448,297,40441,1,0,0:0:0:0:
458,267,40501,1,0,0:0:0:0:
454,236,40561,1,0,0:0:0:0:
434,212,40621,1,10,0:0:0:0:
404,204,40681,1,0,0:0:0:0:
373,208,40741,1,0,0:0:0:0:
350,228,40801,1,0,0:0:0:0:
338,257,40861,1,10,0:0:0:0:
329,286,40921,1,0,0:0:0:0:
306,306,40981,1,0,0:0:0:0:
276,312,41041,1,0,0:0:0:0:
247,302,41101,1,10,0:0:0:0:
227,279,41161,1,0,0:0:0:0:
222,248,41221,1,0,0:0:0:0:
232,220,41281,1,0,0:0:0:0:
256,201,41341,6,0,P|268:174|266:146,3,50,10|0|0|0,0:0|0:0|0:0|0:0,0:0:0:0:
247,74,41581,2,0,P|229:50|204:37,3,50,10|0|0|0,0:0|0:0|0:0|0:0,0:0:0:0:
133,18,41821,2,0,P|103:21|80:36,3,50,10|0|0|0,0:0|0:0|0:0|0:0,0:0:0:0:
28,88,42061,2,0,P|16:115|18:143,3,50,10|0|0|0,0:0|0:0|0:0|0:0,0:0:0:0:
34,222,42301,5,10,0:0:0:0:
51,246,42361,1,0,0:0:0:0:
78,258,42421,1,0,0:0:0:0:
107,258,42481,1,0,0:0:0:0:
135,247,42541,1,10,0:0:0:0:
164,246,42601,1,0,0:0:0:0:
193,252,42661,1,0,0:0:0:0:
216,270,42721,1,0,0:0:0:0:
227,297,42781,2,0,P|233:327|225:356,3,50,10|0|0|0,0:0|0:0|0:0|0:0,0:0:0:0:
155,327,43021,2,0,P|132:347|102:354,3,50,10|0|0|0,0:0|0:0|0:0|0:0,0:0:0:0:
37,325,43261,5,10,0:0:0:0:
18,301,43321,1,0,0:0:0:0:
12,271,43381,1,0,0:0:0:0:
18,241,43441,1,0,0:0:0:0:
39,220,43501,1,10,0:0:0:0:
67,210,43561,1,0,0:0:0:0:
96,211,43621,5,0,0:0:0:0:
113,186,43681,1,0,0:0:0:0:
115,156,43741,1,10,0:0:0:0:
105,127,43801,1,0,0:0:0:0:
85,104,43861,1,0,0:0:0:0:
57,91,43921,1,0,0:0:0:0:
27,86,43981,1,10,0:0:0:0:
13,112,44041,1,0,0:0:0:0:
10,141,44101,1,0,0:0:0:0:
22,168,44161,1,0,0:0:0:0:
43,189,44221,6,0,P|66:197|91:195,3,50,10|0|0|0,0:0|0:0|0:0|0:0,0:0:0:0:
152,144,44461,2,0,P|175:136|200:138,3,50,10|0|0|0,0:0|0:0|0:0|0:0,0:0:0:0:
242,211,44701,2,0,P|265:219|290:217,3,50,10|0|0|0,0:0|0:0|0:0|0:0,0:0:0:0:
351,166,44941,2,0,P|374:158|399:160,3,50,10|0|0|0,0:0|0:0|0:0|0:0,0:0:0:0:
469,204,45181,5,10,0:0:0:0:
482,230,45241,1,0,0:0:0:0:
484,259,45301,1,0,0:0:0:0:
471,286,45361,1,0,0:0:0:0:
448,306,45421,1,10,0:0:0:0:
418,312,45481,1,0,0:0:0:0:
389,303,45541,1,0,0:0:0:0:
367,282,45601,1,0,0:0:0:0:
359,253,45661,2,0,P|352:227|360:200,3,50,10|0|0|0,0:0|0:0|0:0|0:0,0:0:0:0:
396,139,45901,2,0,P|403:113|395:86,3,50,10|0|0|0,0:0|0:0|0:0|0:0,0:0:0:0:
343,26,46141,5,10,0:0:0:0:
313,18,46201,1,0,0:0:0:0:
283,22,46261,1,0,0:0:0:0:
256,36,46321,1,0,0:0:0:0:
240,61,46381,1,10,0:0:0:0:
234,90,46441,1,0,0:0:0:0:
242,118,46501,1,0,0:0:0:0:
235,147,46561,1,0,0:0:0:0:
218,172,46621,1,10,0:0:0:0:
190,184,46681,1,0,0:0:0:0:
160,183,46741,1,0,0:0:0:0:
133,169,46801,1,0,0:0:0:0:
121,141,46861,2,0,P|117:108|126:84,3,50,10|0|0|0,0:0|0:0|0:0|0:0,0:0:0:0:
199,37,47101,6,0,B|216:34|235:44|235:44|253:89|313:148|313:148|298:141|279:139,1,200,0|8,0:0|0:0,0:0:0:0:
210,174,47401,1,8,0:0:0:0:
210,174,47461,2,0,B|193:179|180:197|180:197|185:245|158:325|158:325|168:312|184:301,1,200,8|0,0:0|0:0,0:0:0:0:
344,350,47821,1,8,0:0:0:0:
466,128,48061,5,4,0:1:0:0:
476,92,48181,1,0,0:0:0:0:
439,101,48301,1,0,0:0:0:0:
430,138,48421,1,0,0:0:0:0:
466,128,48541,5,4,0:2:0:0:
476,92,48661,1,0,0:0:0:0:
439,101,48781,1,0,0:0:0:0:
430,138,48901,1,0,0:0:0:0:
423,291,49021,5,12,0:2:0:0:
449,317,49141,1,0,0:0:0:0:
459,281,49261,1,0,0:0:0:0:
432,254,49381,1,0,0:0:0:0:
423,291,49501,5,4,0:2:0:0:
449,317,49621,1,0,0:0:0:0:
459,281,49741,1,0,0:0:0:0:
432,254,49861,1,0,0:0:0:0:
302,171,49981,5,12,0:2:0:0:
267,180,50101,1,0,0:0:0:0:
293,207,50221,1,0,0:0:0:0:
330,197,50341,1,0,0:0:0:0:
302,171,50461,5,4,0:2:0:0:
267,180,50581,1,0,0:0:0:0:
293,207,50701,1,0,0:0:0:0:
330,197,50821,1,0,0:0:0:0:
223,60,50941,6,0,B|185:46|185:46|125:59,2,100,12|0|0,0:1|0:0|0:0,0:0:0:0:
380,35,51301,2,0,B|418:21|418:21|478:34,2,100,12|0|0,0:0|0:0|0:0,0:0:0:0:
223,60,51661,2,0,B|185:46|185:46|125:59,1,100,12|0,0:1|0:0,0:0:0:0:
83,199,51901,5,12,0:3:0:0:
51,217,52021,1,0,0:0:0:0:
51,179,52141,1,0,0:0:0:0:
84,160,52261,1,0,0:0:0:0:
193,267,52381,5,12,0:0:0:0:
183,302,52501,1,0,0:0:0:0:
156,275,52621,1,0,0:0:0:0:
166,238,52741,1,0,0:0:0:0:
318,249,52861,5,12,0:0:0:0:
333,283,52981,1,0,0:0:0:0:
295,279,53101,1,0,0:0:0:0:
278,245,53221,1,0,0:0:0:0:
401,155,53341,5,12,0:0:0:0:
434,172,53461,1,0,0:0:0:0:
403,193,53581,1,0,0:0:0:0:
368,178,53701,1,0,0:0:0:0:
180,79,53821,6,0,B|219:57|219:57|283:74,1,110,12|0,0:3|0:0,0:0:0:0:
510,33,54061,2,0,B|471:11|471:11|407:28,1,110,12|0,0:3|0:0,0:0:0:0:
236,154,54301,2,0,B|214:193|214:193|232:257,1,110,12|0,0:3|0:0,0:0:0:0:
454,198,54541,2,0,B|476:159|476:159|460:95,1,110,12|0,0:0|0:0,0:0:0:0:
410,306,54781,5,12,0:0:0:0:
405,277,54901,1,12,0:0:0:0:
332,122,55021,5,4,0:0:0:0:
327,166,55141,1,4,0:0:0:0:
223,328,55261,5,2,0:0:0:0:
217,264,55381,1,2,0:0:0:0:
121,92,55501,5,8,0:0:0:0:
108,173,55621,1,8,0:0:0:0:
329,252,56221,6,0,B|349:210|328:171|328:171|355:154|364:119|364:119|347:82|359:40,2,220.000006713867,2|2|2,0:0|0:0|0:0,0:0:0:0:
130,330,57661,6,0,B|105:345|105:345|45:335,1,89.9999972534181,4|0,0:1|0:0,0:0:0:0:
205,260,57901,1,10,0:0:0:0:
108,232,58021,2,0,B|90:188|90:188|135:58,1,179.999994506836,4|4,0:0|0:0,0:0:0:0:
205,260,58381,2,0,B|231:266|231:266|291:237,1,89.9999972534181,10|0,0:0|0:0,0:0:0:0:
378,189,58621,2,0,B|435:161|435:161|461:167,1,89.9999972534181,4|0,0:0|0:0,0:0:0:0:
434,359,58861,6,0,P|390:369|346:342,1,89.9999972534181,10|0,0:0|0:0,0:0:0:0:
229,185,59101,2,0,P|192:178|146:203,1,89.9999972534181,4|4,0:0|0:0,0:0:0:0:
37,358,59341,2,0,B|67:371|67:371|128:357,1,89.9999972534181,10|0,0:0|0:0,0:0:0:0:
297,228,59581,6,0,P|308:172|290:138,1,89.9999972534181,4|0,0:0|0:0,0:0:0:0:
223,90,59821,1,10,0:0:0:0:
235,274,59941,2,0,P|298:306|373:241,1,179.999994506836,4|4,0:0|0:0,0:0:0:0:
257,22,60301,2,0,P|209:13|167:38,1,89.9999972534181,10|0,0:0|0:0,0:0:0:0:
30,158,60541,2,0,P|78:153|118:181,1,89.9999972534181,4|0,0:0|0:0,0:0:0:0:
125,347,60781,6,0,B|105:371|105:371|48:382,1,89.9999972534181,10|0,0:0|0:0,0:0:0:0:
289,320,61021,2,0,B|269:296|269:296|212:285,1,89.9999972534181,4|4,0:0|0:0,0:0:0:0:
470,327,61261,2,0,B|450:351|450:351|393:362,1,89.9999972534181,10|0,0:0|0:0,0:0:0:0:
281,162,61501,2,0,B|322:131|322:131|457:158,1,179.999994506836,4|10,0:0|0:0,0:0:0:0:
261,240,61861,2,0,P|212:203|235:95,1,179.999994506836,4|4,0:0|0:0,0:0:0:0:
448,158,62221,6,0,B|459:192|436:229|436:229|448:261|448:261|450:313|425:361|425:361|435:356|435:356|447:335|470:328,1,269.999991760254,10|0,0:0|0:0,0:0:0:0:
373,178,62701,2,0,P|326:161|285:175,1,89.9999972534181,10|0,0:0|0:0,0:0:0:0:
197,82,62941,2,0,P|154:58|108:66,1,89.9999972534181,4|4,0:0|0:0,0:0:0:0:
57,228,63181,2,0,P|90:257|134:260,1,89.9999972534181,10|0,0:0|0:0,0:0:0:0:
288,172,63421,6,0,B|331:145|377:181|377:181|388:179|388:179|421:203|420:241,1,179.999994506836,4|10,0:0|0:0,0:0:0:0:
295,321,63781,2,0,B|250:296|258:238|258:238|251:229|251:229|255:189|288:171,1,179.999994506836,4|0,0:0|0:0,0:0:0:0:
422,240,64141,2,0,B|422:291|368:312|368:312|364:323|364:323|327:339|295:320,1,179.999994506836,10|0,0:0|0:0,0:0:0:0:
174,201,64501,1,0,0:0:0:0:
92,150,64621,2,0,B|66:142|66:142|4:160,1,89.9999972534181,2|8,0:0|0:0,0:0:0:0:
175,346,64861,6,0,B|192:299|192:299|181:257|181:257|191:168|191:168|173:202,1,220.000006713867,8|0,0:1|0:0,0:0:0:0:
465,339,65341,5,4,0:1:0:0:
481,187,65461,1,8,0:0:0:0:
437,259,65581,1,2,0:2:0:0:
397,185,65701,2,0,P|339:174|299:204,2,100,8|2|8,0:0|0:2|0:0,0:0:0:0:
314,271,66061,2,0,P|231:212|278:123,1,200,2|2,0:2|0:2,0:0:0:0:
351,96,66421,5,8,0:0:0:0:
374,16,66541,1,2,0:2:0:0:
435,78,66661,1,8,0:0:0:0:
288,37,66781,1,2,0:2:0:0:
288,37,66901,1,8,0:0:0:0:
179,131,67021,2,0,P|127:138|90:109,1,100,2|8,0:2|0:0,0:0:0:0:
265,130,67261,6,0,B|260:185|219:206|219:206|291:197|334:245,1,220.000006713867,2|2,0:2|0:2,0:0:0:0:
369,315,67621,1,8,0:0:0:0:
369,315,67741,2,0,B|419:291|457:316|457:316|414:258|434:197,1,220.000006713867,2|2,0:2|0:2,0:0:0:0:
477,132,68101,1,8,0:0:0:0:
477,132,68221,2,0,B|431:100|434:54|434:54|405:121|342:133,1,220.000006713867,2|2,0:2|0:2,0:0:0:0:
264,129,68581,1,8,0:0:0:0:
196,53,68701,5,4,0:1:0:0:
179,52,68761,1,0,0:0:0:0:
162,51,68821,1,0,0:0:0:0:
145,50,68881,1,0,0:0:0:0:
128,49,68941,1,8,0:0:0:0:
111,47,69001,1,0,0:0:0:0:
94,46,69061,1,0,0:0:0:0:
9,108,69181,6,0,B|-2:139|-2:139|15:200,1,89.9999972534181,4|8,0:1|0:0,0:0:0:0:
91,297,69421,2,0,P|114:300|137:296,3,44.999998626709,4|8|8|2,0:0|0:0|0:0|0:0,0:0:0:0:
195,240,69661,2,0,P|218:237|241:241,3,44.999998626709,2|8|4|4,0:0|0:0|0:0|0:0,0:0:0:0:
301,296,69901,5,8,0:1:0:0:
314,294,69961,1,8,0:1:0:0:
327,292,70021,1,8,0:1:0:0:
340,290,70081,1,8,0:1:0:0:
353,288,70141,1,2,0:0:0:0:
365,292,70201,1,2,0:0:0:0:
377,296,70261,1,8,0:0:0:0:
389,300,70321,1,8,0:0:0:0:
401,304,70381,1,4,0:0:0:0:
413,309,70441,1,4,0:0:0:0:
424,315,70501,6,0,B|444:286|444:286|437:226,1,89.9999972534181,12|0,0:0|0:0,0:0:0:0:
423,119,70741,1,0,0:0:0:0:
344,189,70861,2,0,B|297:204|297:204|147:146|147:146|176:146,1,239.999992675781,12|12,0:0|0:0,0:0:0:0:
72,201,71581,6,0,B|49:244|67:296|67:296|51:323|53:365|53:365|63:346|97:330,2,220.000006713867,2|2|2,0:0|0:0|0:0,0:0:0:0:
243,89,73021,6,0,P|277:83|296:87,5,55.0000016784668,4|0|0|0|0|0,0:1|0:3|0:3|0:3|0:3|0:3,0:0:0:0:
369,128,73381,2,0,P|391:154|397:172,5,55.0000016784668,4|0|8|0|0|0,0:3|0:3|0:3|0:3|0:3|0:3,0:0:0:0:
388,256,73741,1,12,0:3:0:0:
375,266,73801,1,0,0:3:0:0:
362,276,73861,1,0,0:3:0:0:
349,286,73921,1,0,0:3:0:0:
336,296,73981,6,0,B|330:323|330:323|338:354,3,55.0000016784668,12|0|0|0,0:3|0:3|0:3|0:3,0:0:0:0:
261,348,74221,2,0,B|255:321|255:321|263:290,3,55.0000016784668,8|0|4|0,0:3|0:3|0:3|0:3,0:0:0:0:
186,294,74461,2,0,B|180:321|180:321|188:352,3,55.0000016784668,8|0|0|0,0:3|0:3|0:3|0:3,0:0:0:0:
111,346,74701,2,0,B|105:319|105:319|113:288,3,55.0000016784668,12|0|0|0,0:3|0:3|0:3|0:3,0:0:0:0:
140,222,74941,5,12,0:3:0:0:
146,206,75001,1,0,0:3:0:0:
146,189,75061,1,0,0:3:0:0:
140,173,75121,1,0,0:3:0:0:
128,160,75181,1,8,0:3:0:0:
112,153,75241,1,0,0:0:0:0:
99,142,75301,1,4,0:3:0:0:
89,128,75361,1,0,0:3:0:0:
86,111,75421,1,8,0:3:0:0:
97,99,75481,1,0,0:3:0:0:
113,98,75541,1,0,0:3:0:0:
128,104,75601,1,0,0:3:0:0:
140,114,75661,6,0,P|167:118|193:106,3,55.0000016784668,12|0|0|0,0:3|0:3|0:3|0:3,0:0:0:0:
248,47,75901,2,0,P|275:43|301:55,3,55.0000016784668,12|0|0|0,0:3|0:3|0:3|0:3,0:0:0:0:
357,130,76141,2,0,B|372:150|372:150|381:182,3,55.0000016784668,12|0|0|0,0:3|0:3|0:3|0:3,0:0:0:0:
376,271,76381,2,0,B|350:273|350:273|318:265,3,55.0000016784668,12|0|0|0,0:3|0:3|0:3|0:3,0:0:0:0:
243,218,76621,2,0,B|253:194|253:194|276:170,3,55.0000016784668,12|0|0|0,0:3|0:3|0:3|0:3,0:0:0:0:
321,266,76861,5,12,0:3:0:0:
319,283,76921,1,0,0:3:0:0:
317,299,76981,1,0,0:3:0:0:
315,315,77041,1,0,0:3:0:0:
307,329,77101,1,8,0:3:0:0:
300,344,77161,1,0,0:3:0:0:
293,359,77221,2,0,P|261:371|237:368,5,55.0000016784668,4|0|8|0|0|0,0:3|0:3|0:3|0:3|0:3|0:3,0:0:0:0:
174,325,77581,2,0,P|142:313|118:316,3,55.0000016784668,12|0|0|0,0:3|0:3|0:3|0:3,0:0:0:0:
39,340,77821,5,12,0:3:0:0:
27,327,77881,1,0,0:3:0:0:
20,311,77941,1,0,0:3:0:0:
19,294,78001,1,0,0:3:0:0:
24,278,78061,1,12,0:3:0:0:
33,264,78121,1,0,0:3:0:0:
44,251,78181,1,0,0:3:0:0:
52,236,78241,1,0,0:3:0:0:
56,220,78301,1,12,0:3:0:0:
55,203,78361,1,0,0:3:0:0:
48,187,78421,1,0,0:3:0:0:
37,174,78481,1,0,0:3:0:0:
27,160,78541,2,0,P|21:124|28:104,3,55.0000016784668,12|0|0|0,0:3|0:3|0:3|0:3,0:0:0:0:
95,53,78781,5,12,0:3:0:0:
111,50,78841,1,0,0:3:0:0:
127,48,78901,1,0,0:3:0:0:
143,46,78961,1,0,0:3:0:0:
158,51,79021,1,8,0:3:0:0:
173,56,79081,1,0,0:3:0:0:
187,63,79141,2,0,B|212:73|212:73|244:69,5,55.0000016784668,4|0|8|0|0|0,0:3|0:3|0:3|0:3|0:3|0:3,0:0:0:0:
316,54,79501,2,0,B|342:50|342:50|372:61,3,55.0000016784668,12|0|0|0,0:3|0:3|0:3|0:3,0:0:0:0:
442,112,79741,6,0,B|456:147|456:147|438:216,1,110.000003356934,4|8,0:0|0:0,0:0:0:0:
371,279,79981,1,8,0:0:0:0:
371,279,80101,1,2,0:0:0:0:
347,189,80221,2,0,P|289:163|216:271,1,220.000006713867,8|0,0:0|0:0,0:0:0:0:
139,36,80701,6,0,B|109:21|109:21|33:35,1,110.000003356934,4|8,0:1|0:0,0:0:0:0:
137,141,80941,2,0,B|152:111|152:111|138:35,1,110.000003356934,0|8,0:0|0:0,0:0:0:0:
31,139,81181,2,0,B|61:154|61:154|137:140,1,110.000003356934,0|8,0:0|0:0,0:0:0:0:
33,34,81421,2,0,B|18:64|18:64|32:140,1,110.000003356934,0|8,0:0|0:0,0:0:0:0:
275,262,81661,6,0,B|314:206|314:206|286:55,1,220.000006713867,4|2,0:0|0:0,0:0:0:0:
214,11,82021,1,0,0:0:0:0:
191,282,82141,2,0,P|237:337|358:278,1,220.000006713867,8|0,0:0|0:0,0:0:0:0:
394,185,82501,1,0,0:0:0:0:
512,95,82621,6,0,B|522:135|522:135|498:199,1,110.000003356934,4|8,0:1|0:0,0:0:0:0:
407,81,82861,2,0,B|447:71|447:71|511:94,1,110.000003356934,0|8,0:0|0:0,0:0:0:0:
394,185,83101,2,0,B|384:145|384:145|407:80,1,110.000003356934,0|8,0:0|0:0,0:0:0:0:
499,199,83341,2,0,B|459:209|459:209|394:185,1,110.000003356934,0|8,0:0|0:0,0:0:0:0:
227,63,83581,6,0,B|192:33|134:46|111:88|111:88|100:68|100:68|48:73|20:27,1,220.000006713867,4|2,0:0|0:0,0:0:0:0:
183,126,83941,1,0,0:0:0:0:
358,38,84061,2,0,P|421:38|437:168,1,220.000006713867,8|0,0:0|0:0,0:0:0:0:
361,199,84421,1,0,0:0:0:0:
277,312,84541,6,0,P|335:324|382:288,1,110.000003356934,4|8,0:1|0:0,0:0:0:0:
263,213,84781,2,0,P|251:271|287:318,1,110.000003356934,0|8,0:0|0:0,0:0:0:0:
361,199,85021,2,0,P|303:187|256:223,1,110.000003356934,0|8,0:0|0:0,0:0:0:0:
375,298,85261,2,0,P|387:240|351:193,1,110.000003356934,0|8,0:0|0:0,0:0:0:0:
105,305,85501,6,0,B|120:347|176:369|230:335|230:335|273:338|300:366,1,220.000006713867,4|0,0:0|0:0,0:0:0:0:
177,273,85861,2,0,B|151:241|170:194|170:194|200:177|210:144|210:144|191:113|202:76,1,220.000006713867,8|4,0:0|0:0,0:0:0:0:
249,6,86221,1,8,0:0:0:0:
90,51,86341,1,4,0:0:0:0:
276,102,86461,6,0,B|319:109|319:109|350:104|350:104|386:110,1,110.000003356934,4|8,0:0|0:0,0:0:0:0:
488,214,86701,1,0,0:0:0:0:
488,214,86761,1,0,0:0:0:0:
488,214,86821,2,0,B|445:221|445:221|414:216|414:216|379:221,1,110.000003356934,8|0,0:0|0:0,0:0:0:0:
272,317,87061,1,4,0:0:0:0:
272,317,87121,1,4,0:0:0:0:
272,317,87181,2,0,P|289:335|319:345,3,55.0000016784668,8|8|4|0,0:3|0:3|0:3|0:1,0:0:0:0:
394,348,87421,2,0,P|418:341|442:321,3,55.0000016784668,8|8|8|8,0:0|0:0|0:0|0:0,0:0:0:0:
471,248,87661,6,0,B|481:159|481:159|468:174,1,110.000003356934,4|8,0:0|0:3,0:0:0:0:
288,141,87901,2,0,B|278:52|278:52|291:67,1,110.000003356934,2|8,0:0|0:0,0:0:0:0:
376,189,88141,1,4,0:0:0:0:
376,189,88261,1,0,0:0:0:0:
255,292,88381,1,12,0:1:0:0:
256,192,88441,12,4,92221,0:0:0:0:
43,134,94141,6,0,B|31:95|31:95|50:33,2,100,8|0|0,0:2|0:0|0:0,0:0:0:0:
107,257,94501,2,0,B|95:296|95:296|114:358,2,100,12|0|0,0:1|0:0|0:0,0:0:0:0:
198,124,94861,2,0,B|186:85|186:85|205:23,2,100,12|0|0,0:0|0:0|0:0,0:0:0:0:
267,248,95221,2,0,B|255:287|255:287|274:349,2,100,2|2|8,0:0|0:0|0:0,0:0:0:0:
362,107,95581,2,0,B|350:68|350:68|369:6,1,100,12|4,0:1|0:0,0:0:0:0:
437,243,95821,2,0,B|425:282|425:282|444:344,1,100,4|4,0:0|0:0,0:0:0:0:
508,211,96061,6,0,P|475:174|359:232,1,200,8|0,0:0|0:0,0:0:0:0:
287,300,96421,1,0,0:0:0:0:
202,233,96541,2,0,B|182:202|182:202|192:137,1,100,8|0,0:0|0:0,0:0:0:0:
314,20,96781,2,0,B|294:51|294:51|304:116,1,100,4|0,0:0|0:0,0:0:0:0:
187,29,97021,2,0,B|132:14|132:14|0:67,2,200,8|0|8,0:0|0:0|0:0,0:0:0:0:
380,157,97741,5,4,0:2:0:0:
380,157,97861,1,4,0:3:0:0:
455,33,97981,5,12,0:0:0:0:
461,111,98101,1,0,0:2:0:0:
467,189,98221,1,4,0:2:0:0:
473,267,98341,1,0,0:2:0:0:
479,345,98461,5,12,0:0:0:0:
408,311,98581,1,0,0:2:0:0:
337,277,98701,1,4,0:2:0:0:
267,243,98821,1,0,0:2:0:0:
196,209,98941,5,12,0:0:0:0:
261,164,99061,1,0,0:2:0:0:
326,120,99181,1,4,0:2:0:0:
390,76,99301,1,0,0:2:0:0:
398,152,99421,5,12,0:0:0:0:
404,231,99541,1,0,0:2:0:0:
333,197,99661,1,4,0:2:0:0:
398,152,99781,1,0,0:2:0:0:
404,231,99901,6,0,B|398:272|398:272|385:295|385:295|381:332,1,100,12|0,0:0|0:0,0:0:0:0:
303,377,100141,1,4,0:2:0:0:
269,289,100261,1,0,0:2:0:0:
134,347,100381,2,0,B|140:306|140:306|153:283|153:283|157:246,1,100,12|0,0:0|0:2,0:0:0:0:
235,201,100621,1,4,0:2:0:0:
269,289,100741,1,0,0:2:0:0:
336,55,100861,6,0,B|330:96|330:96|317:119|317:119|313:156,1,100,12|0,0:0|0:0,0:0:0:0:
235,201,101101,1,4,0:2:0:0:
201,113,101221,1,0,0:0:0:0:
66,171,101341,2,0,B|72:130|72:130|85:107|85:107|89:70,1,100,12|0,0:0|0:0,0:0:0:0:
167,25,101581,1,4,0:2:0:0:
201,113,101701,1,0,0:0:0:0:
258,39,101821,6,0,P|305:28|351:46,2,100,12|0|4,0:0|0:2|0:2,0:0:0:0:
201,113,102181,1,0,0:2:0:0:
167,25,102301,1,12,0:0:0:0:
110,101,102421,1,0,0:2:0:0:
110,101,102541,1,4,0:2:0:0:
258,39,102661,1,0,0:2:0:0:
354,188,102781,6,0,P|407:208|437:38,1,300,12|0,0:0|0:0,0:0:0:0:
409,121,103261,1,4,0:3:0:0:
110,101,103501,1,12,0:3:0:0:
63,306,103741,6,0,B|54:335|54:335|60:370,5,66.6666666666667,8|0|0|2|0|0,0:3|0:0|0:0|0:3|0:2|0:2,0:0:0:0:
212,329,104221,2,0,B|221:300|221:300|215:265,5,66.6666666666667,8|0|0|2|0|0,0:3|0:0|0:0|0:0|0:0|0:0,0:0:0:0:
163,183,104701,5,8,0:3:0:0:
106,149,104781,1,0,0:0:0:0:
90,84,104861,1,0,0:0:0:0:
115,22,104941,1,2,0:0:0:0:
179,3,105021,1,0,0:0:0:0:
245,13,105101,1,0,0:0:0:0:
295,57,105181,2,0,B|311:94|311:94|296:152,1,100,8|0,0:0|0:0,0:0:0:0:
293,166,105361,1,0,0:2:0:0:
289,179,105421,2,0,L|272:243,2,66.6666666666667,2|0|0,0:0|0:0|0:0,0:0:0:0:
396,72,105661,6,0,P|428:65|459:77,5,66.6666666666667,8|0|0|2|0|0,0:0|0:0|0:0|0:0|0:2|0:2,0:0:0:0:
297,152,106141,2,0,P|263:158|235:146,5,66.6666666666667,8|0|0|2|0|0,0:0|0:0|0:0|0:3|0:0|0:0,0:0:0:0:
197,52,106621,5,8,0:3:0:0:
138,20,106701,1,0,0:2:0:0:
72,33,106781,1,0,0:2:0:0:
31,85,106861,1,2,0:3:0:0:
34,151,106941,1,0,0:2:0:0:
76,202,107021,1,0,0:2:0:0:
138,225,107101,2,0,B|150:255|150:255|139:296,2,66.6666666666667,8|0|0,0:0|0:2|0:2,0:0:0:0:
232,213,107341,2,0,B|240:180|240:180|228:150,2,66.6666666666667,2|0|0,0:3|0:2|0:2,0:0:0:0:
240,316,107581,5,8,0:3:0:0:
240,316,107641,1,0,0:0:0:0:
240,316,107701,2,0,B|277:305|277:305|343:336,2,100,0|2|0,0:0|0:3|0:0,0:0:0:0:
125,353,108061,2,0,P|91:359|52:342,2,66.6666666666667,8|0|0,0:3|0:0|0:0,0:0:0:0:
168,213,108301,2,0,P|134:206|95:223,2,66.6666666666667,2|0|0,0:3|0:0|0:0,0:0:0:0:
259,278,108541,5,8,0:3:0:0:
301,298,108621,1,0,0:0:0:0:
347,292,108701,1,0,0:0:0:0:
382,261,108781,1,2,0:3:0:0:
388,215,108861,1,0,0:0:0:0:
364,174,108941,1,0,0:0:0:0:
326,146,109021,2,0,B|320:126|320:126|336:77,2,66.6666666666667,8|0|0,0:3|0:0|0:0,0:0:0:0:
253,186,109261,5,2,0:3:0:0:
238,188,109321,1,0,0:0:0:0:
223,190,109381,1,0,0:0:0:0:
208,192,109441,1,0,0:0:0:0:
193,194,109501,2,0,L|125:205,5,66.6666666666667,8|0|0|2|0|0,0:3|0:0|0:0|0:3|0:0|0:0,0:0:0:0:
28,155,109981,5,8,0:3:0:0:
7,112,110061,1,0,0:0:0:0:
18,66,110141,1,0,0:0:0:0:
53,35,110221,1,2,0:3:0:0:
99,34,110301,1,0,0:0:0:0:
140,56,110381,1,0,0:0:0:0:
158,98,110461,6,0,B|178:154|154:195|154:195|159:206|159:206|143:240|163:282|163:282|138:311|132:346|132:346|127:323|121:310,1,300,8|0,0:0|0:0,0:0:0:0:
71,248,110941,1,12,0:3:0:0:
289,357,111181,1,4,0:3:0:0:
390,113,111421,6,0,B|406:83|399:28|399:28|452:59|474:149|427:222,1,300,12|0,0:0|0:0,0:0:0:0:
350,253,111901,1,4,0:2:0:0:
192,41,112141,2,0,P|142:33|97:59,1,100,4|0,0:0|0:0,0:0:0:0:
161,113,112381,2,0,B|175:168|157:204|157:204|174:226|171:261|171:261|179:268|179:268|159:311|175:362|175:362|179:339|196:324,2,300,12|2|6,0:2|0:2|0:0,0:0:0:0:
334,329,113341,6,0,P|410:351|393:202,1,300,12|0,0:2|0:0,0:0:0:0:
391,278,113821,1,4,0:2:0:0:
284,33,114061,1,4,0:0:0:0:
278,117,114181,1,4,0:0:0:0:
206,71,114301,6,0,B|150:58|150:58|10:103,1,200,12|0,0:2|0:0,0:0:0:0:
278,117,114661,2,0,B|354:127|354:127|402:113|402:113|474:123,1,200,2|0,0:0|0:0,0:0:0:0:
204,157,115021,2,0,B|183:186|183:186|195:263,1,100,6|0,0:0|0:0,0:0:0:0:
355,350,115261,6,0,B|402:383|453:356|453:356|465:361|465:361|416:314|430:260|430:260|418:257|418:257|497:214|473:122,1,400,12|4,0:2|0:2,0:0:0:0:
443,46,115981,1,4,0:0:0:0:
268,30,116101,1,4,0:0:0:0:
146,180,116221,6,0,B|103:215|51:180|51:180|35:186|35:186|11:131|58:97|58:97|55:90|55:90|96:88|109:48,1,300,12|0,0:2|0:0,0:0:0:0:
172,104,116701,2,0,B|194:118|222:115|222:115|250:109|250:109|262:136|285:147|285:147|317:136|355:151,1,200,4|4,0:2|0:0,0:0:0:0:
412,208,117061,1,0,0:0:0:0:
488,104,117181,6,0,P|437:10|359:33,1,200,12|0,0:2|0:0,0:0:0:0:
356,266,117541,2,0,P|407:288|490:192,1,200,2|0,0:2|0:0,0:0:0:0:
295,218,117901,2,0,P|279:259|299:319,1,100,4|0,0:2|0:0,0:0:0:0:
412,208,118141,2,0,B|428:167|418:132|418:132|432:116|432:116|410:74|430:0|430:0|418:13|418:13|410:51|393:71,1,300,12|0,0:1|0:0,0:0:0:0:
325,115,118621,1,0,0:0:0:0:
39,40,118861,1,0,0:0:0:0:
13,253,119101,6,0,B|3:288|29:325|29:325|30:339|30:339|61:281|106:283|106:283|125:272|128:248,1,230.000004386902,12|0,0:3|0:0,0:0:0:0:
128,252,119461,2,0,B|118:217|144:179|144:179|145:166|145:166|176:224|221:221|221:221|240:233|242:253,1,230.000004386902,8|0,0:0|0:0,0:0:0:0:
242,253,119821,2,0,B|232:288|258:325|258:325|259:339|259:339|290:281|335:283|335:283|354:272|357:248,1,230.000004386902,4|8,0:0|0:3,0:0:0:0:
355,169,120301,5,0,0:0:0:0:
340,82,120421,1,0,0:0:0:0:
412,26,120541,1,4,0:2:0:0:
412,26,120661,1,0,0:0:0:0:
256,49,120781,1,0,0:0:0:0:
256,49,120901,1,0,0:0:0:0:
355,169,121021,6,0,B|384:181|384:181|451:169,2,100,4|0|0,0:2|0:0|0:0,0:0:0:0:
256,49,121381,1,0,0:0:0:0:
170,138,121501,2,0,P|128:148|78:115,1,100,4|0,0:2|0:0,0:0:0:0:
256,49,121741,2,0,L|354:33,1,100,0|0,0:0|0:0,0:0:0:0:
477,157,121981,5,12,0:3:0:0:
467,307,122101,1,0,0:0:0:0:
350,230,122221,2,0,P|300:220|255:254,1,100,0|0,0:0|0:0,0:0:0:0:
435,229,122461,1,4,0:2:0:0:
467,307,122581,1,0,0:0:0:0:
477,157,122701,2,0,B|490:100|441:61|441:61|444:53|444:53|395:67|385:109,1,200,0|4,0:0|0:1,0:0:0:0:
350,230,123061,5,0,0:0:0:0:
289,284,123181,1,0,0:0:0:0:
210,297,123301,1,0,0:0:0:0:
134,277,123421,1,4,0:2:0:0:
77,222,123541,1,0,0:0:0:0:
63,146,123661,1,0,0:0:0:0:
74,69,123781,1,0,0:0:0:0:
141,120,123901,6,0,P|177:133|238:104,2,100,12|0|0,0:2|0:0|0:0,0:0:0:0:
74,69,124261,1,0,0:0:0:0:
63,146,124381,2,0,L|46:254,1,100,4|0,0:2|0:0,0:0:0:0:
109,346,124621,1,0,0:0:0:0:
200,280,124741,1,0,0:0:0:0:
297,347,124861,6,0,P|342:360|387:337,1,100,4|0,0:1|0:0,0:0:0:0:
377,159,125101,2,0,P|334:138|286:153,1,100,0|0,0:0|0:0,0:0:0:0:
411,234,125341,1,4,0:2:0:0:
457,169,125461,1,0,0:0:0:0:
453,93,125581,1,0,0:0:0:0:
410,28,125701,1,0,0:0:0:0:
334,19,125821,5,12,0:2:0:0:
334,19,125881,1,0,0:0:0:0:
334,19,125941,2,0,B|296:15|296:15|240:41,2,100,0|0|0,0:0|0:0|0:0,0:0:0:0:
410,28,126301,1,4,0:2:0:0:
453,93,126421,1,2,0:2:0:0:
457,169,126541,1,2,0:2:0:0:
411,234,126661,1,2,0:2:0:0:
234,195,126781,5,8,0:1:0:0:
256,192,126841,12,8,128461,0:1:0:0:
121,208,128701,5,4,0:1:0:0:
100,186,128761,1,0,0:0:0:0:
94,156,128821,1,0,0:0:0:0:
102,127,128881,1,0,0:0:0:0:
126,109,128941,1,10,0:0:0:0:
155,106,129001,1,0,0:0:0:0:
182,117,129061,1,0,0:0:0:0:
199,141,129121,1,0,0:0:0:0:
203,170,129181,2,0,B|205:192|205:192|201:210|201:210|203:229,3,50,10|0|0|0,0:0|0:0|0:0|0:0,0:0:0:0:
277,270,129421,2,0,B|275:248|275:248|279:230|279:230|277:211,3,50,10|0|0|0,0:0|0:0|0:0|0:0,0:0:0:0:
307,151,129661,5,10,0:0:0:0:
322,125,129721,1,0,0:0:0:0:
349,114,129781,1,0,0:0:0:0:
378,117,129841,1,0,0:0:0:0:
402,134,129901,1,10,0:0:0:0:
417,159,129961,1,0,0:0:0:0:
414,188,130021,1,0,0:0:0:0:
397,213,130081,1,0,0:0:0:0:
369,225,130141,1,10,0:0:0:0:
345,206,130201,1,0,0:0:0:0:
333,178,130261,1,0,0:0:0:0:
337,148,130321,1,0,0:0:0:0:
357,125,130381,1,10,0:0:0:0:
378,103,130441,1,0,0:0:0:0:
387,74,130501,1,0,0:0:0:0:
381,44,130561,1,0,0:0:0:0:
363,19,130621,6,0,P|338:14|306:19,3,50,10|0|0|0,0:0|0:0|0:0|0:0,0:0:0:0:
253,72,130861,2,0,P|227:74|197:66,3,50,10|0|0|0,0:0|0:0|0:0|0:0,0:0:0:0:
144,18,131101,2,0,P|119:13|87:18,3,50,10|0|0|0,0:0|0:0|0:0|0:0,0:0:0:0:
28,62,131341,2,0,L|23:114,3,50,10|0|0|0,0:0|0:0|0:0|0:0,0:0:0:0:
46,192,131581,5,10,0:0:0:0:
64,215,131641,1,0,0:0:0:0:
91,226,131701,1,0,0:0:0:0:
120,224,131761,1,0,0:0:0:0:
146,209,131821,1,10,0:0:0:0:
170,192,131881,1,0,0:0:0:0:
198,181,131941,1,0,0:0:0:0:
227,184,132001,1,0,0:0:0:0:
254,196,132061,1,10,0:0:0:0:
271,220,132121,1,0,0:0:0:0:
275,249,132181,1,0,0:0:0:0:
265,277,132241,1,0,0:0:0:0:
242,296,132301,1,10,0:0:0:0:
212,303,132361,1,0,0:0:0:0:
182,296,132421,1,0,0:0:0:0:
161,273,132481,1,0,0:0:0:0:
151,244,132541,6,0,P|146:217|154:191,3,50,10|0|0|0,0:0|0:0|0:0|0:0,0:0:0:0:
194,130,132781,2,0,P|199:105|194:81,3,50,10|0|0|0,0:0|0:0|0:0|0:0,0:0:0:0:
141,20,133021,2,0,L|90:13,3,50,10|0|0|0,0:0|0:0|0:0|0:0,0:0:0:0:
23,66,133261,1,10,0:0:0:0:
28,95,133321,1,0,0:0:0:0:
33,124,133381,1,0,0:0:0:0:
38,153,133441,1,0,0:0:0:0:
44,182,133501,6,0,L|54:236,3,50,10|0|0|0,0:0|0:0|0:0|0:0,0:0:0:0:
124,292,133741,2,0,L|134:238,3,50,10|0|0|0,0:0|0:0|0:0|0:0,0:0:0:0:
207,210,133981,2,0,L|217:264,3,50,10|0|0|0,0:0|0:0|0:0|0:0,0:0:0:0:
287,320,134221,2,0,L|297:266,3,50,10|0|0|0,0:0|0:0|0:0|0:0,0:0:0:0:
338,200,134461,5,10,0:0:0:0:
351,173,134521,1,0,0:0:0:0:
377,159,134581,1,0,0:0:0:0:
406,159,134641,1,0,0:0:0:0:
433,170,134701,1,10,0:0:0:0:
450,194,134761,1,0,0:0:0:0:
453,223,134821,1,0,0:0:0:0:
440,250,134881,1,0,0:0:0:0:
417,269,134941,1,10,0:0:0:0:
401,294,135001,1,0,0:0:0:0:
398,323,135061,1,0,0:0:0:0:
409,350,135121,1,0,0:0:0:0:
432,369,135181,2,0,P|461:373|483:367,3,50,10|0|0|0,0:0|0:0|0:0|0:0,0:0:0:0:
512,289,135421,6,0,B|502:273|481:266|481:266|437:284|352:280|352:280|367:286|382:299,1,200,0|8,0:0|0:0,0:0:0:0:
322,353,135721,1,8,0:0:0:0:
322,353,135781,2,0,B|312:368|291:375|291:375|247:357|162:361|162:361|177:355|192:342,1,200,8|0,0:0|0:0,0:0:0:0:
246,192,136141,1,8,0:0:0:0:
77,20,136381,5,4,0:1:0:0:
14,58,136501,1,0,0:0:0:0:
51,120,136621,1,0,0:0:0:0:
114,83,136741,1,0,0:0:0:0:
39,27,136861,5,4,0:2:0:0:
22,97,136981,1,0,0:0:0:0:
93,114,137101,1,0,0:0:0:0:
111,44,137221,1,0,0:0:0:0:
31,255,137341,5,12,0:2:0:0:
95,290,137461,1,0,0:0:0:0:
130,227,137581,1,0,0:0:0:0:
67,191,137701,1,0,0:0:0:0:
56,284,137821,5,4,0:2:0:0:
125,264,137941,1,0,0:0:0:0:
104,194,138061,1,0,0:0:0:0:
34,213,138181,1,0,0:0:0:0:
256,176,138301,5,12,0:2:0:0:
255,103,138421,1,0,0:0:0:0:
182,105,138541,1,0,0:0:0:0:
183,177,138661,1,0,0:0:0:0:
269,140,138781,5,4,0:2:0:0:
217,90,138901,1,0,0:0:0:0:
167,144,139021,1,0,0:0:0:0:
218,195,139141,1,0,0:0:0:0:
391,106,139261,6,0,B|406:71|406:71|389:5,2,100,12|0|0,0:1|0:0|0:0,0:0:0:0:
166,238,139621,2,0,B|151:203|151:203|168:137,2,100,12|0|0,0:0|0:0|0:0,0:0:0:0:
223,91,139981,2,0,P|180:67|131:76,1,100,12|0,0:1|0:0,0:0:0:0:
44,130,140221,5,12,0:1:0:0:
35,211,140341,1,0,0:0:0:0:
26,292,140461,1,0,0:0:0:0:
17,373,140581,1,0,0:0:0:0:
175,319,140701,5,12,0:0:0:0:
166,238,140821,1,0,0:0:0:0:
157,157,140941,1,0,0:0:0:0:
148,76,141061,1,0,0:0:0:0:
318,0,141181,5,12,0:0:0:0:
309,81,141301,1,0,0:0:0:0:
300,162,141421,1,0,0:0:0:0:
291,243,141541,1,0,0:0:0:0:
432,345,141661,5,12,0:0:0:0:
423,264,141781,1,0,0:0:0:0:
414,183,141901,1,0,0:0:0:0:
405,102,142021,1,0,0:0:0:0:
237,22,142141,5,4,0:1:0:0:
234,35,142381,1,8,0:0:0:0:
153,67,142621,5,4,0:0:0:0:
163,146,142741,1,4,0:0:0:0:
86,117,142861,2,0,P|51:110|-5:138,1,100,8|0,0:0|0:0,0:0:0:0:
163,146,143101,2,0,B|206:166|256:145|256:145|261:155|261:155|312:161|337:206,1,200,2|4,0:0|0:0,0:0:0:0:
357,283,143461,1,0,0:0:0:0:
417,227,143581,5,0,0:0:0:0:
431,223,143641,1,0,0:0:0:0:
445,223,143701,1,0,0:0:0:0:
459,227,143761,1,0,0:0:0:0:
471,234,143821,2,0,B|487:241|494:260|494:260|485:293|450:309,1,100,0|8,0:0|0:1,0:0:0:0:
203,282,144061,6,0,B|162:259|122:268|95:300|95:300|51:299|32:258,1,179.999994506836,4|10,0:1|0:0,0:0:0:0:
224,359,144421,2,0,P|280:303|250:217,1,179.999994506836,4|4,0:0|0:0,0:0:0:0:
88,172,144781,2,0,P|136:176|171:155,1,89.9999972534181,10|0,0:0|0:0,0:0:0:0:
249,37,145021,2,0,P|297:32|332:54,1,89.9999972534181,4|0,0:0|0:0,0:0:0:0:
404,175,145261,6,0,B|417:208|417:208|402:266,1,89.9999972534181,10|0,0:0|0:0,0:0:0:0:
239,209,145501,2,0,B|261:181|261:181|318:165,1,89.9999972534181,4|4,0:0|0:0,0:0:0:0:
350,334,145741,2,0,B|314:328|314:328|272:286,1,89.9999972534181,10|0,0:0|0:0,0:0:0:0:
422,130,145981,6,0,B|448:172|448:172|430:302,1,179.999994506836,4|10,0:0|0:0,0:0:0:0:
343,124,146341,2,0,P|372:68|485:84,1,179.999994506836,4|4,0:0|0:0,0:0:0:0:
465,367,146701,2,0,P|429:376|381:357,1,89.9999972534181,10|0,0:0|0:0,0:0:0:0:
271,248,146941,2,0,P|235:239|187:258,1,89.9999972534181,4|0,0:0|0:0,0:0:0:0:
40,343,147181,6,0,B|72:358|72:358|125:348,1,89.9999972534181,10|0,0:0|0:0,0:0:0:0:
271,248,147421,2,0,B|268:212|268:212|233:170,1,89.9999972534181,4|4,0:0|0:0,0:0:0:0:
73,95,147661,2,0,B|43:115|43:115|24:166,1,89.9999972534181,10|0,0:0|0:0,0:0:0:0:
22,345,147901,6,0,B|63:369|63:369|194:351,1,179.999994506836,4|10,0:0|0:0,0:0:0:0:
388,257,148261,2,0,B|417:222|409:172|376:145|376:145|391:114|376:83,1,179.999994506836,4|4,0:0|0:0,0:0:0:0:
271,157,148621,2,0,B|241:191|249:241|282:268|282:268|267:299|282:330,1,179.999994506836,10|4,0:0|0:0,0:0:0:0:
330,207,148981,1,0,0:0:0:0:
305,87,149101,6,0,P|261:78|219:96,1,89.9999972534181,10|0,0:0|0:0,0:0:0:0:
330,207,149341,2,0,B|365:214|365:214|421:197,1,89.9999972534181,4|4,0:0|0:0,0:0:0:0:
488,281,149581,2,0,B|453:274|453:274|397:291,1,89.9999972534181,10|0,0:0|0:0,0:0:0:0:
275,352,149821,6,0,B|237:370|237:370|138:360|138:360|107:336,1,179.999994506836,4|10,0:0|0:0,0:0:0:0:
205,200,150181,2,0,B|239:223|239:223|280:314|280:314|275:352,1,179.999994506836,4|4,0:0|0:0,0:0:0:0:
108,337,150541,2,0,B|111:295|111:295|169:214|169:214|204:200,1,179.999994506836,10|4,0:0|0:0,0:0:0:0:
324,160,150901,5,8,0:0:0:0:
324,160,150961,1,0,0:0:0:0:
324,160,151021,1,2,0:0:0:0:
315,270,151141,1,8,0:0:0:0:
411,219,151261,2,0,P|446:215|498:257,1,89.9999972534181,8|0,0:1|0:0,0:0:0:0:
337,345,151501,2,0,P|302:349|248:310,1,89.9999972534181,4|0,0:0|0:0,0:0:0:0:
162,79,151741,5,4,0:1:0:0:
94,133,151861,1,8,0:0:0:0:
173,170,151981,2,0,P|191:230|169:270,1,100,2|8,0:2|0:0,0:0:0:0:
24,170,152221,2,0,P|14:122|37:76,1,100,2|8,0:2|0:0,0:0:0:0:
241,302,152461,2,0,P|200:333|100:253,1,200,2|2,0:2|0:2,0:0:0:0:
162,79,152821,5,8,0:0:0:0:
234,37,152941,1,2,0:2:0:0:
308,67,153061,1,8,0:0:0:0:
356,207,153181,1,2,0:2:0:0:
356,207,153301,1,8,0:0:0:0:
453,105,153421,1,2,0:2:0:0:
453,105,153541,1,8,0:0:0:0:
308,67,153661,6,0,B|281:34|227:18|227:18|271:18|291:11|291:11|320:16|339:45,1,220.000006713867,2|2,0:2|0:2,0:0:0:0:
372,123,154021,1,8,0:0:0:0:
356,207,154141,2,0,B|341:246|354:300|354:300|331:262|315:249|315:249|306:221|321:191,1,220.000006713867,2|2,0:2|0:2,0:0:0:0:
372,123,154501,1,8,0:0:0:0:
453,95,154621,2,0,B|494:87|534:49|534:49|513:88|509:108|509:108|490:130|456:132,1,220.000006713867,2|2,0:2|0:2,0:0:0:0:
372,123,154981,1,8,0:0:0:0:
247,52,155101,5,4,0:1:0:0:
227,45,155161,1,0,0:0:0:0:
205,45,155221,1,0,0:0:0:0:
186,54,155281,1,0,0:0:0:0:
176,74,155341,1,8,0:0:0:0:
198,79,155401,1,0,0:0:0:0:
219,72,155461,1,0,0:0:0:0:
332,45,155581,1,4,0:1:0:0:
296,153,155701,1,4,0:2:0:0:
247,52,155821,5,4,0:0:0:0:
227,45,155881,1,0,0:0:0:0:
205,45,155941,1,8,0:3:0:0:
186,54,156001,1,8,0:3:0:0:
176,74,156061,1,8,0:3:0:0:
198,79,156121,1,8,0:3:0:0:
219,72,156181,1,8,0:3:0:0:
241,66,156241,1,8,0:3:0:0:
262,68,156301,1,8,0:3:0:0:
282,75,156361,1,2,0:0:0:0:
296,92,156421,1,2,0:0:0:0:
298,115,156481,1,2,0:0:0:0:
276,110,156541,6,0,P|252:105|225:110,5,50,8|8|8|8|4|4,0:0|0:0|0:0|0:0|0:0|0:0,0:0:0:0:
173,169,156901,2,0,P|148:171|122:164,5,50,4|4|4|0|0|0,0:0|0:0|0:0|0:0|0:0|0:0,0:0:0:0:
55,104,157261,2,0,B|41:24|41:24|57:47,1,110.000003356934,8|8,0:0|0:0,0:0:0:0:
124,165,157501,5,4,0:1:0:0:
121,186,157561,1,8,0:1:0:0:
119,208,157621,1,8,0:1:0:0:
116,229,157681,1,8,0:1:0:0:
113,251,157741,1,8,0:1:0:0:
134,362,157861,1,0,0:0:0:0:
231,288,157981,5,12,0:3:0:0:
228,267,158041,1,8,0:3:0:0:
226,245,158101,1,8,0:3:0:0:
223,224,158161,1,4,0:3:0:0:
220,202,158221,1,4,0:3:0:0:
241,91,158341,1,2,0:3:0:0:
329,169,158461,2,0,P|378:179|422:154,1,100,0|8,0:0|0:0,0:0:0:0:
270,20,158701,2,0,P|218:14|176:44,1,100,4|4,0:0|0:0,0:0:0:0:
37,304,158941,6,0,B|39:270|71:248|71:248|58:222|57:182|57:182|79:156|84:101|84:101|70:117|55:123,1,259.999988098145,0|12,0:0|0:1,0:0:0:0:
116,322,159421,6,0,P|161:350|214:341,1,100,4|8,0:1|0:0,0:0:0:0:
279,277,159661,1,2,0:2:0:0:
250,158,159781,2,0,B|233:205|265:257|325:258|325:258|302:279|269:275,1,200,8|8,0:0|0:0,0:0:0:0:
414,183,160141,2,0,P|368:166|322:182,1,100,2|8,0:2|0:0,0:0:0:0:
196,98,160381,2,0,P|240:77|288:89,1,100,2|8,0:2|0:0,0:0:0:0:
391,355,160621,6,0,B|406:273|406:273|418:297,1,100,2|8,0:2|0:0,0:0:0:0:
388,135,160861,2,0,B|400:111|400:111|415:193,1,100,2|8,0:2|0:0,0:0:0:0:
299,213,161101,2,0,P|251:218|210:191,1,100,2|8,0:2|0:0,0:0:0:0:
327,21,161341,6,0,P|372:13|419:40,1,100,2|8,0:2|0:0,0:0:0:0:
262,82,161581,1,2,0:2:0:0:
353,155,161701,2,0,P|372:245|288:290,1,200,8|8,0:0|0:0,0:0:0:0:
169,91,162061,2,0,P|213:69|261:81,1,100,2|8,0:2|0:0,0:0:0:0:
152,272,162301,2,0,P|98:267|64:224,1,100,2|8,0:2|0:0,0:0:0:0:
76,39,162541,6,0,B|57:85|57:85|40:104|40:104|43:129,1,100,2|8,0:2|0:0,0:0:0:0:
245,241,162781,2,0,B|235:192|235:192|238:166|238:166|223:147,1,100,2|8,0:2|0:0,0:0:0:0:
394,30,163021,2,0,B|375:76|375:76|358:95|358:95|361:120,1,100,2|8,0:2|0:0,0:0:0:0:
455,339,163261,6,0,B|464:242|464:242|485:195|485:195|466:148,1,200,2|2,0:2|0:2,0:0:0:0:
281,33,163621,2,0,P|229:31|195:153,1,200,8|8,0:0|0:0,0:0:0:0:
261,219,163981,2,0,B|299:231|343:210|343:210|349:224,1,100,2|8,0:2|0:0,0:0:0:0:
228,301,164221,2,0,B|251:268|245:220|245:220|260:218,1,100,2|8,0:2|0:0,0:0:0:0:
296,357,164461,2,0,B|272:324|224:315|224:315|227:300,1,100,2|8,0:2|0:0,0:0:0:0:
370,310,164701,2,0,B|331:322|308:364|308:364|294:357,1,100,2|8,0:2|0:0,0:0:0:0:
349,224,164941,2,0,B|348:264|382:299|382:299|371:310,1,100,2|8,0:2|0:0,0:0:0:0:
148,238,165181,6,0,B|107:234|63:205|63:205|64:237|96:255|96:255|117:255|140:270,1,200,2|2,0:0|0:0,0:0:0:0:
287,341,165541,2,0,B|327:337|371:308|371:308|370:340|338:358|338:358|317:358|294:373,1,200,8|2,0:0|0:0,0:0:0:0:
230,272,165901,1,2,0:0:0:0:
196,363,166021,1,8,0:0:0:0:
273,175,166141,6,0,B|279:134|279:134|274:111|274:111|279:76,1,100,4|8,0:1|0:0,0:0:0:0:
214,12,166381,1,4,0:0:0:0:
214,12,166441,1,4,0:0:0:0:
214,12,166501,1,4,0:0:0:0:
361,31,166621,1,0,0:0:0:0:
361,31,167101,6,0,P|392:30|412:38,3,50,12|0|0|0,0:1|0:0|0:0|0:0,0:0:0:0:
470,88,167341,2,0,P|486:114|489:135,3,50,12|0|0|0,0:0|0:0|0:0|0:0,0:0:0:0:
475,210,167581,2,0,P|460:237|443:250,3,50,12|0|0|0,0:0|0:0|0:0|0:0,0:0:0:0:
371,275,167821,2,0,P|339:276|319:268,3,50,12|0|0|0,0:0|0:0|0:0|0:0,0:0:0:0:
259,217,168061,5,12,0:0:0:0:
235,207,168121,1,0,0:0:0:0:
210,205,168181,1,0,0:0:0:0:
185,211,168241,1,0,0:0:0:0:
165,226,168301,1,8,0:0:0:0:
151,247,168361,1,0,0:0:0:0:
146,271,168421,1,0,0:0:0:0:
148,295,168481,1,0,0:0:0:0:
166,311,168541,1,8,0:0:0:0:
190,317,168601,1,0,0:0:0:0:
214,314,168661,1,0,0:0:0:0:
235,301,168721,1,0,0:0:0:0:
259,294,168781,1,8,0:0:0:0:
283,296,168841,1,0,0:0:0:0:
305,306,168901,1,0,0:0:0:0:
322,324,168961,1,0,0:0:0:0:
335,345,169021,6,0,P|357:357|382:358,3,50,12|0|0|0,0:1|0:0|0:0|0:0,0:0:0:0:
454,331,169261,2,0,P|476:317|488:296,3,50,12|0|0|0,0:0|0:0|0:0|0:0,0:0:0:0:
501,220,169501,2,0,P|500:194|488:172,3,50,12|0|0|0,0:0|0:0|0:0|0:0,0:0:0:0:
429,124,169741,2,0,P|406:111|382:111,3,50,12|0|0|0,0:0|0:0|0:0|0:0,0:0:0:0:
304,125,169981,5,12,0:0:0:0:
281,136,170041,1,0,0:0:0:0:
256,137,170101,1,0,0:0:0:0:
231,132,170161,1,0,0:0:0:0:
209,119,170221,1,8,0:0:0:0:
193,99,170281,1,0,0:0:0:0:
174,81,170341,1,0,0:0:0:0:
151,69,170401,1,0,0:0:0:0:
126,65,170461,1,8,0:0:0:0:
101,69,170521,1,0,0:0:0:0:
79,82,170581,1,0,0:0:0:0:
65,103,170641,1,0,0:0:0:0:
62,127,170701,1,8,0:0:0:0:
69,150,170761,1,0,0:0:0:0:
84,169,170821,1,0,0:0:0:0:
106,180,170881,1,0,0:0:0:0:
130,181,170941,6,0,P|158:181|178:191,3,50,12|0|0|0,0:1|0:0|0:0|0:0,0:0:0:0:
234,244,171181,2,0,P|262:244|282:234,3,50,12|0|0|0,0:0|0:0|0:0|0:0,0:0:0:0:
320,169,171421,2,0,P|348:169|368:179,3,50,12|0|0|0,0:0|0:0|0:0|0:0,0:0:0:0:
433,225,171661,2,0,P|461:225|481:215,3,50,12|0|0|0,0:0|0:0|0:0|0:0,0:0:0:0:
507,143,171901,5,12,0:0:0:0:
510,118,171961,1,0,0:0:0:0:
502,94,172021,1,0,0:0:0:0:
481,79,172081,1,0,0:0:0:0:
456,74,172141,1,8,0:0:0:0:
431,78,172201,1,0,0:0:0:0:
411,93,172261,1,4,0:0:0:0:
400,115,172321,1,0,0:0:0:0:
402,139,172381,1,8,0:0:0:0:
413,161,172441,1,0,0:0:0:0:
420,184,172501,1,4,0:0:0:0:
420,208,172561,1,0,0:0:0:0:
412,231,172621,1,12,0:0:0:0:
396,250,172681,1,0,0:0:0:0:
372,259,172741,1,4,0:0:0:0:
347,257,172801,1,0,0:0:0:0:
325,245,172861,6,0,P|296:236|274:238,5,50,12|0|0|0|8|0,0:0|0:0|0:0|0:0|0:0|0:0,0:0:0:0:
216,286,173221,2,0,P|187:295|165:293,5,50,4|0|8|0|0|0,0:0|0:0|0:0|0:0|0:0|0:0,0:0:0:0:
99,253,173581,2,0,B|106:173|106:173|114:190,1,100,8|8,0:0|0:0,0:0:0:0:
96,336,173821,5,4,0:0:0:0:
27,293,173941,1,2,0:0:0:0:
27,293,174001,1,2,0:0:0:0:
27,293,174061,1,8,0:0:0:0:
192,208,174181,1,8,0:1:0:0:
156,119,174301,2,0,P|106:96|56:114,1,100,4|8,0:1|0:0,0:0:0:0:
252,56,174541,2,0,P|300:48|342:74,1,100,4|4,0:0|0:0,0:0:0:0:
398,288,174781,5,4,0:1:0:0:
398,288,174901,1,8,0:0:0:0:
456,160,175021,1,0,0:0:0:0:
456,160,175141,1,8,0:0:0:0:
319,171,175261,1,0,0:0:0:0:
319,171,175381,2,0,B|281:202|281:202|258:321|258:321|271:308|278:294,1,200,8|8,0:0|0:0,0:0:0:0:
390,210,175741,5,0,0:0:0:0:
456,160,175861,1,8,0:0:0:0:
424,32,175981,1,0,0:0:0:0:
424,32,176101,1,8,0:0:0:0:
379,131,176221,1,0,0:0:0:0:
468,241,176341,2,0,B|446:293|392:305|350:284|350:284|368:311|373:339,1,200,8|8,0:0|0:0,0:0:0:0:
276,228,176701,6,0,P|224:213|183:233,2,100,0|8|0,0:0|0:0|0:0,0:0:0:0:
132,288,177061,2,0,P|108:239|119:192,1,100,8|0,0:0|0:0,0:0:0:0:
179,123,177301,1,8,0:0:0:0:
346,193,177421,2,0,P|354:241|331:285,1,100,0|8,0:0|0:0,0:0:0:0:
132,288,177661,6,0,B|89:273|89:273|53:149|53:149|74:169,1,200,0|4,0:0|0:0,0:0:0:0:
179,123,178021,2,0,B|212:111|212:111|276:129,2,100,8|4|8,0:0|0:0|0:0,0:0:0:0:
154,202,178381,1,4,0:0:0:0:
105,81,178501,1,8,0:0:0:0:
336,220,178621,6,0,P|287:250|238:238,1,100,4|8,0:1|0:0,0:0:0:0:
105,81,178861,1,0,0:0:0:0:
45,180,178981,2,0,B|35:299|35:299|20:340|20:340|32:374,1,200,8|8,0:0|0:0,0:0:0:0:
154,303,179341,2,0,P|191:298|242:335,1,100,0|8,0:0|0:0,0:0:0:0:
347,297,179581,2,0,P|385:265|434:268,1,100,0|8,0:0|0:0,0:0:0:0:
469,84,179821,2,0,B|486:118|486:118|475:178,1,100,0|8,0:0|0:0,0:0:0:0:
279,176,180061,6,0,B|241:135|261:71|306:47|306:47|272:14|222:23,1,239.999992675781,2|0,0:2|0:0,0:0:0:0:
73,251,180541,6,0,B|61:286|61:286|79:364,1,100,4|8,0:0|0:0,0:0:0:0:
214,233,180781,2,0,B|189:205|189:205|113:181,1,100,4|8,0:0|0:0,0:0:0:0:
159,364,181021,2,0,B|195:356|195:356|253:302,1,100,4|8,0:0|0:0,0:0:0:0:
331,211,181261,1,4,0:0:0:0:
370,331,181381,1,8,0:0:0:0:
459,242,181501,5,8,0:0:0:0:
461,212,181561,1,8,0:0:0:0:
463,182,181621,1,8,0:0:0:0:
465,152,181681,1,8,0:0:0:0:
467,122,181741,1,8,0:0:0:0:
419,40,181861,1,4,0:0:0:0:
454,130,181981,5,4,0:0:0:0:
452,160,182041,1,4,0:0:0:0:
450,190,182101,1,4,0:0:0:0:
448,220,182161,1,4,0:0:0:0:
446,250,182221,1,12,0:1:0:0:
364,319,182341,1,4,0:0:0:0:
245,253,182461,5,4,0:0:0:0:
243,264,182701,1,8,0:0:0:0:
120,106,182941,5,4,0:0:0:0:
118,95,183181,1,8,0:0:0:0:
245,253,183421,5,4,0:0:0:0:
243,264,183661,1,8,0:0:0:0:
120,106,183901,5,4,0:0:0:0:
118,95,184141,1,8,0:0:0:0:
245,253,184381,5,4,0:0:0:0:
243,264,184621,1,8,0:0:0:0:
120,106,184861,5,4,0:0:0:0:
118,95,185101,1,8,0:0:0:0:
245,253,185341,5,4,0:0:0:0:
243,264,185581,1,8,0:0:0:0:
120,106,185821,5,4,0:0:0:0:
118,95,186061,1,8,0:0:0:0:
96,22,186181,1,8,0:0:0:0:
170,37,186301,1,4,0:1:0:0:
245,253,186541,5,8,0:0:0:0:
243,264,186781,1,4,0:0:0:0:
120,106,187021,5,8,0:0:0:0:
118,95,187261,1,4,0:0:0:0:
245,253,187501,5,8,0:0:0:0:
243,264,187741,1,4,0:0:0:0:
118,95,187981,5,8,0:0:0:0:
96,22,188101,1,4,0:0:0:0:
170,37,188221,1,4,0:0:0:0:
243,264,188461,5,8,0:0:0:0:
295,206,188581,1,4,0:0:0:0:
221,191,188701,1,4,0:0:0:0:
29,347,188941,5,12,0:1:0:0:
7,274,189061,1,4,0:0:0:0:
81,289,189181,2,0,L|108:293,2,25,4|4|4,0:0|0:0|0:0,0:0:0:0:
214,347,189421,2,0,L|184:351,2,29.9999990844727,8|8|8,0:3|0:3|0:3,0:0:0:0:
280,277,189661,2,0,L|314:282,2,34.9999989318848,4|0|0,0:1|0:0|0:0,0:0:0:0:
425,347,189901,2,0,L|384:352,2,40,4|4|4,0:0|0:0|0:0,0:0:0:0:
403,229,190141,5,4,0:1:0:0:
384,205,190201,1,0,0:0:0:0:
355,196,190261,1,0,0:0:0:0:
327,182,190321,1,0,0:0:0:0:
308,158,190381,1,10,0:0:0:0:
300,129,190441,1,0,0:0:0:0:
309,100,190501,1,0,0:0:0:0:
334,83,190561,1,0,0:0:0:0:
363,79,190621,1,10,0:0:0:0:
390,90,190681,1,0,0:0:0:0:
405,115,190741,1,0,0:0:0:0:
409,144,190801,1,0,0:0:0:0:
398,172,190861,1,10,0:0:0:0:
375,192,190921,1,0,0:0:0:0:
357,216,190981,1,0,0:0:0:0:
353,245,191041,1,0,0:0:0:0:
365,272,191101,6,0,P|387:288|411:290,3,50,10|0|0|0,0:0|0:0|0:0|0:0,0:0:0:0:
480,261,191341,2,0,P|502:245|511:222,3,50,10|0|0|0,0:0|0:0|0:0|0:0,0:0:0:0:
505,148,191581,2,0,P|496:122|478:106,3,50,10|0|0|0,0:0|0:0|0:0|0:0,0:0:0:0:
405,89,191821,2,0,P|377:88|357:101,3,50,10|0|0|0,0:0|0:0|0:0|0:0,0:0:0:0:
305,156,192061,5,10,0:0:0:0:
280,173,192121,1,0,0:0:0:0:
250,179,192181,1,0,0:0:0:0:
220,176,192241,1,0,0:0:0:0:
193,161,192301,1,10,0:0:0:0:
175,136,192361,1,0,0:0:0:0:
169,106,192421,1,0,0:0:0:0:
153,80,192481,1,0,0:0:0:0:
125,68,192541,1,10,0:0:0:0:
95,69,192601,1,0,0:0:0:0:
69,84,192661,1,0,0:0:0:0:
55,110,192721,1,0,0:0:0:0:
53,139,192781,1,10,0:0:0:0:
66,165,192841,1,0,0:0:0:0:
91,181,192901,1,0,0:0:0:0:
120,184,192961,1,0,0:0:0:0:
147,171,193021,6,0,P|176:168|201:178,5,50,10|0|0|0|10|0,0:0|0:0|0:0|0:0|0:0|0:0,0:0:0:0:
247,230,193381,2,0,P|276:233|301:223,5,50,0|0|10|0|0|0,0:0|0:0|0:0|0:0|0:0|0:0,0:0:0:0:
346,167,193741,2,0,P|375:164|400:174,3,50,10|0|0|0,0:0|0:0|0:0|0:0,0:0:0:0:
445,228,193981,5,10,0:0:0:0:
456,255,194041,1,0,0:0:0:0:
453,284,194101,1,0,0:0:0:0:
436,309,194161,1,0,0:0:0:0:
408,321,194221,1,10,0:0:0:0:
378,319,194281,1,0,0:0:0:0:
352,303,194341,1,0,0:0:0:0:
339,275,194401,1,0,0:0:0:0:
340,245,194461,1,10,0:0:0:0:
348,216,194521,1,0,0:0:0:0:
343,186,194581,1,0,0:0:0:0:
327,160,194641,1,0,0:0:0:0:
299,147,194701,1,10,0:0:0:0:
269,149,194761,1,0,0:0:0:0:
243,164,194821,1,0,0:0:0:0:
233,191,194881,1,0,0:0:0:0:
237,220,194941,6,0,P|237:249|228:269,3,50,10|0|0|0,0:0|0:0|0:0|0:0,0:0:0:0:
179,326,195181,2,0,P|151:334|129:332,3,50,10|0|0|0,0:0|0:0|0:0|0:0,0:0:0:0:
60,303,195421,2,0,P|42:279|38:258,3,50,10|0|0|0,0:0|0:0|0:0|0:0,0:0:0:0:
45,183,195661,2,0,P|62:159|81:148,3,50,10|0|0|0,0:0|0:0|0:0|0:0,0:0:0:0:
157,141,195901,5,10,0:0:0:0:
186,143,195961,1,0,0:0:0:0:
211,158,196021,1,0,0:0:0:0:
229,181,196081,1,0,0:0:0:0:
236,210,196141,1,10,0:0:0:0:
234,239,196201,1,0,0:0:0:0:
243,267,196261,1,0,0:0:0:0:
262,289,196321,1,0,0:0:0:0:
290,298,196381,1,10,0:0:0:0:
319,294,196441,1,0,0:0:0:0:
344,278,196501,1,0,0:0:0:0:
354,250,196561,1,0,0:0:0:0:
350,220,196621,1,10,0:0:0:0:
335,193,196681,1,0,0:0:0:0:
330,163,196741,1,0,0:0:0:0:
344,136,196801,1,0,0:0:0:0:
369,119,196861,6,0,B|387:113|407:122|407:122|428:165|493:219|493:219|478:213|458:213,1,200,0|8,0:0|0:0,0:0:0:0:
465,289,197161,1,8,0:0:0:0:
465,289,197221,2,0,B|460:307|442:320|442:320|395:316|315:347|315:347|328:336|338:319,1,200,8|0,0:0|0:0,0:0:0:0:
229,181,197581,1,8,0:0:0:0:
38,272,197821,5,4,0:1:0:0:
56,380,197941,1,2,0:2:0:0:
105,284,198061,1,2,0:2:0:0:
9,333,198181,1,2,0:2:0:0:
115,350,198301,2,0,B|150:355|150:355|178:350|178:350|217:359,1,100,2|2,0:2|0:2,0:0:0:0:
410,374,198541,2,0,B|375:379|375:379|347:374|347:374|308:383,1,100,2|2,0:2|0:2,0:0:0:0:
477,182,198781,5,4,0:1:0:0:
459,290,198901,1,2,0:2:0:0:
410,194,199021,1,2,0:2:0:0:
506,243,199141,1,2,0:2:0:0:
400,260,199261,2,0,B|365:265|365:265|337:260|337:260|298:269,1,100,2|2,0:2|0:2,0:0:0:0:
105,284,199501,2,0,B|140:289|140:289|168:284|168:284|207:293,1,100,2|2,0:2|0:2,0:0:0:0:
38,92,199741,5,4,0:1:0:0:
56,200,199861,1,2,0:2:0:0:
105,104,199981,1,2,0:2:0:0:
9,153,200101,1,2,0:2:0:0:
115,170,200221,2,0,B|150:175|150:175|178:170|178:170|217:179,1,100,2|2,0:2|0:2,0:0:0:0:
410,194,200461,2,0,B|375:199|375:199|347:194|347:194|308:203,1,100,2|2,0:2|0:2,0:0:0:0:
477,2,200701,5,4,0:1:0:0:
459,110,200821,1,2,0:2:0:0:
410,14,200941,1,2,0:2:0:0:
506,63,201061,1,4,0:0:0:0:
400,80,201181,2,0,B|365:85|365:85|337:80|337:80|298:89,1,100,2|2,0:2|0:2,0:0:0:0:
105,104,201421,2,0,B|140:109|140:109|168:104|168:104|207:113,1,100,2|2,0:2|0:2,0:0:0:0:
375,296,201661,5,4,0:1:0:0:
321,356,201781,1,2,0:2:0:0:
296,279,201901,1,2,0:2:0:0:
375,296,202021,1,2,0:2:0:0:
242,340,202141,2,0,B|195:334|195:334|177:324|177:324|140:319,1,100,2|2,0:2|0:2,0:0:0:0:
375,296,202381,2,0,B|422:290|422:290|440:280|440:280|477:275,1,100,2|2,0:2|0:2,0:0:0:0:
107,166,202621,5,4,0:1:0:0:
161,226,202741,1,2,0:2:0:0:
186,149,202861,1,2,0:2:0:0:
107,166,202981,1,2,0:2:0:0:
240,210,203101,2,0,B|287:204|287:204|305:194|305:194|342:189,1,100,2|2,0:2|0:2,0:0:0:0:
107,166,203341,2,0,B|60:160|60:160|42:150|42:150|5:145,1,100,2|2,0:2|0:2,0:0:0:0:
375,36,203581,5,4,0:1:0:0:
321,96,203701,1,2,0:2:0:0:
296,19,203821,1,2,0:2:0:0:
375,36,203941,1,2,0:2:0:0:
242,80,204061,2,0,B|195:74|195:74|177:64|177:64|140:59,1,100,2|2,0:2|0:2,0:0:0:0:
375,36,204301,2,0,B|422:30|422:30|440:20|440:20|477:15,1,100,2|2,0:2|0:2,0:0:0:0:
256,192,204541,12,4,205501,0:0:0:0:
414,179,212701,6,0,B|443:221|421:271|421:271|396:280|385:308|385:308|403:334|393:375,2,220,2|2|2,0:0|0:0|0:0,0:0:0:0:
351,104,214141,1,4,0:1:0:0:
256,192,214201,12,0,220861,0:0:0:0:
275,171,221821,5,12,0:3:0:0:
275,171,222541,5,12,0:3:0:0:
223,327,222781,1,12,0:3:0:0:
223,327,223501,5,4,0:3:0:0:
60,225,223741,5,4,0:3:0:0:
223,327,224101,1,6,0:3:0:0:
275,171,224461,1,4,0:3:0:0:
312,277,224701,6,0,B|340:335|404:333|404:333|407:351|407:351|480:357|511:287|511:287|532:300|532:300|539:236|488:207,1,400,12|0,0:3|0:0,0:0:0:0:
412,178,225661,5,2,0:0:0:0:
412,178,225721,1,4,0:0:0:0:
412,178,225781,1,4,0:0:0:0:
443,89,225901,1,4,0:0:0:0:
352,104,226021,2,0,B|314:96|314:96|289:77|289:77|260:71,2,100,8|0|0,0:0|0:0|0:0,0:0:0:0:
443,89,226381,1,4,0:0:0:0:
320,194,226501,1,8,0:0:0:0:
380,266,226621,6,0,P|422:290|470:282,2,100,8|12|2,0:0|0:0|0:0,0:0:0:0:
320,194,226981,1,2,0:0:0:0:
249,137,227101,1,2,0:0:0:0:
159,134,227221,1,8,0:0:0:0:
81,179,227341,1,8,0:0:0:0:
52,264,227461,1,4,0:0:0:0:
66,351,227581,5,4,0:0:0:0:
380,266,228061,6,0,B|382:213|428:181|428:181|393:165|379:114|379:114|413:89|416:51,2,259.999988098145,2|2|2,3:0|3:0|3:0,0:0:0:0:
337,48,229501,5,10,0:1:0:0:
307,33,229561,1,0,0:3:0:0:
274,34,229621,1,0,0:3:0:0:
242,45,229681,1,0,0:3:0:0:
223,72,229741,1,8,0:3:0:0:
220,104,229801,1,0,0:3:0:0:
231,135,229861,1,0,0:3:0:0:
238,167,229921,1,0,0:3:0:0:
232,199,229981,1,8,0:3:0:0:
212,225,230041,1,0,0:3:0:0:
183,240,230101,1,0,0:3:0:0:
150,240,230161,1,0,0:3:0:0:
121,226,230221,1,8,0:3:0:0:
101,200,230281,1,0,0:3:0:0:
94,168,230341,1,0,0:3:0:0:
103,136,230401,1,0,0:3:0:0:
124,112,230461,6,0,P|155:102|179:104,3,55.0000016784668,12|0|0|0,0:3|0:3|0:3|0:3,0:0:0:0:
240,154,230701,2,0,P|270:164|294:162,3,55.0000016784668,8|0|4|0,0:3|0:3|0:3|0:3,0:0:0:0:
346,106,230941,2,0,P|376:95|400:97,3,55.0000016784668,8|0|0|0,0:3|0:3|0:3|0:3,0:0:0:0:
469,132,231181,2,0,P|488:157|493:181,3,55.0000016784668,12|0|0|0,0:3|0:3|0:3|0:3,0:0:0:0:
480,255,231421,5,12,0:3:0:0:
465,284,231481,1,0,0:3:0:0:
437,301,231541,1,0,0:3:0:0:
404,306,231601,1,0,0:3:0:0:
371,299,231661,1,8,0:3:0:0:
345,277,231721,1,0,0:3:0:0:
333,246,231781,1,0,0:3:0:0:
336,213,231841,1,0,0:3:0:0:
349,182,231901,1,12,0:3:0:0:
363,152,231961,1,0,0:3:0:0:
369,119,232021,1,0,0:3:0:0:
362,86,232081,1,0,0:3:0:0:
337,63,232141,1,12,0:3:0:0:
305,53,232201,1,0,0:3:0:0:
272,59,232261,1,0,0:3:0:0:
249,82,232321,1,0,0:3:0:0:
243,114,232381,6,0,L|248:175,3,55.0000016784668,12|0|0|0,0:3|0:3|0:3|0:3,0:0:0:0:
157,237,232621,2,0,L|162:176,3,55.0000016784668,8|0|0|0,0:3|0:3|0:3|0:3,0:0:0:0:
246,252,232861,2,0,L|251:313,3,55.0000016784668,8|0|0|0,0:3|0:3|0:3|0:3,0:0:0:0:
160,375,233101,2,0,L|165:314,3,55.0000016784668,8|0|0|0,0:3|0:3|0:3|0:3,0:0:0:0:
75,335,233341,5,12,0:3:0:0:
44,323,233401,1,0,0:3:0:0:
24,296,233461,1,0,0:3:0:0:
20,263,233521,1,0,0:3:0:0:
28,231,233581,1,8,0:3:0:0:
54,210,233641,1,0,0:3:0:0:
86,204,233701,1,4,0:3:0:0:
117,193,233761,1,0,0:3:0:0:
140,169,233821,1,8,0:3:0:0:
152,138,233881,1,0,0:3:0:0:
154,105,233941,1,0,0:3:0:0:
143,73,234001,1,0,0:3:0:0:
118,50,234061,1,12,0:3:0:0:
106,81,234121,1,0,0:3:0:0:
105,115,234181,1,0,0:3:0:0:
115,147,234241,1,0,0:3:0:0:
140,169,234301,6,0,P|173:179|192:176,3,55.0000016784668,12|0|0|0,0:3|0:3|0:3|0:3,0:0:0:0:
266,151,234541,2,0,P|299:141|318:144,3,55.0000016784668,12|0|0|0,0:3|0:3|0:3|0:3,0:0:0:0:
386,187,234781,2,0,P|405:215|408:234,3,55.0000016784668,12|0|0|0,0:3|0:3|0:3|0:3,0:0:0:0:
389,312,235021,2,0,P|368:339|351:348,3,55.0000016784668,12|0|0|0,0:3|0:3|0:3|0:3,0:0:0:0:
271,349,235261,5,12,0:3:0:0:
238,347,235321,1,0,0:3:0:0:
210,328,235381,1,0,0:3:0:0:
198,297,235441,1,0,0:3:0:0:
204,264,235501,1,8,0:3:0:0:
228,241,235561,1,0,0:3:0:0:
258,227,235621,1,0,0:3:0:0:
279,201,235681,1,0,0:3:0:0:
289,169,235741,1,8,0:3:0:0:
287,136,235801,1,0,0:3:0:0:
268,108,235861,1,0,0:3:0:0:
236,96,235921,1,0,0:3:0:0:
203,99,235981,1,12,0:3:0:0:
176,118,236041,1,0,0:3:0:0:
164,148,236101,1,0,0:3:0:0:
169,180,236161,1,0,0:3:0:0:
184,209,236221,6,0,B|196:239|196:239|193:279|161:313,1,110.000003356934,4|8,0:0|0:0,0:0:0:0:
79,358,236461,1,4,0:0:0:0:
79,358,236581,1,2,0:0:0:0:
67,260,236701,2,0,B|66:223|75:193|75:193|52:149|49:78|49:78|47:105|39:118,1,220.000006713867,8|4,0:0|0:0,0:0:0:0:
250,200,237181,6,0,B|317:188|317:188|351:211,1,110.000003356934,4|8,0:1|0:0,0:0:0:0:
238,302,237421,2,0,B|226:234|226:234|249:200,1,110.000003356934,0|8,0:0|0:0,0:0:0:0:
340,313,237661,2,0,B|272:324|272:324|238:301,1,110.000003356934,0|8,0:0|0:0,0:0:0:0:
352,211,237901,2,0,B|363:278|363:278|340:312,1,110.000003356934,0|8,0:0|0:0,0:0:0:0:
172,168,238141,6,0,B|196:111|263:100|308:138|308:138|298:108|317:82,1,220.000006713867,4|2,0:0|0:0,0:0:0:0:
374,29,238501,1,0,0:0:0:0:
466,166,238621,2,0,B|472:215|446:244|446:244|441:284|459:325|459:325|458:357|443:375,1,220.000006713867,8|0,0:0|0:0,0:0:0:0:
111,351,239101,6,0,B|156:337|156:337|177:338|177:338|218:325,1,110.000003356934,0|8,0:1|0:0,0:0:0:0:
86,245,239341,2,0,B|99:290|99:290|98:311|98:311|110:350,1,110.000003356934,0|8,0:0|0:0,0:0:0:0:
191,220,239581,2,0,B|145:233|145:233|124:232|124:232|83:245,1,110.000003356934,0|8,0:0|0:0,0:0:0:0:
216,326,239821,2,0,B|202:280|202:280|203:259|203:259|191:220,1,110.000003356934,0|8,0:0|0:0,0:0:0:0:
50,66,240061,6,0,B|43:140|43:140|57:188|57:188|46:291,1,220.000006713867,4|2,0:0|0:0,0:0:0:0:
35,364,240421,1,0,0:0:0:0:
143,157,240541,2,0,P|245:144|278:240,1,220.000006713867,8|0,0:0|0:0,0:0:0:0:
440,360,241021,6,0,B|454:312|454:312|474:291|474:291|470:261,1,110.000003356934,4|8,0:1|0:0,0:0:0:0:
371,79,241261,2,0,B|385:127|385:127|405:148|405:148|401:178,1,110.000003356934,0|8,0:0|0:0,0:0:0:0:
286,361,241501,2,0,B|300:313|300:313|320:292|320:292|316:262,1,110.000003356934,0|8,0:0|0:0,0:0:0:0:
210,65,241741,2,0,B|224:113|224:113|244:134|244:134|240:164,1,110.000003356934,0|8,0:0|0:0,0:0:0:0:
82,359,241981,6,0,B|39:338|21:295|34:251|64:227|64:227|82:192|54:155,1,220.000006713867,4|0,0:0|0:0,0:0:0:0:
113,288,242341,2,0,B|161:322|212:291|212:291|225:295|225:295|276:278|320:313,1,220.000006713867,8|4,0:0|0:0,0:0:0:0:
499,247,242701,2,0,P|446:237|402:268,1,110.000003356934,8|8,0:0|0:0,0:0:0:0:
301,155,242941,5,4,0:0:0:0:
243,207,243061,1,8,0:0:0:0:
227,132,243181,1,0,0:0:0:0:
227,132,243241,1,0,0:0:0:0:
227,132,243301,2,0,B|240:45|240:45|249:65,1,110.000003356934,8|0,0:0|0:0,0:0:0:0:
301,155,243541,5,4,0:0:0:0:
325,168,243601,1,4,0:0:0:0:
352,171,243661,1,8,0:3:0:0:
378,164,243721,1,8,0:3:0:0:
400,147,243781,1,8,0:3:0:0:
410,121,243841,1,0,0:1:0:0:
408,93,243901,1,8,0:0:0:0:
383,80,243961,1,8,0:0:0:0:
355,84,244021,1,8,0:0:0:0:
335,103,244081,1,8,0:0:0:0:
324,128,244141,1,4,0:0:0:0:
324,155,244201,1,0,0:0:0:0:
335,180,244261,1,8,0:1:0:0:
355,197,244321,1,0,0:0:0:0:
380,208,244381,6,0,P|432:216|477:184,1,110.000003356934,2|8,0:0|0:0,0:0:0:0:
331,290,244621,2,0,P|279:298|234:266,1,110.000003356934,4|0,0:0|0:0,0:0:0:0:
173,91,244861,6,0,B|195:68|198:46|198:46|253:11|309:14|309:14|286:26|271:51,1,220.000006713867,4|0,0:1|0:0,0:0:0:0:
346,89,245221,1,8,0:0:0:0:
320,166,245341,2,0,B|328:196|346:210|346:210|348:275|317:322|317:322|319:296|304:271,1,220.000006713867,0|0,0:0|0:0,0:0:0:0:
233,318,245701,1,8,0:0:0:0:
181,254,245821,2,0,B|150:245|129:254|129:254|72:223|46:173|46:173|68:188|97:188,1,220.000006713867,4|0,0:0|0:0,0:0:0:0:
92,110,246181,6,0,B|87:82|111:46|153:44|153:44|188:65|197:113|176:149,1,220.000006713867,12|8,0:0|0:0,0:0:0:0:
91,330,246541,2,0,P|32:329|-4:283,1,110.000003356934,0|8,0:0|0:0,0:0:0:0:
181,254,246781,2,0,B|274:245|274:245|309:255|309:255|405:246,1,220.000006713867,4|0,0:0|0:0,0:0:0:0:
467,183,247141,1,8,0:0:0:0:
377,154,247261,2,0,P|347:108|361:55,1,110.000003356934,0|8,0:0|0:0,0:0:0:0:
467,183,247501,2,0,B|483:217|483:217|472:288,1,110.000003356934,0|8,0:0|0:0,0:0:0:0:
279,370,247741,6,0,B|246:340|244:296|244:296|262:277|269:240|269:240|241:215|241:173,1,220.000006713867,4|0,0:0|0:0,0:0:0:0:
253,26,248101,1,8,0:0:0:0:
189,94,248221,2,0,P|147:103|90:71,1,110.000003356934,4|8,0:0|0:0,0:0:0:0:
253,26,248461,2,0,L|366:19,1,110.000003356934,0|8,0:0|0:0,0:0:0:0:
460,227,248701,6,0,P|363:257|320:166,1,220.000006713867,4|4,0:1|0:0,0:0:0:0:
362,98,249061,1,8,0:0:0:0:
445,82,249181,1,0,0:0:0:0:
445,82,249301,1,8,0:0:0:0:
312,30,249421,1,0,0:0:0:0:
312,30,249541,1,8,0:0:0:0:
253,162,249661,6,0,B|238:207|254:253|254:253|273:293|266:323|266:323|257:305|225:288,1,220.000006713867,4|0,0:0|0:0,0:0:0:0:
196,364,250021,1,8,0:0:0:0:
165,237,250141,2,0,B|133:201|85:192|85:192|41:188|18:168|18:168|38:169|69:149,1,220.000006713867,4|0,0:0|0:0,0:0:0:0:
18,86,250501,1,8,0:0:0:0:
143,122,250621,2,0,B|189:112|221:75|221:75|246:39|275:29|275:29|264:46|266:82,1,220.000006713867,4|0,0:1|0:0,0:0:0:0:
347,70,250981,1,8,0:0:0:0:
408,155,251101,6,0,P|453:172|512:147,2,110.000003356934,4|8|4,0:0|0:0|0:0,0:0:0:0:
347,70,251461,1,8,0:0:0:0:
315,160,251581,2,0,B|297:220|297:220|321:341|321:341|331:308,1,220.000006713867,4|4,0:0|0:0,0:0:0:0:
378,235,251941,1,8,0:0:0:0:
234,327,252061,1,0,0:0:0:0:
223,315,252301,1,8,0:0:0:0:
71,363,252421,1,8,0:0:0:0:
37,218,252541,6,0,B|32:183|43:152|43:152|29:110|29:110|37:30|37:30|21:53,1,220.000006713867,4|2,0:1|0:3,0:0:0:0:
119,194,252901,1,0,0:0:0:0:
168,128,253021,2,0,P|215:111|269:135,1,110.000003356934,0|8,0:0|0:0,0:0:0:0:
340,232,253261,2,0,P|387:249|439:224,1,110.000003356934,0|8,0:0|0:0,0:0:0:0:
435,15,253501,6,0,B|392:31|379:76|379:76|394:119|383:173|383:173|367:140|343:133,1,220.000006713867,4|0,0:0|0:0,0:0:0:0:
199,36,253861,1,8,0:0:0:0:
128,94,253981,2,0,B|87:110|87:110|19:93,1,110.000003356934,4|0,0:0|0:0,0:0:0:0:
199,36,254221,2,0,L|313:25,1,110.000003356934,0|8,0:0|0:0,0:0:0:0:
257,183,254461,6,0,B|243:254|243:254|251:289|251:289|235:368|235:368|222:330,1,220.000006713867,4|2,0:1|0:3,0:0:0:0:
336,196,254821,1,0,0:0:0:0:
302,119,254941,2,0,P|250:103|201:125,1,110.000003356934,0|8,0:0|0:0,0:0:0:0:
115,225,255181,2,0,P|62:236|15:206,1,110.000003356934,0|8,0:0|0:0,0:0:0:0:
77,33,255421,6,0,P|179:28|201:128,1,220.000006713867,4|0,0:0|0:0,0:0:0:0:
115,225,255781,1,8,0:0:0:0:
173,317,255901,2,0,B|211:331|211:331|278:313,1,110.000003356934,0|0,0:0|0:0,0:0:0:0:
425,184,256141,2,0,B|381:177|381:177|355:183|355:183|316:176,1,110.000003356934,0|8,0:0|0:0,0:0:0:0:
131,91,256381,5,4,0:1:0:0:
61,145,256501,2,0,B|37:176|44:215|44:215|54:241|54:241|39:328|39:328|57:301,1,220.000006713867,8|8,0:0|0:0,0:0:0:0:
150,251,256861,2,0,P|190:242|246:282,1,110.000003356934,0|8,0:0|0:0,0:0:0:0:
315,357,257101,2,0,P|355:366|411:326,1,110.000003356934,0|8,0:0|0:0,0:0:0:0:
440,73,257341,6,0,P|372:42|297:144,1,220.000006713867,4|0,0:0|0:0,0:0:0:0:
388,224,257701,1,8,0:0:0:0:
388,224,257821,2,0,P|402:170|366:116,2,110.000003356934,4|8|4,0:0|0:0|0:0,0:0:0:0:
312,275,258181,1,8,0:0:0:0:
163,185,258301,6,0,B|126:155|72:164|72:164|63:159|63:159|25:187|-10:191|-10:191|6:196|19:208,1,220.000006713867,4|0,0:1|0:0,0:0:0:0:
55,277,258661,1,4,0:0:0:0:
217,241,258781,2,0,P|240:194|227:139,2,110.000003356934,8|0|4,0:0|0:0|0:0,0:0:0:0:
145,287,259141,1,8,0:0:0:0:
239,59,259261,6,0,B|273:44|273:44|344:59,1,110.000003356934,4|8,0:1|0:1,0:0:0:0:
357,64,259441,1,0,0:0:0:0:
370,68,259501,1,4,0:3:0:0:
463,36,259621,1,8,0:1:0:0:
466,117,259741,1,8,0:0:0:0:
469,198,259861,1,8,0:0:0:0:
472,279,259981,1,4,0:0:0:0:
475,360,260101,1,4,0:0:0:0:
250,256,260221,6,0,P|205:243|152:271,1,110.000003356934,14|0,0:0|0:0,0:0:0:0:
108,349,260461,1,0,0:0:0:0:
108,349,260581,1,0,0:0:0:0:
330,186,260701,6,0,P|375:173|428:201,1,110.000003356934,14|0,0:0|0:0,0:0:0:0:
472,279,260941,1,0,0:0:0:0:
472,279,261061,1,0,0:0:0:0:
206,117,261181,6,0,P|161:104|108:132,1,110.000003356934,14|0,0:0|0:0,0:0:0:0:
64,210,261421,1,0,0:0:0:0:
64,210,261541,1,0,0:0:0:0:
327,38,261661,6,0,P|372:25|425:53,1,110.000003356934,14|0,0:0|0:0,0:0:0:0:
469,131,261901,1,0,0:0:0:0:
469,131,262021,1,0,0:0:0:0:
394,335,262141,5,14,0:3:0:0:
385,248,262261,1,2,0:3:0:0:
314,300,262381,2,0,P|274:313|217:279,1,110.000003356934,4|0,0:0|0:0,0:0:0:0:
394,335,262621,5,12,0:0:0:0:
385,248,262741,1,2,0:0:0:0:
465,282,262861,1,4,0:0:0:0:
465,282,262981,1,0,0:0:0:0:
356,127,263101,5,4,0:1:0:0:
404,32,263221,1,0,0:0:0:0:
372,146,263341,1,0,0:0:0:0:
293,46,263461,5,0,0:0:0:0:
245,184,263581,1,8,0:3:0:0:
260,24,263701,1,8,0:3:0:0:
129,94,263821,5,8,0:3:0:0:
372,146,263941,1,8,0:3:0:0:
