osu file format v14

[General]
AudioFilename: audio.mp3
AudioLeadIn: 0
PreviewTime: 71490
Countdown: 1
SampleSet: Normal
StackLeniency: 0.7
Mode: 1
LetterboxInBreaks: 0
WidescreenStoryboard: 1

[Editor]
Bookmarks: 7650,15330,23010,24930,32610,36450,40290,47970,55650,57570,65250,71010,72930,80610,88290,88530,88770,89010,89250,89490,89730,89970,90210,90450,90690,90930,91170,91410,91650,91890,95970,111330,126690,128610,136290,142050,143970,151650,159330,167010,174690,182370,190050,197730,205410,205650,205890,206130,206370,206610,206850,207090,207330,207570,207810,208050,208290,208530,208770,209010,209250,209490,209730,209970,210210,210450,210690,210930,211170,211410,211650,211890,212130,214050,217890,221730,225570,227490,229410,237090,260130,263970,264210,264450,264690,264930,265170,265410,265650,265890,266130,266370,266610,266850
DistanceSpacing: 0.8
BeatDivisor: 4
GridSize: 32
TimelineZoom: 1.8

[Metadata]
Title:Shinbatsu o Tadori Kyoukotsu ni Itaru
TitleUnicode:神罰を辿り狂骨に至る
Artist:Imperial Circus Dead Decadence
ArtistUnicode:Imperial Circus Dead Decadence
Creator:Heaxys
Version:Oni
Source:osu!
Tags:Melodic Symphonic Orchestral Extreme Black Death Metal Featured Artist FA ICDD Japanese Stamina Streams 黄泉より聴こゆ、皇国の燈と焔の少女。
BeatmapID:2336692
BeatmapSetID:1070409

[Difficulty]
HPDrainRate:5
CircleSize:2
OverallDifficulty:6
ApproachRate:10
SliderMultiplier:1.3
SliderTickRate:1

[Events]
//Background and Video events
0,0,"Darkin_To_Slay_Legends.jpg",0,25
//Break Periods
2,205610,212160
//Storyboard Layer 0 (Background)
//Storyboard Layer 1 (Fail)
//Storyboard Layer 2 (Pass)
//Storyboard Layer 3 (Foreground)
//Storyboard Layer 4 (Overlay)
//Storyboard Sound Samples

[TimingPoints]
930,240,4,1,0,40,1,0
930,-200,4,1,0,40,0,0
5730,-111.111111111111,4,1,0,80,0,0
6630,-125,4,1,0,80,0,0
7650,-100,4,1,0,80,0,0
7889,-102.040816326531,4,1,0,70,0,0
8009,-103.092783505155,4,1,0,70,0,0
8129,-104.166666666667,4,1,0,70,0,0
8249,-105.263157894737,4,1,0,70,0,0
15250,-95.2380952380952,4,1,0,80,0,0
24870,-100,4,1,0,80,0,0
25049,-102.040816326531,4,1,0,70,0,0
25289,-103.092783505155,4,1,0,70,0,0
25409,-104.166666666667,4,1,0,70,0,0
25529,-105.263157894737,4,1,0,70,0,0
32848,-107.52688172043,4,1,0,80,0,0
32968,-109.89010989011,4,1,0,80,0,0
33088,-112.359550561798,4,1,0,80,0,0
33208,-114.942528735632,4,1,0,80,0,0
33328,-117.647058823529,4,1,0,80,0,0
36209,-109.89010989011,4,1,0,78,0,0
36270,-108.695652173913,4,1,0,78,0,0
36329,-107.52688172043,4,1,0,74,0,0
36390,-106.382978723404,4,1,0,74,0,0
36449,-105.263157894737,4,1,0,70,0,0
40289,-95.2380952380952,4,1,0,90,0,0
40290,-95.2380952380952,4,1,0,90,0,1
47729,-96.1538461538461,4,1,0,90,0,1
47789,-97.0873786407767,4,1,0,90,0,1
47849,-98.0392156862745,4,1,0,90,0,1
47969,-100,4,1,0,90,0,1
55530,-100,4,1,0,90,0,0
55650,-100,4,1,0,40,0,0
56129,-133.333333333333,4,1,0,40,0,0
56609,-142.857142857143,4,1,0,40,0,0
57089,-153.846153846153,4,1,0,40,0,0
57490,-90.9090909090909,4,1,0,70,0,0
57809,-95.2380952380952,4,1,0,70,0,0
58049,-100,4,1,0,70,0,0
58169,-101.010101010101,4,1,0,70,0,0
58289,-102.040816326531,4,1,0,70,0,0
58529,-105.263157894737,4,1,0,70,0,0
65210,-100,4,1,0,80,0,0
71130,-105.263157894737,4,1,0,40,0,0
71489,-133.333333333333,4,1,0,40,0,0
71969,-142.857142857143,4,1,0,40,0,0
72449,-153.846153846153,4,1,0,40,0,0
72850,-95.2380952380952,4,1,0,100,0,0
72930,-95.2380952380952,4,1,0,100,0,1
80849,-100,4,1,0,100,0,1
88290,-100,4,1,0,100,0,0
88410,-100,4,1,0,20,0,0
89249,-105.263157894737,4,1,0,20,0,0
90209,-111.111111111111,4,1,0,20,0,0
91169,-117.647058823529,4,1,0,20,0,0
92050,-117.647058823529,4,1,0,60,0,0
95969,-111.111111111111,4,1,0,60,0,0
111250,-105.263157894737,4,1,0,80,0,0
119009,-111.111111111111,4,1,0,80,0,0
126770,-111.111111111111,4,1,0,60,0,0
128530,-95.2380952380952,4,1,0,90,0,0
128610,-95.2380952380952,4,1,0,90,0,1
136049,-96.1538461538461,4,1,0,90,0,1
136109,-97.0873786407767,4,1,0,90,0,1
136169,-98.0392156862745,4,1,0,90,0,1
136289,-100,4,1,0,90,0,1
143970,-100,4,1,0,90,0,0
144130,-101.010101010101,4,1,0,70,0,0
144570,-103.092783505155,4,1,0,70,0,0
144690,-104.166666666667,4,1,0,70,0,0
144930,-105.263157894737,4,1,0,70,0,0
151590,-105.263157894737,4,1,0,80,0,0
159250,-100,4,1,0,100,0,0
159330,-100,4,1,0,100,0,1
159569,-100,4,1,0,100,0,1
167249,-95.2380952380952,4,1,0,100,0,1
174689,-95.2380952380952,4,1,0,100,0,1
174690,-95.2380952380952,4,1,0,100,0,0
174849,-97.0873786407767,4,1,0,70,0,0
175049,-98.0392156862745,4,1,0,70,0,0
175289,-100,4,1,0,70,0,0
175410,-101.010101010101,4,1,0,70,0,0
175529,-102.040816326531,4,1,0,70,0,0
175649,-103.092783505155,4,1,0,70,0,0
175769,-104.166666666667,4,1,0,70,0,0
175889,-105.263157894737,4,1,0,70,0,0
176570,-105.263157894737,4,1,0,80,0,0
182530,-108.695652173913,4,1,0,80,0,0
183010,-112.359550561798,4,1,0,80,0,0
183490,-116.279069767442,4,1,0,80,0,0
183970,-120.481927710843,4,1,0,80,0,0
184450,-125,4,1,0,80,0,0
188730,-123.456790123457,4,1,0,80,0,0
188850,-121.951219512195,4,1,0,80,0,0
188910,-121.212121212121,4,1,0,80,0,0
188970,-120.481927710843,4,1,0,80,0,0
189090,-119.047619047619,4,1,0,80,0,0
189210,-117.647058823529,4,1,0,80,0,0
189270,-116.959064327485,4,1,0,80,0,0
189330,-116.279069767442,4,1,0,80,0,0
189450,-114.942528735632,4,1,0,80,0,0
189570,-113.636363636364,4,1,0,80,0,0
189690,-112.359550561798,4,1,0,80,0,0
189810,-111.111111111111,4,1,0,80,0,0
190049,-105.263157894737,4,1,0,80,0,0
197489,-104.166666666667,4,1,0,80,0,0
197609,-102.040816326531,4,1,0,80,0,0
197729,-100,4,1,0,80,0,0
205530,-100,4,1,0,20,0,0
206369,-104.166666666667,4,1,0,20,0,0
207329,-108.695652173913,4,1,0,20,0,0
208289,-113.636363636364,4,1,0,20,0,0
209250,-120.481927710843,4,1,0,20,0,0
210210,-126.582278481013,4,1,0,20,0,0
211169,-133.333333333333,4,1,0,20,0,0
212530,-133.333333333333,4,1,0,40,0,0
213089,-142.857142857143,4,1,0,40,0,0
213569,-153.846153846153,4,1,0,40,0,0
213970,-95.2380952380952,4,1,0,80,0,0
217810,-95.2380952380952,4,1,0,70,0,0
218129,-97.0873786407767,4,1,0,70,0,0
218249,-99.009900990099,4,1,0,70,0,0
218369,-101.010101010101,4,1,0,70,0,0
218489,-102.040816326531,4,1,0,70,0,0
218609,-103.092783505155,4,1,0,70,0,0
218729,-104.166666666667,4,1,0,70,0,0
218849,-105.263157894737,4,1,0,70,0,0
221690,-95.2380952380952,4,1,0,90,0,0
225490,-117.647058823529,4,1,0,80,0,0
225810,-113.636363636364,4,1,0,80,0,0
225930,-111.111111111111,4,1,0,80,0,0
226050,-108.695652173913,4,1,0,80,0,0
226170,-106.382978723404,4,1,0,80,0,0
226230,-105.263157894737,4,1,0,80,0,0
226290,-104.166666666667,4,1,0,80,0,0
226410,-102.040816326531,4,1,0,80,0,0
226530,-100,4,1,0,80,0,0
227487,-95.2380952380952,4,1,0,80,0,0
227890,-133.333333333333,4,1,0,40,0,0
228449,-142.857142857143,4,1,0,40,0,0
228929,-111.111111111111,4,1,0,40,0,0
229330,-90.9090909090909,4,1,0,100,0,0
229410,-90.9090909090909,4,1,0,100,0,1
229650,-90.9090909090909,4,1,0,100,0,1
237329,-95.2380952380952,4,1,0,100,0,1
244770,-95.2380952380952,4,1,0,100,0,0
245009,-97.0873786407767,4,1,0,80,0,0
245190,-99.009900990099,4,1,0,80,0,0
245368,-100,4,1,0,80,0,0
260365,-101.010101010101,4,1,0,80,0,0
260485,-102.040816326531,4,1,0,80,0,0
260605,-103.092783505155,4,1,0,80,0,0
260845,-104.166666666667,4,1,0,80,0,0
260965,-105.263157894737,4,1,0,80,0,0
261085,-106.382978723404,4,1,0,80,0,0
261205,-107.52688172043,4,1,0,80,0,0
261445,-108.695652173913,4,1,0,80,0,0
261565,-109.89010989011,4,1,0,80,0,0
261685,-111.111111111111,4,1,0,80,0,0
261805,-112.359550561798,4,1,0,80,0,0
262045,-109.89010989011,4,1,0,80,0,0
262284,-108.695652173913,4,1,0,80,0,0
262404,-107.52688172043,4,1,0,80,0,0
262464,-106.382978723404,4,1,0,80,0,0
262524,-105.263157894737,4,1,0,80,0,0
262584,-104.166666666667,4,1,0,80,0,0
262644,-103.092783505155,4,1,0,80,0,0
262764,-102.040816326531,4,1,0,80,0,0
262884,-100,4,1,0,80,0,0
263004,-98.0392156862745,4,1,0,80,0,0
263124,-96.1538461538461,4,1,0,80,0,0
263184,-95.2380952380952,4,1,0,80,0,0
263244,-94.3396226415094,4,1,0,80,0,0
263364,-92.5925925925926,4,1,0,80,0,0
263424,-91.743119266055,4,1,0,80,0,0
263484,-90.9090909090909,4,1,0,80,0,0
263604,-89.2857142857143,4,1,0,80,0,0
263724,-83.3333333333333,4,1,0,80,0,0

[HitObjects]
256,192,5490,5,0,0:0:0:0:
256,192,5730,1,12,0:0:0:0:
256,192,6690,1,0,0:0:0:0:
256,192,6810,1,0,0:0:0:0:
256,192,6870,1,0,0:0:0:0:
256,192,6930,1,0,0:0:0:0:
256,192,7050,1,8,0:0:0:0:
256,192,7290,1,0,0:0:0:0:
256,192,7410,1,8,0:0:0:0:
256,192,7650,5,4,0:0:0:0:
256,192,7890,1,8,0:0:0:0:
256,192,8010,1,0,0:0:0:0:
256,192,8130,1,8,0:0:0:0:
256,192,8250,1,8,0:0:0:0:
256,192,8370,1,0,0:0:0:0:
256,192,8490,1,0,0:0:0:0:
256,192,8610,1,8,0:0:0:0:
256,192,8730,1,0,0:0:0:0:
256,192,8850,1,8,0:0:0:0:
256,192,8970,1,8,0:0:0:0:
256,192,9210,1,8,0:0:0:0:
256,192,9450,1,0,0:0:0:0:
256,192,9570,1,8,0:0:0:0:
256,192,9690,1,8,0:0:0:0:
256,192,9810,1,0,0:0:0:0:
256,192,9930,1,8,0:0:0:0:
256,192,10050,1,0,0:0:0:0:
256,192,10170,1,0,0:0:0:0:
256,192,10290,1,8,0:0:0:0:
256,192,10410,1,0,0:0:0:0:
256,192,10530,1,8,0:0:0:0:
256,192,10650,1,0,0:0:0:0:
256,192,10770,1,8,0:0:0:0:
256,192,10890,1,8,0:0:0:0:
256,192,11010,1,8,0:0:0:0:
256,192,11250,1,0,0:0:0:0:
256,192,11490,1,8,0:0:0:0:
256,192,11610,1,0,0:0:0:0:
256,192,11730,1,8,0:0:0:0:
256,192,11850,1,8,0:0:0:0:
256,192,11970,1,0,0:0:0:0:
256,192,12090,1,0,0:0:0:0:
256,192,12210,1,8,0:0:0:0:
256,192,12330,1,0,0:0:0:0:
256,192,12450,1,8,0:0:0:0:
256,192,12570,1,0,0:0:0:0:
256,192,12690,1,8,0:0:0:0:
256,192,12930,1,8,0:0:0:0:
256,192,13170,1,0,0:0:0:0:
256,192,13290,1,8,0:0:0:0:
256,192,13410,1,0,0:0:0:0:
256,192,13650,1,0,0:0:0:0:
256,192,13890,1,0,0:0:0:0:
256,192,14130,1,0,0:0:0:0:
256,192,14370,1,8,0:0:0:0:
256,192,14490,1,0,0:0:0:0:
256,192,14610,1,0,0:0:0:0:
256,192,14730,1,0,0:0:0:0:
256,192,14790,1,0,0:0:0:0:
256,192,14850,1,8,0:0:0:0:
256,192,15090,1,8,0:0:0:0:
256,192,15330,5,4,0:0:0:0:
256,192,15570,1,0,0:0:0:0:
256,192,15690,1,8,0:0:0:0:
256,192,15810,1,0,0:0:0:0:
256,192,15930,1,8,0:0:0:0:
256,192,16050,1,8,0:0:0:0:
256,192,16170,1,0,0:0:0:0:
256,192,16290,1,12,0:0:0:0:
256,192,16530,1,4,0:0:0:0:
256,192,16770,1,12,0:0:0:0:
256,192,17010,1,0,0:0:0:0:
256,192,17250,1,8,0:0:0:0:
256,192,17370,1,0,0:0:0:0:
256,192,17490,1,8,0:0:0:0:
256,192,17610,1,8,0:0:0:0:
256,192,17730,1,8,0:0:0:0:
256,192,17850,1,0,0:0:0:0:
256,192,17970,1,8,0:0:0:0:
256,192,18090,1,0,0:0:0:0:
256,192,18210,1,8,0:0:0:0:
256,192,18330,1,0,0:0:0:0:
256,192,18450,1,8,0:0:0:0:
256,192,18690,1,12,0:0:0:0:
256,192,18930,1,0,0:0:0:0:
256,192,19170,1,8,0:0:0:0:
256,192,19290,1,0,0:0:0:0:
256,192,19410,1,8,0:0:0:0:
256,192,19530,1,8,0:0:0:0:
256,192,19650,1,0,0:0:0:0:
256,192,19770,1,0,0:0:0:0:
256,192,19890,1,8,0:0:0:0:
256,192,20010,1,0,0:0:0:0:
256,192,20130,1,12,0:0:0:0:
256,192,20370,1,4,0:0:0:0:
256,192,20610,1,12,0:0:0:0:
256,192,20850,1,0,0:0:0:0:
256,192,21090,1,8,0:0:0:0:
256,192,21210,1,0,0:0:0:0:
256,192,21330,1,8,0:0:0:0:
256,192,21450,1,0,0:0:0:0:
256,192,21570,1,8,0:0:0:0:
256,192,21690,1,8,0:0:0:0:
256,192,21810,1,0,0:0:0:0:
256,192,21930,1,0,0:0:0:0:
256,192,22050,1,8,0:0:0:0:
256,192,22170,1,8,0:0:0:0:
256,192,22290,1,0,0:0:0:0:
256,192,22410,1,0,0:0:0:0:
256,192,22530,1,8,0:0:0:0:
256,192,22590,1,8,0:0:0:0:
256,192,22650,1,0,0:0:0:0:
256,192,22710,1,0,0:0:0:0:
256,192,22770,1,8,0:0:0:0:
256,192,22890,1,8,0:0:0:0:
256,192,23010,5,4,0:0:0:0:
256,192,23130,1,4,0:0:0:0:
256,192,23970,1,12,0:0:0:0:
256,192,24090,1,12,0:0:0:0:
256,192,24450,1,8,0:0:0:0:
256,192,24510,1,8,0:0:0:0:
256,192,24570,1,8,0:0:0:0:
256,192,24630,1,8,0:0:0:0:
256,192,24690,1,0,0:0:0:0:
256,192,24930,5,4,0:0:0:0:
256,192,25170,1,8,0:0:0:0:
256,192,25290,1,0,0:0:0:0:
256,192,25410,1,8,0:0:0:0:
256,192,25530,1,8,0:0:0:0:
256,192,25650,1,0,0:0:0:0:
256,192,25770,1,0,0:0:0:0:
256,192,25890,1,8,0:0:0:0:
256,192,26010,1,0,0:0:0:0:
256,192,26130,1,8,0:0:0:0:
256,192,26250,1,8,0:0:0:0:
256,192,26490,1,8,0:0:0:0:
256,192,26730,1,0,0:0:0:0:
256,192,26850,1,8,0:0:0:0:
256,192,26970,1,8,0:0:0:0:
256,192,27090,1,0,0:0:0:0:
256,192,27210,1,8,0:0:0:0:
256,192,27330,1,0,0:0:0:0:
256,192,27450,1,0,0:0:0:0:
256,192,27570,1,8,0:0:0:0:
256,192,27690,1,0,0:0:0:0:
256,192,27810,1,8,0:0:0:0:
256,192,27930,1,0,0:0:0:0:
256,192,28050,1,8,0:0:0:0:
256,192,28170,1,8,0:0:0:0:
256,192,28410,1,0,0:0:0:0:
256,192,28530,1,0,0:0:0:0:
256,192,28650,1,0,0:0:0:0:
256,192,28770,1,8,0:0:0:0:
256,192,29010,1,0,0:0:0:0:
256,192,29250,1,8,0:0:0:0:
256,192,29490,1,8,0:0:0:0:
256,192,29610,1,8,0:0:0:0:
256,192,29730,1,0,0:0:0:0:
256,192,29850,1,8,0:0:0:0:
256,192,29970,1,0,0:0:0:0:
256,192,30090,1,0,0:0:0:0:
256,192,30210,1,8,0:0:0:0:
256,192,30330,1,0,0:0:0:0:
256,192,30450,1,8,0:0:0:0:
256,192,30690,1,0,0:0:0:0:
256,192,30930,1,0,0:0:0:0:
256,192,31170,1,0,0:0:0:0:
256,192,31410,1,0,0:0:0:0:
256,192,31650,1,8,0:0:0:0:
256,192,31770,1,8,0:0:0:0:
256,192,31890,1,0,0:0:0:0:
256,192,32010,1,0,0:0:0:0:
256,192,32070,1,0,0:0:0:0:
256,192,32130,1,8,0:0:0:0:
256,192,32370,1,8,0:0:0:0:
256,192,32610,5,4,0:0:0:0:
256,192,32850,1,0,0:0:0:0:
256,192,32970,1,8,0:0:0:0:
256,192,33090,1,0,0:0:0:0:
256,192,33210,1,0,0:0:0:0:
256,192,33330,1,8,0:0:0:0:
256,192,33570,1,4,0:0:0:0:
256,192,33810,1,4,0:0:0:0:
256,192,34050,1,4,0:0:0:0:
256,192,34290,1,8,0:0:0:0:
256,192,34530,1,8,0:0:0:0:
256,192,34650,1,8,0:0:0:0:
256,192,34770,1,8,0:0:0:0:
256,192,34890,1,0,0:0:0:0:
256,192,35010,1,8,0:0:0:0:
256,192,35130,1,0,0:0:0:0:
256,192,35250,1,0,0:0:0:0:
256,192,35490,1,12,0:0:0:0:
256,192,35730,1,12,0:0:0:0:
256,192,35970,1,12,0:0:0:0:
256,192,36210,1,8,0:0:0:0:
256,192,36270,1,8,0:0:0:0:
256,192,36330,1,0,0:0:0:0:
256,192,36390,1,0,0:0:0:0:
256,192,36450,1,8,0:0:0:0:
256,192,36570,1,0,0:0:0:0:
256,192,36690,1,8,0:0:0:0:
256,192,36810,1,8,0:0:0:0:
256,192,36930,1,0,0:0:0:0:
256,192,37050,1,0,0:0:0:0:
256,192,37170,1,8,0:0:0:0:
256,192,37290,1,0,0:0:0:0:
256,192,37410,1,8,0:0:0:0:
256,192,37530,1,0,0:0:0:0:
256,192,37650,1,8,0:0:0:0:
256,192,37770,1,8,0:0:0:0:
256,192,37890,1,0,0:0:0:0:
256,192,38010,1,8,0:0:0:0:
256,192,38250,1,0,0:0:0:0:
256,192,38370,1,8,0:0:0:0:
256,192,38490,1,8,0:0:0:0:
256,192,38610,1,0,0:0:0:0:
256,192,38730,1,8,0:0:0:0:
256,192,38850,1,0,0:0:0:0:
256,192,38970,1,0,0:0:0:0:
256,192,39090,1,8,0:0:0:0:
256,192,39210,1,0,0:0:0:0:
256,192,39330,1,8,0:0:0:0:
256,192,39390,1,0,0:0:0:0:
256,192,39450,1,8,0:0:0:0:
256,192,39570,1,0,0:0:0:0:
256,192,39690,1,0,0:0:0:0:
256,192,39810,1,8,0:0:0:0:
256,192,40050,1,8,0:0:0:0:
256,192,40290,5,4,0:0:0:0:
256,192,40530,1,8,0:0:0:0:
256,192,40650,1,0,0:0:0:0:
256,192,40770,1,8,0:0:0:0:
256,192,40830,1,8,0:0:0:0:
256,192,40890,1,0,0:0:0:0:
256,192,41010,1,8,0:0:0:0:
256,192,41130,1,8,0:0:0:0:
256,192,41250,1,8,0:0:0:0:
256,192,41370,1,0,0:0:0:0:
256,192,41490,1,8,0:0:0:0:
256,192,41610,1,0,0:0:0:0:
256,192,41670,1,0,0:0:0:0:
256,192,41730,1,8,0:0:0:0:
256,192,41850,1,0,0:0:0:0:
256,192,41970,1,8,0:0:0:0:
256,192,42090,1,0,0:0:0:0:
256,192,42210,1,12,0:0:0:0:
256,192,42450,1,8,0:0:0:0:
256,192,42570,1,0,0:0:0:0:
256,192,42690,1,8,0:0:0:0:
256,192,42750,1,0,0:0:0:0:
256,192,42810,1,0,0:0:0:0:
256,192,42930,1,0,0:0:0:0:
256,192,43050,1,0,0:0:0:0:
256,192,43170,1,8,0:0:0:0:
256,192,43290,1,0,0:0:0:0:
256,192,43350,1,0,0:0:0:0:
256,192,43410,1,0,0:0:0:0:
256,192,43530,1,8,0:0:0:0:
256,192,43650,1,0,0:0:0:0:
256,192,43770,1,0,0:0:0:0:
256,192,43890,1,8,0:0:0:0:
256,192,44010,1,0,0:0:0:0:
256,192,44130,1,12,0:0:0:0:
256,192,44370,5,8,0:0:0:0:
256,192,44490,1,0,0:0:0:0:
256,192,44610,1,8,0:0:0:0:
256,192,44670,1,8,0:0:0:0:
256,192,44730,1,0,0:0:0:0:
256,192,44850,1,8,0:0:0:0:
256,192,44970,1,8,0:0:0:0:
256,192,45090,1,8,0:0:0:0:
256,192,45210,1,0,0:0:0:0:
256,192,45330,1,8,0:0:0:0:
256,192,45450,1,0,0:0:0:0:
256,192,45510,1,0,0:0:0:0:
256,192,45570,1,8,0:0:0:0:
256,192,45690,1,0,0:0:0:0:
256,192,45810,1,8,0:0:0:0:
256,192,45930,1,0,0:0:0:0:
256,192,46050,1,12,0:0:0:0:
256,192,46290,1,8,0:0:0:0:
256,192,46410,1,0,0:0:0:0:
256,192,46530,1,8,0:0:0:0:
256,192,46590,1,0,0:0:0:0:
256,192,46650,1,0,0:0:0:0:
256,192,46770,1,0,0:0:0:0:
256,192,46890,1,0,0:0:0:0:
256,192,47010,1,8,0:0:0:0:
256,192,47130,1,0,0:0:0:0:
256,192,47250,1,0,0:0:0:0:
256,192,47310,1,0,0:0:0:0:
256,192,47370,1,8,0:0:0:0:
256,192,47430,1,8,0:0:0:0:
256,192,47490,1,0,0:0:0:0:
256,192,47610,1,0,0:0:0:0:
256,192,47730,1,8,0:0:0:0:
256,192,47790,1,8,0:0:0:0:
256,192,47850,1,8,0:0:0:0:
256,192,47970,5,4,0:0:0:0:
256,192,48210,1,8,0:0:0:0:
256,192,48330,1,0,0:0:0:0:
256,192,48450,1,8,0:0:0:0:
256,192,48570,1,8,0:0:0:0:
256,192,48690,1,0,0:0:0:0:
256,192,48810,1,0,0:0:0:0:
256,192,48930,1,8,0:0:0:0:
256,192,49050,1,0,0:0:0:0:
256,192,49170,1,0,0:0:0:0:
256,192,49290,1,0,0:0:0:0:
256,192,49410,1,8,0:0:0:0:
256,192,49530,1,0,0:0:0:0:
256,192,49650,1,8,0:0:0:0:
256,192,49770,1,0,0:0:0:0:
256,192,49890,1,12,0:0:0:0:
256,192,50130,1,0,0:0:0:0:
256,192,50250,1,8,0:0:0:0:
256,192,50370,1,0,0:0:0:0:
256,192,50490,1,8,0:0:0:0:
256,192,50610,1,0,0:0:0:0:
256,192,50730,1,0,0:0:0:0:
256,192,50850,1,8,0:0:0:0:
256,192,50970,1,0,0:0:0:0:
256,192,51090,1,0,0:0:0:0:
256,192,51210,1,8,0:0:0:0:
256,192,51330,1,0,0:0:0:0:
256,192,51450,1,0,0:0:0:0:
256,192,51570,1,8,0:0:0:0:
256,192,51810,5,12,0:0:0:0:
256,192,52050,1,0,0:0:0:0:
256,192,52290,1,8,0:0:0:0:
256,192,52530,1,0,0:0:0:0:
256,192,52770,1,12,0:0:0:0:
256,192,53010,1,0,0:0:0:0:
256,192,53250,1,8,0:0:0:0:
256,192,53490,1,0,0:0:0:0:
256,192,53730,1,12,0:0:0:0:
256,192,53970,1,12,0:0:0:0:
256,192,54210,1,12,0:0:0:0:
256,192,54450,1,12,0:0:0:0:
256,192,54690,1,0,0:0:0:0:
256,192,54810,1,0,0:0:0:0:
256,192,54930,1,0,0:0:0:0:
256,192,55050,1,0,0:0:0:0:
256,192,55170,1,0,0:0:0:0:
256,192,55290,1,0,0:0:0:0:
256,192,55410,1,8,0:0:0:0:
256,192,55530,1,0,0:0:0:0:
256,192,56130,5,0,0:0:0:0:
256,192,56610,1,8,0:0:0:0:
256,192,57090,1,0,0:0:0:0:
256,192,57570,5,12,0:0:0:0:
256,192,57810,1,8,0:0:0:0:
256,192,58050,1,0,0:0:0:0:
256,192,58170,1,0,0:0:0:0:
256,192,58290,1,8,0:0:0:0:
256,192,58530,1,0,0:0:0:0:
256,192,58650,1,0,0:0:0:0:
256,192,58770,1,8,0:0:0:0:
256,192,58890,1,0,0:0:0:0:
256,192,59130,1,0,0:0:0:0:
256,192,59250,1,8,0:0:0:0:
256,192,59370,1,0,0:0:0:0:
256,192,59490,1,0,0:0:0:0:
256,192,59730,1,8,0:0:0:0:
256,192,59970,1,0,0:0:0:0:
256,192,60090,1,0,0:0:0:0:
256,192,60210,1,8,0:0:0:0:
256,192,60450,1,0,0:0:0:0:
256,192,60570,1,0,0:0:0:0:
256,192,60690,1,8,0:0:0:0:
256,192,60810,1,8,0:0:0:0:
256,192,60930,1,0,0:0:0:0:
256,192,61050,1,0,0:0:0:0:
256,192,61170,1,8,0:0:0:0:
256,192,61410,1,0,0:0:0:0:
256,192,61650,1,8,0:0:0:0:
256,192,61770,1,0,0:0:0:0:
256,192,62010,1,0,0:0:0:0:
256,192,62130,1,8,0:0:0:0:
256,192,62370,1,0,0:0:0:0:
256,192,62490,1,0,0:0:0:0:
256,192,62610,1,8,0:0:0:0:
256,192,62730,1,8,0:0:0:0:
256,192,62850,1,0,0:0:0:0:
256,192,62970,1,0,0:0:0:0:
256,192,63090,1,8,0:0:0:0:
256,192,63210,1,0,0:0:0:0:
256,192,63330,1,0,0:0:0:0:
256,192,63570,1,8,0:0:0:0:
256,192,63690,1,0,0:0:0:0:
256,192,63930,1,0,0:0:0:0:
256,192,64050,1,8,0:0:0:0:
256,192,64170,1,0,0:0:0:0:
256,192,64290,1,0,0:0:0:0:
256,192,64410,1,8,0:0:0:0:
256,192,64530,1,8,0:0:0:0:
256,192,64590,1,8,0:0:0:0:
256,192,64650,1,0,0:0:0:0:
256,192,64710,1,0,0:0:0:0:
256,192,64770,1,8,0:0:0:0:
256,192,64890,1,0,0:0:0:0:
256,192,65010,1,8,0:0:0:0:
256,192,65250,5,12,0:0:0:0:
256,192,65490,1,0,0:0:0:0:
256,192,65610,1,8,0:0:0:0:
256,192,65730,1,8,0:0:0:0:
256,192,65850,1,0,0:0:0:0:
256,192,65970,1,8,0:0:0:0:
256,192,66090,1,8,0:0:0:0:
256,192,66210,1,0,0:0:0:0:
256,192,66450,1,8,0:0:0:0:
256,192,66570,1,0,0:0:0:0:
256,192,66690,1,8,0:0:0:0:
256,192,66810,1,0,0:0:0:0:
256,192,66930,1,8,0:0:0:0:
256,192,67170,1,8,0:0:0:0:
256,192,67290,1,8,0:0:0:0:
256,192,67410,1,0,0:0:0:0:
256,192,67530,1,0,0:0:0:0:
256,192,67650,1,8,0:0:0:0:
256,192,67770,1,8,0:0:0:0:
256,192,67890,1,0,0:0:0:0:
256,192,68010,1,0,0:0:0:0:
256,192,68130,1,8,0:0:0:0:
256,192,68250,1,8,0:0:0:0:
256,192,68370,1,0,0:0:0:0:
256,192,68490,1,8,0:0:0:0:
256,192,68610,1,8,0:0:0:0:
256,192,68850,1,8,0:0:0:0:
256,192,69090,5,12,0:0:0:0:
256,192,69330,1,8,0:0:0:0:
256,192,69450,1,0,0:0:0:0:
256,192,69570,1,8,0:0:0:0:
256,192,69690,1,0,0:0:0:0:
256,192,69750,1,0,0:0:0:0:
256,192,69810,1,8,0:0:0:0:
256,192,69930,1,8,0:0:0:0:
256,192,70050,1,8,0:0:0:0:
256,192,70110,1,8,0:0:0:0:
256,192,70170,1,0,0:0:0:0:
256,192,70230,1,0,0:0:0:0:
256,192,70290,1,0,0:0:0:0:
256,192,70410,1,8,0:0:0:0:
256,192,70530,1,0,0:0:0:0:
256,192,70650,1,8,0:0:0:0:
256,192,70770,1,8,0:0:0:0:
256,192,70890,1,0,0:0:0:0:
256,192,71010,1,12,0:0:0:0:
256,192,71490,5,0,0:0:0:0:
256,192,71970,1,8,0:0:0:0:
256,192,72450,1,0,0:0:0:0:
256,192,72930,5,12,0:0:0:0:
256,192,73170,1,8,0:0:0:0:
256,192,73290,1,0,0:0:0:0:
256,192,73350,1,0,0:0:0:0:
256,192,73410,1,8,0:0:0:0:
256,192,73530,1,8,0:0:0:0:
256,192,73650,1,8,0:0:0:0:
256,192,73710,1,8,0:0:0:0:
256,192,73770,1,0,0:0:0:0:
256,192,73830,1,0,0:0:0:0:
256,192,73890,1,8,0:0:0:0:
256,192,74010,1,0,0:0:0:0:
256,192,74070,1,0,0:0:0:0:
256,192,74130,1,0,0:0:0:0:
256,192,74250,1,8,0:0:0:0:
256,192,74370,1,0,0:0:0:0:
256,192,74490,1,0,0:0:0:0:
256,192,74610,1,8,0:0:0:0:
256,192,74850,1,12,0:0:0:0:
256,192,74970,1,8,0:0:0:0:
256,192,75090,1,0,0:0:0:0:
256,192,75150,1,0,0:0:0:0:
256,192,75210,1,0,0:0:0:0:
256,192,75330,1,8,0:0:0:0:
256,192,75450,1,0,0:0:0:0:
256,192,75510,1,0,0:0:0:0:
256,192,75570,1,8,0:0:0:0:
256,192,75630,1,8,0:0:0:0:
256,192,75690,1,0,0:0:0:0:
256,192,75810,1,8,0:0:0:0:
256,192,75930,1,0,0:0:0:0:
256,192,75990,1,0,0:0:0:0:
256,192,76050,1,8,0:0:0:0:
256,192,76170,1,8,0:0:0:0:
256,192,76290,1,8,0:0:0:0:
256,192,76410,1,0,0:0:0:0:
256,192,76530,1,8,0:0:0:0:
256,192,76770,1,12,0:0:0:0:
256,192,76890,1,0,0:0:0:0:
256,192,77010,1,0,0:0:0:0:
256,192,77130,1,8,0:0:0:0:
256,192,77190,1,8,0:0:0:0:
256,192,77250,1,0,0:0:0:0:
256,192,77370,1,0,0:0:0:0:
256,192,77490,1,8,0:0:0:0:
256,192,77610,1,0,0:0:0:0:
256,192,77670,1,0,0:0:0:0:
256,192,77730,1,8,0:0:0:0:
256,192,77850,1,0,0:0:0:0:
256,192,77970,1,8,0:0:0:0:
256,192,78030,1,8,0:0:0:0:
256,192,78090,1,0,0:0:0:0:
256,192,78150,1,0,0:0:0:0:
256,192,78210,1,8,0:0:0:0:
256,192,78330,1,0,0:0:0:0:
256,192,78450,1,8,0:0:0:0:
256,192,78570,1,0,0:0:0:0:
256,192,78690,1,12,0:0:0:0:
256,192,78930,1,8,0:0:0:0:
256,192,78990,1,8,0:0:0:0:
256,192,79050,1,8,0:0:0:0:
256,192,79170,1,0,0:0:0:0:
256,192,79290,1,0,0:0:0:0:
256,192,79410,1,8,0:0:0:0:
256,192,79530,1,0,0:0:0:0:
256,192,79650,1,8,0:0:0:0:
256,192,79770,1,8,0:0:0:0:
256,192,79830,1,8,0:0:0:0:
256,192,79890,1,8,0:0:0:0:
256,192,79950,1,8,0:0:0:0:
256,192,80010,1,0,0:0:0:0:
256,192,80130,1,0,0:0:0:0:
256,192,80250,1,8,0:0:0:0:
256,192,80370,1,0,0:0:0:0:
256,192,80490,1,0,0:0:0:0:
256,192,80610,1,12,0:0:0:0:
256,192,80850,5,8,0:0:0:0:
256,192,80970,1,0,0:0:0:0:
256,192,81090,1,8,0:0:0:0:
256,192,81210,1,8,0:0:0:0:
256,192,81330,1,8,0:0:0:0:
256,192,81450,1,0,0:0:0:0:
256,192,81510,1,0,0:0:0:0:
256,192,81570,1,8,0:0:0:0:
256,192,81690,1,0,0:0:0:0:
256,192,81810,1,8,0:0:0:0:
256,192,81930,1,8,0:0:0:0:
256,192,82050,1,8,0:0:0:0:
256,192,82110,1,0,0:0:0:0:
256,192,82170,1,0,0:0:0:0:
256,192,82290,1,8,0:0:0:0:
256,192,82410,1,8,0:0:0:0:
256,192,82530,1,4,0:0:0:0:
256,192,82770,1,0,0:0:0:0:
256,192,82890,1,0,0:0:0:0:
256,192,83010,1,8,0:0:0:0:
256,192,83130,1,0,0:0:0:0:
256,192,83250,1,8,0:0:0:0:
256,192,83370,1,0,0:0:0:0:
256,192,83430,1,0,0:0:0:0:
256,192,83490,1,8,0:0:0:0:
256,192,83610,1,0,0:0:0:0:
256,192,83730,1,0,0:0:0:0:
256,192,83850,1,8,0:0:0:0:
256,192,83970,1,0,0:0:0:0:
256,192,84030,1,0,0:0:0:0:
256,192,84090,1,8,0:0:0:0:
256,192,84210,1,8,0:0:0:0:
256,192,84330,1,0,0:0:0:0:
256,192,84450,1,12,0:0:0:0:
256,192,84690,1,8,0:0:0:0:
256,192,84810,1,0,0:0:0:0:
256,192,84930,1,8,0:0:0:0:
256,192,85050,1,0,0:0:0:0:
256,192,85170,1,8,0:0:0:0:
256,192,85290,1,0,0:0:0:0:
256,192,85410,1,8,0:0:0:0:
256,192,85470,1,8,0:0:0:0:
256,192,85530,1,0,0:0:0:0:
256,192,85650,1,0,0:0:0:0:
256,192,85770,1,8,0:0:0:0:
256,192,85890,1,8,0:0:0:0:
256,192,85950,1,0,0:0:0:0:
256,192,86010,1,0,0:0:0:0:
256,192,86130,1,8,0:0:0:0:
256,192,86370,5,4,0:0:0:0:
256,192,86490,1,8,0:0:0:0:
256,192,86610,1,0,0:0:0:0:
256,192,86730,1,8,0:0:0:0:
256,192,86850,1,8,0:0:0:0:
256,192,86970,1,0,0:0:0:0:
256,192,87030,1,0,0:0:0:0:
256,192,87090,1,8,0:0:0:0:
256,192,87150,1,8,0:0:0:0:
256,192,87210,1,8,0:0:0:0:
256,192,87330,1,0,0:0:0:0:
256,192,87450,1,8,0:0:0:0:
256,192,87570,1,8,0:0:0:0:
256,192,87690,1,0,0:0:0:0:
256,192,87750,1,0,0:0:0:0:
256,192,87810,1,8,0:0:0:0:
256,192,87870,1,8,0:0:0:0:
256,192,87930,1,0,0:0:0:0:
256,192,88050,1,8,0:0:0:0:
256,192,88170,1,8,0:0:0:0:
256,192,88290,1,4,0:0:0:0:
256,192,92130,5,4,0:0:0:0:
256,192,94050,5,8,0:0:0:0:
256,192,94170,1,8,0:0:0:0:
256,192,94290,1,0,0:0:0:0:
256,192,94410,1,8,0:0:0:0:
256,192,94650,1,0,0:0:0:0:
256,192,94770,1,8,0:0:0:0:
256,192,94890,1,8,0:0:0:0:
256,192,95010,1,0,0:0:0:0:
256,192,95130,1,8,0:0:0:0:
256,192,95250,1,0,0:0:0:0:
256,192,95370,1,8,0:0:0:0:
256,192,95490,1,0,0:0:0:0:
256,192,95730,1,0,0:0:0:0:
256,192,95970,5,12,0:0:0:0:
256,192,96210,1,0,0:0:0:0:
256,192,96330,1,0,0:0:0:0:
256,192,96450,1,8,0:0:0:0:
256,192,96690,1,8,0:0:0:0:
256,192,96930,1,8,0:0:0:0:
256,192,97050,1,0,0:0:0:0:
256,192,97170,1,0,0:0:0:0:
256,192,97290,1,0,0:0:0:0:
256,192,97410,1,8,0:0:0:0:
256,192,97650,1,8,0:0:0:0:
256,192,97770,1,8,0:0:0:0:
256,192,97890,1,8,0:0:0:0:
256,192,98010,1,0,0:0:0:0:
256,192,98130,1,8,0:0:0:0:
256,192,98250,1,0,0:0:0:0:
256,192,98370,1,8,0:0:0:0:
256,192,98490,1,8,0:0:0:0:
256,192,98610,1,8,0:0:0:0:
256,192,98730,1,0,0:0:0:0:
256,192,98850,1,8,0:0:0:0:
256,192,98970,1,0,0:0:0:0:
256,192,99090,1,8,0:0:0:0:
256,192,99210,1,8,0:0:0:0:
256,192,99330,1,0,0:0:0:0:
256,192,99450,1,8,0:0:0:0:
256,192,99570,1,8,0:0:0:0:
256,192,99810,1,8,0:0:0:0:
256,192,99930,1,0,0:0:0:0:
256,192,100050,1,8,0:0:0:0:
256,192,100170,1,8,0:0:0:0:
256,192,100290,1,8,0:0:0:0:
256,192,100410,1,0,0:0:0:0:
256,192,100530,1,8,0:0:0:0:
256,192,100650,1,0,0:0:0:0:
256,192,100770,1,8,0:0:0:0:
256,192,100890,1,8,0:0:0:0:
256,192,101010,1,0,0:0:0:0:
256,192,101130,1,8,0:0:0:0:
256,192,101250,1,8,0:0:0:0:
256,192,101370,1,8,0:0:0:0:
256,192,101490,1,8,0:0:0:0:
256,192,101610,1,0,0:0:0:0:
256,192,101730,1,8,0:0:0:0:
256,192,101850,1,0,0:0:0:0:
256,192,101970,1,8,0:0:0:0:
256,192,102090,1,8,0:0:0:0:
256,192,102210,1,0,0:0:0:0:
256,192,102270,1,0,0:0:0:0:
256,192,102330,1,8,0:0:0:0:
256,192,102450,1,8,0:0:0:0:
256,192,102570,1,0,0:0:0:0:
256,192,102690,1,8,0:0:0:0:
256,192,102930,1,0,0:0:0:0:
256,192,103050,1,0,0:0:0:0:
256,192,103170,1,12,0:0:0:0:
256,192,103410,1,4,0:0:0:0:
256,192,103650,1,12,0:0:0:0:
256,192,103890,5,8,0:0:0:0:
256,192,104010,1,8,0:0:0:0:
256,192,104130,1,8,0:0:0:0:
256,192,104250,1,0,0:0:0:0:
256,192,104370,1,8,0:0:0:0:
256,192,104490,1,0,0:0:0:0:
256,192,104610,1,8,0:0:0:0:
256,192,104730,1,8,0:0:0:0:
256,192,104850,1,0,0:0:0:0:
256,192,104970,1,0,0:0:0:0:
256,192,105090,1,8,0:0:0:0:
256,192,105210,1,8,0:0:0:0:
256,192,105330,1,0,0:0:0:0:
256,192,105450,1,0,0:0:0:0:
256,192,105570,1,8,0:0:0:0:
256,192,105690,1,0,0:0:0:0:
256,192,105810,1,8,0:0:0:0:
256,192,105930,1,8,0:0:0:0:
256,192,106050,1,8,0:0:0:0:
256,192,106170,1,0,0:0:0:0:
256,192,106290,1,8,0:0:0:0:
256,192,106410,1,8,0:0:0:0:
256,192,106530,1,8,0:0:0:0:
256,192,106650,1,8,0:0:0:0:
256,192,106770,1,8,0:0:0:0:
256,192,106890,1,0,0:0:0:0:
256,192,107010,1,8,0:0:0:0:
256,192,107130,1,8,0:0:0:0:
256,192,107250,1,8,0:0:0:0:
256,192,107490,1,8,0:0:0:0:
256,192,107610,1,0,0:0:0:0:
256,192,107730,1,0,0:0:0:0:
256,192,107850,1,8,0:0:0:0:
256,192,107970,1,8,0:0:0:0:
256,192,108030,1,8,0:0:0:0:
256,192,108090,1,0,0:0:0:0:
256,192,108210,1,8,0:0:0:0:
256,192,108330,1,0,0:0:0:0:
256,192,108450,1,8,0:0:0:0:
256,192,108570,1,0,0:0:0:0:
256,192,108690,1,0,0:0:0:0:
256,192,108810,1,8,0:0:0:0:
256,192,108930,1,8,0:0:0:0:
256,192,108990,1,0,0:0:0:0:
256,192,109050,1,0,0:0:0:0:
256,192,109170,1,8,0:0:0:0:
256,192,109290,1,0,0:0:0:0:
256,192,109410,1,8,0:0:0:0:
256,192,109530,1,0,0:0:0:0:
256,192,109650,1,0,0:0:0:0:
256,192,109770,1,8,0:0:0:0:
256,192,109890,1,0,0:0:0:0:
256,192,110010,1,0,0:0:0:0:
256,192,110130,1,8,0:0:0:0:
256,192,110250,1,0,0:0:0:0:
256,192,110370,1,8,0:0:0:0:
256,192,110610,1,0,0:0:0:0:
256,192,110730,1,0,0:0:0:0:
256,192,110850,1,12,0:0:0:0:
256,192,111090,1,4,0:0:0:0:
256,192,111330,5,12,0:0:0:0:
256,192,111570,1,0,0:0:0:0:
256,192,111810,1,0,0:0:0:0:
256,192,112050,1,8,0:0:0:0:
256,192,112170,1,0,0:0:0:0:
256,192,112290,1,8,0:0:0:0:
256,192,112530,1,0,0:0:0:0:
256,192,112650,1,8,0:0:0:0:
256,192,112770,1,0,0:0:0:0:
256,192,112890,1,0,0:0:0:0:
256,192,113010,1,8,0:0:0:0:
256,192,113250,1,12,0:0:0:0:
256,192,113490,1,0,0:0:0:0:
256,192,113730,1,0,0:0:0:0:
256,192,113970,1,8,0:0:0:0:
256,192,114090,1,8,0:0:0:0:
256,192,114210,1,8,0:0:0:0:
256,192,114330,1,0,0:0:0:0:
256,192,114450,1,0,0:0:0:0:
256,192,114570,1,8,0:0:0:0:
256,192,114810,1,0,0:0:0:0:
256,192,114930,1,8,0:0:0:0:
256,192,115170,1,12,0:0:0:0:
256,192,115410,1,0,0:0:0:0:
256,192,115650,1,0,0:0:0:0:
256,192,115890,1,8,0:0:0:0:
256,192,116010,1,0,0:0:0:0:
256,192,116130,1,8,0:0:0:0:
256,192,116370,1,0,0:0:0:0:
256,192,116610,1,0,0:0:0:0:
256,192,116850,1,8,0:0:0:0:
256,192,117090,1,12,0:0:0:0:
256,192,117330,1,0,0:0:0:0:
256,192,117450,1,8,0:0:0:0:
256,192,117570,1,0,0:0:0:0:
256,192,117690,1,0,0:0:0:0:
256,192,117810,1,8,0:0:0:0:
256,192,118050,1,8,0:0:0:0:
256,192,118290,1,0,0:0:0:0:
256,192,118530,1,0,0:0:0:0:
256,192,118770,1,0,0:0:0:0:
256,192,119010,5,4,0:0:0:0:
256,192,119250,1,0,0:0:0:0:
256,192,119370,1,8,0:0:0:0:
256,192,119610,1,0,0:0:0:0:
256,192,119730,1,8,0:0:0:0:
256,192,119970,1,8,0:0:0:0:
256,192,120210,1,8,0:0:0:0:
256,192,120330,1,0,0:0:0:0:
256,192,120390,1,0,0:0:0:0:
256,192,120450,1,8,0:0:0:0:
256,192,120570,1,8,0:0:0:0:
256,192,120690,1,8,0:0:0:0:
256,192,120810,1,0,0:0:0:0:
256,192,120930,1,8,0:0:0:0:
256,192,121050,1,8,0:0:0:0:
256,192,121170,1,0,0:0:0:0:
256,192,121290,1,8,0:0:0:0:
256,192,121410,1,8,0:0:0:0:
256,192,121530,1,0,0:0:0:0:
256,192,121650,1,8,0:0:0:0:
256,192,121770,1,0,0:0:0:0:
256,192,121890,1,8,0:0:0:0:
256,192,122010,1,8,0:0:0:0:
256,192,122130,1,0,0:0:0:0:
256,192,122250,1,0,0:0:0:0:
256,192,122370,1,8,0:0:0:0:
256,192,122490,1,8,0:0:0:0:
256,192,122610,1,0,0:0:0:0:
256,192,122850,5,0,0:0:0:0:
256,192,122970,1,8,0:0:0:0:
256,192,123030,1,0,0:0:0:0:
256,192,123090,1,0,0:0:0:0:
256,192,123210,1,8,0:0:0:0:
256,192,123330,1,8,0:0:0:0:
256,192,123450,1,0,0:0:0:0:
256,192,123570,1,8,0:0:0:0:
256,192,123690,1,0,0:0:0:0:
256,192,123810,1,8,0:0:0:0:
256,192,123930,1,8,0:0:0:0:
256,192,123990,1,8,0:0:0:0:
256,192,124050,1,0,0:0:0:0:
256,192,124170,1,0,0:0:0:0:
256,192,124290,1,8,0:0:0:0:
256,192,124410,1,8,0:0:0:0:
256,192,124530,1,8,0:0:0:0:
256,192,124770,1,8,0:0:0:0:
256,192,124890,1,8,0:0:0:0:
256,192,124950,1,0,0:0:0:0:
256,192,125010,1,0,0:0:0:0:
256,192,125130,1,0,0:0:0:0:
256,192,125250,1,8,0:0:0:0:
256,192,125370,1,8,0:0:0:0:
256,192,125490,1,8,0:0:0:0:
256,192,125610,1,0,0:0:0:0:
256,192,125730,1,8,0:0:0:0:
256,192,125790,1,0,0:0:0:0:
256,192,125850,1,8,0:0:0:0:
256,192,125910,1,8,0:0:0:0:
256,192,125970,1,0,0:0:0:0:
256,192,126090,1,8,0:0:0:0:
256,192,126210,1,0,0:0:0:0:
256,192,126330,1,8,0:0:0:0:
256,192,126450,1,8,0:0:0:0:
256,192,126570,1,0,0:0:0:0:
256,192,126690,1,8,0:0:0:0:
256,192,126810,12,8,128490,0:0:0:0:
256,192,128610,5,4,0:0:0:0:
256,192,128850,1,8,0:0:0:0:
256,192,128970,1,0,0:0:0:0:
256,192,129090,1,8,0:0:0:0:
256,192,129150,1,8,0:0:0:0:
256,192,129210,1,0,0:0:0:0:
256,192,129330,1,8,0:0:0:0:
256,192,129450,1,8,0:0:0:0:
256,192,129570,1,8,0:0:0:0:
256,192,129690,1,0,0:0:0:0:
256,192,129810,1,8,0:0:0:0:
256,192,129930,1,0,0:0:0:0:
256,192,129990,1,0,0:0:0:0:
256,192,130050,1,8,0:0:0:0:
256,192,130170,1,0,0:0:0:0:
256,192,130290,1,8,0:0:0:0:
256,192,130410,1,0,0:0:0:0:
256,192,130530,1,12,0:0:0:0:
256,192,130770,1,8,0:0:0:0:
256,192,130890,1,0,0:0:0:0:
256,192,131010,1,8,0:0:0:0:
256,192,131070,1,0,0:0:0:0:
256,192,131130,1,0,0:0:0:0:
256,192,131250,1,0,0:0:0:0:
256,192,131370,1,0,0:0:0:0:
256,192,131490,1,8,0:0:0:0:
256,192,131610,1,0,0:0:0:0:
256,192,131670,1,0,0:0:0:0:
256,192,131730,1,0,0:0:0:0:
256,192,131850,1,8,0:0:0:0:
256,192,131970,1,0,0:0:0:0:
256,192,132090,1,0,0:0:0:0:
256,192,132210,1,8,0:0:0:0:
256,192,132330,1,0,0:0:0:0:
256,192,132450,1,12,0:0:0:0:
256,192,132690,5,8,0:0:0:0:
256,192,132810,1,0,0:0:0:0:
256,192,132930,1,8,0:0:0:0:
256,192,132990,1,8,0:0:0:0:
256,192,133050,1,0,0:0:0:0:
256,192,133170,1,8,0:0:0:0:
256,192,133290,1,8,0:0:0:0:
256,192,133410,1,8,0:0:0:0:
256,192,133530,1,0,0:0:0:0:
256,192,133650,1,8,0:0:0:0:
256,192,133770,1,0,0:0:0:0:
256,192,133830,1,0,0:0:0:0:
256,192,133890,1,8,0:0:0:0:
256,192,134010,1,0,0:0:0:0:
256,192,134130,1,8,0:0:0:0:
256,192,134250,1,0,0:0:0:0:
256,192,134370,1,12,0:0:0:0:
256,192,134610,1,8,0:0:0:0:
256,192,134730,1,0,0:0:0:0:
256,192,134850,1,8,0:0:0:0:
256,192,134910,1,0,0:0:0:0:
256,192,134970,1,0,0:0:0:0:
256,192,135090,1,0,0:0:0:0:
256,192,135210,1,0,0:0:0:0:
256,192,135330,1,8,0:0:0:0:
256,192,135450,1,0,0:0:0:0:
256,192,135570,1,8,0:0:0:0:
256,192,135630,1,8,0:0:0:0:
256,192,135690,1,8,0:0:0:0:
256,192,135750,1,8,0:0:0:0:
256,192,135810,1,0,0:0:0:0:
256,192,135930,1,0,0:0:0:0:
256,192,136050,1,8,0:0:0:0:
256,192,136110,1,8,0:0:0:0:
256,192,136170,1,8,0:0:0:0:
256,192,136290,5,4,0:0:0:0:
256,192,136530,1,0,0:0:0:0:
256,192,136650,1,0,0:0:0:0:
256,192,136770,1,8,0:0:0:0:
256,192,136890,1,0,0:0:0:0:
256,192,137010,1,8,0:0:0:0:
256,192,137130,1,0,0:0:0:0:
256,192,137250,1,8,0:0:0:0:
256,192,137370,1,8,0:0:0:0:
256,192,137490,1,0,0:0:0:0:
256,192,137610,1,0,0:0:0:0:
256,192,137730,1,8,0:0:0:0:
256,192,137850,1,8,0:0:0:0:
256,192,137970,1,0,0:0:0:0:
256,192,138090,1,0,0:0:0:0:
256,192,138210,1,12,0:0:0:0:
256,192,138450,1,0,0:0:0:0:
256,192,138570,1,8,0:0:0:0:
256,192,138690,1,0,0:0:0:0:
256,192,138810,1,8,0:0:0:0:
256,192,138930,1,0,0:0:0:0:
256,192,139050,1,0,0:0:0:0:
256,192,139170,1,8,0:0:0:0:
256,192,139290,1,0,0:0:0:0:
256,192,139410,1,0,0:0:0:0:
256,192,139530,1,8,0:0:0:0:
256,192,139650,1,0,0:0:0:0:
256,192,139770,1,0,0:0:0:0:
256,192,139890,1,8,0:0:0:0:
256,192,140130,5,12,0:0:0:0:
256,192,140370,1,0,0:0:0:0:
256,192,140490,1,0,0:0:0:0:
256,192,140610,1,8,0:0:0:0:
256,192,140730,1,0,0:0:0:0:
256,192,140850,1,0,0:0:0:0:
256,192,141090,1,12,0:0:0:0:
256,192,141330,1,0,0:0:0:0:
256,192,141450,1,0,0:0:0:0:
256,192,141570,1,8,0:0:0:0:
256,192,141690,1,8,0:0:0:0:
256,192,141810,1,0,0:0:0:0:
256,192,142050,1,12,0:0:0:0:
256,192,142290,5,8,0:0:0:0:
256,192,142530,1,0,0:0:0:0:
256,192,142650,1,8,0:0:0:0:
256,192,142770,1,8,0:0:0:0:
256,192,142890,1,0,0:0:0:0:
256,192,142950,1,0,0:0:0:0:
256,192,143010,1,8,0:0:0:0:
256,192,143070,1,8,0:0:0:0:
256,192,143130,1,0,0:0:0:0:
256,192,143250,1,0,0:0:0:0:
256,192,143370,1,8,0:0:0:0:
256,192,143430,1,8,0:0:0:0:
256,192,143490,1,0,0:0:0:0:
256,192,143610,1,0,0:0:0:0:
256,192,143730,1,8,0:0:0:0:
256,192,143850,1,8,0:0:0:0:
256,192,143970,5,4,0:0:0:0:
256,192,144210,1,8,0:0:0:0:
256,192,144570,1,0,0:0:0:0:
256,192,144690,1,8,0:0:0:0:
256,192,144930,1,0,0:0:0:0:
256,192,145050,1,0,0:0:0:0:
256,192,145170,1,8,0:0:0:0:
256,192,145290,1,0,0:0:0:0:
256,192,145530,1,0,0:0:0:0:
256,192,145650,1,8,0:0:0:0:
256,192,145770,1,0,0:0:0:0:
256,192,145890,1,0,0:0:0:0:
256,192,146130,1,8,0:0:0:0:
256,192,146370,1,0,0:0:0:0:
256,192,146490,1,0,0:0:0:0:
256,192,146610,1,8,0:0:0:0:
256,192,146850,1,0,0:0:0:0:
256,192,147090,1,8,0:0:0:0:
256,192,147210,1,0,0:0:0:0:
256,192,147330,1,0,0:0:0:0:
256,192,147450,1,0,0:0:0:0:
256,192,147570,1,8,0:0:0:0:
256,192,147810,1,0,0:0:0:0:
256,192,148050,1,8,0:0:0:0:
256,192,148170,1,0,0:0:0:0:
256,192,148410,1,0,0:0:0:0:
256,192,148530,1,8,0:0:0:0:
256,192,148770,1,0,0:0:0:0:
256,192,149010,1,8,0:0:0:0:
256,192,149250,1,0,0:0:0:0:
256,192,149370,1,0,0:0:0:0:
256,192,149490,1,8,0:0:0:0:
256,192,149730,1,0,0:0:0:0:
256,192,149970,1,8,0:0:0:0:
256,192,150090,1,0,0:0:0:0:
256,192,150330,1,0,0:0:0:0:
256,192,150450,1,8,0:0:0:0:
256,192,150570,1,0,0:0:0:0:
256,192,150690,1,0,0:0:0:0:
256,192,150810,1,8,0:0:0:0:
256,192,150930,1,8,0:0:0:0:
256,192,150990,1,8,0:0:0:0:
256,192,151050,1,0,0:0:0:0:
256,192,151170,1,8,0:0:0:0:
256,192,151290,1,0,0:0:0:0:
256,192,151410,1,8,0:0:0:0:
256,192,151650,5,12,0:0:0:0:
256,192,151770,1,0,0:0:0:0:
256,192,151890,1,8,0:0:0:0:
256,192,152010,1,8,0:0:0:0:
256,192,152130,1,0,0:0:0:0:
256,192,152250,1,8,0:0:0:0:
256,192,152370,1,8,0:0:0:0:
256,192,152490,1,8,0:0:0:0:
256,192,152610,1,0,0:0:0:0:
256,192,152850,1,8,0:0:0:0:
256,192,152970,1,0,0:0:0:0:
256,192,153090,1,8,0:0:0:0:
256,192,153210,1,0,0:0:0:0:
256,192,153330,1,8,0:0:0:0:
256,192,153450,1,8,0:0:0:0:
256,192,153570,1,8,0:0:0:0:
256,192,153690,1,8,0:0:0:0:
256,192,153810,1,0,0:0:0:0:
256,192,154050,1,8,0:0:0:0:
256,192,154170,1,8,0:0:0:0:
256,192,154290,1,0,0:0:0:0:
256,192,154530,1,8,0:0:0:0:
256,192,154650,1,8,0:0:0:0:
256,192,154770,1,0,0:0:0:0:
256,192,154890,1,8,0:0:0:0:
256,192,155010,1,8,0:0:0:0:
256,192,155130,1,8,0:0:0:0:
256,192,155250,1,0,0:0:0:0:
256,192,155490,5,8,0:0:0:0:
256,192,155730,1,8,0:0:0:0:
256,192,155850,1,0,0:0:0:0:
256,192,155970,1,8,0:0:0:0:
256,192,156090,1,0,0:0:0:0:
256,192,156150,1,0,0:0:0:0:
256,192,156210,1,8,0:0:0:0:
256,192,156330,1,8,0:0:0:0:
256,192,156450,1,8,0:0:0:0:
256,192,156510,1,8,0:0:0:0:
256,192,156570,1,0,0:0:0:0:
256,192,156630,1,0,0:0:0:0:
256,192,156690,1,0,0:0:0:0:
256,192,156810,1,8,0:0:0:0:
256,192,156930,1,0,0:0:0:0:
256,192,157050,1,8,0:0:0:0:
256,192,157170,1,8,0:0:0:0:
256,192,157290,1,8,0:0:0:0:
256,192,157410,1,4,0:0:0:0:
256,192,157530,1,8,0:0:0:0:
256,192,157590,1,8,0:0:0:0:
256,192,157650,1,8,0:0:0:0:
256,192,157770,1,0,0:0:0:0:
256,192,157890,1,8,0:0:0:0:
256,192,157950,1,8,0:0:0:0:
256,192,158010,1,0,0:0:0:0:
256,192,158070,1,0,0:0:0:0:
256,192,158130,1,0,0:0:0:0:
256,192,158250,1,8,0:0:0:0:
256,192,158370,1,0,0:0:0:0:
256,192,158490,1,0,0:0:0:0:
256,192,158550,1,0,0:0:0:0:
256,192,158610,1,0,0:0:0:0:
256,192,158730,1,8,0:0:0:0:
256,192,158850,1,0,0:0:0:0:
256,192,158970,1,0,0:0:0:0:
256,192,159090,1,12,0:0:0:0:
256,192,159330,5,12,0:0:0:0:
256,192,159570,1,8,0:0:0:0:
256,192,159690,1,8,0:0:0:0:
256,192,159810,1,8,0:0:0:0:
256,192,159930,1,0,0:0:0:0:
256,192,159990,1,0,0:0:0:0:
256,192,160050,1,8,0:0:0:0:
256,192,160170,1,0,0:0:0:0:
256,192,160290,1,8,0:0:0:0:
256,192,160410,1,0,0:0:0:0:
256,192,160470,1,0,0:0:0:0:
256,192,160530,1,0,0:0:0:0:
256,192,160650,1,8,0:0:0:0:
256,192,160770,1,0,0:0:0:0:
256,192,160890,1,0,0:0:0:0:
256,192,161010,1,8,0:0:0:0:
256,192,161250,1,8,0:0:0:0:
256,192,161370,1,8,0:0:0:0:
256,192,161490,1,0,0:0:0:0:
256,192,161610,1,0,0:0:0:0:
256,192,161730,1,8,0:0:0:0:
256,192,161790,1,8,0:0:0:0:
256,192,161850,1,0,0:0:0:0:
256,192,161970,1,8,0:0:0:0:
256,192,162090,1,0,0:0:0:0:
256,192,162210,1,8,0:0:0:0:
256,192,162330,1,0,0:0:0:0:
256,192,162390,1,0,0:0:0:0:
256,192,162450,1,8,0:0:0:0:
256,192,162570,1,8,0:0:0:0:
256,192,162690,1,8,0:0:0:0:
256,192,162810,1,0,0:0:0:0:
256,192,162930,1,8,0:0:0:0:
256,192,163170,1,8,0:0:0:0:
256,192,163290,1,0,0:0:0:0:
256,192,163410,1,0,0:0:0:0:
256,192,163530,1,8,0:0:0:0:
256,192,163650,1,0,0:0:0:0:
256,192,163710,1,0,0:0:0:0:
256,192,163770,1,0,0:0:0:0:
256,192,163890,1,8,0:0:0:0:
256,192,164010,1,0,0:0:0:0:
256,192,164130,1,8,0:0:0:0:
256,192,164250,1,0,0:0:0:0:
256,192,164310,1,0,0:0:0:0:
256,192,164370,1,8,0:0:0:0:
256,192,164490,1,8,0:0:0:0:
256,192,164610,1,8,0:0:0:0:
256,192,164730,1,0,0:0:0:0:
256,192,164850,1,8,0:0:0:0:
256,192,165090,5,12,0:0:0:0:
256,192,165210,1,0,0:0:0:0:
256,192,165330,1,8,0:0:0:0:
256,192,165390,1,8,0:0:0:0:
256,192,165450,1,8,0:0:0:0:
256,192,165570,1,0,0:0:0:0:
256,192,165690,1,8,0:0:0:0:
256,192,165810,1,8,0:0:0:0:
256,192,165930,1,0,0:0:0:0:
256,192,166050,1,8,0:0:0:0:
256,192,166170,1,0,0:0:0:0:
256,192,166230,1,0,0:0:0:0:
256,192,166290,1,0,0:0:0:0:
256,192,166350,1,0,0:0:0:0:
256,192,166410,1,8,0:0:0:0:
256,192,166530,1,0,0:0:0:0:
256,192,166650,1,8,0:0:0:0:
256,192,166770,1,0,0:0:0:0:
256,192,166890,1,0,0:0:0:0:
256,192,167010,1,12,0:0:0:0:
256,192,167250,5,8,0:0:0:0:
256,192,167370,1,0,0:0:0:0:
256,192,167430,1,0,0:0:0:0:
256,192,167490,1,8,0:0:0:0:
256,192,167610,1,0,0:0:0:0:
256,192,167730,1,8,0:0:0:0:
256,192,167790,1,8,0:0:0:0:
256,192,167850,1,0,0:0:0:0:
256,192,167910,1,0,0:0:0:0:
256,192,167970,1,8,0:0:0:0:
256,192,168090,1,0,0:0:0:0:
256,192,168150,1,0,0:0:0:0:
256,192,168210,1,8,0:0:0:0:
256,192,168330,1,8,0:0:0:0:
256,192,168450,1,8,0:0:0:0:
256,192,168510,1,0,0:0:0:0:
256,192,168570,1,0,0:0:0:0:
256,192,168690,1,8,0:0:0:0:
256,192,168810,1,0,0:0:0:0:
256,192,168930,1,12,0:0:0:0:
256,192,169170,5,8,0:0:0:0:
256,192,169290,1,8,0:0:0:0:
256,192,169350,1,0,0:0:0:0:
256,192,169410,1,8,0:0:0:0:
256,192,169530,1,0,0:0:0:0:
256,192,169650,1,8,0:0:0:0:
256,192,169710,1,8,0:0:0:0:
256,192,169770,1,0,0:0:0:0:
256,192,169830,1,0,0:0:0:0:
256,192,169890,1,8,0:0:0:0:
256,192,170010,1,0,0:0:0:0:
256,192,170130,1,8,0:0:0:0:
256,192,170250,1,8,0:0:0:0:
256,192,170370,1,0,0:0:0:0:
256,192,170430,1,0,0:0:0:0:
256,192,170490,1,8,0:0:0:0:
256,192,170610,1,8,0:0:0:0:
256,192,170730,1,0,0:0:0:0:
256,192,170850,1,12,0:0:0:0:
256,192,171090,5,8,0:0:0:0:
256,192,171210,1,0,0:0:0:0:
256,192,171270,1,0,0:0:0:0:
256,192,171330,1,8,0:0:0:0:
256,192,171450,1,8,0:0:0:0:
256,192,171570,1,8,0:0:0:0:
256,192,171630,1,8,0:0:0:0:
256,192,171690,1,0,0:0:0:0:
256,192,171750,1,0,0:0:0:0:
256,192,171810,1,8,0:0:0:0:
256,192,171930,1,0,0:0:0:0:
256,192,172050,1,8,0:0:0:0:
256,192,172170,1,0,0:0:0:0:
256,192,172290,1,8,0:0:0:0:
256,192,172350,1,0,0:0:0:0:
256,192,172410,1,8,0:0:0:0:
256,192,172530,1,8,0:0:0:0:
256,192,172650,1,0,0:0:0:0:
256,192,172770,5,8,0:0:0:0:
256,192,172890,1,8,0:0:0:0:
256,192,173010,1,0,0:0:0:0:
256,192,173130,1,8,0:0:0:0:
256,192,173250,1,8,0:0:0:0:
256,192,173370,1,0,0:0:0:0:
256,192,173430,1,0,0:0:0:0:
256,192,173490,1,8,0:0:0:0:
256,192,173550,1,8,0:0:0:0:
256,192,173610,1,8,0:0:0:0:
256,192,173730,1,0,0:0:0:0:
256,192,173850,1,8,0:0:0:0:
256,192,173910,1,8,0:0:0:0:
256,192,173970,1,0,0:0:0:0:
256,192,174030,1,0,0:0:0:0:
256,192,174090,1,8,0:0:0:0:
256,192,174210,1,8,0:0:0:0:
256,192,174330,1,0,0:0:0:0:
256,192,174450,1,8,0:0:0:0:
256,192,174570,1,8,0:0:0:0:
256,192,174690,5,4,0:0:0:0:
256,192,174930,1,0,0:0:0:0:
256,192,175050,1,8,0:0:0:0:
256,192,175290,1,8,0:0:0:0:
256,192,175410,1,0,0:0:0:0:
256,192,175530,1,8,0:0:0:0:
256,192,175650,1,0,0:0:0:0:
256,192,175770,1,8,0:0:0:0:
256,192,175890,1,0,0:0:0:0:
256,192,176010,1,8,0:0:0:0:
256,192,176130,1,8,0:0:0:0:
256,192,176250,1,0,0:0:0:0:
256,192,176370,1,8,0:0:0:0:
256,192,176610,1,8,0:0:0:0:
256,192,176730,1,8,0:0:0:0:
256,192,176850,1,0,0:0:0:0:
256,192,176970,1,8,0:0:0:0:
256,192,177090,1,0,0:0:0:0:
256,192,177210,1,0,0:0:0:0:
256,192,177330,1,8,0:0:0:0:
256,192,177450,1,0,0:0:0:0:
256,192,177570,1,8,0:0:0:0:
256,192,177690,1,0,0:0:0:0:
256,192,177810,1,8,0:0:0:0:
256,192,177930,1,8,0:0:0:0:
256,192,178050,1,8,0:0:0:0:
256,192,178170,1,0,0:0:0:0:
256,192,178290,1,0,0:0:0:0:
256,192,178530,1,8,0:0:0:0:
256,192,178650,1,0,0:0:0:0:
256,192,178770,1,8,0:0:0:0:
256,192,178890,1,8,0:0:0:0:
256,192,179010,1,0,0:0:0:0:
256,192,179130,1,0,0:0:0:0:
256,192,179250,1,8,0:0:0:0:
256,192,179370,1,0,0:0:0:0:
256,192,179490,1,8,0:0:0:0:
256,192,179610,1,0,0:0:0:0:
256,192,179730,1,8,0:0:0:0:
256,192,179850,1,0,0:0:0:0:
256,192,179970,1,8,0:0:0:0:
256,192,180210,1,8,0:0:0:0:
256,192,180450,1,0,0:0:0:0:
256,192,180690,1,0,0:0:0:0:
256,192,180930,1,0,0:0:0:0:
256,192,181170,1,0,0:0:0:0:
256,192,181410,1,8,0:0:0:0:
256,192,181470,1,8,0:0:0:0:
256,192,181530,1,8,0:0:0:0:
256,192,181650,1,0,0:0:0:0:
256,192,181710,1,0,0:0:0:0:
256,192,181770,1,8,0:0:0:0:
256,192,181830,1,8,0:0:0:0:
256,192,181890,1,0,0:0:0:0:
256,192,182010,1,8,0:0:0:0:
256,192,182070,1,8,0:0:0:0:
256,192,182130,1,0,0:0:0:0:
256,192,182250,1,8,0:0:0:0:
256,192,182370,1,4,0:0:0:0:
256,192,182610,5,8,0:0:0:0:
256,192,183090,1,8,0:0:0:0:
256,192,183570,1,8,0:0:0:0:
256,192,184050,1,8,0:0:0:0:
256,192,184530,1,8,0:0:0:0:
256,192,185010,1,8,0:0:0:0:
256,192,185490,1,8,0:0:0:0:
256,192,185970,1,8,0:0:0:0:
256,192,186090,1,8,0:0:0:0:
256,192,186210,1,4,0:0:0:0:
256,192,186450,1,8,0:0:0:0:
256,192,186930,1,8,0:0:0:0:
256,192,187410,1,8,0:0:0:0:
256,192,187890,1,8,0:0:0:0:
256,192,188010,1,0,0:0:0:0:
256,192,188130,1,0,0:0:0:0:
256,192,188370,1,8,0:0:0:0:
256,192,188490,1,0,0:0:0:0:
256,192,188730,1,0,0:0:0:0:
256,192,188850,1,8,0:0:0:0:
256,192,188910,1,8,0:0:0:0:
256,192,188970,1,8,0:0:0:0:
256,192,189090,1,0,0:0:0:0:
256,192,189210,1,8,0:0:0:0:
256,192,189270,1,8,0:0:0:0:
256,192,189330,1,0,0:0:0:0:
256,192,189450,1,0,0:0:0:0:
256,192,189570,1,8,0:0:0:0:
256,192,189690,1,8,0:0:0:0:
256,192,189810,1,0,0:0:0:0:
256,192,190050,5,4,0:0:0:0:
256,192,190290,1,8,0:0:0:0:
256,192,190410,1,0,0:0:0:0:
256,192,190530,1,8,0:0:0:0:
256,192,190590,1,8,0:0:0:0:
256,192,190650,1,0,0:0:0:0:
256,192,190770,1,8,0:0:0:0:
256,192,190890,1,0,0:0:0:0:
256,192,191010,1,8,0:0:0:0:
256,192,191130,1,0,0:0:0:0:
256,192,191190,1,0,0:0:0:0:
256,192,191250,1,8,0:0:0:0:
256,192,191370,1,0,0:0:0:0:
256,192,191490,1,8,0:0:0:0:
256,192,191550,1,8,0:0:0:0:
256,192,191610,1,0,0:0:0:0:
256,192,191730,1,8,0:0:0:0:
256,192,191850,1,0,0:0:0:0:
256,192,191970,1,12,0:0:0:0:
256,192,192210,1,8,0:0:0:0:
256,192,192330,1,0,0:0:0:0:
256,192,192450,1,8,0:0:0:0:
256,192,192510,1,8,0:0:0:0:
256,192,192570,1,0,0:0:0:0:
256,192,192690,1,8,0:0:0:0:
256,192,192810,1,0,0:0:0:0:
256,192,192930,1,8,0:0:0:0:
256,192,193050,1,0,0:0:0:0:
256,192,193110,1,0,0:0:0:0:
256,192,193170,1,0,0:0:0:0:
256,192,193290,1,8,0:0:0:0:
256,192,193410,1,0,0:0:0:0:
256,192,193470,1,0,0:0:0:0:
256,192,193530,1,0,0:0:0:0:
256,192,193650,1,8,0:0:0:0:
256,192,193770,1,0,0:0:0:0:
256,192,193890,1,12,0:0:0:0:
256,192,194130,1,8,0:0:0:0:
256,192,194250,1,0,0:0:0:0:
256,192,194370,1,8,0:0:0:0:
256,192,194430,1,8,0:0:0:0:
256,192,194490,1,0,0:0:0:0:
256,192,194610,1,8,0:0:0:0:
256,192,194730,1,0,0:0:0:0:
256,192,194850,1,8,0:0:0:0:
256,192,194970,1,0,0:0:0:0:
256,192,195030,1,0,0:0:0:0:
256,192,195090,1,8,0:0:0:0:
256,192,195210,1,0,0:0:0:0:
256,192,195330,1,8,0:0:0:0:
256,192,195390,1,8,0:0:0:0:
256,192,195450,1,0,0:0:0:0:
256,192,195570,1,8,0:0:0:0:
256,192,195690,1,0,0:0:0:0:
256,192,195810,1,12,0:0:0:0:
256,192,196050,1,8,0:0:0:0:
256,192,196170,1,0,0:0:0:0:
256,192,196290,1,8,0:0:0:0:
256,192,196350,1,8,0:0:0:0:
256,192,196410,1,0,0:0:0:0:
256,192,196530,1,8,0:0:0:0:
256,192,196650,1,8,0:0:0:0:
256,192,196770,1,0,0:0:0:0:
256,192,196890,1,0,0:0:0:0:
256,192,197010,1,8,0:0:0:0:
256,192,197070,1,8,0:0:0:0:
256,192,197130,1,8,0:0:0:0:
256,192,197190,1,8,0:0:0:0:
256,192,197250,1,0,0:0:0:0:
256,192,197370,1,0,0:0:0:0:
256,192,197490,1,8,0:0:0:0:
256,192,197610,1,8,0:0:0:0:
256,192,197730,1,4,0:0:0:0:
256,192,197970,5,0,0:0:0:0:
256,192,198090,1,0,0:0:0:0:
256,192,198210,1,8,0:0:0:0:
256,192,198330,1,0,0:0:0:0:
256,192,198450,1,0,0:0:0:0:
256,192,198570,1,0,0:0:0:0:
256,192,198690,1,12,0:0:0:0:
256,192,198930,1,0,0:0:0:0:
256,192,199050,1,0,0:0:0:0:
256,192,199170,1,8,0:0:0:0:
256,192,199290,1,8,0:0:0:0:
256,192,199410,1,0,0:0:0:0:
256,192,199530,1,0,0:0:0:0:
256,192,199650,1,12,0:0:0:0:
256,192,199890,1,0,0:0:0:0:
256,192,200010,1,0,0:0:0:0:
256,192,200130,1,8,0:0:0:0:
256,192,200250,1,0,0:0:0:0:
256,192,200370,1,0,0:0:0:0:
256,192,200490,1,0,0:0:0:0:
256,192,200610,1,12,0:0:0:0:
256,192,200730,1,0,0:0:0:0:
256,192,200850,1,0,0:0:0:0:
256,192,200970,1,12,0:0:0:0:
256,192,201090,1,0,0:0:0:0:
256,192,201210,1,0,0:0:0:0:
256,192,201330,1,12,0:0:0:0:
256,192,201570,1,4,0:0:0:0:
256,192,201810,1,0,0:0:0:0:
256,192,201930,1,0,0:0:0:0:
256,192,202050,1,8,0:0:0:0:
256,192,202170,1,0,0:0:0:0:
256,192,202290,1,0,0:0:0:0:
256,192,202410,1,0,0:0:0:0:
256,192,202530,1,12,0:0:0:0:
256,192,202770,1,0,0:0:0:0:
256,192,202890,1,0,0:0:0:0:
256,192,203010,1,8,0:0:0:0:
256,192,203130,1,8,0:0:0:0:
256,192,203250,1,0,0:0:0:0:
256,192,203370,1,0,0:0:0:0:
256,192,203490,1,12,0:0:0:0:
256,192,203730,1,0,0:0:0:0:
256,192,203850,1,0,0:0:0:0:
256,192,203970,1,8,0:0:0:0:
256,192,204090,1,0,0:0:0:0:
256,192,204210,1,0,0:0:0:0:
256,192,204330,1,0,0:0:0:0:
256,192,204450,1,12,0:0:0:0:
256,192,204570,1,0,0:0:0:0:
256,192,204690,1,0,0:0:0:0:
256,192,204810,1,0,0:0:0:0:
256,192,205050,1,8,0:0:0:0:
256,192,205170,1,0,0:0:0:0:
256,192,205410,1,8,0:0:0:0:
256,192,212610,5,0,0:0:0:0:
256,192,213090,1,8,0:0:0:0:
256,192,213570,1,0,0:0:0:0:
256,192,214050,1,12,0:0:0:0:
256,192,215970,1,12,0:0:0:0:
256,192,216930,1,12,0:0:0:0:
256,192,217050,1,4,0:0:0:0:
256,192,217170,1,4,0:0:0:0:
256,192,217290,1,12,0:0:0:0:
256,192,217530,1,4,0:0:0:0:
256,192,217650,1,12,0:0:0:0:
256,192,217890,5,4,0:0:0:0:
256,192,218130,1,0,0:0:0:0:
256,192,218250,1,0,0:0:0:0:
256,192,218370,1,0,0:0:0:0:
256,192,218490,1,0,0:0:0:0:
256,192,218610,1,0,0:0:0:0:
256,192,218730,1,0,0:0:0:0:
256,192,218850,1,8,0:0:0:0:
256,192,219090,1,0,0:0:0:0:
256,192,219210,1,8,0:0:0:0:
256,192,219330,1,0,0:0:0:0:
256,192,219450,1,0,0:0:0:0:
256,192,219570,1,0,0:0:0:0:
256,192,219690,1,0,0:0:0:0:
256,192,219810,1,8,0:0:0:0:
256,192,219870,1,8,0:0:0:0:
256,192,219930,1,8,0:0:0:0:
256,192,220050,1,0,0:0:0:0:
256,192,220170,1,8,0:0:0:0:
256,192,220290,1,0,0:0:0:0:
256,192,220410,1,8,0:0:0:0:
256,192,220530,1,8,0:0:0:0:
256,192,220650,1,0,0:0:0:0:
256,192,220710,1,0,0:0:0:0:
256,192,220770,1,0,0:0:0:0:
256,192,220890,1,8,0:0:0:0:
256,192,221010,1,0,0:0:0:0:
256,192,221130,1,0,0:0:0:0:
256,192,221250,1,0,0:0:0:0:
256,192,221370,1,8,0:0:0:0:
256,192,221490,1,8,0:0:0:0:
256,192,221610,1,8,0:0:0:0:
256,192,221730,5,12,0:0:0:0:
256,192,222450,1,12,0:0:0:0:
256,192,222690,1,12,0:0:0:0:
256,192,223410,1,12,0:0:0:0:
256,192,223650,1,12,0:0:0:0:
256,192,224010,1,12,0:0:0:0:
256,192,224370,1,12,0:0:0:0:
256,192,224610,1,12,0:0:0:0:
256,192,225570,5,4,0:0:0:0:
256,192,225810,1,0,0:0:0:0:
256,192,225930,1,8,0:0:0:0:
256,192,226050,1,0,0:0:0:0:
256,192,226170,1,8,0:0:0:0:
256,192,226230,1,8,0:0:0:0:
256,192,226290,1,0,0:0:0:0:
256,192,226410,1,8,0:0:0:0:
256,192,226530,1,8,0:0:0:0:
256,192,226590,1,8,0:0:0:0:
256,192,226650,1,0,0:0:0:0:
256,192,226710,1,0,0:0:0:0:
256,192,226770,1,0,0:0:0:0:
256,192,226890,1,8,0:0:0:0:
256,192,227010,1,0,0:0:0:0:
256,192,227130,1,8,0:0:0:0:
256,192,227250,1,8,0:0:0:0:
256,192,227370,1,0,0:0:0:0:
256,192,227490,1,12,0:0:0:0:
256,192,227970,5,0,0:0:0:0:
256,192,228450,1,8,0:0:0:0:
256,192,228930,1,0,0:0:0:0:
256,192,229410,5,12,0:0:0:0:
256,192,229650,1,8,0:0:0:0:
256,192,229770,1,0,0:0:0:0:
256,192,229830,1,0,0:0:0:0:
256,192,229890,1,8,0:0:0:0:
256,192,230010,1,8,0:0:0:0:
256,192,230130,1,8,0:0:0:0:
256,192,230190,1,8,0:0:0:0:
256,192,230250,1,0,0:0:0:0:
256,192,230310,1,0,0:0:0:0:
256,192,230370,1,8,0:0:0:0:
256,192,230490,1,0,0:0:0:0:
256,192,230550,1,0,0:0:0:0:
256,192,230610,1,0,0:0:0:0:
256,192,230670,1,0,0:0:0:0:
256,192,230730,1,8,0:0:0:0:
256,192,230850,1,0,0:0:0:0:
256,192,230970,1,0,0:0:0:0:
256,192,231090,1,8,0:0:0:0:
256,192,231210,1,0,0:0:0:0:
256,192,231330,1,8,0:0:0:0:
256,192,231450,1,0,0:0:0:0:
256,192,231510,1,0,0:0:0:0:
256,192,231570,1,0,0:0:0:0:
256,192,231690,1,0,0:0:0:0:
256,192,231810,1,8,0:0:0:0:
256,192,231930,1,0,0:0:0:0:
256,192,231990,1,0,0:0:0:0:
256,192,232050,1,8,0:0:0:0:
256,192,232110,1,8,0:0:0:0:
256,192,232170,1,0,0:0:0:0:
256,192,232290,1,8,0:0:0:0:
256,192,232350,1,8,0:0:0:0:
256,192,232410,1,0,0:0:0:0:
256,192,232470,1,0,0:0:0:0:
256,192,232530,1,8,0:0:0:0:
256,192,232650,1,8,0:0:0:0:
256,192,232770,1,8,0:0:0:0:
256,192,232890,1,0,0:0:0:0:
256,192,233010,1,8,0:0:0:0:
256,192,233250,1,12,0:0:0:0:
256,192,233370,1,0,0:0:0:0:
256,192,233490,1,0,0:0:0:0:
256,192,233610,1,8,0:0:0:0:
256,192,233670,1,8,0:0:0:0:
256,192,233730,1,0,0:0:0:0:
256,192,233790,1,0,0:0:0:0:
256,192,233850,1,0,0:0:0:0:
256,192,233970,1,8,0:0:0:0:
256,192,234090,1,0,0:0:0:0:
256,192,234150,1,0,0:0:0:0:
256,192,234210,1,8,0:0:0:0:
256,192,234330,1,0,0:0:0:0:
256,192,234450,1,8,0:0:0:0:
256,192,234510,1,8,0:0:0:0:
256,192,234570,1,0,0:0:0:0:
256,192,234630,1,0,0:0:0:0:
256,192,234690,1,8,0:0:0:0:
256,192,234810,1,0,0:0:0:0:
256,192,234930,1,8,0:0:0:0:
256,192,235050,1,0,0:0:0:0:
256,192,235170,1,8,0:0:0:0:
256,192,235290,1,8,0:0:0:0:
256,192,235350,1,8,0:0:0:0:
256,192,235410,1,8,0:0:0:0:
256,192,235530,1,0,0:0:0:0:
256,192,235650,1,8,0:0:0:0:
256,192,235710,1,0,0:0:0:0:
256,192,235770,1,8,0:0:0:0:
256,192,235890,1,0,0:0:0:0:
256,192,236010,1,8,0:0:0:0:
256,192,236130,1,8,0:0:0:0:
256,192,236190,1,8,0:0:0:0:
256,192,236250,1,0,0:0:0:0:
256,192,236310,1,0,0:0:0:0:
256,192,236370,1,8,0:0:0:0:
256,192,236430,1,0,0:0:0:0:
256,192,236490,1,8,0:0:0:0:
256,192,236610,1,0,0:0:0:0:
256,192,236730,1,8,0:0:0:0:
256,192,236790,1,0,0:0:0:0:
256,192,236850,1,0,0:0:0:0:
256,192,236970,1,0,0:0:0:0:
256,192,237090,1,12,0:0:0:0:
256,192,237330,5,8,0:0:0:0:
256,192,237450,1,0,0:0:0:0:
256,192,237570,1,8,0:0:0:0:
256,192,237690,1,0,0:0:0:0:
256,192,237810,1,8,0:0:0:0:
256,192,237870,1,8,0:0:0:0:
256,192,237930,1,0,0:0:0:0:
256,192,237990,1,0,0:0:0:0:
256,192,238050,1,8,0:0:0:0:
256,192,238170,1,0,0:0:0:0:
256,192,238290,1,8,0:0:0:0:
256,192,238410,1,8,0:0:0:0:
256,192,238530,1,8,0:0:0:0:
256,192,238590,1,0,0:0:0:0:
256,192,238650,1,0,0:0:0:0:
256,192,238770,1,8,0:0:0:0:
256,192,238890,1,0,0:0:0:0:
256,192,239010,1,12,0:0:0:0:
256,192,239250,1,0,0:0:0:0:
256,192,239370,1,0,0:0:0:0:
256,192,239490,1,8,0:0:0:0:
256,192,239610,1,0,0:0:0:0:
256,192,239730,1,8,0:0:0:0:
256,192,239850,1,0,0:0:0:0:
256,192,239910,1,0,0:0:0:0:
256,192,239970,1,8,0:0:0:0:
256,192,240030,1,8,0:0:0:0:
256,192,240090,1,0,0:0:0:0:
256,192,240210,1,0,0:0:0:0:
256,192,240330,1,8,0:0:0:0:
256,192,240390,1,8,0:0:0:0:
256,192,240450,1,0,0:0:0:0:
256,192,240570,1,8,0:0:0:0:
256,192,240690,1,8,0:0:0:0:
256,192,240810,1,0,0:0:0:0:
256,192,240930,1,12,0:0:0:0:
256,192,241170,1,8,0:0:0:0:
256,192,241290,1,0,0:0:0:0:
256,192,241410,1,8,0:0:0:0:
256,192,241470,1,8,0:0:0:0:
256,192,241530,1,0,0:0:0:0:
256,192,241590,1,0,0:0:0:0:
256,192,241650,1,8,0:0:0:0:
256,192,241770,1,0,0:0:0:0:
256,192,241890,1,8,0:0:0:0:
256,192,242010,1,0,0:0:0:0:
256,192,242130,1,0,0:0:0:0:
256,192,242250,1,8,0:0:0:0:
256,192,242310,1,0,0:0:0:0:
256,192,242370,1,8,0:0:0:0:
256,192,242430,1,8,0:0:0:0:
256,192,242490,1,0,0:0:0:0:
256,192,242550,1,0,0:0:0:0:
256,192,242610,1,8,0:0:0:0:
256,192,242730,1,0,0:0:0:0:
256,192,242850,5,8,0:0:0:0:
256,192,242970,1,8,0:0:0:0:
256,192,243090,1,0,0:0:0:0:
256,192,243210,1,8,0:0:0:0:
256,192,243330,1,8,0:0:0:0:
256,192,243450,1,0,0:0:0:0:
256,192,243510,1,0,0:0:0:0:
256,192,243570,1,8,0:0:0:0:
256,192,243630,1,8,0:0:0:0:
256,192,243690,1,8,0:0:0:0:
256,192,243810,1,0,0:0:0:0:
256,192,243930,1,8,0:0:0:0:
256,192,243990,1,8,0:0:0:0:
256,192,244050,1,0,0:0:0:0:
256,192,244170,1,8,0:0:0:0:
256,192,244290,1,8,0:0:0:0:
256,192,244350,1,8,0:0:0:0:
256,192,244410,1,0,0:0:0:0:
256,192,244470,1,0,0:0:0:0:
256,192,244530,1,8,0:0:0:0:
256,192,244650,1,0,0:0:0:0:
256,192,244770,1,12,0:0:0:0:
256,192,245010,5,8,0:0:0:0:
256,192,245250,1,8,0:0:0:0:
256,192,245370,1,0,0:0:0:0:
256,192,245490,1,8,0:0:0:0:
256,192,245610,1,8,0:0:0:0:
256,192,245730,1,0,0:0:0:0:
256,192,245850,1,8,0:0:0:0:
256,192,245970,1,0,0:0:0:0:
256,192,246090,1,8,0:0:0:0:
256,192,246210,1,0,0:0:0:0:
256,192,246330,1,8,0:0:0:0:
256,192,246450,1,8,0:0:0:0:
256,192,246570,1,8,0:0:0:0:
256,192,246690,1,0,0:0:0:0:
256,192,246930,1,8,0:0:0:0:
256,192,247170,1,0,0:0:0:0:
256,192,247290,1,8,0:0:0:0:
256,192,247410,1,8,0:0:0:0:
256,192,247530,1,8,0:0:0:0:
256,192,247650,1,0,0:0:0:0:
256,192,247770,1,8,0:0:0:0:
256,192,247890,1,0,0:0:0:0:
256,192,248010,1,8,0:0:0:0:
256,192,248130,1,8,0:0:0:0:
256,192,248250,1,0,0:0:0:0:
256,192,248370,1,8,0:0:0:0:
256,192,248490,1,0,0:0:0:0:
256,192,248610,1,8,0:0:0:0:
256,192,248850,1,8,0:0:0:0:
256,192,249090,1,0,0:0:0:0:
256,192,249210,1,8,0:0:0:0:
256,192,249330,1,0,0:0:0:0:
256,192,249450,1,8,0:0:0:0:
256,192,249570,1,0,0:0:0:0:
256,192,249690,1,8,0:0:0:0:
256,192,249810,1,8,0:0:0:0:
256,192,249930,1,8,0:0:0:0:
256,192,250050,1,0,0:0:0:0:
256,192,250170,1,8,0:0:0:0:
256,192,250290,1,0,0:0:0:0:
256,192,250410,1,8,0:0:0:0:
256,192,250530,1,0,0:0:0:0:
256,192,250650,1,8,0:0:0:0:
256,192,250770,1,8,0:0:0:0:
256,192,250890,1,0,0:0:0:0:
256,192,251010,1,8,0:0:0:0:
256,192,251130,1,8,0:0:0:0:
256,192,251250,1,0,0:0:0:0:
256,192,251370,1,0,0:0:0:0:
256,192,251490,1,8,0:0:0:0:
256,192,251610,1,0,0:0:0:0:
256,192,251730,1,8,0:0:0:0:
256,192,251850,1,8,0:0:0:0:
256,192,251970,1,0,0:0:0:0:
256,192,252090,1,8,0:0:0:0:
256,192,252210,1,0,0:0:0:0:
256,192,252330,1,0,0:0:0:0:
256,192,252450,5,12,0:0:0:0:
256,192,252690,1,8,0:0:0:0:
256,192,252810,1,8,0:0:0:0:
256,192,252930,1,0,0:0:0:0:
256,192,253050,1,0,0:0:0:0:
256,192,253170,1,8,0:0:0:0:
256,192,253290,1,0,0:0:0:0:
256,192,253410,1,8,0:0:0:0:
256,192,253530,1,0,0:0:0:0:
256,192,253650,1,0,0:0:0:0:
256,192,253770,1,8,0:0:0:0:
256,192,253890,1,0,0:0:0:0:
256,192,254010,1,0,0:0:0:0:
256,192,254130,1,8,0:0:0:0:
256,192,254250,1,8,0:0:0:0:
256,192,254370,1,8,0:0:0:0:
256,192,254610,1,8,0:0:0:0:
256,192,254730,1,0,0:0:0:0:
256,192,254850,1,8,0:0:0:0:
256,192,254970,1,0,0:0:0:0:
256,192,255090,1,8,0:0:0:0:
256,192,255210,1,0,0:0:0:0:
256,192,255330,1,8,0:0:0:0:
256,192,255450,1,8,0:0:0:0:
256,192,255570,1,0,0:0:0:0:
256,192,255690,1,8,0:0:0:0:
256,192,255810,1,0,0:0:0:0:
256,192,255930,1,8,0:0:0:0:
256,192,256050,1,8,0:0:0:0:
256,192,256170,1,0,0:0:0:0:
256,192,256290,1,12,0:0:0:0:
256,192,256530,1,0,0:0:0:0:
256,192,256650,1,0,0:0:0:0:
256,192,256770,1,8,0:0:0:0:
256,192,256890,1,0,0:0:0:0:
256,192,257010,1,0,0:0:0:0:
256,192,257130,1,0,0:0:0:0:
256,192,257250,1,12,0:0:0:0:
256,192,257370,1,0,0:0:0:0:
256,192,257490,1,0,0:0:0:0:
256,192,257610,1,8,0:0:0:0:
256,192,257730,1,0,0:0:0:0:
256,192,257850,1,8,0:0:0:0:
256,192,257970,1,8,0:0:0:0:
256,192,258090,1,0,0:0:0:0:
256,192,258210,1,12,0:0:0:0:
256,192,258450,1,8,0:0:0:0:
256,192,258570,1,0,0:0:0:0:
256,192,258690,1,8,0:0:0:0:
256,192,258810,1,0,0:0:0:0:
256,192,258930,1,8,0:0:0:0:
256,192,259050,1,8,0:0:0:0:
256,192,259170,1,8,0:0:0:0:
256,192,259290,1,0,0:0:0:0:
256,192,259350,1,0,0:0:0:0:
256,192,259410,1,0,0:0:0:0:
256,192,259530,1,8,0:0:0:0:
256,192,259650,1,0,0:0:0:0:
256,192,259770,1,8,0:0:0:0:
256,192,259890,1,0,0:0:0:0:
256,192,260010,1,0,0:0:0:0:
256,192,260130,5,8,0:0:0:0:
256,192,260370,1,0,0:0:0:0:
256,192,260490,1,0,0:0:0:0:
256,192,260610,1,8,0:0:0:0:
256,192,260850,1,0,0:0:0:0:
256,192,260970,1,0,0:0:0:0:
256,192,261090,1,8,0:0:0:0:
256,192,261210,1,0,0:0:0:0:
256,192,261450,1,0,0:0:0:0:
256,192,261570,1,8,0:0:0:0:
256,192,261690,1,0,0:0:0:0:
256,192,261810,1,0,0:0:0:0:
256,192,262050,1,8,0:0:0:0:
256,192,262110,1,8,0:0:0:0:
256,192,262170,1,8,0:0:0:0:
256,192,262290,1,0,0:0:0:0:
256,192,262410,1,8,0:0:0:0:
256,192,262470,1,8,0:0:0:0:
256,192,262530,1,0,0:0:0:0:
256,192,262590,1,0,0:0:0:0:
256,192,262650,1,8,0:0:0:0:
256,192,262770,1,0,0:0:0:0:
256,192,262890,1,8,0:0:0:0:
256,192,263010,1,0,0:0:0:0:
256,192,263130,1,0,0:0:0:0:
256,192,263190,1,0,0:0:0:0:
256,192,263250,1,0,0:0:0:0:
256,192,263370,1,8,0:0:0:0:
256,192,263430,1,8,0:0:0:0:
256,192,263490,1,0,0:0:0:0:
256,192,263610,1,0,0:0:0:0:
256,192,263730,1,12,0:0:0:0:
256,192,263850,1,12,0:0:0:0:
