osu file format v14

[General]
AudioFilename: audio.mp3
AudioLeadIn: 0
PreviewTime: 71490
Countdown: 1
SampleSet: Normal
StackLeniency: 0.7
Mode: 1
LetterboxInBreaks: 0
WidescreenStoryboard: 1

[Editor]
Bookmarks: 7650,15330,23010,24930,32610,36450,40290,47970,55650,57570,65250,71010,72930,80610,88290,88530,88770,89010,89250,89490,89730,89970,90210,90450,90690,90930,91170,91410,91650,91890,95970,111330,126690,128610,136290,142050,143970,151650,159330,167010,174690,182370,190050,197730,205410,205650,205890,206130,206370,206610,206850,207090,207330,207570,207810,208050,208290,208530,208770,209010,209250,209490,209730,209970,210210,210450,210690,210930,211170,211410,211650,211890,212130,214050,217890,221730,225570,227490,229410,237090,260130,263970,264210,264450,264690,264930,265170,265410,265650,265890,266130,266370,266610,266850
DistanceSpacing: 0.8
BeatDivisor: 4
GridSize: 32
TimelineZoom: 1.8

[Metadata]
Title:Shinbatsu o Tadori Kyoukotsu ni Itaru
TitleUnicode:神罰を辿り狂骨に至る
Artist:Imperial Circus Dead Decadence
ArtistUnicode:Imperial Circus Dead Decadence
Creator:Heaxys
Version:Futsuu
Source:osu!
Tags:Melodic Symphonic Orchestral Extreme Black Death Metal Featured Artist FA ICDD Japanese Stamina Streams 黄泉より聴こゆ、皇国の燈と焔の少女。
BeatmapID:2336691
BeatmapSetID:1070409

[Difficulty]
HPDrainRate:6
CircleSize:2
OverallDifficulty:4
ApproachRate:10
SliderMultiplier:1.1
SliderTickRate:1

[Events]
//Background and Video events
0,0,"Darkin_To_Slay_Legends.jpg",0,25
//Break Periods
2,205610,212160
//Storyboard Layer 0 (Background)
//Storyboard Layer 1 (Fail)
//Storyboard Layer 2 (Pass)
//Storyboard Layer 3 (Foreground)
//Storyboard Layer 4 (Overlay)
//Storyboard Sound Samples

[TimingPoints]
930,240,4,1,0,40,1,0
930,-142.857142857143,4,1,0,40,0,0
5730,-111.111111111111,4,1,0,80,0,0
7770,-111.111111111111,4,1,0,70,0,0
15250,-111.111111111111,4,1,0,80,0,0
23009,-105.263157894737,4,1,0,80,0,0
24929,-111.111111111111,4,1,0,80,0,0
25050,-111.111111111111,4,1,0,70,0,0
32570,-111.111111111111,4,1,0,80,0,0
36449,-105.263157894737,4,1,0,70,0,0
39730,-105.263157894737,4,1,0,80,0,0
40210,-100,4,1,0,90,0,0
40290,-100,4,1,0,90,0,1
55410,-100,4,1,0,90,0,0
55530,-100,4,1,0,40,0,0
56129,-133.333333333333,4,1,0,40,0,0
57490,-133.333333333333,4,1,0,70,0,0
57569,-111.111111111111,4,1,0,70,0,0
65210,-111.111111111111,4,1,0,80,0,0
65249,-105.263157894737,4,1,0,80,0,0
71130,-105.263157894737,4,1,0,40,0,0
71489,-133.333333333333,4,1,0,40,0,0
72850,-100,4,1,0,100,0,0
72930,-100,4,1,0,100,0,1
88290,-100,4,1,0,100,0,0
88410,-100,4,1,0,20,0,0
89249,-105.263157894737,4,1,0,20,0,0
90209,-111.111111111111,4,1,0,20,0,0
91169,-117.647058823529,4,1,0,20,0,0
92050,-117.647058823529,4,1,0,60,0,0
92129,-125,4,1,0,60,0,0
95969,-117.647058823529,4,1,0,60,0,0
111250,-111.111111111111,4,1,0,80,0,0
126770,-111.111111111111,4,1,0,60,0,0
128530,-100,4,1,0,90,0,0
128610,-100,4,1,0,90,0,1
143970,-100,4,1,0,90,0,0
144209,-104.166666666667,4,1,0,70,0,0
144569,-111.111111111111,4,1,0,70,0,0
151610,-105.263157894737,4,1,0,80,0,0
159250,-100,4,1,0,100,0,0
159330,-100,4,1,0,100,0,1
174690,-100,4,1,0,100,0,0
174850,-105.263157894737,4,1,0,70,0,0
175529,-111.111111111111,4,1,0,70,0,0
176570,-111.111111111111,4,1,0,80,0,0
182530,-113.636363636364,4,1,0,60,0,0
183010,-116.279069767442,4,1,0,60,0,0
183490,-119.047619047619,4,1,0,60,0,0
183970,-121.951219512195,4,1,0,60,0,0
184450,-125,4,1,0,60,0,0
188650,-117.647058823529,4,1,0,70,0,0
189930,-111.111111111111,4,1,0,80,0,0
197729,-105.263157894737,4,1,0,80,0,0
205530,-100,4,1,0,20,0,0
206369,-104.166666666667,4,1,0,20,0,0
207329,-108.695652173913,4,1,0,20,0,0
208289,-113.636363636364,4,1,0,20,0,0
209250,-120.481927710843,4,1,0,20,0,0
210210,-126.582278481013,4,1,0,20,0,0
211169,-133.333333333333,4,1,0,20,0,0
212530,-133.333333333333,4,1,0,40,0,0
213970,-100,4,1,0,80,0,0
217810,-111.111111111111,4,1,0,70,0,0
221690,-100,4,1,0,90,0,0
225490,-105.263157894737,4,1,0,80,0,0
227890,-133.333333333333,4,1,0,40,0,0
228929,-111.111111111111,4,1,0,40,0,0
229330,-100,4,1,0,100,0,0
229410,-100,4,1,0,100,0,1
244770,-100,4,1,0,100,0,0
245009,-102.040816326531,4,1,0,80,0,0
245490,-105.263157894737,4,1,0,80,0,0
260369,-111.111111111111,4,1,0,80,0,0

[HitObjects]
256,192,5490,5,0,0:0:0:0:
256,192,5730,1,12,0:0:0:0:
256,192,6690,1,0,0:0:0:0:
256,192,7050,1,8,0:0:0:0:
256,192,7410,1,8,0:0:0:0:
256,192,7650,5,4,0:0:0:0:
256,192,7890,1,8,0:0:0:0:
256,192,8130,1,0,0:0:0:0:
256,192,8370,1,0,0:0:0:0:
256,192,8610,1,8,0:0:0:0:
256,192,8970,1,8,0:0:0:0:
256,192,9570,5,0,0:0:0:0:
256,192,9930,1,8,0:0:0:0:
256,192,10290,1,8,0:0:0:0:
256,192,10530,1,0,0:0:0:0:
256,192,10770,1,8,0:0:0:0:
256,192,11010,1,8,0:0:0:0:
256,192,11490,5,0,0:0:0:0:
256,192,11850,1,8,0:0:0:0:
256,192,12210,1,8,0:0:0:0:
256,192,12450,1,0,0:0:0:0:
256,192,12690,1,0,0:0:0:0:
256,192,12930,1,8,0:0:0:0:
256,192,13410,5,0,0:0:0:0:
256,192,13650,1,0,0:0:0:0:
256,192,13890,1,0,0:0:0:0:
256,192,14370,1,8,0:0:0:0:
256,192,14610,1,0,0:0:0:0:
256,192,14850,1,8,0:0:0:0:
256,192,15090,1,8,0:0:0:0:
256,192,15330,5,4,0:0:0:0:
256,192,15690,1,0,0:0:0:0:
256,192,16050,1,0,0:0:0:0:
256,192,16290,1,8,0:0:0:0:
256,192,16770,1,12,0:0:0:0:
256,192,17250,5,0,0:0:0:0:
256,192,17610,1,8,0:0:0:0:
256,192,17970,1,0,0:0:0:0:
256,192,18210,1,8,0:0:0:0:
256,192,18690,1,12,0:0:0:0:
256,192,19170,5,0,0:0:0:0:
256,192,19530,1,0,0:0:0:0:
256,192,19890,1,0,0:0:0:0:
256,192,20130,1,8,0:0:0:0:
256,192,20610,1,12,0:0:0:0:
256,192,21090,5,0,0:0:0:0:
256,192,21330,1,0,0:0:0:0:
256,192,21570,1,8,0:0:0:0:
256,192,21810,1,0,0:0:0:0:
256,192,22050,1,8,0:0:0:0:
256,192,22290,1,0,0:0:0:0:
256,192,22530,1,12,0:0:0:0:
256,192,23010,5,4,0:0:0:0:
256,192,23970,1,12,0:0:0:0:
256,192,24450,1,4,0:0:0:0:
256,192,24930,5,4,0:0:0:0:
256,192,25170,1,8,0:0:0:0:
256,192,25410,1,0,0:0:0:0:
256,192,25650,1,0,0:0:0:0:
256,192,25890,1,8,0:0:0:0:
256,192,26250,1,8,0:0:0:0:
256,192,26850,5,0,0:0:0:0:
256,192,27210,1,8,0:0:0:0:
256,192,27570,1,8,0:0:0:0:
256,192,27810,1,0,0:0:0:0:
256,192,28170,1,8,0:0:0:0:
256,192,28770,5,12,0:0:0:0:
256,192,29250,1,12,0:0:0:0:
256,192,29730,1,0,0:0:0:0:
256,192,30090,1,8,0:0:0:0:
256,192,30450,1,8,0:0:0:0:
256,192,30690,5,0,0:0:0:0:
256,192,30930,1,0,0:0:0:0:
256,192,31170,1,0,0:0:0:0:
256,192,31650,1,8,0:0:0:0:
256,192,31890,1,0,0:0:0:0:
256,192,32130,1,8,0:0:0:0:
256,192,32370,1,8,0:0:0:0:
256,192,32610,5,4,0:0:0:0:
256,192,32970,1,0,0:0:0:0:
256,192,33330,1,0,0:0:0:0:
256,192,33570,1,12,0:0:0:0:
256,192,34050,1,12,0:0:0:0:
256,192,34530,5,0,0:0:0:0:
256,192,34890,1,8,0:0:0:0:
256,192,35250,1,0,0:0:0:0:
256,192,35490,1,12,0:0:0:0:
256,192,35970,1,12,0:0:0:0:
256,192,36450,5,0,0:0:0:0:
256,192,36810,1,8,0:0:0:0:
256,192,37170,1,0,0:0:0:0:
256,192,37410,1,8,0:0:0:0:
256,192,37650,1,8,0:0:0:0:
256,192,38130,1,0,0:0:0:0:
256,192,38370,1,8,0:0:0:0:
256,192,38730,1,8,0:0:0:0:
256,192,39090,1,0,0:0:0:0:
256,192,39330,1,8,0:0:0:0:
256,192,39570,1,0,0:0:0:0:
256,192,39810,1,12,0:0:0:0:
256,192,40050,1,8,0:0:0:0:
256,192,40290,5,4,0:0:0:0:
256,192,40650,1,0,0:0:0:0:
256,192,41010,1,8,0:0:0:0:
256,192,41250,1,0,0:0:0:0:
256,192,41490,1,8,0:0:0:0:
256,192,41610,1,0,0:0:0:0:
256,192,41970,1,0,0:0:0:0:
256,192,42210,5,12,0:0:0:0:
256,192,42570,1,8,0:0:0:0:
256,192,42930,1,0,0:0:0:0:
256,192,43170,1,8,0:0:0:0:
256,192,43410,1,0,0:0:0:0:
256,192,43650,1,8,0:0:0:0:
256,192,44130,5,4,0:0:0:0:
256,192,44490,1,0,0:0:0:0:
256,192,44850,1,8,0:0:0:0:
256,192,45090,1,0,0:0:0:0:
256,192,45330,1,8,0:0:0:0:
256,192,45450,1,0,0:0:0:0:
256,192,45810,1,0,0:0:0:0:
256,192,46050,5,12,0:0:0:0:
256,192,46410,1,8,0:0:0:0:
256,192,46770,1,0,0:0:0:0:
256,192,47010,1,8,0:0:0:0:
256,192,47250,1,0,0:0:0:0:
256,192,47490,1,8,0:0:0:0:
256,192,47730,1,8,0:0:0:0:
256,192,47970,5,4,0:0:0:0:
256,192,48690,1,0,0:0:0:0:
256,192,48930,1,4,0:0:0:0:
256,192,49290,1,0,0:0:0:0:
256,192,49650,1,0,0:0:0:0:
256,192,49890,1,12,0:0:0:0:
256,192,50610,1,8,0:0:0:0:
256,192,50850,1,12,0:0:0:0:
256,192,51210,1,8,0:0:0:0:
256,192,51570,1,8,0:0:0:0:
256,192,51810,5,4,0:0:0:0:
256,192,52290,1,8,0:0:0:0:
256,192,52530,1,0,0:0:0:0:
256,192,52770,1,12,0:0:0:0:
256,192,53250,1,0,0:0:0:0:
256,192,53490,1,8,0:0:0:0:
256,192,53730,5,12,0:0:0:0:
256,192,54090,1,8,0:0:0:0:
256,192,54450,1,8,0:0:0:0:
256,192,54690,1,4,0:0:0:0:
256,192,55050,1,0,0:0:0:0:
256,192,55410,1,0,0:0:0:0:
256,192,56130,5,0,0:0:0:0:
256,192,56610,1,8,0:0:0:0:
256,192,57090,1,0,0:0:0:0:
256,192,57570,5,12,0:0:0:0:
256,192,57810,1,8,0:0:0:0:
256,192,58290,1,8,0:0:0:0:
256,192,58530,1,0,0:0:0:0:
256,192,58770,1,8,0:0:0:0:
256,192,59250,1,8,0:0:0:0:
256,192,59490,1,0,0:0:0:0:
256,192,59850,1,0,0:0:0:0:
256,192,60210,1,8,0:0:0:0:
256,192,60450,1,0,0:0:0:0:
256,192,60690,1,8,0:0:0:0:
256,192,61170,5,8,0:0:0:0:
256,192,61410,1,0,0:0:0:0:
256,192,61650,1,8,0:0:0:0:
256,192,62130,1,8,0:0:0:0:
256,192,62370,1,0,0:0:0:0:
256,192,62610,1,8,0:0:0:0:
256,192,63090,1,8,0:0:0:0:
256,192,63330,1,0,0:0:0:0:
256,192,63690,1,0,0:0:0:0:
256,192,64050,1,8,0:0:0:0:
256,192,64290,1,0,0:0:0:0:
256,192,64530,1,8,0:0:0:0:
256,192,64770,1,8,0:0:0:0:
256,192,65250,5,4,0:0:0:0:
256,192,65610,1,8,0:0:0:0:
256,192,65970,1,8,0:0:0:0:
256,192,66210,1,0,0:0:0:0:
256,192,66450,1,8,0:0:0:0:
256,192,66690,1,0,0:0:0:0:
256,192,66930,1,0,0:0:0:0:
256,192,67170,1,8,0:0:0:0:
256,192,67650,1,8,0:0:0:0:
256,192,68130,1,8,0:0:0:0:
256,192,68370,1,0,0:0:0:0:
256,192,68610,1,8,0:0:0:0:
256,192,69090,5,12,0:0:0:0:
256,192,69330,1,8,0:0:0:0:
256,192,69570,1,0,0:0:0:0:
256,192,69810,1,8,0:0:0:0:
256,192,69930,1,8,0:0:0:0:
256,192,70050,1,8,0:0:0:0:
256,192,70410,1,8,0:0:0:0:
256,192,70650,1,0,0:0:0:0:
256,192,70770,1,8,0:0:0:0:
256,192,71010,1,12,0:0:0:0:
256,192,71490,5,0,0:0:0:0:
256,192,71970,1,8,0:0:0:0:
256,192,72450,1,0,0:0:0:0:
256,192,72930,5,12,0:0:0:0:
256,192,73170,1,8,0:0:0:0:
256,192,73410,1,0,0:0:0:0:
256,192,73530,1,0,0:0:0:0:
256,192,73650,1,0,0:0:0:0:
256,192,73890,1,8,0:0:0:0:
256,192,74250,1,8,0:0:0:0:
256,192,74610,1,0,0:0:0:0:
256,192,74850,5,8,0:0:0:0:
256,192,75090,1,0,0:0:0:0:
256,192,75330,1,8,0:0:0:0:
256,192,75450,1,8,0:0:0:0:
256,192,75570,1,8,0:0:0:0:
256,192,75810,1,8,0:0:0:0:
256,192,76050,1,0,0:0:0:0:
256,192,76290,1,8,0:0:0:0:
256,192,76770,5,8,0:0:0:0:
256,192,77010,1,0,0:0:0:0:
256,192,77130,1,8,0:0:0:0:
256,192,77370,1,0,0:0:0:0:
256,192,77490,1,8,0:0:0:0:
256,192,77730,1,8,0:0:0:0:
256,192,77970,1,8,0:0:0:0:
256,192,78210,1,0,0:0:0:0:
256,192,78450,1,8,0:0:0:0:
256,192,78690,1,8,0:0:0:0:
256,192,79170,1,0,0:0:0:0:
256,192,79290,1,0,0:0:0:0:
256,192,79410,1,8,0:0:0:0:
256,192,79650,1,8,0:0:0:0:
256,192,79890,1,8,0:0:0:0:
256,192,80130,1,0,0:0:0:0:
256,192,80370,1,0,0:0:0:0:
256,192,80610,5,12,0:0:0:0:
256,192,81090,1,8,0:0:0:0:
256,192,81330,1,8,0:0:0:0:
256,192,81570,1,8,0:0:0:0:
256,192,81810,1,0,0:0:0:0:
256,192,81930,1,8,0:0:0:0:
256,192,82170,1,8,0:0:0:0:
256,192,82530,5,12,0:0:0:0:
256,192,83010,1,0,0:0:0:0:
256,192,83250,1,8,0:0:0:0:
256,192,83490,1,8,0:0:0:0:
256,192,83730,1,0,0:0:0:0:
256,192,83850,1,0,0:0:0:0:
256,192,84090,1,8,0:0:0:0:
256,192,84450,5,12,0:0:0:0:
256,192,84930,1,8,0:0:0:0:
256,192,85170,1,8,0:0:0:0:
256,192,85410,1,0,0:0:0:0:
256,192,85650,1,8,0:0:0:0:
256,192,85770,1,0,0:0:0:0:
256,192,86010,1,8,0:0:0:0:
256,192,86370,5,12,0:0:0:0:
256,192,86610,1,0,0:0:0:0:
256,192,86730,1,8,0:0:0:0:
256,192,86970,1,0,0:0:0:0:
256,192,87090,1,8,0:0:0:0:
256,192,87330,1,8,0:0:0:0:
256,192,87570,1,0,0:0:0:0:
256,192,87690,1,0,0:0:0:0:
256,192,87810,1,8,0:0:0:0:
256,192,88050,1,0,0:0:0:0:
256,192,88290,1,12,0:0:0:0:
256,192,92130,5,4,0:0:0:0:
256,192,94050,1,8,0:0:0:0:
256,192,94410,1,8,0:0:0:0:
256,192,94770,1,0,0:0:0:0:
256,192,95130,1,8,0:0:0:0:
256,192,95490,1,0,0:0:0:0:
256,192,95730,1,0,0:0:0:0:
256,192,95970,5,12,0:0:0:0:
256,192,96450,1,8,0:0:0:0:
256,192,96690,1,8,0:0:0:0:
256,192,96930,1,8,0:0:0:0:
256,192,97410,1,8,0:0:0:0:
256,192,97650,1,0,0:0:0:0:
256,192,97890,1,8,0:0:0:0:
256,192,98130,1,8,0:0:0:0:
256,192,98370,1,8,0:0:0:0:
256,192,98850,1,8,0:0:0:0:
256,192,99090,1,0,0:0:0:0:
256,192,99330,1,8,0:0:0:0:
256,192,99570,1,8,0:0:0:0:
256,192,99810,1,0,0:0:0:0:
256,192,100290,1,8,0:0:0:0:
256,192,100530,1,0,0:0:0:0:
256,192,100770,1,8,0:0:0:0:
256,192,101010,1,0,0:0:0:0:
256,192,101250,1,8,0:0:0:0:
256,192,101490,1,8,0:0:0:0:
256,192,101730,1,0,0:0:0:0:
256,192,102090,1,0,0:0:0:0:
256,192,102450,1,8,0:0:0:0:
256,192,102690,1,8,0:0:0:0:
256,192,103170,5,12,0:0:0:0:
256,192,103650,1,12,0:0:0:0:
256,192,104130,1,0,0:0:0:0:
256,192,104370,1,8,0:0:0:0:
256,192,104610,1,8,0:0:0:0:
256,192,104850,1,0,0:0:0:0:
256,192,105090,1,8,0:0:0:0:
256,192,105330,1,0,0:0:0:0:
256,192,105570,1,8,0:0:0:0:
256,192,106050,1,0,0:0:0:0:
256,192,106290,1,8,0:0:0:0:
256,192,106530,1,8,0:0:0:0:
256,192,106770,1,8,0:0:0:0:
256,192,107010,1,0,0:0:0:0:
256,192,107250,1,8,0:0:0:0:
256,192,107490,5,8,0:0:0:0:
256,192,107850,1,8,0:0:0:0:
256,192,108210,1,0,0:0:0:0:
256,192,108450,1,8,0:0:0:0:
256,192,108810,1,8,0:0:0:0:
256,192,109170,1,0,0:0:0:0:
256,192,109410,1,8,0:0:0:0:
256,192,109770,1,0,0:0:0:0:
256,192,110130,1,8,0:0:0:0:
256,192,110370,1,0,0:0:0:0:
256,192,110850,5,4,0:0:0:0:
256,192,111330,5,12,0:0:0:0:
256,192,112050,1,0,0:0:0:0:
256,192,112290,1,8,0:0:0:0:
256,192,112650,1,8,0:0:0:0:
256,192,113010,1,8,0:0:0:0:
256,192,113250,1,8,0:0:0:0:
256,192,113970,1,0,0:0:0:0:
256,192,114210,1,8,0:0:0:0:
256,192,114570,1,0,0:0:0:0:
256,192,114930,1,8,0:0:0:0:
256,192,115170,1,8,0:0:0:0:
256,192,115890,1,8,0:0:0:0:
256,192,116130,1,8,0:0:0:0:
256,192,116850,1,8,0:0:0:0:
256,192,117090,1,0,0:0:0:0:
256,192,117450,1,8,0:0:0:0:
256,192,117810,1,8,0:0:0:0:
256,192,118050,1,8,0:0:0:0:
256,192,118530,1,0,0:0:0:0:
256,192,119010,5,4,0:0:0:0:
256,192,119370,1,0,0:0:0:0:
256,192,119730,1,0,0:0:0:0:
256,192,119970,1,8,0:0:0:0:
256,192,120210,1,8,0:0:0:0:
256,192,120450,1,8,0:0:0:0:
256,192,120690,1,0,0:0:0:0:
256,192,120930,5,8,0:0:0:0:
256,192,121290,1,8,0:0:0:0:
256,192,121650,1,0,0:0:0:0:
256,192,121890,1,8,0:0:0:0:
256,192,122130,1,0,0:0:0:0:
256,192,122370,1,8,0:0:0:0:
256,192,122610,1,8,0:0:0:0:
256,192,122850,5,4,0:0:0:0:
256,192,123330,1,0,0:0:0:0:
256,192,123570,1,0,0:0:0:0:
256,192,123810,1,12,0:0:0:0:
256,192,124170,1,8,0:0:0:0:
256,192,124530,1,8,0:0:0:0:
256,192,124770,1,4,0:0:0:0:
256,192,125250,1,8,0:0:0:0:
256,192,125490,1,0,0:0:0:0:
256,192,125730,1,12,0:0:0:0:
256,192,126090,1,0,0:0:0:0:
256,192,126450,1,0,0:0:0:0:
256,192,126690,1,12,0:0:0:0:
256,192,126930,12,0,128130,0:0:0:0:
256,192,128610,5,4,0:0:0:0:
256,192,128970,1,0,0:0:0:0:
256,192,129330,1,8,0:0:0:0:
256,192,129570,1,0,0:0:0:0:
256,192,129810,1,8,0:0:0:0:
256,192,129930,1,0,0:0:0:0:
256,192,130290,1,0,0:0:0:0:
256,192,130530,5,12,0:0:0:0:
256,192,130890,1,8,0:0:0:0:
256,192,131250,1,0,0:0:0:0:
256,192,131490,1,8,0:0:0:0:
256,192,131730,1,0,0:0:0:0:
256,192,131970,1,8,0:0:0:0:
256,192,132450,5,4,0:0:0:0:
256,192,132810,1,0,0:0:0:0:
256,192,133170,1,8,0:0:0:0:
256,192,133410,1,0,0:0:0:0:
256,192,133650,1,8,0:0:0:0:
256,192,133770,1,0,0:0:0:0:
256,192,134130,1,0,0:0:0:0:
256,192,134370,5,12,0:0:0:0:
256,192,134730,1,8,0:0:0:0:
256,192,135090,1,0,0:0:0:0:
256,192,135330,1,8,0:0:0:0:
256,192,135570,1,0,0:0:0:0:
256,192,135810,1,8,0:0:0:0:
256,192,136050,1,8,0:0:0:0:
256,192,136290,5,4,0:0:0:0:
256,192,137010,1,0,0:0:0:0:
256,192,137250,1,4,0:0:0:0:
256,192,137610,1,0,0:0:0:0:
256,192,137970,1,0,0:0:0:0:
256,192,138210,1,12,0:0:0:0:
256,192,138930,1,8,0:0:0:0:
256,192,139170,1,12,0:0:0:0:
256,192,139530,1,8,0:0:0:0:
256,192,139890,1,8,0:0:0:0:
256,192,140130,5,4,0:0:0:0:
256,192,140610,1,8,0:0:0:0:
256,192,140850,1,0,0:0:0:0:
256,192,141090,1,4,0:0:0:0:
256,192,141570,1,0,0:0:0:0:
256,192,141810,1,8,0:0:0:0:
256,192,142050,5,8,0:0:0:0:
256,192,142290,1,8,0:0:0:0:
256,192,142530,1,8,0:0:0:0:
256,192,142650,1,0,0:0:0:0:
256,192,142890,1,0,0:0:0:0:
256,192,143010,1,0,0:0:0:0:
256,192,143250,1,8,0:0:0:0:
256,192,143490,1,0,0:0:0:0:
256,192,143730,1,8,0:0:0:0:
256,192,143970,1,4,0:0:0:0:
256,192,144210,5,8,0:0:0:0:
256,192,144690,1,8,0:0:0:0:
256,192,144930,1,0,0:0:0:0:
256,192,145170,1,8,0:0:0:0:
256,192,145650,1,8,0:0:0:0:
256,192,145890,1,0,0:0:0:0:
256,192,146250,1,0,0:0:0:0:
256,192,146610,1,8,0:0:0:0:
256,192,146850,1,0,0:0:0:0:
256,192,147090,1,8,0:0:0:0:
256,192,147570,5,8,0:0:0:0:
256,192,147810,1,0,0:0:0:0:
256,192,148050,1,8,0:0:0:0:
256,192,148530,1,8,0:0:0:0:
256,192,148770,1,0,0:0:0:0:
256,192,149010,1,8,0:0:0:0:
256,192,149490,1,8,0:0:0:0:
256,192,149730,1,0,0:0:0:0:
256,192,150090,1,0,0:0:0:0:
256,192,150450,1,8,0:0:0:0:
256,192,150690,1,0,0:0:0:0:
256,192,150930,1,8,0:0:0:0:
256,192,151170,1,8,0:0:0:0:
256,192,151410,1,0,0:0:0:0:
256,192,151650,5,12,0:0:0:0:
256,192,152010,1,8,0:0:0:0:
256,192,152370,1,8,0:0:0:0:
256,192,152610,1,0,0:0:0:0:
256,192,152850,1,8,0:0:0:0:
256,192,153090,1,0,0:0:0:0:
256,192,153330,1,8,0:0:0:0:
256,192,153570,1,8,0:0:0:0:
256,192,154050,1,8,0:0:0:0:
256,192,154530,1,8,0:0:0:0:
256,192,154770,1,0,0:0:0:0:
256,192,155010,1,8,0:0:0:0:
256,192,155490,5,12,0:0:0:0:
256,192,155730,1,8,0:0:0:0:
256,192,155970,1,0,0:0:0:0:
256,192,156210,1,8,0:0:0:0:
256,192,156330,1,8,0:0:0:0:
256,192,156450,1,8,0:0:0:0:
256,192,156810,1,8,0:0:0:0:
256,192,157050,1,0,0:0:0:0:
256,192,157170,1,8,0:0:0:0:
256,192,157410,1,0,0:0:0:0:
256,192,157650,1,8,0:0:0:0:
256,192,157890,1,0,0:0:0:0:
256,192,158010,1,8,0:0:0:0:
256,192,158250,1,8,0:0:0:0:
256,192,158490,1,8,0:0:0:0:
256,192,158730,1,0,0:0:0:0:
256,192,158850,1,0,0:0:0:0:
256,192,159090,1,8,0:0:0:0:
256,192,159330,5,12,0:0:0:0:
256,192,159810,1,0,0:0:0:0:
256,192,160050,1,0,0:0:0:0:
256,192,160290,1,8,0:0:0:0:
256,192,160530,1,0,0:0:0:0:
256,192,160650,1,8,0:0:0:0:
256,192,161010,1,8,0:0:0:0:
256,192,161250,1,8,0:0:0:0:
256,192,161730,1,8,0:0:0:0:
256,192,161970,1,8,0:0:0:0:
256,192,162210,1,8,0:0:0:0:
256,192,162450,1,0,0:0:0:0:
256,192,162570,1,8,0:0:0:0:
256,192,162930,1,0,0:0:0:0:
256,192,163170,1,8,0:0:0:0:
256,192,163530,1,8,0:0:0:0:
256,192,163770,1,0,0:0:0:0:
256,192,163890,1,8,0:0:0:0:
256,192,164130,1,8,0:0:0:0:
256,192,164370,1,8,0:0:0:0:
256,192,164610,1,0,0:0:0:0:
256,192,164850,1,8,0:0:0:0:
256,192,165090,1,8,0:0:0:0:
256,192,165570,5,0,0:0:0:0:
256,192,165810,1,8,0:0:0:0:
256,192,166050,1,8,0:0:0:0:
256,192,166170,1,8,0:0:0:0:
256,192,166290,1,0,0:0:0:0:
256,192,166770,1,0,0:0:0:0:
256,192,167010,5,12,0:0:0:0:
256,192,167250,1,8,0:0:0:0:
256,192,167490,1,8,0:0:0:0:
256,192,167610,1,0,0:0:0:0:
256,192,167730,1,8,0:0:0:0:
256,192,167970,1,8,0:0:0:0:
256,192,168450,1,8,0:0:0:0:
256,192,168690,1,0,0:0:0:0:
256,192,168930,5,8,0:0:0:0:
256,192,169170,1,0,0:0:0:0:
256,192,169410,1,8,0:0:0:0:
256,192,169530,1,8,0:0:0:0:
256,192,169650,1,8,0:0:0:0:
256,192,169890,1,8,0:0:0:0:
256,192,170370,1,8,0:0:0:0:
256,192,170610,1,0,0:0:0:0:
256,192,170850,5,8,0:0:0:0:
256,192,171090,1,8,0:0:0:0:
256,192,171330,1,8,0:0:0:0:
256,192,171450,1,0,0:0:0:0:
256,192,171570,1,8,0:0:0:0:
256,192,171810,1,8,0:0:0:0:
256,192,172290,1,0,0:0:0:0:
256,192,172530,1,0,0:0:0:0:
256,192,172770,5,12,0:0:0:0:
256,192,173010,1,0,0:0:0:0:
256,192,173130,1,8,0:0:0:0:
256,192,173370,1,0,0:0:0:0:
256,192,173490,1,8,0:0:0:0:
256,192,173730,1,8,0:0:0:0:
256,192,173970,1,0,0:0:0:0:
256,192,174090,1,0,0:0:0:0:
256,192,174210,1,8,0:0:0:0:
256,192,174450,1,0,0:0:0:0:
256,192,174690,5,12,0:0:0:0:
256,192,175050,1,8,0:0:0:0:
256,192,175410,1,8,0:0:0:0:
256,192,175890,1,8,0:0:0:0:
256,192,176130,1,0,0:0:0:0:
256,192,176370,1,0,0:0:0:0:
256,192,176610,5,8,0:0:0:0:
256,192,176970,1,8,0:0:0:0:
256,192,177330,1,0,0:0:0:0:
256,192,177570,1,8,0:0:0:0:
256,192,177930,1,8,0:0:0:0:
256,192,178530,5,0,0:0:0:0:
256,192,178890,1,8,0:0:0:0:
256,192,179250,1,8,0:0:0:0:
256,192,179490,1,0,0:0:0:0:
256,192,179730,1,0,0:0:0:0:
256,192,179970,1,8,0:0:0:0:
256,192,180450,1,0,0:0:0:0:
256,192,180690,1,0,0:0:0:0:
256,192,180930,1,0,0:0:0:0:
256,192,181410,1,8,0:0:0:0:
256,192,181650,1,0,0:0:0:0:
256,192,181890,1,8,0:0:0:0:
256,192,182130,1,8,0:0:0:0:
256,192,182370,5,4,0:0:0:0:
256,192,182610,1,8,0:0:0:0:
256,192,183090,1,8,0:0:0:0:
256,192,183570,1,8,0:0:0:0:
256,192,184050,1,8,0:0:0:0:
256,192,184530,1,8,0:0:0:0:
256,192,185010,1,8,0:0:0:0:
256,192,185490,1,8,0:0:0:0:
256,192,185970,5,8,0:0:0:0:
256,192,186210,1,0,0:0:0:0:
256,192,186450,1,8,0:0:0:0:
256,192,186930,5,8,0:0:0:0:
256,192,187410,1,8,0:0:0:0:
256,192,187890,1,8,0:0:0:0:
256,192,188370,1,8,0:0:0:0:
256,192,188490,1,0,0:0:0:0:
256,192,188850,5,8,0:0:0:0:
256,192,188970,1,8,0:0:0:0:
256,192,189210,1,8,0:0:0:0:
256,192,189450,1,0,0:0:0:0:
256,192,189570,1,8,0:0:0:0:
256,192,189810,1,0,0:0:0:0:
256,192,190050,5,4,0:0:0:0:
256,192,190410,1,0,0:0:0:0:
256,192,190770,1,0,0:0:0:0:
256,192,191010,1,4,0:0:0:0:
256,192,191490,1,0,0:0:0:0:
256,192,191730,1,0,0:0:0:0:
256,192,191970,5,12,0:0:0:0:
256,192,192330,1,0,0:0:0:0:
256,192,192690,1,0,0:0:0:0:
256,192,192930,5,12,0:0:0:0:
256,192,193290,1,12,0:0:0:0:
256,192,193650,1,12,0:0:0:0:
256,192,193890,1,4,0:0:0:0:
256,192,194370,5,0,0:0:0:0:
256,192,194610,1,0,0:0:0:0:
256,192,194850,1,4,0:0:0:0:
256,192,195210,1,0,0:0:0:0:
256,192,195570,1,0,0:0:0:0:
256,192,195810,1,12,0:0:0:0:
256,192,196170,1,0,0:0:0:0:
256,192,196530,1,0,0:0:0:0:
256,192,196770,5,12,0:0:0:0:
256,192,197010,1,0,0:0:0:0:
256,192,197250,1,0,0:0:0:0:
256,192,197490,1,0,0:0:0:0:
256,192,197730,5,12,0:0:0:0:
256,192,198210,1,0,0:0:0:0:
256,192,198450,1,0,0:0:0:0:
256,192,198690,1,12,0:0:0:0:
256,192,199050,1,0,0:0:0:0:
256,192,199410,1,0,0:0:0:0:
256,192,199650,1,12,0:0:0:0:
256,192,200130,1,0,0:0:0:0:
256,192,200370,1,0,0:0:0:0:
256,192,200610,1,12,0:0:0:0:
256,192,200970,1,12,0:0:0:0:
256,192,201330,1,12,0:0:0:0:
256,192,201570,1,12,0:0:0:0:
256,192,202050,5,0,0:0:0:0:
256,192,202290,1,0,0:0:0:0:
256,192,202530,1,12,0:0:0:0:
256,192,202890,1,0,0:0:0:0:
256,192,203250,1,0,0:0:0:0:
256,192,203490,1,12,0:0:0:0:
256,192,203970,1,0,0:0:0:0:
256,192,204210,1,0,0:0:0:0:
256,192,204450,1,12,0:0:0:0:
256,192,204690,1,0,0:0:0:0:
256,192,204930,1,0,0:0:0:0:
256,192,205170,1,0,0:0:0:0:
256,192,205410,1,8,0:0:0:0:
256,192,212610,5,0,0:0:0:0:
256,192,213090,1,8,0:0:0:0:
256,192,213570,1,0,0:0:0:0:
256,192,214050,5,12,0:0:0:0:
256,192,215970,5,12,0:0:0:0:
256,192,216930,5,4,0:0:0:0:
256,192,217290,1,12,0:0:0:0:
256,192,217650,1,12,0:0:0:0:
256,192,217890,5,4,0:0:0:0:
256,192,218370,1,0,0:0:0:0:
256,192,218610,1,0,0:0:0:0:
256,192,218850,1,8,0:0:0:0:
256,192,219330,1,0,0:0:0:0:
256,192,219570,1,0,0:0:0:0:
256,192,219810,1,8,0:0:0:0:
256,192,219930,1,8,0:0:0:0:
256,192,220170,1,0,0:0:0:0:
256,192,220410,1,8,0:0:0:0:
256,192,220650,1,0,0:0:0:0:
256,192,220770,1,0,0:0:0:0:
256,192,220890,1,8,0:0:0:0:
256,192,221130,1,0,0:0:0:0:
256,192,221370,1,8,0:0:0:0:
256,192,221490,1,8,0:0:0:0:
256,192,221730,5,12,0:0:0:0:
256,192,222450,1,12,0:0:0:0:
256,192,222690,1,12,0:0:0:0:
256,192,223410,1,12,0:0:0:0:
256,192,223650,1,12,0:0:0:0:
256,192,224010,1,12,0:0:0:0:
256,192,224370,1,12,0:0:0:0:
256,192,224610,1,12,0:0:0:0:
256,192,225570,5,4,0:0:0:0:
256,192,225810,1,8,0:0:0:0:
256,192,226050,1,8,0:0:0:0:
256,192,226290,1,0,0:0:0:0:
256,192,226410,1,0,0:0:0:0:
256,192,226530,1,8,0:0:0:0:
256,192,226890,1,0,0:0:0:0:
256,192,227250,1,8,0:0:0:0:
256,192,227490,1,12,0:0:0:0:
256,192,227970,5,0,0:0:0:0:
256,192,228450,1,8,0:0:0:0:
256,192,228930,1,0,0:0:0:0:
256,192,229410,5,12,0:0:0:0:
256,192,229650,1,8,0:0:0:0:
256,192,229890,1,0,0:0:0:0:
256,192,230010,1,0,0:0:0:0:
256,192,230130,1,0,0:0:0:0:
256,192,230370,1,8,0:0:0:0:
256,192,230610,1,0,0:0:0:0:
256,192,230730,1,8,0:0:0:0:
256,192,231090,1,8,0:0:0:0:
256,192,231330,5,8,0:0:0:0:
256,192,231570,1,0,0:0:0:0:
256,192,231810,1,8,0:0:0:0:
256,192,231930,1,8,0:0:0:0:
256,192,232050,1,8,0:0:0:0:
256,192,232290,1,8,0:0:0:0:
256,192,232530,1,0,0:0:0:0:
256,192,232650,1,0,0:0:0:0:
256,192,232770,1,8,0:0:0:0:
256,192,233250,5,8,0:0:0:0:
256,192,233490,1,0,0:0:0:0:
256,192,233610,1,8,0:0:0:0:
256,192,233850,1,0,0:0:0:0:
256,192,233970,1,8,0:0:0:0:
256,192,234210,1,8,0:0:0:0:
256,192,234450,1,8,0:0:0:0:
256,192,234570,1,8,0:0:0:0:
256,192,234690,1,0,0:0:0:0:
256,192,234930,1,8,0:0:0:0:
256,192,235170,1,8,0:0:0:0:
256,192,235650,1,0,0:0:0:0:
256,192,235770,1,0,0:0:0:0:
256,192,235890,1,8,0:0:0:0:
256,192,236130,1,8,0:0:0:0:
256,192,236370,1,8,0:0:0:0:
256,192,236490,1,0,0:0:0:0:
256,192,236730,1,0,0:0:0:0:
256,192,236850,1,0,0:0:0:0:
256,192,237090,5,12,0:0:0:0:
256,192,237570,1,8,0:0:0:0:
256,192,237810,1,8,0:0:0:0:
256,192,238050,1,8,0:0:0:0:
256,192,238290,1,0,0:0:0:0:
256,192,238410,1,8,0:0:0:0:
256,192,238530,1,8,0:0:0:0:
256,192,238770,1,8,0:0:0:0:
256,192,239010,5,12,0:0:0:0:
256,192,239490,1,0,0:0:0:0:
256,192,239730,1,8,0:0:0:0:
256,192,239970,1,8,0:0:0:0:
256,192,240210,1,8,0:0:0:0:
256,192,240330,1,0,0:0:0:0:
256,192,240450,1,8,0:0:0:0:
256,192,240690,1,0,0:0:0:0:
256,192,240930,5,12,0:0:0:0:
256,192,241410,1,8,0:0:0:0:
256,192,241650,1,8,0:0:0:0:
256,192,241890,1,0,0:0:0:0:
256,192,242130,1,8,0:0:0:0:
256,192,242250,1,0,0:0:0:0:
256,192,242370,1,0,0:0:0:0:
256,192,242610,1,0,0:0:0:0:
256,192,242850,5,12,0:0:0:0:
256,192,243090,1,0,0:0:0:0:
256,192,243210,1,8,0:0:0:0:
256,192,243450,1,0,0:0:0:0:
256,192,243570,1,8,0:0:0:0:
256,192,243810,1,8,0:0:0:0:
256,192,244050,1,0,0:0:0:0:
256,192,244170,1,8,0:0:0:0:
256,192,244290,1,8,0:0:0:0:
256,192,244530,1,0,0:0:0:0:
256,192,244770,5,12,0:0:0:0:
256,192,245130,1,8,0:0:0:0:
256,192,245490,1,8,0:0:0:0:
256,192,245730,1,0,0:0:0:0:
256,192,245970,1,8,0:0:0:0:
256,192,246450,5,8,0:0:0:0:
256,192,246690,1,0,0:0:0:0:
256,192,247050,1,0,0:0:0:0:
256,192,247290,1,0,0:0:0:0:
256,192,247410,1,8,0:0:0:0:
256,192,247650,1,0,0:0:0:0:
256,192,247890,1,8,0:0:0:0:
256,192,248130,1,8,0:0:0:0:
256,192,248370,1,0,0:0:0:0:
256,192,248610,1,8,0:0:0:0:
256,192,248970,1,0,0:0:0:0:
256,192,249330,1,8,0:0:0:0:
256,192,249570,1,0,0:0:0:0:
256,192,249810,1,8,0:0:0:0:
256,192,250290,1,8,0:0:0:0:
256,192,250530,1,8,0:0:0:0:
256,192,250770,1,0,0:0:0:0:
256,192,250890,1,0,0:0:0:0:
256,192,251130,1,0,0:0:0:0:
256,192,251250,1,8,0:0:0:0:
256,192,251490,1,0,0:0:0:0:
256,192,251730,1,8,0:0:0:0:
256,192,251970,1,0,0:0:0:0:
256,192,252210,1,8,0:0:0:0:
256,192,252450,5,12,0:0:0:0:
256,192,252930,1,0,0:0:0:0:
256,192,253170,1,8,0:0:0:0:
256,192,253410,1,8,0:0:0:0:
256,192,253770,1,0,0:0:0:0:
256,192,254130,1,8,0:0:0:0:
256,192,254370,1,8,0:0:0:0:
256,192,254610,1,8,0:0:0:0:
256,192,254850,1,0,0:0:0:0:
256,192,255090,1,0,0:0:0:0:
256,192,255330,1,8,0:0:0:0:
256,192,255690,1,0,0:0:0:0:
256,192,256050,1,0,0:0:0:0:
256,192,256290,1,8,0:0:0:0:
256,192,256770,1,8,0:0:0:0:
256,192,257010,1,0,0:0:0:0:
256,192,257250,1,8,0:0:0:0:
256,192,257610,1,8,0:0:0:0:
256,192,257850,1,0,0:0:0:0:
256,192,257970,1,8,0:0:0:0:
256,192,258210,1,8,0:0:0:0:
256,192,258690,1,0,0:0:0:0:
256,192,258930,1,8,0:0:0:0:
256,192,259170,1,8,0:0:0:0:
256,192,259410,1,0,0:0:0:0:
256,192,259650,1,8,0:0:0:0:
256,192,259890,1,0,0:0:0:0:
256,192,260130,5,12,0:0:0:0:
256,192,260610,1,8,0:0:0:0:
256,192,260850,1,0,0:0:0:0:
256,192,261090,1,12,0:0:0:0:
256,192,261570,1,8,0:0:0:0:
256,192,261810,1,8,0:0:0:0:
256,192,262050,5,8,0:0:0:0:
256,192,262170,1,0,0:0:0:0:
256,192,262410,1,8,0:0:0:0:
256,192,262650,1,0,0:0:0:0:
256,192,262770,1,8,0:0:0:0:
256,192,263010,1,0,0:0:0:0:
256,192,263250,1,0,0:0:0:0:
256,192,263370,1,8,0:0:0:0:
256,192,263610,1,0,0:0:0:0:
256,192,263730,1,8,0:0:0:0:
256,192,263850,1,8,0:0:0:0:
