osu file format v14

[General]
AudioFilename: audio.mp3
AudioLeadIn: 0
PreviewTime: 15581
Countdown: 0
SampleSet: Drum
StackLeniency: 0.7
Mode: 0
LetterboxInBreaks: 0
WidescreenStoryboard: 0

[Editor]
Bookmarks: 12701
DistanceSpacing: 1.4
BeatDivisor: 4
GridSize: 8
TimelineZoom: 2.8

[Metadata]
Title:Shinbatsu o Tadori Kyoukotsu ni Itaru (Cut Ver.)
TitleUnicode:神罰を辿り狂骨に至る (Cut Ver.)
Artist:Imperial Circus Dead Decadence
ArtistUnicode:Imperial Circus Dead Decadence
Creator:Maruzai
Version:Shitai
Source:
Tags:deathstream symphonic metal black akebana yukio yshadowxop_ alextrollpsy
BeatmapID:1716831
BeatmapSetID:818829

[Difficulty]
HPDrainRate:6
CircleSize:4.4
OverallDifficulty:9
ApproachRate:9.8
SliderMultiplier:1.8
SliderTickRate:1

[Events]
//Background and Video events
0,0,"156241-dragon-artwork-death-fantasy_art.jpg",0,0
//Break Periods
//Storyboard Layer 0 (Background)
//Storyboard Layer 1 (Fail)
//Storyboard Layer 2 (Pass)
//Storyboard Layer 3 (Foreground)
//Storyboard Layer 4 (Overlay)
//Storyboard Sound Samples

[TimingPoints]
221,240,4,3,1,30,1,0
221,-303.030303030303,4,3,1,30,0,0
581,-303.030303030303,4,3,1,5,0,0
701,-149.253731343284,4,3,1,30,0,0
1061,-149.253731343284,4,3,1,5,0,0
1181,-100,4,3,1,30,0,0
1541,-100,4,3,1,5,0,0
1661,240,4,3,1,75,1,0
1661,-83.3333333333333,4,3,1,75,0,0
3761,-83.3333333333333,4,3,1,5,0,0
3821,-83.3333333333333,4,3,1,75,0,0
5681,-83.3333333333333,4,3,1,5,0,0
5741,-83.3333333333333,4,3,1,75,0,0
15521,-83.3333333333333,4,3,1,5,0,0
15581,-200,4,3,1,30,0,0
15941,-200,4,3,1,5,0,0
16061,-200,4,3,1,40,0,0
16421,-200,4,3,1,5,0,0
16541,-200,4,3,1,50,0,0
16901,-200,4,3,1,5,0,0
17021,-76.9230769230769,4,3,1,80,0,1
23861,-83.3333333333333,4,3,1,80,0,1
29441,-83.3333333333333,4,3,1,80,0,1
29501,-83.3333333333333,4,3,1,80,0,1
32381,-76.9230769230769,4,3,1,80,0,0
36101,-76.9230769230769,4,3,1,5,0,0

[Colours]
Combo1 : 39,90,47
Combo2 : 74,1,105
Combo3 : 97,97,97

[HitObjects]
11,111,221,6,0,P|50:86|100:81,1,89.0999997280884,2|0,2:0|2:0,2:0:0:0:
167,143,701,2,0,B|220:163|261:143|261:143|303:122|358:143,1,180.899991443024,2|0,2:0|2:0,2:0:0:0:
432,172,1181,2,0,P|523:126|415:86,1,270,2|2,2:0|2:0,2:0:0:0:
331,215,1661,6,0,B|366:255|366:255|414:280,1,107.999996704102,4|0,0:0|0:0,0:0:0:0:
432,172,1901,1,8,0:0:0:0:
310,332,2021,2,0,B|267:349|220:318|220:318|212:243|121:234,1,215.999993408203
0,81,2381,6,0,P|49:127|58:179,1,107.999996704102,8|0,0:0|0:0,0:0:0:0:
181,107,2621,2,0,P|131:127|79:116,1,107.999996704102
67,251,2861,2,0,P|75:198|110:158,1,107.999996704102,8|0,0:0|0:0,0:0:0:0:
352,284,3101,5,0,0:0:0:0:
271,68,3221,1,0,0:0:0:0:
228,369,3341,5,8,0:0:0:0:
309,153,3461,1,0,0:0:0:0:
368,368,3581,6,0,B|322:381|281:337|281:337|243:341|228:371,1,161.999995056153
234,260,3821,2,0,B|181:267|146:322|146:322|87:302|37:321,1,215.999993408203,8|0,0:0|0:0,0:0:0:0:
29,332,4181,1,0,0:0:0:0:
194,169,4301,6,0,B|253:172|253:172|326:209,1,107.999996704102,8|0,0:0|0:0,0:0:0:0:
401,264,4541,2,0,B|374:211|374:211|371:162,1,107.999996704102
381,37,4781,2,0,B|348:86|348:86|307:112,1,107.999996704102,8|0,0:0|0:0,0:0:0:0:
98,176,5021,1,0,0:0:0:0:
305,247,5141,1,0,0:0:0:0:
179,68,5261,1,8,0:0:0:0:
176,287,5381,1,0,0:0:0:0:
197,58,5501,6,0,B|240:32|276:43|276:43|307:78|357:77,1,161.999995056153
484,189,5741,2,0,B|450:254|393:268|393:268|354:234|287:234,1,215.999993408203,8|0,0:0|0:0,0:0:0:0:
176,287,6101,1,0,0:0:0:0:
345,76,6221,6,0,B|384:117|384:117|396:178,1,107.999996704102,8|0,0:0|0:0,0:0:0:0:
444,328,6461,2,0,B|388:341|388:341|330:321,1,107.999996704102
176,287,6701,2,0,B|192:232|192:232|238:191,1,107.999996704102,8|0,0:0|0:0,0:0:0:0:
337,182,6941,6,0,P|390:178|450:106,1,107.999996704102
174,350,7181,2,0,P|120:353|77:384,1,107.999996704102,8|0,0:0|0:0,0:0:0:0:
487,233,7421,2,0,B|474:178|474:178|429:143,1,107.999996704102
120,263,7661,2,0,B|133:318|133:318|178:353,1,107.999996704102,8|0,0:0|0:0,0:0:0:0:
478,43,7901,2,0,B|424:32|424:32|361:55,1,107.999996704102
16,270,8141,2,0,B|70:281|70:281|133:258,1,107.999996704102,8|0,0:0|0:0,0:0:0:0:
285,15,8381,6,0,B|231:4|231:4|168:27,1,107.999996704102,0|8,0:0|0:0,0:0:0:0:
49,110,8621,1,8,0:0:0:0:
16,270,8741,1,0,0:0:0:0:
245,189,8861,1,0,0:0:0:0:
275,349,8981,1,0,0:0:0:0:
328,136,9101,2,0,B|287:101|287:101|210:93,1,107.999996704102,8|0,0:0|0:0,0:0:0:0:
144,308,9341,5,4,0:0:0:0:
225,18,9461,1,8,0:0:0:0:
0,196,9581,5,0,0:0:0:0:
290,276,9701,1,8,0:0:0:0:
115,9,9821,5,0,0:0:0:0:
34,297,9941,1,8,0:0:0:0:
451,197,10061,5,0,0:0:0:0:
163,116,10181,1,8,0:0:0:0:
232,364,10301,6,0,B|267:332|267:332|294:264,1,107.999996704102,0|8,0:0|0:0,0:0:0:0:
364,0,10541,5,0,0:0:0:0:
484,229,10661,1,8,0:0:0:0:
463,71,10781,5,0,0:0:0:0:
339,302,10901,1,8,0:0:0:0:
366,139,11021,5,0,0:0:0:0:
484,376,11141,1,8,0:0:0:0:
232,364,11261,6,0,B|180:370|180:370|110:356,1,107.999996704102,0|8,0:0|0:0,0:0:0:0:
28,125,11501,2,0,B|80:119|80:119|150:133,1,107.999996704102,0|8,0:0|0:0,0:0:0:0:
372,192,11741,6,0,L|358:310,1,107.999996704102,0|8,0:0|0:0,0:0:0:0:
8,274,11981,2,0,L|22:156,1,107.999996704102,0|8,0:0|0:0,0:0:0:0:
272,32,12221,5,4,0:0:0:0:
245,330,12341,1,8,0:0:0:0:
74,86,12461,5,0,0:0:0:0:
373,112,12581,1,8,0:0:0:0:
115,321,12701,5,4,0:1:0:0:
141,23,12821,1,8,0:0:0:0:
487,272,12941,5,4,0:0:0:0:
189,245,13061,1,8,0:0:0:0:
374,21,13181,5,4,0:1:0:0:
355,361,13301,1,8,0:0:0:0:
157,134,13421,5,0,0:0:0:0:
490,170,13541,1,8,0:0:0:0:
286,266,13661,5,4,0:1:0:0:
280,278,13721,1,0,0:0:0:0:
275,289,13781,1,0,0:0:0:0:
269,302,13841,1,8,0:0:0:0:
263,315,13901,5,8,0:0:0:0:
222,308,13961,1,8,0:0:0:0:
182,302,14021,1,8,0:0:0:0:
142,296,14081,1,8,0:0:0:0:
102,290,14141,6,0,L|22:277,1,53.9999983520508,2|0,0:2|0:0,0:0:0:0:
181,177,14261,2,0,L|261:190,1,53.9999983520508
96,303,14381,6,0,L|-7:285,1,53.9999983520508
187,164,14501,2,0,L|290:181,1,53.9999983520508
21,154,14621,1,2,0:2:0:0:
21,154,14681,1,0,0:0:0:0:
21,154,14741,2,0,B|20:126|6:100|6:100|20:126|60:137,1,107.999996704102
168,258,14981,1,0,0:0:0:0:
287,84,15101,6,0,B|320:56|327:9|327:9|370:48|386:122,1,215.999993408203,12|0,0:0|0:0,0:0:0:0:
505,240,15581,6,0,B|470:223|466:190|466:190|419:172|419:172|410:127|367:112,2,180,2|2|2,2:0|2:0|2:0,2:0:0:0:
252,337,17021,5,12,0:1:0:0:
218,337,17081,1,0,0:0:0:0:
184,333,17141,1,8,0:0:0:0:
150,322,17201,1,0,0:0:0:0:
120,306,17261,1,8,0:0:0:0:
94,285,17321,1,0,0:0:0:0:
71,259,17381,1,8,0:0:0:0:
55,229,17441,1,0,0:0:0:0:
42,197,17501,6,0,P|36:160|38:136,7,58.4999973220826,8|0|8|0|8|0|8|0,0:0|0:0|0:0|0:0|0:0|0:0|0:0|0:0,0:0:0:0:
174,154,17981,5,8,0:0:0:0:
210,131,18041,1,0,0:0:0:0:
230,95,18101,1,8,0:0:0:0:
230,53,18161,1,0,0:0:0:0:
211,17,18221,1,8,0:0:0:0:
174,0,18281,1,0,0:0:0:0:
140,0,18341,1,8,0:0:0:0:
96,15,18401,1,0,0:0:0:0:
73,50,18461,5,8,0:0:0:0:
106,76,18521,1,0,0:0:0:0:
143,91,18581,1,8,0:0:0:0:
184,95,18641,1,0,0:0:0:0:
224,88,18701,1,8,0:0:0:0:
261,71,18761,1,0,0:0:0:0:
298,52,18821,1,8,0:0:0:0:
337,47,18881,1,0,0:0:0:0:
378,50,18941,5,8,0:0:0:0:
433,66,19001,1,0,0:0:0:0:
471,109,19061,1,8,0:0:0:0:
481,166,19121,1,0,0:0:0:0:
458,219,19181,1,8,0:0:0:0:
411,252,19241,1,0,0:0:0:0:
353,255,19301,1,8,0:0:0:0:
303,226,19361,1,0,0:0:0:0:
276,175,19421,6,0,L|353:153,3,58.4999973220826,8|0|8|0,0:0|0:0|0:0|0:0,0:0:0:0:
189,259,19661,2,0,L|112:236,3,58.4999973220826,8|0|8|0,0:0|0:0|0:0|0:0,0:0:0:0:
63,324,19901,5,8,0:0:0:0:
35,290,19961,1,0,0:0:0:0:
23,248,20021,1,8,0:0:0:0:
28,204,20081,1,0,0:0:0:0:
49,166,20141,1,8,0:0:0:0:
70,127,20201,1,0,0:0:0:0:
75,84,20261,1,8,0:0:0:0:
62,42,20321,1,0,0:0:0:0:
35,8,20381,5,8,0:0:0:0:
64,11,20441,1,0,0:0:0:0:
93,14,20501,1,8,0:0:0:0:
122,17,20561,1,0,0:0:0:0:
146,41,20621,5,8,0:0:0:0:
175,37,20681,1,0,0:0:0:0:
204,34,20741,1,8,0:0:0:0:
233,31,20801,1,0,0:0:0:0:
257,8,20861,6,0,B|265:38|265:38|261:70,5,58.4999973220826,12|0|8|0|8|0,0:0|0:0|0:0|0:0|0:0|0:0,0:0:0:0:
175,181,21221,2,0,B|172:151|172:151|180:123,5,58.4999973220826,8|0|8|0|8|0,0:0|0:0|0:0|0:0|0:0|0:0,0:0:0:0:
387,85,21581,6,0,L|315:94,3,58.4999973220826,8|0|8|0,0:0|0:0|0:0|0:0,0:0:0:0:
259,291,21821,2,0,L|287:224,3,58.4999973220826,8|0|8|0,0:0|0:0|0:0|0:0,0:0:0:0:
144,77,22061,2,0,L|187:134,3,58.4999973220826,8|0|8|0,0:0|0:0|0:0|0:0,0:0:0:0:
282,238,22301,6,0,L|344:243,1,58.4999973220826,8|0,0:0|0:0,0:0:0:0:
132,311,22421,2,0,L|70:316,1,58.4999973220826,8|0,0:0|0:0,0:0:0:0:
281,225,22541,6,0,L|343:230,1,58.4999973220826,8|0,0:0|0:0,0:0:0:0:
131,298,22661,2,0,L|69:303,1,58.4999973220826,8|0,0:0|0:0,0:0:0:0:
398,300,22781,5,8,0:0:0:0:
423,248,22841,1,0,0:0:0:0:
413,192,22901,1,8,0:0:0:0:
370,154,22961,1,0,0:0:0:0:
313,150,23021,1,8,0:0:0:0:
256,146,23081,1,0,0:0:0:0:
213,108,23141,1,8,0:0:0:0:
203,52,23201,1,0,0:0:0:0:
229,1,23261,5,8,0:0:0:0:
266,44,23321,1,0,0:0:0:0:
274,101,23381,1,8,0:0:0:0:
249,154,23441,1,0,0:0:0:0:
200,184,23501,1,8,0:0:0:0:
151,214,23561,1,0,0:0:0:0:
126,267,23621,1,8,0:0:0:0:
134,324,23681,1,0,0:0:0:0:
172,368,23741,6,0,L|246:378,1,58.4999973220826,8|0,0:0|0:0,0:0:0:0:
303,72,23861,1,8,0:0:0:0:
303,72,23921,1,0,0:0:0:0:
303,72,23981,1,8,0:0:0:0:
303,72,24041,1,0,0:0:0:0:
303,72,24101,1,8,0:0:0:0:
303,72,24161,1,0,0:0:0:0:
303,72,24221,2,0,B|244:117|276:191|276:191|326:209|397:155,1,215.999993408203,8|8,0:0|0:0,0:0:0:0:
424,81,24581,1,0,0:0:0:0:
277,276,24701,6,0,B|221:261|221:261|177:210,1,107.999996704102,4|8,0:1|0:0,0:0:0:0:
0,193,24941,2,0,B|55:207|55:207|99:258,1,107.999996704102,0|8,0:0|0:0,0:0:0:0:
106,352,25181,5,0,0:0:0:0:
383,328,25301,1,8,0:0:0:0:
96,355,25421,5,0,0:0:0:0:
392,324,25541,1,8,0:0:0:0:
263,148,25661,2,0,B|234:123|232:78|232:78|191:59|150:74,1,161.999995056153,4|0,0:0|0:0,0:0:0:0:
130,90,25901,1,0,0:0:0:0:
332,76,26021,1,0,0:0:0:0:
33,109,26141,2,0,B|19:157|69:238|69:238|37:197|-33:165,1,215.999993408203
0,184,26501,1,8,0:0:0:0:
38,324,26621,6,0,P|100:328|148:281,1,107.999996704102,0|8,0:0|0:0,0:0:0:0:
164,196,26861,2,0,P|205:149|272:148,1,107.999996704102,0|8,0:0|0:0,0:0:0:0:
451,187,27101,5,0,0:0:0:0:
254,0,27221,1,8,0:0:0:0:
424,187,27341,5,0,0:0:0:0:
227,0,27461,1,8,0:0:0:0:
399,268,27581,6,0,B|454:306|495:313|495:313|454:354|383:349,1,215.999993408203,4|0,0:0|0:0,0:0:0:0:
276,244,27901,2,0,P|311:219|360:213,1,71.9999978027344
198,336,28061,6,0,B|167:294|109:294|109:294|100:216|200:190,1,215.999993408203
178,197,28421,1,8,0:0:0:0:
123,384,28541,5,4,0:1:0:0:
69,164,28661,1,8,0:0:0:0:
265,279,28781,1,0,0:0:0:0:
319,59,28901,1,8,0:0:0:0:
98,108,29021,1,0,0:0:0:0:
318,162,29141,1,8,0:0:0:0:
198,336,29261,2,0,B|166:292|107:294|107:294|85:249|117:198,1,161.999995056153
49,34,29501,6,0,B|24:69|41:107|41:107|118:72|183:126,1,215.999993408203,4|0,0:0|0:0,0:0:0:0:
171,133,29861,1,8,0:0:0:0:
336,154,29981,2,0,B|292:117|292:117|210:92,1,107.999996704102,0|8,0:0|0:0,0:0:0:0:
388,54,30221,2,0,B|442:34|442:34|504:-24,1,107.999996704102,0|8,0:0|0:0,0:0:0:0:
448,149,30461,1,0,0:0:0:0:
448,149,30521,1,0,0:0:0:0:
448,149,30581,2,0,B|437:205|437:205|457:289,1,107.999996704102,8|0,0:0|0:0,0:0:0:0:
512,372,30821,1,12,0:1:0:0:
368,333,30941,5,0,0:0:0:0:
333,323,31001,1,0,0:0:0:0:
297,323,31061,1,0,0:0:0:0:
263,334,31121,1,0,0:0:0:0:
233,355,31181,1,0,0:0:0:0:
206,374,31241,1,0,0:0:0:0:
176,383,31301,1,0,0:0:0:0:
143,383,31361,1,0,0:0:0:0:
113,374,31421,6,0,L|121:307,1,53.9999983520508
139,134,31541,1,0,0:0:0:0:
259,251,31661,2,0,B|310:241|310:241|351:203,1,107.999996704102
490,72,31901,5,8,0:0:0:0:
208,132,32021,1,0,0:0:0:0:
472,249,32141,1,8,0:0:0:0:
328,0,32261,1,0,0:0:0:0:
313,334,32381,1,12,0:1:0:0:
256,192,32441,12,2,36101,2:0:0:0:
