osu file format v14

[General]
AudioFilename: shinbatsu blablabla.mp3
AudioLeadIn: 0
PreviewTime: 71378
Countdown: 1
SampleSet: Normal
StackLeniency: 0.7
Mode: 1
LetterboxInBreaks: 0
WidescreenStoryboard: 1

[Editor]
DistanceSpacing: 0.85
BeatDivisor: 4
GridSize: 8
TimelineZoom: 1

[Metadata]
Title:Shinbatsu o Tadori KyouKotsu ni Itaru
TitleUnicode:神罰を辿り狂骨に至る
Artist:Imperial Circus Dead Decadence
ArtistUnicode:Imperial Circus Dead Decadence
Creator:Shirai-
Version:Shinkatsu
Source:
Tags:
BeatmapID:2115765
BeatmapSetID:635930

[Difficulty]
HPDrainRate:4
CircleSize:5
OverallDifficulty:6
ApproachRate:5
SliderMultiplier:1.4
SliderTickRate:1

[Events]
//Background and Video events
0,0,"maxresdefault.jpg",0,0
//Break Periods
2,205618,212858
//Storyboard Layer 0 (Background)
//Storyboard Layer 1 (Fail)
//Storyboard Layer 2 (Pass)
//Storyboard Layer 3 (Foreground)
//Storyboard Sound Samples

[TimingPoints]
4778,240,4,1,1,70,1,0
15338,-100,4,1,1,70,0,0
24938,-100,4,1,1,70,0,0
32618,-100,4,1,1,70,0,0
33578,-50,4,1,1,70,0,0
34298,-100,4,1,1,70,0,0
35498,-50,4,1,1,70,0,0
35738,-100,4,1,1,70,0,0
36458,-100,4,1,1,70,0,0
40298,-100,4,1,1,70,0,1
47978,-100,4,1,1,70,0,0
57578,-100,4,1,1,70,0,0
65258,-100,4,1,1,70,0,0
72938,-100,4,1,1,70,0,1
88298,-100,4,1,1,70,0,0
95978,-100,4,1,1,70,0,0
103658,-100,4,1,1,70,0,0
111338,-100,4,1,1,70,0,0
128618,-100,4,1,1,70,0,1
136298,-100,4,1,1,70,0,0
143978,-100,4,1,1,70,0,0
151658,-100,4,1,1,70,0,0
159338,-100,4,1,1,70,0,1
174698,-100,4,1,1,70,0,0
182378,-100,4,1,1,70,0,0
190058,-100,4,1,1,70,0,1
197738,-100,4,1,1,70,0,0
205418,-100,4,1,1,70,0,0
214058,-100,4,1,1,70,0,0
221738,-100,4,1,1,70,0,0
229418,-100,4,1,1,70,0,1
244778,-100,4,1,1,70,0,0
252458,-100,4,1,1,70,0,1
260138,-100,4,1,1,70,0,0

[HitObjects]
136,144,5498,5,8,0:0:0:0:
216,192,5738,5,12,0:0:0:0:
328,216,5818,1,8,0:0:0:0:
328,216,5898,1,8,0:0:0:0:
336,216,5978,1,8,0:0:0:0:
336,216,6058,1,8,0:0:0:0:
336,216,6138,1,8,0:0:0:0:
336,216,6218,1,8,0:0:0:0:
344,208,6298,1,8,0:0:0:0:
344,208,6378,1,8,0:0:0:0:
344,208,6458,1,8,0:0:0:0:
280,280,6538,1,8,0:0:0:0:
280,280,6618,1,8,0:0:0:0:
232,120,6698,1,8,0:0:0:0:
264,112,6758,1,8,0:0:0:0:
208,160,6818,1,8,0:0:0:0:
72,152,6878,1,8,0:0:0:0:
304,224,6938,1,8,0:0:0:0:
336,232,6998,1,8,0:0:0:0:
336,232,7058,1,8,0:0:0:0:
336,232,7118,1,8,0:0:0:0:
288,168,7178,1,8,0:0:0:0:
296,200,7238,1,8,0:0:0:0:
296,200,7298,1,8,0:0:0:0:
296,200,7358,1,8,0:0:0:0:
224,200,7418,1,8,0:0:0:0:
352,256,7478,1,8,0:0:0:0:
352,256,7538,1,8,0:0:0:0:
248,216,7658,1,12,0:0:0:0:
200,128,7778,1,8,0:0:0:0:
200,144,7898,1,8,0:0:0:0:
200,160,7958,1,8,0:0:0:0:
200,256,8018,1,8,0:0:0:0:
200,256,8078,1,8,0:0:0:0:
208,248,8138,1,8,0:0:0:0:
208,248,8258,1,8,0:0:0:0:
280,192,8378,1,8,0:0:0:0:
280,192,8438,1,8,0:0:0:0:
280,192,8498,1,8,0:0:0:0:
280,192,8618,1,8,0:0:0:0:
280,192,8738,1,8,0:0:0:0:
280,192,8798,1,8,0:0:0:0:
280,192,8858,1,8,0:0:0:0:
288,192,8978,1,8,0:0:0:0:
152,200,9098,1,8,0:0:0:0:
160,200,9158,1,8,0:0:0:0:
160,192,9218,1,8,0:0:0:0:
176,152,9278,1,8,0:0:0:0:
152,160,9338,1,8,0:0:0:0:
176,136,9398,1,8,0:0:0:0:
192,96,9458,1,8,0:0:0:0:
192,96,9518,1,8,0:0:0:0:
192,96,9578,1,8,0:0:0:0:
256,160,9698,1,8,0:0:0:0:
256,160,9818,1,8,0:0:0:0:
272,152,9878,1,8,0:0:0:0:
280,152,9938,1,8,0:0:0:0:
184,144,9998,1,8,0:0:0:0:
200,144,10058,1,8,0:0:0:0:
200,128,10178,1,8,0:0:0:0:
200,128,10298,1,8,0:0:0:0:
200,128,10358,1,8,0:0:0:0:
208,112,10418,1,8,0:0:0:0:
208,112,10538,1,8,0:0:0:0:
208,104,10658,1,8,0:0:0:0:
208,112,10718,1,8,0:0:0:0:
224,112,10778,1,8,0:0:0:0:
216,152,10898,1,8,0:0:0:0:
224,128,11018,1,8,0:0:0:0:
224,120,11078,1,8,0:0:0:0:
224,96,11138,1,8,0:0:0:0:
224,96,11198,1,8,0:0:0:0:
224,96,11258,1,8,0:0:0:0:
224,96,11318,1,8,0:0:0:0:
224,96,11378,1,8,0:0:0:0:
192,144,11498,1,8,0:0:0:0:
224,184,11618,1,8,0:0:0:0:
240,160,11738,1,8,0:0:0:0:
240,168,11798,1,8,0:0:0:0:
232,168,11858,1,8,0:0:0:0:
232,168,11918,1,8,0:0:0:0:
232,168,11978,1,8,0:0:0:0:
232,168,12098,1,8,0:0:0:0:
216,192,12218,1,8,0:0:0:0:
224,184,12278,1,8,0:0:0:0:
224,184,12338,1,8,0:0:0:0:
224,176,12458,1,8,0:0:0:0:
224,176,12578,1,8,0:0:0:0:
224,176,12638,1,8,0:0:0:0:
224,176,12698,1,8,0:0:0:0:
224,176,12818,1,8,0:0:0:0:
224,176,12938,1,8,0:0:0:0:
216,128,12998,1,8,0:0:0:0:
216,128,13058,1,8,0:0:0:0:
216,128,13178,1,8,0:0:0:0:
352,176,13298,1,8,0:0:0:0:
160,176,13358,1,8,0:0:0:0:
160,168,13418,1,8,0:0:0:0:
192,168,13478,1,8,0:0:0:0:
192,168,13538,1,8,0:0:0:0:
192,168,13598,1,8,0:0:0:0:
256,136,13658,1,8,0:0:0:0:
192,168,13718,1,8,0:0:0:0:
192,168,13778,1,8,0:0:0:0:
192,168,13838,1,8,0:0:0:0:
264,128,13898,1,8,0:0:0:0:
192,168,13958,1,8,0:0:0:0:
192,168,14018,1,8,0:0:0:0:
192,168,14078,1,8,0:0:0:0:
264,136,14138,1,8,0:0:0:0:
192,168,14198,1,8,0:0:0:0:
248,72,14258,1,8,0:0:0:0:
296,224,14318,1,8,0:0:0:0:
272,128,14378,1,8,0:0:0:0:
328,128,14438,1,8,0:0:0:0:
328,128,14498,1,8,0:0:0:0:
328,128,14558,1,8,0:0:0:0:
328,128,14618,1,8,0:0:0:0:
328,128,14678,1,8,0:0:0:0:
304,112,14738,1,8,0:0:0:0:
320,112,14798,1,8,0:0:0:0:
272,160,14858,1,8,0:0:0:0:
144,200,14918,1,8,0:0:0:0:
144,200,14978,1,8,0:0:0:0:
144,200,15038,1,8,0:0:0:0:
312,136,15098,1,8,0:0:0:0:
312,136,15158,1,8,0:0:0:0:
320,160,15218,1,8,0:0:0:0:
320,160,15278,1,8,0:0:0:0:
288,112,15338,1,12,0:0:0:0:
288,160,15458,1,8,0:0:0:0:
288,160,15578,1,8,0:0:0:0:
312,224,15698,1,8,0:0:0:0:
312,208,15758,1,8,0:0:0:0:
312,208,15818,1,8,0:0:0:0:
304,208,15938,1,8,0:0:0:0:
208,176,16058,1,8,0:0:0:0:
208,176,16118,1,8,0:0:0:0:
208,176,16178,1,8,0:0:0:0:
208,176,16238,1,8,0:0:0:0:
208,176,16298,1,8,0:0:0:0:
264,216,16358,1,8,0:0:0:0:
232,240,16418,1,8,0:0:0:0:
312,216,16478,1,8,0:0:0:0:
240,264,16538,1,8,0:0:0:0:
240,264,16658,1,8,0:0:0:0:
240,264,16778,1,8,0:0:0:0:
240,264,16838,1,8,0:0:0:0:
304,240,16898,1,8,0:0:0:0:
216,112,16958,1,8,0:0:0:0:
216,112,17018,1,8,0:0:0:0:
216,112,17078,1,8,0:0:0:0:
216,112,17138,1,8,0:0:0:0:
216,112,17198,1,8,0:0:0:0:
312,128,17258,1,8,0:0:0:0:
216,192,17378,1,8,0:0:0:0:
208,184,17498,1,8,0:0:0:0:
200,64,17558,1,8,0:0:0:0:
208,184,17618,1,8,0:0:0:0:
208,184,17738,1,8,0:0:0:0:
176,144,17858,1,8,0:0:0:0:
160,152,17918,1,8,0:0:0:0:
296,192,17978,1,8,0:0:0:0:
256,248,18038,1,8,0:0:0:0:
248,264,18098,1,8,0:0:0:0:
256,248,18218,1,8,0:0:0:0:
224,224,18338,1,8,0:0:0:0:
224,224,18458,1,8,0:0:0:0:
304,264,18518,1,8,0:0:0:0:
304,256,18578,1,8,0:0:0:0:
288,272,18638,1,8,0:0:0:0:
256,208,18698,1,8,0:0:0:0:
312,152,18758,1,8,0:0:0:0:
256,208,18818,1,8,0:0:0:0:
312,152,18878,1,8,0:0:0:0:
256,208,18938,1,8,0:0:0:0:
312,152,18998,1,8,0:0:0:0:
256,208,19058,1,8,0:0:0:0:
200,240,19178,1,12,0:0:0:0:
240,184,19298,1,8,0:0:0:0:
240,184,19418,1,8,0:0:0:0:
240,184,19478,1,8,0:0:0:0:
240,184,19538,1,8,0:0:0:0:
240,184,19658,1,8,0:0:0:0:
176,184,19778,1,8,0:0:0:0:
240,184,19838,1,8,0:0:0:0:
128,144,19898,1,8,0:0:0:0:
128,136,19958,1,8,0:0:0:0:
128,144,20018,1,8,0:0:0:0:
240,208,20138,1,8,0:0:0:0:
248,208,20258,1,8,0:0:0:0:
248,208,20318,1,8,0:0:0:0:
248,208,20378,1,8,0:0:0:0:
248,208,20498,1,8,0:0:0:0:
208,192,20618,1,8,0:0:0:0:
192,240,20678,1,8,0:0:0:0:
192,240,20738,1,8,0:0:0:0:
192,240,20798,1,8,0:0:0:0:
192,240,20858,1,8,0:0:0:0:
192,240,20918,1,8,0:0:0:0:
192,240,20978,1,8,0:0:0:0:
192,240,21038,1,8,0:0:0:0:
192,240,21098,1,8,0:0:0:0:
224,208,21218,1,8,0:0:0:0:
224,208,21338,1,8,0:0:0:0:
224,208,21398,1,8,0:0:0:0:
224,200,21458,1,8,0:0:0:0:
208,192,21578,1,8,0:0:0:0:
248,224,21698,1,8,0:0:0:0:
248,208,21758,1,8,0:0:0:0:
248,208,21818,1,8,0:0:0:0:
256,216,21938,1,8,0:0:0:0:
256,216,22058,1,8,0:0:0:0:
304,208,22118,1,8,0:0:0:0:
304,208,22178,1,8,0:0:0:0:
304,208,22238,1,8,0:0:0:0:
296,200,22298,1,8,0:0:0:0:
272,176,22358,1,8,0:0:0:0:
272,176,22418,1,8,0:0:0:0:
272,176,22478,1,8,0:0:0:0:
280,224,22538,1,8,0:0:0:0:
280,224,22598,1,8,0:0:0:0:
280,224,22658,1,8,0:0:0:0:
280,224,22718,1,8,0:0:0:0:
280,224,22778,1,8,0:0:0:0:
280,224,22838,1,8,0:0:0:0:
280,224,22898,1,8,0:0:0:0:
288,224,22958,1,8,0:0:0:0:
280,216,23018,1,12,0:0:0:0:
240,96,23138,1,12,0:0:0:0:
352,80,23978,1,12,0:0:0:0:
336,96,24098,1,12,0:0:0:0:
208,160,24458,1,8,0:0:0:0:
208,160,24518,1,8,0:0:0:0:
304,160,24578,1,8,0:0:0:0:
304,160,24638,1,8,0:0:0:0:
232,184,24938,1,12,0:0:0:0:
344,176,25058,1,8,0:0:0:0:
336,168,25178,1,8,0:0:0:0:
328,168,25298,1,8,0:0:0:0:
328,168,25418,1,8,0:0:0:0:
328,168,25478,1,8,0:0:0:0:
328,168,25538,1,8,0:0:0:0:
328,168,25658,1,8,0:0:0:0:
328,168,25778,1,8,0:0:0:0:
272,168,25898,1,8,0:0:0:0:
328,168,25958,1,8,0:0:0:0:
272,104,26018,1,8,0:0:0:0:
264,112,26138,1,8,0:0:0:0:
264,120,26258,1,8,0:0:0:0:
264,120,26378,1,8,0:0:0:0:
224,144,26438,1,8,0:0:0:0:
224,144,26498,1,8,0:0:0:0:
192,248,26558,1,8,0:0:0:0:
216,272,26618,1,8,0:0:0:0:
336,256,26738,1,8,0:0:0:0:
352,232,26858,1,8,0:0:0:0:
352,208,26978,1,8,0:0:0:0:
192,128,27038,1,8,0:0:0:0:
352,208,27098,1,8,0:0:0:0:
192,120,27218,1,8,0:0:0:0:
208,120,27338,1,8,0:0:0:0:
208,96,27398,1,8,0:0:0:0:
208,96,27458,1,8,0:0:0:0:
208,96,27578,1,8,0:0:0:0:
208,96,27698,1,8,0:0:0:0:
208,96,27758,1,8,0:0:0:0:
208,96,27818,1,8,0:0:0:0:
208,96,27938,1,8,0:0:0:0:
208,96,28058,1,8,0:0:0:0:
208,96,28118,1,8,0:0:0:0:
208,96,28178,1,8,0:0:0:0:
112,168,28238,1,8,0:0:0:0:
216,200,28298,1,8,0:0:0:0:
216,200,28418,1,8,0:0:0:0:
216,200,28538,1,8,0:0:0:0:
216,200,28598,1,8,0:0:0:0:
216,200,28658,1,8,0:0:0:0:
248,184,28778,1,8,0:0:0:0:
192,184,28898,1,8,0:0:0:0:
192,184,29018,1,8,0:0:0:0:
192,184,29078,1,8,0:0:0:0:
192,184,29138,1,8,0:0:0:0:
192,200,29258,1,8,0:0:0:0:
192,200,29378,1,8,0:0:0:0:
192,200,29438,1,8,0:0:0:0:
192,200,29498,1,8,0:0:0:0:
192,200,29558,1,8,0:0:0:0:
192,200,29618,1,8,0:0:0:0:
192,200,29738,1,8,0:0:0:0:
192,200,29858,1,8,0:0:0:0:
280,168,29918,1,8,0:0:0:0:
280,168,29978,1,8,0:0:0:0:
280,168,30038,1,8,0:0:0:0:
280,168,30098,1,8,0:0:0:0:
280,168,30218,1,8,0:0:0:0:
160,176,30338,1,8,0:0:0:0:
224,160,30398,1,8,0:0:0:0:
224,160,30458,1,8,0:0:0:0:
224,160,30518,1,8,0:0:0:0:
224,160,30578,1,8,0:0:0:0:
248,168,30698,1,8,0:0:0:0:
264,160,30818,1,8,0:0:0:0:
320,176,30938,1,8,0:0:0:0:
320,176,30998,1,8,0:0:0:0:
312,168,31058,1,8,0:0:0:0:
312,168,31178,1,8,0:0:0:0:
312,168,31298,1,8,0:0:0:0:
312,160,31418,1,8,0:0:0:0:
312,160,31478,1,8,0:0:0:0:
312,160,31538,1,8,0:0:0:0:
312,160,31658,1,8,0:0:0:0:
384,144,31778,1,8,0:0:0:0:
248,136,31838,1,8,0:0:0:0:
248,136,31898,1,8,0:0:0:0:
72,152,31958,1,8,0:0:0:0:
248,136,32018,1,8,0:0:0:0:
272,192,32078,1,8,0:0:0:0:
264,136,32138,1,8,0:0:0:0:
264,192,32198,1,8,0:0:0:0:
312,144,32258,1,8,0:0:0:0:
176,128,32318,1,8,0:0:0:0:
240,168,32378,1,8,0:0:0:0:
240,168,32438,1,8,0:0:0:0:
240,168,32498,1,8,0:0:0:0:
168,152,32618,1,12,0:0:0:0:
208,208,32858,1,8,0:0:0:0:
352,264,33098,1,8,0:0:0:0:
360,264,33218,1,8,0:0:0:0:
360,264,33338,1,8,0:0:0:0:
312,216,33578,1,12,0:0:0:0:
312,208,33818,1,12,0:0:0:0:
320,200,34058,1,12,0:0:0:0:
312,216,34298,1,8,0:0:0:0:
312,216,34418,1,8,0:0:0:0:
296,216,34538,1,12,0:0:0:0:
232,144,34658,1,8,0:0:0:0:
320,256,34778,1,8,0:0:0:0:
256,128,34898,1,8,0:0:0:0:
312,240,35018,1,8,0:0:0:0:
312,240,35138,1,8,0:0:0:0:
312,240,35258,1,8,0:0:0:0:
408,256,35498,1,12,0:0:0:0:
344,248,35738,1,8,0:0:0:0:
344,248,35858,1,8,0:0:0:0:
344,248,35978,1,8,0:0:0:0:
344,248,36098,1,8,0:0:0:0:
344,248,36218,1,8,0:0:0:0:
408,232,36338,1,8,0:0:0:0:
408,232,36398,1,8,0:0:0:0:
408,240,36458,1,8,0:0:0:0:
320,248,36578,1,8,0:0:0:0:
256,256,36698,1,8,0:0:0:0:
240,256,36818,1,8,0:0:0:0:
232,240,36878,1,8,0:0:0:0:
232,232,36938,1,8,0:0:0:0:
288,248,37058,1,8,0:0:0:0:
288,248,37178,1,8,0:0:0:0:
376,216,37298,1,8,0:0:0:0:
376,216,37358,1,8,0:0:0:0:
376,216,37418,1,8,0:0:0:0:
376,216,37538,1,8,0:0:0:0:
376,216,37598,1,8,0:0:0:0:
376,216,37658,1,8,0:0:0:0:
376,216,37778,1,8,0:0:0:0:
376,216,37838,1,8,0:0:0:0:
376,216,37898,1,8,0:0:0:0:
344,232,38018,1,8,0:0:0:0:
344,232,38138,1,8,0:0:0:0:
312,160,38258,1,8,0:0:0:0:
312,160,38318,1,8,0:0:0:0:
312,160,38378,1,8,0:0:0:0:
312,160,38498,1,8,0:0:0:0:
312,160,38618,1,8,0:0:0:0:
368,160,38738,1,8,0:0:0:0:
368,160,38798,1,8,0:0:0:0:
368,160,38858,1,8,0:0:0:0:
368,160,38978,1,8,0:0:0:0:
368,160,39098,1,8,0:0:0:0:
336,152,39218,1,8,0:0:0:0:
336,152,39278,1,8,0:0:0:0:
344,160,39338,1,8,0:0:0:0:
344,160,39398,1,8,0:0:0:0:
344,160,39458,1,8,0:0:0:0:
344,160,39518,1,8,0:0:0:0:
344,160,39578,1,8,0:0:0:0:
344,160,39638,1,8,0:0:0:0:
344,160,39698,1,8,0:0:0:0:
344,160,39758,1,8,0:0:0:0:
344,160,39818,1,8,0:0:0:0:
304,232,39878,1,8,0:0:0:0:
304,232,39938,1,8,0:0:0:0:
304,232,39998,1,8,0:0:0:0:
304,232,40058,1,8,0:0:0:0:
168,208,40298,1,8,0:0:0:0:
168,208,40358,1,8,0:0:0:0:
168,208,40418,1,8,0:0:0:0:
168,208,40478,1,8,0:0:0:0:
176,192,40538,1,8,0:0:0:0:
224,152,40598,1,8,0:0:0:0:
224,152,40658,1,8,0:0:0:0:
224,152,40718,1,8,0:0:0:0:
224,152,40778,1,8,0:0:0:0:
224,152,40838,1,8,0:0:0:0:
224,152,40898,1,8,0:0:0:0:
224,152,40958,1,8,0:0:0:0:
224,152,41018,1,8,0:0:0:0:
224,152,41078,1,8,0:0:0:0:
224,152,41138,1,8,0:0:0:0:
224,152,41198,1,8,0:0:0:0:
384,240,41258,1,8,0:0:0:0:
240,200,41318,1,8,0:0:0:0:
248,192,41378,1,8,0:0:0:0:
248,192,41438,1,8,0:0:0:0:
248,192,41498,1,8,0:0:0:0:
248,192,41558,1,8,0:0:0:0:
248,192,41618,1,8,0:0:0:0:
248,192,41678,1,8,0:0:0:0:
248,192,41738,1,8,0:0:0:0:
248,192,41798,1,8,0:0:0:0:
248,192,41858,1,8,0:0:0:0:
248,192,41918,1,8,0:0:0:0:
248,192,41978,1,8,0:0:0:0:
248,192,42038,1,8,0:0:0:0:
248,192,42098,1,8,0:0:0:0:
248,192,42158,1,8,0:0:0:0:
248,192,42218,1,8,0:0:0:0:
264,224,42278,1,8,0:0:0:0:
264,224,42338,1,8,0:0:0:0:
264,224,42398,1,8,0:0:0:0:
264,224,42458,1,8,0:0:0:0:
264,224,42518,1,8,0:0:0:0:
264,224,42578,1,8,0:0:0:0:
264,224,42638,1,8,0:0:0:0:
264,224,42698,1,8,0:0:0:0:
264,224,42758,1,8,0:0:0:0:
264,224,42818,1,8,0:0:0:0:
264,224,42878,1,8,0:0:0:0:
264,224,42938,1,8,0:0:0:0:
264,224,42998,1,8,0:0:0:0:
264,224,43058,1,8,0:0:0:0:
264,224,43118,1,8,0:0:0:0:
264,224,43178,1,8,0:0:0:0:
288,208,43238,1,8,0:0:0:0:
288,208,43298,1,8,0:0:0:0:
288,208,43358,1,8,0:0:0:0:
320,216,43418,1,8,0:0:0:0:
256,256,43478,1,8,0:0:0:0:
256,240,43538,1,8,0:0:0:0:
256,240,43598,1,8,0:0:0:0:
256,240,43658,1,8,0:0:0:0:
184,120,43718,1,8,0:0:0:0:
176,120,43778,1,8,0:0:0:0:
176,120,43838,1,8,0:0:0:0:
176,120,43898,1,8,0:0:0:0:
176,120,43958,1,8,0:0:0:0:
176,120,44018,1,8,0:0:0:0:
176,120,44078,1,8,0:0:0:0:
176,120,44138,1,8,0:0:0:0:
184,152,44198,1,8,0:0:0:0:
184,152,44258,1,8,0:0:0:0:
184,152,44318,1,8,0:0:0:0:
184,152,44378,1,8,0:0:0:0:
184,152,44438,1,8,0:0:0:0:
184,152,44498,1,8,0:0:0:0:
184,152,44558,1,8,0:0:0:0:
184,152,44618,1,8,0:0:0:0:
184,152,44678,1,8,0:0:0:0:
184,152,44738,1,8,0:0:0:0:
184,152,44798,1,8,0:0:0:0:
184,152,44858,1,8,0:0:0:0:
184,152,44918,1,8,0:0:0:0:
184,152,44978,1,8,0:0:0:0:
184,152,45038,1,8,0:0:0:0:
184,144,45098,1,8,0:0:0:0:
224,96,45158,1,8,0:0:0:0:
224,96,45218,1,8,0:0:0:0:
224,96,45278,1,8,0:0:0:0:
224,96,45338,1,8,0:0:0:0:
224,96,45398,1,8,0:0:0:0:
224,96,45458,1,8,0:0:0:0:
224,96,45518,1,8,0:0:0:0:
224,96,45578,1,8,0:0:0:0:
224,96,45638,1,8,0:0:0:0:
224,96,45698,1,8,0:0:0:0:
224,96,45758,1,8,0:0:0:0:
224,96,45818,1,8,0:0:0:0:
192,96,45878,1,8,0:0:0:0:
232,264,45938,1,8,0:0:0:0:
232,264,45998,1,8,0:0:0:0:
232,264,46058,1,8,0:0:0:0:
224,280,46118,1,8,0:0:0:0:
224,280,46178,1,8,0:0:0:0:
224,280,46238,1,8,0:0:0:0:
224,280,46298,1,8,0:0:0:0:
224,280,46358,1,8,0:0:0:0:
224,280,46418,1,8,0:0:0:0:
224,280,46478,1,8,0:0:0:0:
216,272,46538,1,8,0:0:0:0:
216,272,46598,1,8,0:0:0:0:
216,272,46658,1,8,0:0:0:0:
216,272,46718,1,8,0:0:0:0:
216,256,46778,1,8,0:0:0:0:
216,256,46838,1,8,0:0:0:0:
216,256,46898,1,8,0:0:0:0:
216,256,46958,1,8,0:0:0:0:
240,168,47018,1,8,0:0:0:0:
240,168,47078,1,8,0:0:0:0:
224,168,47138,1,8,0:0:0:0:
224,168,47198,1,8,0:0:0:0:
216,168,47258,1,8,0:0:0:0:
216,168,47318,1,8,0:0:0:0:
216,168,47378,1,8,0:0:0:0:
216,168,47438,1,8,0:0:0:0:
96,144,47498,1,8,0:0:0:0:
96,144,47558,1,8,0:0:0:0:
96,144,47618,1,8,0:0:0:0:
96,144,47678,1,8,0:0:0:0:
96,144,47738,1,8,0:0:0:0:
96,144,47798,1,8,0:0:0:0:
96,144,47858,1,8,0:0:0:0:
96,144,47918,1,8,0:0:0:0:
96,144,47978,1,12,0:0:0:0:
200,160,48098,1,8,0:0:0:0:
200,160,48218,1,8,0:0:0:0:
200,160,48338,1,8,0:0:0:0:
200,160,48458,1,8,0:0:0:0:
208,152,48578,1,8,0:0:0:0:
208,152,48698,1,8,0:0:0:0:
208,152,48818,1,8,0:0:0:0:
264,120,48938,1,12,0:1:0:0:
216,144,49058,1,8,0:0:0:0:
216,144,49178,1,8,0:0:0:0:
216,144,49298,1,8,0:0:0:0:
216,144,49418,1,8,0:0:0:0:
216,144,49538,1,8,0:0:0:0:
216,144,49658,1,8,0:0:0:0:
216,144,49778,1,8,0:0:0:0:
320,136,49898,1,12,0:1:0:0:
216,144,50018,1,8,0:0:0:0:
216,144,50138,1,8,0:0:0:0:
216,144,50258,1,8,0:0:0:0:
216,144,50378,1,8,0:0:0:0:
216,144,50498,1,8,0:0:0:0:
216,144,50618,1,8,0:0:0:0:
216,144,50738,1,8,0:0:0:0:
320,168,50858,1,12,0:1:0:0:
248,128,50978,1,8,0:0:0:0:
248,128,51098,1,8,0:0:0:0:
328,176,51218,1,12,0:1:0:0:
248,128,51338,1,8,0:0:0:0:
248,128,51458,1,8,0:0:0:0:
168,48,51578,1,12,0:1:0:0:
248,128,51698,1,8,0:0:0:0:
264,128,51818,1,12,0:0:0:0:
320,152,51938,1,8,0:0:0:0:
320,152,52058,1,8,0:0:0:0:
320,152,52178,1,8,0:0:0:0:
272,248,52298,1,8,0:0:0:0:
304,160,52418,1,8,0:0:0:0:
304,168,52538,1,8,0:0:0:0:
304,168,52658,1,8,0:0:0:0:
296,208,52778,1,12,0:0:0:0:
344,216,52898,1,8,0:0:0:0:
344,216,53018,1,8,0:0:0:0:
344,216,53138,1,8,0:0:0:0:
376,224,53258,1,12,0:0:0:0:
360,192,53378,1,8,0:0:0:0:
360,192,53498,1,8,0:0:0:0:
360,192,53618,1,8,0:0:0:0:
368,240,53738,1,12,0:0:0:0:
248,264,53858,1,8,0:0:0:0:
344,280,53978,1,12,0:0:0:0:
280,240,54098,1,8,0:0:0:0:
336,280,54218,1,12,0:0:0:0:
288,256,54338,1,8,0:0:0:0:
336,280,54458,1,12,0:0:0:0:
288,240,54578,1,8,0:0:0:0:
160,160,54698,1,8,0:0:0:0:
160,160,54758,1,8,0:0:0:0:
160,160,54818,1,8,0:0:0:0:
160,160,54878,1,8,0:0:0:0:
160,160,54938,1,8,0:0:0:0:
296,208,54998,1,8,0:0:0:0:
296,208,55058,1,8,0:0:0:0:
304,208,55118,1,8,0:0:0:0:
304,208,55178,1,8,0:0:0:0:
176,128,55238,1,8,0:0:0:0:
168,136,55298,1,8,0:0:0:0:
192,168,55358,1,8,0:0:0:0:
192,168,55418,1,8,0:0:0:0:
192,168,55478,1,8,0:0:0:0:
192,168,55538,1,8,0:0:0:0:
192,168,55598,1,8,0:0:0:0:
184,176,55658,1,8,0:0:0:0:
312,280,57578,1,12,0:0:0:0:
400,224,57818,1,8,0:0:0:0:
408,216,58058,1,8,0:0:0:0:
408,216,58178,1,8,0:0:0:0:
408,216,58298,1,8,0:0:0:0:
320,176,58538,1,8,0:0:0:0:
328,216,58778,1,8,0:0:0:0:
328,248,59018,1,8,0:0:0:0:
336,240,59138,1,8,0:0:0:0:
336,240,59258,1,8,0:0:0:0:
368,216,59498,1,8,0:0:0:0:
360,208,59738,1,8,0:0:0:0:
336,224,59978,1,8,0:0:0:0:
336,224,60098,1,8,0:0:0:0:
336,224,60218,1,8,0:0:0:0:
232,232,60458,1,8,0:0:0:0:
344,232,60698,1,8,0:0:0:0:
424,256,60818,1,8,0:0:0:0:
424,256,60938,1,8,0:0:0:0:
424,256,61058,1,8,0:0:0:0:
448,232,61178,1,8,0:0:0:0:
448,232,61418,1,8,0:0:0:0:
360,224,61658,1,8,0:0:0:0:
360,224,61898,1,8,0:0:0:0:
360,224,62018,1,8,0:0:0:0:
360,224,62138,1,8,0:0:0:0:
432,200,62378,1,8,0:0:0:0:
440,256,62618,1,8,0:0:0:0:
416,232,62858,1,8,0:0:0:0:
416,232,62978,1,8,0:0:0:0:
416,232,63098,1,8,0:0:0:0:
208,144,63218,1,8,0:0:0:0:
368,256,63338,1,8,0:0:0:0:
288,240,63578,1,8,0:0:0:0:
336,224,63818,1,8,0:0:0:0:
336,224,63938,1,8,0:0:0:0:
336,224,64058,1,8,0:0:0:0:
328,224,64298,1,8,0:0:0:0:
320,168,64418,1,8,0:0:0:0:
320,168,64538,1,8,0:0:0:0:
336,208,64658,1,8,0:0:0:0:
328,200,64778,1,8,0:0:0:0:
304,192,64898,1,8,0:0:0:0:
304,192,65018,1,8,0:0:0:0:
304,192,65138,1,8,0:0:0:0:
432,288,65258,1,12,0:0:0:0:
368,224,65378,1,8,0:0:0:0:
368,224,65498,1,8,0:0:0:0:
368,224,65618,1,8,0:0:0:0:
368,224,65678,1,8,0:0:0:0:
368,224,65738,1,8,0:0:0:0:
384,216,65858,1,8,0:0:0:0:
432,168,65978,1,8,0:0:0:0:
152,208,66038,1,8,0:0:0:0:
272,224,66098,1,8,0:0:0:0:
272,224,66158,1,8,0:0:0:0:
272,224,66218,1,8,0:0:0:0:
120,152,66338,1,8,0:0:0:0:
368,224,66458,1,8,0:0:0:0:
232,152,66518,1,8,0:0:0:0:
232,144,66578,1,8,0:0:0:0:
232,144,66698,1,8,0:0:0:0:
232,144,66758,1,8,0:0:0:0:
232,144,66818,1,8,0:0:0:0:
240,168,66878,1,8,0:0:0:0:
240,168,66938,1,8,0:0:0:0:
264,192,67058,1,8,0:0:0:0:
264,192,67178,1,12,0:0:0:0:
424,192,67298,1,8,0:0:0:0:
400,224,67418,1,8,0:0:0:0:
288,216,67538,1,8,0:0:0:0:
288,216,67598,1,8,0:0:0:0:
128,152,67658,1,8,0:0:0:0:
232,216,67778,1,8,0:0:0:0:
232,208,67898,1,8,0:0:0:0:
360,208,67958,1,8,0:0:0:0:
360,208,68018,1,8,0:0:0:0:
360,208,68078,1,8,0:0:0:0:
360,208,68138,1,8,0:0:0:0:
280,288,68258,1,8,0:0:0:0:
240,184,68378,1,8,0:0:0:0:
304,184,68498,1,8,0:0:0:0:
304,168,68618,1,8,0:0:0:0:
208,112,68678,1,8,0:0:0:0:
304,168,68738,1,8,0:0:0:0:
304,160,68858,1,8,0:0:0:0:
184,72,68978,1,8,0:0:0:0:
240,152,69098,1,8,0:0:0:0:
184,160,69218,1,8,0:0:0:0:
184,160,69338,1,8,0:0:0:0:
184,160,69398,1,8,0:0:0:0:
184,160,69458,1,8,0:0:0:0:
184,160,69578,1,8,0:0:0:0:
184,160,69698,1,8,0:0:0:0:
304,120,69818,1,8,0:0:0:0:
304,120,69878,1,8,0:0:0:0:
304,120,69938,1,8,0:0:0:0:
304,120,69998,1,8,0:0:0:0:
304,120,70058,1,8,0:0:0:0:
272,184,70178,1,8,0:0:0:0:
272,184,70298,1,8,0:0:0:0:
272,184,70418,1,8,0:0:0:0:
272,184,70538,1,8,0:0:0:0:
272,184,70658,1,8,0:0:0:0:
272,184,70778,1,8,0:0:0:0:
272,184,70898,1,8,0:0:0:0:
184,200,71018,1,12,0:0:0:0:
248,208,72938,1,8,0:0:0:0:
224,232,72998,1,8,0:0:0:0:
272,200,73058,1,8,0:0:0:0:
224,232,73118,1,8,0:0:0:0:
272,200,73178,1,8,0:0:0:0:
336,288,73238,1,8,0:0:0:0:
272,200,73298,1,8,0:0:0:0:
336,288,73358,1,8,0:0:0:0:
296,240,73418,1,8,0:0:0:0:
232,264,73478,1,8,0:0:0:0:
312,320,73538,1,8,0:0:0:0:
240,264,73598,1,8,0:0:0:0:
312,320,73658,1,8,0:0:0:0:
240,264,73718,1,8,0:0:0:0:
312,320,73778,1,8,0:0:0:0:
240,264,73838,1,8,0:0:0:0:
336,328,73898,1,8,0:0:0:0:
304,224,73958,1,8,0:0:0:0:
336,328,74018,1,8,0:0:0:0:
320,224,74078,1,8,0:0:0:0:
336,328,74138,1,8,0:0:0:0:
328,240,74198,1,8,0:0:0:0:
336,328,74258,1,8,0:0:0:0:
328,240,74318,1,8,0:0:0:0:
336,328,74378,1,8,0:0:0:0:
320,208,74438,1,8,0:0:0:0:
344,320,74498,1,8,0:0:0:0:
320,208,74558,1,8,0:0:0:0:
352,320,74618,1,8,0:0:0:0:
320,208,74678,1,8,0:0:0:0:
352,320,74738,1,8,0:0:0:0:
320,208,74798,1,8,0:0:0:0:
352,320,74858,1,8,0:0:0:0:
224,184,74918,1,8,0:0:0:0:
384,320,74978,1,8,0:0:0:0:
208,160,75038,1,8,0:0:0:0:
384,320,75098,1,8,0:0:0:0:
208,160,75158,1,8,0:0:0:0:
384,320,75218,1,8,0:0:0:0:
208,160,75278,1,8,0:0:0:0:
328,320,75338,1,8,0:0:0:0:
256,248,75398,1,8,0:0:0:0:
208,176,75458,1,8,0:0:0:0:
256,248,75518,1,8,0:0:0:0:
208,176,75578,1,8,0:0:0:0:
264,264,75638,1,8,0:0:0:0:
208,176,75698,1,8,0:0:0:0:
264,264,75758,1,8,0:0:0:0:
208,192,75818,1,8,0:0:0:0:
264,264,75878,1,8,0:0:0:0:
328,272,75938,1,8,0:0:0:0:
264,264,75998,1,8,0:0:0:0:
328,272,76058,1,8,0:0:0:0:
272,264,76118,1,8,0:0:0:0:
328,272,76178,1,8,0:0:0:0:
272,264,76238,1,8,0:0:0:0:
328,272,76298,1,8,0:0:0:0:
272,264,76358,1,8,0:0:0:0:
336,272,76418,1,8,0:0:0:0:
272,264,76478,1,8,0:0:0:0:
344,264,76538,1,8,0:0:0:0:
272,264,76598,1,8,0:0:0:0:
344,264,76658,1,8,0:0:0:0:
272,264,76718,1,8,0:0:0:0:
344,264,76778,1,8,0:0:0:0:
272,264,76838,1,8,0:0:0:0:
272,272,76898,1,8,0:0:0:0:
272,264,76958,1,8,0:0:0:0:
288,264,77018,1,8,0:0:0:0:
272,264,77078,1,8,0:0:0:0:
288,264,77138,1,8,0:0:0:0:
272,264,77198,1,8,0:0:0:0:
288,264,77258,1,8,0:0:0:0:
272,264,77318,1,8,0:0:0:0:
288,264,77378,1,8,0:0:0:0:
272,264,77438,1,8,0:0:0:0:
288,264,77498,1,8,0:0:0:0:
264,264,77558,1,8,0:0:0:0:
216,272,77618,1,8,0:0:0:0:
264,264,77678,1,8,0:0:0:0:
208,280,77738,1,8,0:0:0:0:
264,264,77798,1,8,0:0:0:0:
208,280,77858,1,8,0:0:0:0:
264,264,77918,1,8,0:0:0:0:
208,280,77978,1,8,0:0:0:0:
264,264,78038,1,8,0:0:0:0:
208,280,78098,1,8,0:0:0:0:
264,264,78158,1,8,0:0:0:0:
208,280,78218,1,8,0:0:0:0:
296,224,78278,1,8,0:0:0:0:
216,256,78338,1,8,0:0:0:0:
296,224,78398,1,8,0:0:0:0:
216,256,78458,1,8,0:0:0:0:
296,224,78518,1,8,0:0:0:0:
216,256,78578,1,8,0:0:0:0:
240,280,78638,1,8,0:0:0:0:
296,144,78698,1,8,0:0:0:0:
224,280,78758,1,8,0:0:0:0:
232,224,78818,1,8,0:0:0:0:
224,280,78878,1,8,0:0:0:0:
232,224,78938,1,8,0:0:0:0:
224,280,78998,1,8,0:0:0:0:
232,224,79058,1,8,0:0:0:0:
224,280,79118,1,8,0:0:0:0:
240,224,79178,1,8,0:0:0:0:
224,280,79238,1,8,0:0:0:0:
248,224,79298,1,8,0:0:0:0:
224,280,79358,1,8,0:0:0:0:
248,224,79418,1,8,0:0:0:0:
224,280,79478,1,8,0:0:0:0:
264,304,79538,1,8,0:0:0:0:
224,280,79598,1,8,0:0:0:0:
264,296,79658,1,8,0:0:0:0:
224,280,79718,1,8,0:0:0:0:
264,296,79778,1,8,0:0:0:0:
224,280,79838,1,8,0:0:0:0:
272,296,79898,1,8,0:0:0:0:
224,280,79958,1,8,0:0:0:0:
272,296,80018,1,8,0:0:0:0:
224,280,80078,1,8,0:0:0:0:
272,296,80138,1,8,0:0:0:0:
224,280,80198,1,8,0:0:0:0:
272,296,80258,1,8,0:0:0:0:
224,280,80318,1,8,0:0:0:0:
272,296,80378,1,8,0:0:0:0:
328,232,80438,1,8,0:0:0:0:
328,232,80498,1,8,0:0:0:0:
328,232,80558,1,8,0:0:0:0:
264,176,80618,1,12,0:0:0:0:
232,248,80738,1,8,0:0:0:0:
232,240,80858,1,8,0:0:0:0:
232,240,80918,1,8,0:0:0:0:
232,232,80978,1,8,0:0:0:0:
240,224,81098,1,8,0:0:0:0:
240,224,81218,1,8,0:0:0:0:
152,120,81278,1,8,0:0:0:0:
240,208,81338,1,8,0:0:0:0:
296,136,81458,1,8,0:0:0:0:
224,192,81578,1,8,0:0:0:0:
232,184,81638,1,8,0:0:0:0:
232,184,81698,1,8,0:0:0:0:
224,184,81758,1,8,0:0:0:0:
200,160,81818,1,8,0:0:0:0:
200,152,81878,1,8,0:0:0:0:
200,152,81938,1,8,0:0:0:0:
200,152,81998,1,8,0:0:0:0:
200,152,82058,1,8,0:0:0:0:
200,152,82118,1,8,0:0:0:0:
200,152,82178,1,8,0:0:0:0:
192,152,82238,1,8,0:0:0:0:
264,184,82298,1,8,0:0:0:0:
264,184,82358,1,8,0:0:0:0:
264,184,82418,1,8,0:0:0:0:
264,184,82478,1,8,0:0:0:0:
328,256,82538,1,8,0:0:0:0:
216,176,82658,1,8,0:0:0:0:
216,176,82778,1,8,0:0:0:0:
216,176,82838,1,8,0:0:0:0:
216,176,82898,1,8,0:0:0:0:
216,176,83018,1,8,0:0:0:0:
216,176,83138,1,8,0:0:0:0:
216,176,83198,1,8,0:0:0:0:
216,176,83258,1,8,0:0:0:0:
224,184,83378,1,8,0:0:0:0:
216,136,83498,1,8,0:0:0:0:
216,136,83558,1,8,0:0:0:0:
208,112,83618,1,8,0:0:0:0:
208,112,83678,1,8,0:0:0:0:
248,152,83738,1,8,0:0:0:0:
208,112,83798,1,8,0:0:0:0:
304,168,83858,1,8,0:0:0:0:
304,152,83918,1,8,0:0:0:0:
208,112,83978,1,8,0:0:0:0:
208,112,84038,1,8,0:0:0:0:
280,136,84098,1,8,0:0:0:0:
216,112,84158,1,8,0:0:0:0:
240,104,84218,1,8,0:0:0:0:
240,104,84278,1,8,0:0:0:0:
240,112,84338,1,8,0:0:0:0:
240,112,84398,1,8,0:0:0:0:
240,112,84458,1,8,0:0:0:0:
216,128,84578,1,8,0:0:0:0:
208,112,84698,1,8,0:0:0:0:
208,112,84758,1,8,0:0:0:0:
208,112,84818,1,8,0:0:0:0:
208,112,84938,1,8,0:0:0:0:
208,112,85058,1,8,0:0:0:0:
208,112,85118,1,8,0:0:0:0:
208,112,85178,1,8,0:0:0:0:
224,88,85298,1,8,0:0:0:0:
296,200,85418,1,8,0:0:0:0:
240,168,85478,1,8,0:0:0:0:
264,224,85538,1,8,0:0:0:0:
264,224,85598,1,8,0:0:0:0:
264,224,85658,1,8,0:0:0:0:
352,144,85718,1,8,0:0:0:0:
344,144,85778,1,8,0:0:0:0:
320,144,85838,1,8,0:0:0:0:
320,144,85898,1,8,0:0:0:0:
320,144,85958,1,8,0:0:0:0:
320,144,86018,1,8,0:0:0:0:
320,144,86078,1,8,0:0:0:0:
320,144,86138,1,8,0:0:0:0:
320,144,86198,1,8,0:0:0:0:
200,16,86258,1,8,0:0:0:0:
240,168,86318,1,8,0:0:0:0:
320,144,86378,1,8,0:0:0:0:
288,152,86438,1,8,0:0:0:0:
304,144,86498,1,8,0:0:0:0:
280,160,86558,1,8,0:0:0:0:
304,144,86618,1,8,0:0:0:0:
272,160,86678,1,8,0:0:0:0:
296,144,86738,1,8,0:0:0:0:
224,128,86798,1,8,0:0:0:0:
280,296,86858,1,8,0:0:0:0:
224,128,86918,1,8,0:0:0:0:
368,224,86978,1,8,0:0:0:0:
368,224,87038,1,8,0:0:0:0:
368,224,87098,1,8,0:0:0:0:
360,200,87158,1,8,0:0:0:0:
360,200,87218,1,8,0:0:0:0:
360,200,87278,1,8,0:0:0:0:
360,200,87338,1,8,0:0:0:0:
360,200,87398,1,8,0:0:0:0:
360,200,87458,1,8,0:0:0:0:
280,192,87518,1,8,0:0:0:0:
280,192,87578,1,8,0:0:0:0:
232,184,87638,1,8,0:0:0:0:
232,184,87698,1,8,0:0:0:0:
232,184,87758,1,8,0:0:0:0:
392,256,87818,1,8,0:0:0:0:
392,256,87878,1,8,0:0:0:0:
392,256,87938,1,8,0:0:0:0:
392,256,87998,1,8,0:0:0:0:
296,232,88058,1,8,0:0:0:0:
352,240,88118,1,8,0:0:0:0:
296,232,88178,1,8,0:0:0:0:
296,232,88238,1,8,0:0:0:0:
312,152,88298,1,12,0:0:0:0:
256,176,92138,1,12,0:0:0:0:
280,176,94058,1,12,0:0:0:0:
288,184,94178,1,8,0:0:0:0:
232,208,94298,1,8,0:0:0:0:
264,216,94418,1,12,0:0:0:0:
192,72,94538,1,8,0:0:0:0:
200,80,94658,1,8,0:0:0:0:
272,224,94778,1,12,0:0:0:0:
256,80,94898,1,8,0:0:0:0:
256,80,95018,1,8,0:0:0:0:
312,216,95138,1,12,0:0:0:0:
368,80,95258,1,8,0:0:0:0:
384,72,95378,1,8,0:0:0:0:
312,216,95498,1,12,0:0:0:0:
392,64,95618,1,8,0:0:0:0:
304,224,95738,1,12,0:0:0:0:
304,224,95858,1,12,0:0:0:0:
296,216,95978,1,12,0:0:0:0:
256,200,96098,1,8,0:0:0:0:
256,200,96218,1,8,0:0:0:0:
256,200,96338,1,8,0:0:0:0:
336,208,96458,1,12,0:0:0:0:
256,200,96578,1,8,0:0:0:0:
256,200,96698,1,8,0:0:0:0:
256,200,96818,1,8,0:0:0:0:
384,200,96938,1,12,0:0:0:0:
256,200,97058,1,8,0:0:0:0:
256,200,97178,1,8,0:0:0:0:
256,200,97298,1,8,0:0:0:0:
376,200,97418,1,12,0:0:0:0:
256,200,97538,1,8,0:0:0:0:
256,200,97658,1,8,0:0:0:0:
256,200,97778,1,8,0:0:0:0:
344,120,97898,1,12,0:0:0:0:
256,200,98018,1,8,0:0:0:0:
256,200,98138,1,8,0:0:0:0:
256,200,98258,1,8,0:0:0:0:
320,104,98378,1,12,0:0:0:0:
256,200,98498,1,8,0:0:0:0:
256,200,98618,1,8,0:0:0:0:
256,200,98738,1,8,0:0:0:0:
328,88,98858,1,12,0:0:0:0:
256,200,98978,1,8,0:0:0:0:
256,200,99098,1,8,0:0:0:0:
256,200,99218,1,8,0:0:0:0:
336,80,99338,1,12,0:0:0:0:
256,200,99458,1,8,0:0:0:0:
256,200,99578,1,8,0:0:0:0:
256,200,99698,1,8,0:0:0:0:
376,80,99818,1,12,0:0:0:0:
256,200,99938,1,8,0:0:0:0:
256,200,100058,1,8,0:0:0:0:
256,200,100178,1,8,0:0:0:0:
376,72,100298,1,12,0:0:0:0:
192,88,100418,1,8,0:0:0:0:
208,96,100538,1,8,0:0:0:0:
208,96,100658,1,8,0:0:0:0:
376,72,100778,1,12,0:0:0:0:
208,96,100898,1,8,0:0:0:0:
208,96,101018,1,8,0:0:0:0:
208,96,101138,1,8,0:0:0:0:
376,64,101258,1,12,0:0:0:0:
216,88,101378,1,8,0:0:0:0:
216,88,101498,1,8,0:0:0:0:
216,88,101618,1,8,0:0:0:0:
376,64,101738,1,12,0:0:0:0:
216,88,101858,1,8,0:0:0:0:
216,88,101978,1,8,0:0:0:0:
216,88,102098,1,8,0:0:0:0:
376,64,102218,1,12,0:0:0:0:
216,88,102338,1,8,0:0:0:0:
216,88,102458,1,8,0:0:0:0:
216,88,102578,1,8,0:0:0:0:
256,104,102698,1,12,0:0:0:0:
216,88,102818,1,8,0:0:0:0:
216,88,102938,1,8,0:0:0:0:
216,88,103058,1,8,0:0:0:0:
312,168,103178,1,12,0:0:0:0:
208,160,103298,1,8,0:0:0:0:
320,176,103418,1,12,0:0:0:0:
240,128,103538,1,8,0:0:0:0:
336,168,103658,1,12,0:0:0:0:
160,152,103778,1,8,0:0:0:0:
160,152,103898,1,8,0:0:0:0:
160,152,104018,1,8,0:0:0:0:
272,112,104138,1,12,0:0:0:0:
160,152,104258,1,8,0:0:0:0:
160,152,104378,1,8,0:0:0:0:
160,152,104498,1,8,0:0:0:0:
272,96,104618,1,12,0:0:0:0:
160,152,104738,1,8,0:0:0:0:
160,152,104858,1,8,0:0:0:0:
160,152,104978,1,8,0:0:0:0:
272,96,105098,1,12,0:0:0:0:
160,152,105218,1,8,0:0:0:0:
160,152,105338,1,8,0:0:0:0:
160,152,105458,1,8,0:0:0:0:
272,96,105578,1,12,0:0:0:0:
160,152,105698,1,8,0:0:0:0:
160,152,105818,1,8,0:0:0:0:
160,152,105938,1,8,0:0:0:0:
272,96,106058,1,12,0:0:0:0:
160,152,106178,1,8,0:0:0:0:
160,152,106298,1,8,0:0:0:0:
160,152,106418,1,8,0:0:0:0:
272,96,106538,1,12,0:0:0:0:
160,152,106658,1,8,0:0:0:0:
160,144,106778,1,8,0:0:0:0:
160,144,106898,1,8,0:0:0:0:
272,96,107018,1,12,0:0:0:0:
160,144,107138,1,8,0:0:0:0:
160,144,107258,1,8,0:0:0:0:
160,144,107378,1,8,0:0:0:0:
272,96,107498,1,12,0:0:0:0:
160,144,107618,1,8,0:0:0:0:
160,144,107738,1,8,0:0:0:0:
160,144,107858,1,8,0:0:0:0:
272,96,107978,1,12,0:0:0:0:
160,144,108098,1,8,0:0:0:0:
160,144,108218,1,8,0:0:0:0:
160,144,108338,1,8,0:0:0:0:
272,96,108458,1,12,0:0:0:0:
160,144,108578,1,8,0:0:0:0:
160,144,108698,1,8,0:0:0:0:
160,144,108818,1,8,0:0:0:0:
232,88,108938,1,12,0:0:0:0:
160,144,109058,1,8,0:0:0:0:
160,144,109178,1,8,0:0:0:0:
160,144,109298,1,8,0:0:0:0:
232,88,109418,1,12,0:0:0:0:
160,144,109538,1,8,0:0:0:0:
160,144,109658,1,8,0:0:0:0:
160,144,109778,1,8,0:0:0:0:
224,80,109898,1,12,0:0:0:0:
160,144,110018,1,8,0:0:0:0:
160,144,110138,1,8,0:0:0:0:
160,144,110258,1,8,0:0:0:0:
224,80,110378,1,12,0:0:0:0:
160,144,110498,1,8,0:0:0:0:
160,144,110618,1,8,0:0:0:0:
160,144,110738,1,8,0:0:0:0:
224,80,110858,1,12,0:0:0:0:
160,144,110978,1,8,0:0:0:0:
160,136,111098,1,8,0:0:0:0:
160,136,111218,1,8,0:0:0:0:
320,224,111338,1,12,0:0:0:0:
304,104,111458,1,8,0:0:0:0:
304,104,111578,1,8,0:0:0:0:
304,104,111698,1,8,0:0:0:0:
304,104,111818,1,8,0:0:0:0:
304,104,111938,1,8,0:0:0:0:
288,192,112058,1,8,0:0:0:0:
312,104,112178,1,8,0:0:0:0:
288,192,112298,1,12,0:0:0:0:
320,96,112418,1,8,0:0:0:0:
320,96,112538,1,8,0:0:0:0:
320,96,112658,1,8,0:0:0:0:
320,96,112778,1,8,0:0:0:0:
320,96,112898,1,8,0:0:0:0:
208,80,113018,1,8,0:0:0:0:
320,96,113138,1,8,0:0:0:0:
224,80,113258,1,12,0:0:0:0:
320,96,113378,1,8,0:0:0:0:
320,96,113498,1,8,0:0:0:0:
320,96,113618,1,8,0:0:0:0:
320,96,113738,1,8,0:0:0:0:
320,96,113858,1,8,0:0:0:0:
272,80,113978,1,8,0:0:0:0:
328,88,114098,1,8,0:0:0:0:
272,80,114218,1,12,0:0:0:0:
328,88,114338,1,8,0:0:0:0:
328,88,114458,1,8,0:0:0:0:
328,88,114578,1,8,0:0:0:0:
328,88,114698,1,8,0:0:0:0:
328,88,114818,1,8,0:0:0:0:
272,80,114938,1,8,0:0:0:0:
336,88,115058,1,8,0:0:0:0:
272,80,115178,1,12,0:0:0:0:
344,88,115298,1,8,0:0:0:0:
344,88,115418,1,8,0:0:0:0:
344,88,115538,1,8,0:0:0:0:
352,88,115658,1,8,0:0:0:0:
352,80,115778,1,8,0:0:0:0:
280,88,115898,1,8,0:0:0:0:
400,128,116018,1,8,0:0:0:0:
280,88,116138,1,12,0:0:0:0:
400,128,116258,1,8,0:0:0:0:
400,128,116378,1,8,0:0:0:0:
400,128,116498,1,8,0:0:0:0:
400,128,116618,1,8,0:0:0:0:
400,128,116738,1,8,0:0:0:0:
264,136,116858,1,8,0:0:0:0:
264,136,116978,1,8,0:0:0:0:
264,136,117098,1,12,0:0:0:0:
400,128,117218,1,8,0:0:0:0:
400,128,117338,1,8,0:0:0:0:
400,128,117458,1,8,0:0:0:0:
400,128,117578,1,8,0:0:0:0:
400,128,117698,1,8,0:0:0:0:
304,160,117818,1,8,0:0:0:0:
400,128,117938,1,8,0:0:0:0:
312,152,118058,1,12,0:0:0:0:
400,128,118178,1,8,0:0:0:0:
400,128,118298,1,8,0:0:0:0:
400,128,118418,1,8,0:0:0:0:
248,160,118538,1,8,0:0:0:0:
400,128,118658,1,8,0:0:0:0:
304,160,118778,1,8,0:0:0:0:
240,136,118898,1,8,0:0:0:0:
304,160,119018,1,12,0:0:0:0:
400,128,119138,1,8,0:0:0:0:
400,128,119258,1,8,0:0:0:0:
400,128,119378,1,8,0:0:0:0:
400,128,119498,1,8,0:0:0:0:
400,128,119618,1,8,0:0:0:0:
288,208,119738,1,8,0:0:0:0:
400,128,119858,1,8,0:0:0:0:
288,200,119978,1,12,0:0:0:0:
400,128,120098,1,8,0:0:0:0:
400,128,120218,1,8,0:0:0:0:
400,128,120338,1,8,0:0:0:0:
400,128,120458,1,8,0:0:0:0:
400,128,120578,1,8,0:0:0:0:
296,192,120698,1,8,0:0:0:0:
400,128,120818,1,8,0:0:0:0:
296,192,120938,1,12,0:0:0:0:
400,128,121058,1,8,0:0:0:0:
400,128,121178,1,8,0:0:0:0:
248,120,121298,1,8,0:0:0:0:
400,128,121418,1,8,0:0:0:0:
400,128,121538,1,8,0:0:0:0:
344,192,121658,1,8,0:0:0:0:
400,128,121778,1,8,0:0:0:0:
344,192,121898,1,12,0:0:0:0:
400,128,122018,1,8,0:0:0:0:
400,128,122138,1,8,0:0:0:0:
400,128,122258,1,8,0:0:0:0:
400,128,122378,1,8,0:0:0:0:
400,128,122498,1,8,0:0:0:0:
344,224,122618,1,8,0:0:0:0:
400,128,122738,1,8,0:0:0:0:
344,232,122858,1,12,0:0:0:0:
400,128,122978,1,8,0:0:0:0:
400,128,123098,1,8,0:0:0:0:
400,128,123218,1,8,0:0:0:0:
400,128,123338,1,8,0:0:0:0:
400,128,123458,1,8,0:0:0:0:
328,184,123578,1,8,0:0:0:0:
400,128,123698,1,8,0:0:0:0:
328,184,123818,1,12,0:0:0:0:
400,128,123938,1,8,0:0:0:0:
400,128,124058,1,8,0:0:0:0:
352,176,124178,1,8,0:0:0:0:
400,128,124298,1,8,0:0:0:0:
400,128,124418,1,8,0:0:0:0:
352,176,124538,1,8,0:0:0:0:
400,128,124658,1,8,0:0:0:0:
352,176,124778,1,12,0:0:0:0:
400,128,124898,1,8,0:0:0:0:
400,128,125018,1,8,0:0:0:0:
400,128,125138,1,8,0:0:0:0:
400,128,125258,1,8,0:0:0:0:
400,128,125378,1,8,0:0:0:0:
320,280,125498,1,8,0:0:0:0:
312,200,125618,1,8,0:0:0:0:
320,280,125738,1,12,0:0:0:0:
312,200,125858,1,8,0:0:0:0:
312,200,125978,1,8,0:0:0:0:
352,216,126098,1,8,0:0:0:0:
312,200,126218,1,8,0:0:0:0:
312,200,126338,1,8,0:0:0:0:
400,240,126458,1,8,0:0:0:0:
312,200,126578,1,8,0:0:0:0:
400,240,126698,1,12,0:0:0:0:
272,120,126818,1,8,0:0:0:0:
224,184,126938,1,8,0:0:0:0:
240,128,127178,1,8,0:0:0:0:
368,88,127298,1,8,0:0:0:0:
184,160,127358,1,8,0:0:0:0:
224,120,127418,1,8,0:0:0:0:
160,144,127538,1,8,0:0:0:0:
168,144,127598,1,8,0:0:0:0:
288,64,127658,1,8,0:0:0:0:
288,64,127778,1,8,0:0:0:0:
240,112,127898,1,8,0:0:0:0:
240,96,128018,1,8,0:0:0:0:
240,96,128138,1,8,0:0:0:0:
240,96,128258,1,8,0:0:0:0:
256,120,128378,1,8,0:0:0:0:
216,192,128438,1,8,0:0:0:0:
240,136,128498,1,8,0:0:0:0:
400,144,128558,1,8,0:0:0:0:
168,208,128618,1,8,0:0:0:0:
168,208,128678,1,8,0:0:0:0:
168,208,128738,1,8,0:0:0:0:
168,208,128798,1,8,0:0:0:0:
176,192,128858,1,8,0:0:0:0:
224,152,128918,1,8,0:0:0:0:
224,152,128978,1,8,0:0:0:0:
224,152,129038,1,8,0:0:0:0:
224,152,129098,1,8,0:0:0:0:
224,152,129158,1,8,0:0:0:0:
224,152,129218,1,8,0:0:0:0:
224,152,129278,1,8,0:0:0:0:
224,152,129338,1,8,0:0:0:0:
224,152,129398,1,8,0:0:0:0:
224,152,129458,1,8,0:0:0:0:
224,152,129518,1,8,0:0:0:0:
384,240,129578,1,8,0:0:0:0:
240,200,129638,1,8,0:0:0:0:
248,192,129698,1,8,0:0:0:0:
248,192,129758,1,8,0:0:0:0:
248,192,129818,1,8,0:0:0:0:
248,192,129878,1,8,0:0:0:0:
248,192,129938,1,8,0:0:0:0:
248,192,129998,1,8,0:0:0:0:
248,192,130058,1,8,0:0:0:0:
248,192,130118,1,8,0:0:0:0:
248,192,130178,1,8,0:0:0:0:
248,192,130238,1,8,0:0:0:0:
248,192,130298,1,8,0:0:0:0:
248,192,130358,1,8,0:0:0:0:
248,192,130418,1,8,0:0:0:0:
248,192,130478,1,8,0:0:0:0:
248,192,130538,1,8,0:0:0:0:
264,224,130598,1,8,0:0:0:0:
264,224,130658,1,8,0:0:0:0:
264,224,130718,1,8,0:0:0:0:
264,224,130778,1,8,0:0:0:0:
264,224,130838,1,8,0:0:0:0:
264,224,130898,1,8,0:0:0:0:
264,224,130958,1,8,0:0:0:0:
264,224,131018,1,8,0:0:0:0:
264,224,131078,1,8,0:0:0:0:
264,224,131138,1,8,0:0:0:0:
264,224,131198,1,8,0:0:0:0:
264,224,131258,1,8,0:0:0:0:
264,224,131318,1,8,0:0:0:0:
264,224,131378,1,8,0:0:0:0:
264,224,131438,1,8,0:0:0:0:
264,224,131498,1,8,0:0:0:0:
288,208,131558,1,8,0:0:0:0:
288,208,131618,1,8,0:0:0:0:
288,208,131678,1,8,0:0:0:0:
320,216,131738,1,8,0:0:0:0:
256,256,131798,1,8,0:0:0:0:
256,240,131858,1,8,0:0:0:0:
256,240,131918,1,8,0:0:0:0:
256,240,131978,1,8,0:0:0:0:
184,120,132038,1,8,0:0:0:0:
176,120,132098,1,8,0:0:0:0:
176,120,132158,1,8,0:0:0:0:
176,120,132218,1,8,0:0:0:0:
176,120,132278,1,8,0:0:0:0:
176,120,132338,1,8,0:0:0:0:
176,120,132398,1,8,0:0:0:0:
176,120,132458,1,8,0:0:0:0:
184,152,132518,1,8,0:0:0:0:
184,152,132578,1,8,0:0:0:0:
184,152,132638,1,8,0:0:0:0:
184,152,132698,1,8,0:0:0:0:
184,152,132758,1,8,0:0:0:0:
184,152,132818,1,8,0:0:0:0:
184,152,132878,1,8,0:0:0:0:
184,152,132938,1,8,0:0:0:0:
184,152,132998,1,8,0:0:0:0:
184,152,133058,1,8,0:0:0:0:
184,152,133118,1,8,0:0:0:0:
184,152,133178,1,8,0:0:0:0:
184,152,133238,1,8,0:0:0:0:
184,152,133298,1,8,0:0:0:0:
184,152,133358,1,8,0:0:0:0:
184,144,133418,1,8,0:0:0:0:
224,96,133478,1,8,0:0:0:0:
224,96,133538,1,8,0:0:0:0:
224,96,133598,1,8,0:0:0:0:
224,96,133658,1,8,0:0:0:0:
224,96,133718,1,8,0:0:0:0:
224,96,133778,1,8,0:0:0:0:
224,96,133838,1,8,0:0:0:0:
224,96,133898,1,8,0:0:0:0:
224,96,133958,1,8,0:0:0:0:
224,96,134018,1,8,0:0:0:0:
224,96,134078,1,8,0:0:0:0:
224,96,134138,1,8,0:0:0:0:
192,96,134198,1,8,0:0:0:0:
232,264,134258,1,8,0:0:0:0:
232,264,134318,1,8,0:0:0:0:
232,264,134378,1,8,0:0:0:0:
224,280,134438,1,8,0:0:0:0:
224,280,134498,1,8,0:0:0:0:
224,280,134558,1,8,0:0:0:0:
224,280,134618,1,8,0:0:0:0:
224,280,134678,1,8,0:0:0:0:
224,280,134738,1,8,0:0:0:0:
224,280,134798,1,8,0:0:0:0:
216,272,134858,1,8,0:0:0:0:
216,272,134918,1,8,0:0:0:0:
216,272,134978,1,8,0:0:0:0:
216,272,135038,1,8,0:0:0:0:
216,256,135098,1,8,0:0:0:0:
216,256,135158,1,8,0:0:0:0:
216,256,135218,1,8,0:0:0:0:
216,256,135278,1,8,0:0:0:0:
240,168,135338,1,8,0:0:0:0:
240,168,135398,1,8,0:0:0:0:
224,168,135458,1,8,0:0:0:0:
224,168,135518,1,8,0:0:0:0:
216,168,135578,1,8,0:0:0:0:
216,168,135638,1,8,0:0:0:0:
216,168,135698,1,8,0:0:0:0:
216,168,135758,1,8,0:0:0:0:
96,144,135818,1,8,0:0:0:0:
96,144,135878,1,8,0:0:0:0:
96,144,135938,1,8,0:0:0:0:
96,144,135998,1,8,0:0:0:0:
96,144,136058,1,8,0:0:0:0:
96,144,136118,1,8,0:0:0:0:
96,144,136178,1,8,0:0:0:0:
96,144,136238,1,8,0:0:0:0:
96,144,136298,1,12,0:0:0:0:
304,144,136418,1,8,0:0:0:0:
304,144,136538,1,8,0:0:0:0:
304,144,136658,1,8,0:0:0:0:
296,128,136778,1,8,0:0:0:0:
296,128,136898,1,8,0:0:0:0:
344,176,137018,1,8,0:0:0:0:
344,176,137138,1,8,0:0:0:0:
288,144,137258,1,12,0:0:0:0:
360,224,137378,1,8,0:0:0:0:
368,216,137498,1,8,0:0:0:0:
368,216,137618,1,8,0:0:0:0:
176,168,137738,1,8,0:0:0:0:
176,168,137858,1,8,0:0:0:0:
184,168,137978,1,8,0:0:0:0:
184,168,138098,1,8,0:0:0:0:
288,176,138218,1,12,0:0:0:0:
256,216,138338,1,8,0:0:0:0:
256,216,138458,1,8,0:0:0:0:
256,216,138578,1,8,0:0:0:0:
256,216,138698,1,8,0:0:0:0:
248,208,138818,1,8,0:0:0:0:
248,208,138938,1,8,0:0:0:0:
248,208,139058,1,8,0:0:0:0:
296,184,139178,1,12,0:0:0:0:
368,224,139298,1,8,0:0:0:0:
240,104,139418,1,8,0:0:0:0:
280,152,139538,1,12,0:0:0:0:
240,112,139658,1,8,0:0:0:0:
240,120,139778,1,8,0:0:0:0:
280,152,139898,1,12,0:0:0:0:
272,120,140018,1,8,0:0:0:0:
296,152,140138,1,12,0:0:0:0:
192,80,140258,1,8,0:0:0:0:
192,88,140378,1,8,0:0:0:0:
208,88,140498,1,8,0:0:0:0:
352,168,140618,1,12,0:0:0:0:
208,88,140738,1,8,0:0:0:0:
208,88,140858,1,8,0:0:0:0:
208,88,140978,1,8,0:0:0:0:
272,160,141098,1,12,0:0:0:0:
224,88,141218,1,8,0:0:0:0:
232,88,141338,1,8,0:0:0:0:
240,80,141458,1,8,0:0:0:0:
392,112,141578,1,12,0:0:0:0:
240,80,141698,1,8,0:0:0:0:
240,80,141818,1,8,0:0:0:0:
240,80,141938,1,8,0:0:0:0:
392,120,142058,1,12,0:0:0:0:
264,224,142298,1,8,0:0:0:0:
304,200,142538,1,8,0:0:0:0:
312,200,142658,1,8,0:0:0:0:
312,200,142778,1,8,0:0:0:0:
280,176,143018,1,8,0:0:0:0:
288,192,143498,1,8,0:0:0:0:
328,192,143618,1,8,0:0:0:0:
328,192,143738,1,8,0:0:0:0:
328,192,143858,1,8,0:0:0:0:
352,112,143978,1,12,0:0:0:0:
304,192,144218,1,8,0:0:0:0:
304,200,144458,1,8,0:0:0:0:
304,200,144578,1,8,0:0:0:0:
304,216,144698,1,8,0:0:0:0:
208,152,144938,1,8,0:0:0:0:
312,200,145178,1,8,0:0:0:0:
320,152,145298,1,8,0:0:0:0:
352,168,145538,1,8,0:0:0:0:
352,168,145658,1,8,0:0:0:0:
352,168,145898,1,8,0:0:0:0:
256,240,146138,1,8,0:0:0:0:
408,272,146378,1,8,0:0:0:0:
400,272,146498,1,8,0:0:0:0:
400,264,146618,1,8,0:0:0:0:
160,240,146858,1,8,0:0:0:0:
176,96,147098,1,8,0:0:0:0:
192,112,147218,1,8,0:0:0:0:
208,112,147458,1,8,0:0:0:0:
208,112,147578,1,8,0:0:0:0:
264,112,147818,1,8,0:0:0:0:
280,160,148058,1,8,0:0:0:0:
288,160,148298,1,8,0:0:0:0:
288,160,148418,1,8,0:0:0:0:
288,160,148538,1,8,0:0:0:0:
336,192,148778,1,8,0:0:0:0:
392,192,149018,1,8,0:0:0:0:
376,200,149258,1,8,0:0:0:0:
328,176,149378,1,8,0:0:0:0:
328,192,149498,1,8,0:0:0:0:
232,176,149618,1,8,0:0:0:0:
232,176,149738,1,8,0:0:0:0:
272,216,149978,1,8,0:0:0:0:
280,216,150098,1,8,0:0:0:0:
296,208,150338,1,8,0:0:0:0:
296,208,150458,1,8,0:0:0:0:
352,160,150578,1,8,0:0:0:0:
344,160,150698,1,8,0:0:0:0:
280,168,150818,1,8,0:0:0:0:
280,168,150938,1,12,0:0:0:0:
288,176,151058,1,8,0:0:0:0:
288,176,151178,1,8,0:0:0:0:
288,176,151298,1,12,0:0:0:0:
288,176,151418,1,8,0:0:0:0:
240,176,151538,1,8,0:0:0:0:
312,192,151658,1,12,0:0:0:0:
288,128,151898,1,8,0:0:0:0:
272,136,152018,1,8,0:0:0:0:
288,136,152138,1,8,0:0:0:0:
288,168,152198,1,8,0:0:0:0:
352,144,152258,1,8,0:0:0:0:
288,144,152378,1,8,0:0:0:0:
352,168,152498,1,8,0:0:0:0:
224,96,152558,1,8,0:0:0:0:
288,144,152618,1,8,0:0:0:0:
224,96,152678,1,8,0:0:0:0:
224,200,152738,1,8,0:0:0:0:
288,144,152858,1,8,0:0:0:0:
256,200,152978,1,8,0:0:0:0:
232,152,153038,1,8,0:0:0:0:
296,104,153098,1,8,0:0:0:0:
256,192,153218,1,8,0:0:0:0:
304,128,153338,1,8,0:0:0:0:
232,208,153398,1,8,0:0:0:0:
256,184,153458,1,8,0:0:0:0:
224,216,153518,1,8,0:0:0:0:
304,128,153578,1,8,0:0:0:0:
264,200,153698,1,8,0:0:0:0:
304,120,153818,1,8,0:0:0:0:
272,216,153938,1,8,0:0:0:0:
320,312,153998,1,8,0:0:0:0:
312,112,154058,1,8,0:0:0:0:
320,304,154118,1,8,0:0:0:0:
232,144,154178,1,8,0:0:0:0:
312,112,154298,1,8,0:0:0:0:
248,152,154418,1,8,0:0:0:0:
304,120,154538,1,8,0:0:0:0:
168,80,154598,1,8,0:0:0:0:
256,152,154658,1,8,0:0:0:0:
248,48,154718,1,8,0:0:0:0:
312,120,154778,1,8,0:0:0:0:
192,96,154838,1,8,0:0:0:0:
264,152,154898,1,8,0:0:0:0:
256,80,154958,1,8,0:0:0:0:
320,128,155018,1,8,0:0:0:0:
192,96,155078,1,8,0:0:0:0:
272,144,155138,1,8,0:0:0:0:
328,144,155258,1,8,0:0:0:0:
272,144,155378,1,8,0:0:0:0:
368,224,155498,1,8,0:0:0:0:
368,224,155558,1,8,0:0:0:0:
288,144,155618,1,8,0:0:0:0:
184,184,155678,1,8,0:0:0:0:
280,192,155738,1,8,0:0:0:0:
264,208,155858,1,8,0:0:0:0:
272,184,155978,1,8,0:0:0:0:
296,240,156218,1,8,0:0:0:0:
296,240,156278,1,8,0:0:0:0:
296,240,156338,1,8,0:0:0:0:
40,144,156458,1,8,0:0:0:0:
408,104,156698,1,8,0:0:0:0:
288,200,156938,1,8,0:0:0:0:
280,200,157058,1,8,0:0:0:0:
344,248,157178,1,8,0:0:0:0:
344,248,157298,1,8,0:0:0:0:
336,240,157418,1,12,0:0:0:0:
336,240,157538,1,8,0:0:0:0:
336,240,157658,1,8,0:0:0:0:
336,240,157778,1,8,0:0:0:0:
336,240,157898,1,8,0:0:0:0:
168,168,157958,1,8,0:0:0:0:
248,120,158018,1,8,0:0:0:0:
224,144,158078,1,8,0:0:0:0:
248,120,158138,1,8,0:0:0:0:
240,152,158258,1,8,0:0:0:0:
280,224,158378,2,8,L|240:200,14,35
248,264,159338,1,12,0:0:0:0:
272,208,159458,1,8,0:0:0:0:
272,208,159518,1,8,0:0:0:0:
272,224,159578,1,8,0:0:0:0:
304,224,159698,1,8,0:0:0:0:
304,224,159818,1,8,0:0:0:0:
352,224,159878,1,8,0:0:0:0:
352,224,159938,1,8,0:0:0:0:
192,152,159998,1,8,0:0:0:0:
352,224,160058,1,8,0:0:0:0:
352,224,160178,1,8,0:0:0:0:
296,272,160298,1,8,0:0:0:0:
296,272,160358,1,8,0:0:0:0:
296,272,160418,1,8,0:0:0:0:
296,272,160538,1,8,0:0:0:0:
296,272,160658,1,8,0:0:0:0:
192,128,160718,1,8,0:0:0:0:
192,168,160778,1,8,0:0:0:0:
192,168,160838,1,8,0:0:0:0:
192,168,160898,1,8,0:0:0:0:
232,192,161018,1,8,0:0:0:0:
232,192,161138,1,8,0:0:0:0:
232,192,161198,1,8,0:0:0:0:
232,192,161258,1,8,0:0:0:0:
240,264,161378,1,8,0:0:0:0:
224,256,161498,1,8,0:0:0:0:
224,240,161558,1,8,0:0:0:0:
224,256,161618,1,8,0:0:0:0:
224,256,161678,1,8,0:0:0:0:
224,256,161738,1,8,0:0:0:0:
328,256,161858,1,8,0:0:0:0:
328,256,161978,1,8,0:0:0:0:
328,256,162038,1,8,0:0:0:0:
328,256,162098,1,8,0:0:0:0:
328,256,162218,1,8,0:0:0:0:
328,256,162338,1,8,0:0:0:0:
328,256,162398,1,8,0:0:0:0:
328,256,162458,1,8,0:0:0:0:
328,264,162518,1,8,0:0:0:0:
328,264,162578,1,8,0:0:0:0:
376,216,162638,1,8,0:0:0:0:
376,216,162698,1,8,0:0:0:0:
376,216,162758,1,8,0:0:0:0:
376,216,162818,1,8,0:0:0:0:
376,216,162878,1,8,0:0:0:0:
376,216,162938,1,8,0:0:0:0:
376,216,162998,1,8,0:0:0:0:
376,216,163058,1,8,0:0:0:0:
224,32,163178,1,8,0:0:0:0:
192,176,163298,1,8,0:0:0:0:
192,176,163418,1,8,0:0:0:0:
192,176,163478,1,8,0:0:0:0:
192,176,163538,1,8,0:0:0:0:
192,176,163658,1,8,0:0:0:0:
192,176,163778,1,8,0:0:0:0:
192,176,163838,1,8,0:0:0:0:
192,176,163898,1,8,0:0:0:0:
192,176,163958,1,8,0:0:0:0:
192,176,164018,1,8,0:0:0:0:
192,176,164138,1,8,0:0:0:0:
240,176,164258,1,8,0:0:0:0:
240,176,164318,1,8,0:0:0:0:
240,176,164378,1,8,0:0:0:0:
240,176,164498,1,8,0:0:0:0:
240,176,164558,1,8,0:0:0:0:
240,176,164618,1,8,0:0:0:0:
208,192,164738,1,8,0:0:0:0:
208,184,164798,1,8,0:0:0:0:
208,184,164858,1,8,0:0:0:0:
216,176,164978,1,8,0:0:0:0:
312,232,165098,1,8,0:0:0:0:
336,144,165158,1,8,0:0:0:0:
336,144,165218,1,8,0:0:0:0:
336,144,165278,1,8,0:0:0:0:
256,240,165338,1,8,0:0:0:0:
336,136,165398,1,8,0:0:0:0:
280,208,165458,1,8,0:0:0:0:
232,56,165518,1,8,0:0:0:0:
336,136,165578,1,8,0:0:0:0:
336,136,165638,1,8,0:0:0:0:
240,232,165698,1,8,0:0:0:0:
336,128,165758,1,8,0:0:0:0:
200,152,165818,1,8,0:0:0:0:
336,128,165878,1,8,0:0:0:0:
208,144,165938,1,8,0:0:0:0:
208,144,165998,1,8,0:0:0:0:
336,128,166058,1,8,0:0:0:0:
232,184,166118,1,8,0:0:0:0:
336,128,166178,1,8,0:0:0:0:
232,120,166238,1,8,0:0:0:0:
336,128,166298,1,8,0:0:0:0:
240,72,166358,1,8,0:0:0:0:
240,80,166418,1,8,0:0:0:0:
336,128,166478,1,8,0:0:0:0:
216,152,166538,1,8,0:0:0:0:
224,152,166598,1,8,0:0:0:0:
224,152,166658,1,8,0:0:0:0:
224,152,166718,1,8,0:0:0:0:
336,232,166778,1,8,0:0:0:0:
336,232,166898,1,8,0:0:0:0:
192,208,167018,1,8,0:0:0:0:
160,144,167078,1,8,0:0:0:0:
160,144,167138,1,8,0:0:0:0:
160,144,167198,1,8,0:0:0:0:
288,240,167258,1,8,0:0:0:0:
160,144,167318,1,8,0:0:0:0:
232,240,167378,1,8,0:0:0:0:
160,144,167438,1,8,0:0:0:0:
232,240,167498,1,8,0:0:0:0:
160,136,167558,1,8,0:0:0:0:
232,240,167618,1,8,0:0:0:0:
264,152,167678,1,8,0:0:0:0:
232,240,167738,1,8,0:0:0:0:
264,152,167798,1,8,0:0:0:0:
232,240,167858,1,8,0:0:0:0:
264,152,167918,1,8,0:0:0:0:
232,240,167978,1,8,0:0:0:0:
256,144,168038,1,8,0:0:0:0:
224,248,168098,1,8,0:0:0:0:
272,144,168158,1,8,0:0:0:0:
224,248,168218,1,8,0:0:0:0:
272,136,168278,1,8,0:0:0:0:
280,240,168338,1,8,0:0:0:0:
272,144,168398,1,8,0:0:0:0:
280,240,168458,1,8,0:0:0:0:
272,144,168518,1,8,0:0:0:0:
280,240,168578,1,8,0:0:0:0:
272,144,168638,1,8,0:0:0:0:
280,240,168698,1,8,0:0:0:0:
288,168,168758,1,8,0:0:0:0:
288,144,168818,1,8,0:0:0:0:
288,168,168878,1,8,0:0:0:0:
288,144,168938,1,8,0:0:0:0:
288,168,168998,1,8,0:0:0:0:
280,176,169058,1,8,0:0:0:0:
288,168,169118,1,8,0:0:0:0:
280,176,169178,1,8,0:0:0:0:
288,168,169238,1,8,0:0:0:0:
280,176,169298,1,8,0:0:0:0:
288,168,169358,1,8,0:0:0:0:
280,176,169418,1,8,0:0:0:0:
288,168,169478,1,8,0:0:0:0:
296,168,169538,1,8,0:0:0:0:
288,168,169598,1,8,0:0:0:0:
288,184,169658,1,8,0:0:0:0:
288,168,169718,1,8,0:0:0:0:
288,184,169778,1,8,0:0:0:0:
288,168,169838,1,8,0:0:0:0:
296,184,169898,1,8,0:0:0:0:
288,168,169958,1,8,0:0:0:0:
296,184,170018,1,8,0:0:0:0:
288,168,170078,1,8,0:0:0:0:
296,184,170138,1,8,0:0:0:0:
288,168,170198,1,8,0:0:0:0:
288,136,170258,1,8,0:0:0:0:
288,168,170318,1,8,0:0:0:0:
256,160,170378,1,8,0:0:0:0:
288,168,170438,1,8,0:0:0:0:
328,128,170498,1,8,0:0:0:0:
288,168,170558,1,8,0:0:0:0:
320,128,170618,1,8,0:0:0:0:
288,168,170678,1,8,0:0:0:0:
264,208,170738,1,8,0:0:0:0:
288,168,170798,1,8,0:0:0:0:
264,208,170858,1,8,0:0:0:0:
288,168,170918,1,8,0:0:0:0:
296,200,170978,1,8,0:0:0:0:
288,168,171038,1,8,0:0:0:0:
296,200,171098,1,8,0:0:0:0:
288,168,171158,1,8,0:0:0:0:
296,200,171218,1,8,0:0:0:0:
288,168,171278,1,8,0:0:0:0:
296,200,171338,1,8,0:0:0:0:
288,168,171398,1,8,0:0:0:0:
288,224,171458,1,8,0:0:0:0:
288,168,171518,1,8,0:0:0:0:
304,248,171578,1,8,0:0:0:0:
288,168,171638,1,8,0:0:0:0:
312,264,171698,1,8,0:0:0:0:
288,168,171758,1,8,0:0:0:0:
312,264,171818,1,8,0:0:0:0:
288,168,171878,1,8,0:0:0:0:
368,248,171938,1,8,0:0:0:0:
288,168,171998,1,8,0:0:0:0:
368,248,172058,1,8,0:0:0:0:
288,168,172118,1,8,0:0:0:0:
264,160,172178,1,8,0:0:0:0:
288,168,172238,1,8,0:0:0:0:
256,144,172298,1,8,0:0:0:0:
288,168,172358,1,8,0:0:0:0:
288,136,172418,1,8,0:0:0:0:
288,168,172478,1,8,0:0:0:0:
288,136,172538,1,8,0:0:0:0:
288,168,172598,1,8,0:0:0:0:
352,168,172658,1,8,0:0:0:0:
288,168,172718,1,8,0:0:0:0:
360,176,172778,1,8,0:0:0:0:
320,200,172838,1,8,0:0:0:0:
320,200,172898,1,8,0:0:0:0:
320,200,172958,1,8,0:0:0:0:
272,184,173018,1,8,0:0:0:0:
320,200,173078,1,8,0:0:0:0:
272,184,173138,1,8,0:0:0:0:
320,200,173198,1,8,0:0:0:0:
248,120,173258,1,8,0:0:0:0:
328,216,173318,1,8,0:0:0:0:
328,216,173378,1,8,0:0:0:0:
224,72,173438,1,8,0:0:0:0:
168,176,173498,1,8,0:0:0:0:
256,136,173558,1,8,0:0:0:0:
176,176,173618,1,8,0:0:0:0:
256,136,173678,1,8,0:0:0:0:
192,144,173738,1,8,0:0:0:0:
240,120,173818,1,8,0:0:0:0:
224,152,173898,1,8,0:0:0:0:
224,152,173978,1,8,0:0:0:0:
224,152,174058,1,8,0:0:0:0:
224,144,174138,1,8,0:0:0:0:
224,144,174218,1,8,0:0:0:0:
224,144,174298,1,8,0:0:0:0:
224,144,174378,1,8,0:0:0:0:
224,144,174458,1,8,0:0:0:0:
224,144,174538,1,8,0:0:0:0:
224,144,174618,1,8,0:0:0:0:
288,192,174698,1,12,0:0:0:0:
288,128,174818,1,8,0:0:0:0:
288,128,174938,1,8,0:0:0:0:
296,176,175058,1,8,0:0:0:0:
304,168,175118,1,8,0:0:0:0:
304,168,175178,1,8,0:0:0:0:
312,168,175298,1,8,0:0:0:0:
312,168,175418,1,8,0:0:0:0:
264,136,175478,1,8,0:0:0:0:
208,104,175538,1,8,0:0:0:0:
288,136,175658,1,8,0:0:0:0:
288,144,175778,1,8,0:0:0:0:
288,144,175838,1,8,0:0:0:0:
288,152,175898,1,8,0:0:0:0:
288,152,176018,1,8,0:0:0:0:
288,152,176138,1,8,0:0:0:0:
288,152,176198,1,8,0:0:0:0:
288,152,176258,1,8,0:0:0:0:
248,176,176378,1,8,0:0:0:0:
248,176,176498,1,8,0:0:0:0:
248,176,176558,1,8,0:0:0:0:
248,176,176618,1,8,0:0:0:0:
200,136,176738,1,8,0:0:0:0:
344,184,176858,1,8,0:0:0:0:
200,136,176918,1,8,0:0:0:0:
336,176,176978,1,8,0:0:0:0:
336,176,177098,1,8,0:0:0:0:
312,184,177218,1,8,0:0:0:0:
336,176,177278,1,8,0:0:0:0:
464,176,177338,1,8,0:0:0:0:
456,192,177458,1,8,0:0:0:0:
432,192,177578,1,8,0:0:0:0:
456,184,177638,1,8,0:0:0:0:
256,216,177698,1,8,0:0:0:0:
256,216,177818,1,8,0:0:0:0:
256,216,177938,1,8,0:0:0:0:
256,216,177998,1,8,0:0:0:0:
256,216,178058,1,8,0:0:0:0:
208,176,178178,1,8,0:0:0:0:
216,168,178238,1,8,0:0:0:0:
216,168,178298,1,8,0:0:0:0:
216,168,178358,1,8,0:0:0:0:
216,168,178418,1,8,0:0:0:0:
208,184,178538,1,8,0:0:0:0:
288,128,178658,1,8,0:0:0:0:
288,128,178778,1,8,0:0:0:0:
296,176,178898,1,8,0:0:0:0:
304,168,178958,1,8,0:0:0:0:
304,168,179018,1,8,0:0:0:0:
312,168,179138,1,8,0:0:0:0:
312,168,179258,1,8,0:0:0:0:
264,136,179318,1,8,0:0:0:0:
208,104,179378,1,8,0:0:0:0:
288,136,179498,1,8,0:0:0:0:
288,144,179618,1,8,0:0:0:0:
288,144,179678,1,8,0:0:0:0:
288,152,179738,1,8,0:0:0:0:
288,152,179858,1,8,0:0:0:0:
288,152,179978,1,8,0:0:0:0:
288,152,180038,1,8,0:0:0:0:
288,152,180098,1,8,0:0:0:0:
248,176,180218,1,8,0:0:0:0:
248,176,180338,1,8,0:0:0:0:
248,176,180398,1,8,0:0:0:0:
248,176,180458,1,8,0:0:0:0:
200,136,180578,1,8,0:0:0:0:
344,184,180698,1,8,0:0:0:0:
200,136,180758,1,8,0:0:0:0:
336,176,180818,1,8,0:0:0:0:
336,176,180938,1,8,0:0:0:0:
312,184,181058,1,8,0:0:0:0:
336,176,181118,1,8,0:0:0:0:
464,176,181178,1,8,0:0:0:0:
456,192,181298,1,8,0:0:0:0:
432,192,181418,1,8,0:0:0:0:
456,184,181478,1,8,0:0:0:0:
256,216,181538,1,8,0:0:0:0:
256,216,181658,1,8,0:0:0:0:
256,216,181778,1,8,0:0:0:0:
256,216,181838,1,8,0:0:0:0:
256,216,181898,1,8,0:0:0:0:
208,176,182018,1,8,0:0:0:0:
280,96,182138,1,12,0:0:0:0:
296,160,182378,1,12,0:0:0:0:
232,192,182618,1,8,0:0:0:0:
240,224,182858,1,8,0:0:0:0:
240,224,182978,1,8,0:0:0:0:
240,216,183098,1,8,0:0:0:0:
320,184,183338,1,8,0:0:0:0:
328,192,183578,1,8,0:0:0:0:
336,192,183818,1,8,0:0:0:0:
336,192,183938,1,8,0:0:0:0:
336,192,184058,1,8,0:0:0:0:
336,192,184178,1,8,0:0:0:0:
336,192,184298,1,8,0:0:0:0:
376,240,184538,1,8,0:0:0:0:
384,232,184778,1,8,0:0:0:0:
384,232,184898,1,8,0:0:0:0:
384,232,185018,1,8,0:0:0:0:
392,240,185138,1,8,0:0:0:0:
392,240,185258,1,8,0:0:0:0:
392,240,185378,1,8,0:0:0:0:
400,248,185498,1,8,0:0:0:0:
320,136,185738,1,8,0:0:0:0:
280,176,185978,1,8,0:0:0:0:
280,168,186098,1,8,0:0:0:0:
280,168,186218,1,12,0:0:0:0:
256,136,186458,1,8,0:0:0:0:
232,152,186698,1,8,0:0:0:0:
232,144,186818,1,8,0:0:0:0:
232,144,186938,1,8,0:0:0:0:
240,136,187178,1,8,0:0:0:0:
256,136,187418,1,8,0:0:0:0:
280,144,187538,1,8,0:0:0:0:
280,144,187658,1,8,0:0:0:0:
272,144,187778,1,8,0:0:0:0:
272,144,187898,1,8,0:0:0:0:
280,152,188138,1,8,0:0:0:0:
272,184,188378,1,8,0:0:0:0:
272,168,188498,1,8,0:0:0:0:
272,168,188618,1,8,0:0:0:0:
272,168,188738,1,8,0:0:0:0:
272,168,188858,1,8,0:0:0:0:
272,168,188978,1,8,0:0:0:0:
272,184,189098,1,8,0:0:0:0:
232,120,189338,1,8,0:0:0:0:
232,120,189458,1,8,0:0:0:0:
232,120,189578,1,8,0:0:0:0:
232,120,189698,1,8,0:0:0:0:
232,120,189818,1,8,0:0:0:0:
240,208,189938,1,8,0:0:0:0:
296,128,190058,1,8,0:0:0:0:
168,168,190118,1,8,0:0:0:0:
176,168,190178,1,8,0:0:0:0:
176,168,190238,1,8,0:0:0:0:
176,168,190298,1,8,0:0:0:0:
176,168,190358,1,8,0:0:0:0:
176,168,190418,1,8,0:0:0:0:
176,168,190478,1,8,0:0:0:0:
240,136,190538,1,8,0:0:0:0:
240,136,190598,1,8,0:0:0:0:
240,136,190658,1,8,0:0:0:0:
240,136,190718,1,8,0:0:0:0:
240,136,190778,1,8,0:0:0:0:
240,136,190838,1,8,0:0:0:0:
240,136,190898,1,8,0:0:0:0:
240,136,190958,1,8,0:0:0:0:
240,136,191018,1,8,0:0:0:0:
240,136,191078,1,8,0:0:0:0:
240,136,191138,1,8,0:0:0:0:
240,136,191198,1,8,0:0:0:0:
240,136,191258,1,8,0:0:0:0:
240,136,191318,1,8,0:0:0:0:
240,136,191378,1,8,0:0:0:0:
240,136,191438,1,8,0:0:0:0:
240,136,191498,1,8,0:0:0:0:
240,136,191558,1,8,0:0:0:0:
240,136,191618,1,8,0:0:0:0:
240,136,191678,1,8,0:0:0:0:
240,136,191738,1,8,0:0:0:0:
240,136,191798,1,8,0:0:0:0:
240,136,191858,1,8,0:0:0:0:
240,136,191918,1,8,0:0:0:0:
320,168,191978,1,8,0:0:0:0:
272,104,192038,1,8,0:0:0:0:
272,104,192098,1,8,0:0:0:0:
272,104,192158,1,8,0:0:0:0:
272,104,192218,1,8,0:0:0:0:
272,104,192278,1,8,0:0:0:0:
272,104,192338,1,8,0:0:0:0:
272,104,192398,1,8,0:0:0:0:
272,104,192458,1,8,0:0:0:0:
272,104,192518,1,8,0:0:0:0:
272,104,192578,1,8,0:0:0:0:
272,104,192638,1,8,0:0:0:0:
272,104,192698,1,8,0:0:0:0:
272,104,192758,1,8,0:0:0:0:
272,104,192818,1,8,0:0:0:0:
272,104,192878,1,8,0:0:0:0:
272,104,192938,1,8,0:0:0:0:
272,104,192998,1,8,0:0:0:0:
272,104,193058,1,8,0:0:0:0:
272,104,193118,1,8,0:0:0:0:
272,104,193178,1,8,0:0:0:0:
272,104,193238,1,8,0:0:0:0:
272,104,193298,1,8,0:0:0:0:
272,104,193358,1,8,0:0:0:0:
272,104,193418,1,8,0:0:0:0:
272,104,193478,1,8,0:0:0:0:
272,104,193538,1,8,0:0:0:0:
272,104,193598,1,8,0:0:0:0:
272,104,193658,1,8,0:0:0:0:
272,104,193718,1,8,0:0:0:0:
272,104,193778,1,8,0:0:0:0:
272,104,193838,1,8,0:0:0:0:
272,104,193898,1,8,0:0:0:0:
272,104,193958,1,8,0:0:0:0:
272,104,194018,1,8,0:0:0:0:
272,104,194078,1,8,0:0:0:0:
272,104,194138,1,8,0:0:0:0:
272,104,194198,1,8,0:0:0:0:
272,104,194258,1,8,0:0:0:0:
272,104,194318,1,8,0:0:0:0:
272,104,194378,1,8,0:0:0:0:
272,104,194438,1,8,0:0:0:0:
272,104,194498,1,8,0:0:0:0:
272,104,194558,1,8,0:0:0:0:
272,104,194618,1,8,0:0:0:0:
272,104,194678,1,8,0:0:0:0:
272,104,194738,1,8,0:0:0:0:
272,104,194798,1,8,0:0:0:0:
272,104,194858,1,8,0:0:0:0:
272,104,194918,1,8,0:0:0:0:
272,104,194978,1,8,0:0:0:0:
272,104,195038,1,8,0:0:0:0:
272,104,195098,1,8,0:0:0:0:
272,104,195158,1,8,0:0:0:0:
272,104,195218,1,8,0:0:0:0:
272,104,195278,1,8,0:0:0:0:
272,104,195338,1,8,0:0:0:0:
272,104,195398,1,8,0:0:0:0:
272,104,195458,1,8,0:0:0:0:
272,104,195518,1,8,0:0:0:0:
272,104,195578,1,8,0:0:0:0:
272,104,195638,1,8,0:0:0:0:
272,104,195698,1,8,0:0:0:0:
272,104,195758,1,8,0:0:0:0:
272,104,195818,1,8,0:0:0:0:
272,104,195878,1,8,0:0:0:0:
272,104,195938,1,8,0:0:0:0:
272,104,195998,1,8,0:0:0:0:
272,104,196058,1,8,0:0:0:0:
272,104,196118,1,8,0:0:0:0:
272,104,196178,1,8,0:0:0:0:
272,104,196238,1,8,0:0:0:0:
272,104,196298,1,8,0:0:0:0:
272,104,196358,1,8,0:0:0:0:
272,104,196418,1,8,0:0:0:0:
272,104,196478,1,8,0:0:0:0:
144,72,196538,1,8,0:0:0:0:
176,192,196598,1,8,0:0:0:0:
216,184,196658,1,8,0:0:0:0:
216,184,196718,1,8,0:0:0:0:
248,192,196778,1,8,0:0:0:0:
256,120,196858,1,8,0:0:0:0:
264,120,196938,1,8,0:0:0:0:
264,120,197018,1,8,0:0:0:0:
264,120,197098,1,8,0:0:0:0:
264,120,197178,1,8,0:0:0:0:
312,112,197258,1,8,0:0:0:0:
248,168,197338,1,8,0:0:0:0:
248,168,197418,1,8,0:0:0:0:
248,168,197498,1,8,0:0:0:0:
248,168,197578,1,8,0:0:0:0:
232,160,197658,1,8,0:0:0:0:
272,120,197738,1,12,0:0:0:0:
360,184,197858,1,8,0:0:0:0:
392,232,197978,1,8,0:0:0:0:
384,192,198098,1,8,0:0:0:0:
400,256,198218,1,8,0:0:0:0:
384,192,198338,1,8,0:0:0:0:
352,232,198458,1,8,0:0:0:0:
352,232,198578,1,8,0:0:0:0:
360,240,198698,1,12,0:0:0:0:
400,208,198818,1,8,0:0:0:0:
352,120,198938,1,8,0:0:0:0:
400,200,199058,1,8,0:0:0:0:
368,128,199178,1,8,0:0:0:0:
408,208,199298,1,8,0:0:0:0:
368,136,199418,1,8,0:0:0:0:
368,136,199538,1,8,0:0:0:0:
368,136,199658,1,12,0:0:0:0:
424,192,199778,1,8,0:0:0:0:
368,136,199898,1,8,0:0:0:0:
424,192,200018,1,8,0:0:0:0:
368,136,200138,1,8,0:0:0:0:
424,200,200258,1,8,0:0:0:0:
368,136,200378,1,8,0:0:0:0:
368,136,200498,1,8,0:0:0:0:
368,136,200618,1,12,0:0:0:0:
336,216,200738,1,8,0:0:0:0:
336,216,200858,1,8,0:0:0:0:
336,216,200978,1,8,0:0:0:0:
336,216,201098,1,8,0:0:0:0:
336,216,201218,1,8,0:0:0:0:
336,216,201338,1,8,0:0:0:0:
344,216,201458,1,8,0:0:0:0:
368,280,201578,1,12,0:0:0:0:
416,184,201698,1,8,0:0:0:0:
256,128,201818,1,8,0:0:0:0:
416,184,201938,1,8,0:0:0:0:
272,144,202058,1,8,0:0:0:0:
408,176,202178,1,8,0:0:0:0:
288,152,202298,1,8,0:0:0:0:
288,152,202418,1,8,0:0:0:0:
288,152,202538,1,12,0:0:0:0:
368,160,202658,1,8,0:0:0:0:
352,184,202778,1,8,0:0:0:0:
368,160,202898,1,8,0:0:0:0:
352,184,203018,1,8,0:0:0:0:
368,160,203138,1,8,0:0:0:0:
368,176,203258,1,8,0:0:0:0:
368,176,203378,1,8,0:0:0:0:
368,160,203498,1,12,0:0:0:0:
368,160,203618,1,8,0:0:0:0:
392,136,203738,1,8,0:0:0:0:
368,160,203858,1,8,0:0:0:0:
400,128,203978,1,8,0:0:0:0:
368,160,204098,1,8,0:0:0:0:
360,176,204218,1,8,0:0:0:0:
368,160,204338,1,8,0:0:0:0:
240,216,204458,1,8,0:0:0:0:
240,208,204578,1,8,0:0:0:0:
240,208,204638,1,8,0:0:0:0:
240,208,204698,1,8,0:0:0:0:
240,208,204818,1,8,0:0:0:0:
240,208,204938,1,8,0:0:0:0:
280,192,205058,1,8,0:0:0:0:
280,192,205178,1,8,0:0:0:0:
280,192,205298,1,8,0:0:0:0:
280,176,205418,1,12,0:0:0:0:
176,112,214058,5,12,0:0:0:0:
248,152,215978,1,12,0:0:0:0:
272,216,216938,1,8,0:0:0:0:
272,160,217058,1,8,0:0:0:0:
272,216,217178,1,8,0:0:0:0:
272,208,217298,1,8,0:0:0:0:
320,152,217418,1,8,0:0:0:0:
280,200,217538,1,8,0:0:0:0:
280,200,217658,1,8,0:0:0:0:
344,128,217778,1,8,0:0:0:0:
304,192,217898,1,12,0:0:0:0:
336,136,218018,1,8,0:0:0:0:
384,208,218138,1,8,0:0:0:0:
384,208,218258,1,8,0:0:0:0:
384,208,218378,1,8,0:0:0:0:
384,208,218498,1,8,0:0:0:0:
384,208,218618,1,8,0:0:0:0:
376,208,218738,1,8,0:0:0:0:
368,216,218858,1,8,0:0:0:0:
384,136,218978,1,8,0:0:0:0:
248,208,219098,1,8,0:0:0:0:
384,144,219218,1,8,0:0:0:0:
192,288,219338,1,8,0:0:0:0:
192,288,219458,1,8,0:0:0:0:
192,288,219578,1,8,0:0:0:0:
376,144,219698,1,8,0:0:0:0:
200,232,219818,1,8,0:0:0:0:
144,144,219878,1,8,0:0:0:0:
264,176,219938,1,8,0:0:0:0:
376,144,220058,1,8,0:0:0:0:
272,232,220178,1,8,0:0:0:0:
280,232,220298,1,8,0:0:0:0:
376,144,220418,1,8,0:0:0:0:
328,224,220538,1,8,0:0:0:0:
328,216,220658,1,8,0:0:0:0:
328,200,220778,1,8,0:0:0:0:
328,200,220898,1,8,0:0:0:0:
376,144,221018,1,8,0:0:0:0:
184,128,221138,1,8,0:0:0:0:
184,128,221258,1,8,0:0:0:0:
376,160,221378,1,8,0:0:0:0:
216,160,221498,1,8,0:0:0:0:
224,152,221618,1,8,0:0:0:0:
224,152,221738,1,12,0:0:0:0:
216,208,222458,1,12,0:0:0:0:
216,208,222698,1,12,0:0:0:0:
280,152,223418,1,12,0:0:0:0:
248,152,223658,1,12,0:0:0:0:
256,136,224018,1,12,0:0:0:0:
256,128,224378,1,12,0:0:0:0:
256,128,224618,1,12,0:0:0:0:
248,112,225578,1,12,0:0:0:0:
232,136,225938,1,12,0:0:0:0:
312,152,226298,1,12,0:0:0:0:
272,104,226418,1,12,0:0:0:0:
320,160,226538,1,12,0:0:0:0:
352,176,226658,1,8,0:0:0:0:
352,176,226778,1,8,0:0:0:0:
352,184,226898,1,8,0:0:0:0:
352,176,227018,1,8,0:0:0:0:
352,176,227138,1,8,0:0:0:0:
352,176,227258,1,8,0:0:0:0:
352,168,227378,1,8,0:0:0:0:
352,168,227498,1,12,0:0:0:0:
272,224,229418,5,8,0:0:0:0:
256,184,229478,1,8,0:0:0:0:
256,184,229538,1,8,0:0:0:0:
256,184,229598,1,8,0:0:0:0:
128,152,229658,1,8,0:0:0:0:
256,184,229718,1,8,0:0:0:0:
128,152,229778,1,8,0:0:0:0:
256,184,229838,1,8,0:0:0:0:
128,160,229898,1,8,0:0:0:0:
256,184,229958,1,8,0:0:0:0:
264,128,230018,1,8,0:0:0:0:
256,184,230078,1,8,0:0:0:0:
264,128,230138,1,8,0:0:0:0:
256,184,230198,1,8,0:0:0:0:
216,192,230258,1,8,0:0:0:0:
256,184,230318,1,8,0:0:0:0:
216,192,230378,1,8,0:0:0:0:
256,184,230438,1,8,0:0:0:0:
200,152,230498,1,8,0:0:0:0:
256,176,230558,1,8,0:0:0:0:
216,136,230618,1,8,0:0:0:0:
256,176,230678,1,8,0:0:0:0:
128,152,230738,1,8,0:0:0:0:
256,176,230798,1,8,0:0:0:0:
160,128,230858,1,8,0:0:0:0:
256,176,230918,1,8,0:0:0:0:
240,160,230978,1,8,0:0:0:0:
256,176,231038,1,8,0:0:0:0:
280,176,231098,1,8,0:0:0:0:
256,176,231158,1,8,0:0:0:0:
280,168,231218,1,8,0:0:0:0:
256,176,231278,1,8,0:0:0:0:
288,168,231338,1,8,0:0:0:0:
256,176,231398,1,8,0:0:0:0:
216,120,231458,1,8,0:0:0:0:
256,176,231518,1,8,0:0:0:0:
208,120,231578,1,8,0:0:0:0:
256,176,231638,1,8,0:0:0:0:
208,120,231698,1,8,0:0:0:0:
256,176,231758,1,8,0:0:0:0:
208,120,231818,1,8,0:0:0:0:
256,176,231878,1,8,0:0:0:0:
208,120,231938,1,8,0:0:0:0:
256,176,231998,1,8,0:0:0:0:
208,120,232058,1,8,0:0:0:0:
256,176,232118,1,8,0:0:0:0:
248,88,232178,1,8,0:0:0:0:
256,176,232238,1,8,0:0:0:0:
256,96,232298,1,8,0:0:0:0:
256,176,232358,1,8,0:0:0:0:
256,96,232418,1,8,0:0:0:0:
256,176,232478,1,8,0:0:0:0:
256,96,232538,1,8,0:0:0:0:
256,176,232598,1,8,0:0:0:0:
304,128,232658,1,8,0:0:0:0:
256,176,232718,1,8,0:0:0:0:
304,128,232778,1,8,0:0:0:0:
256,176,232838,1,8,0:0:0:0:
312,120,232898,1,8,0:0:0:0:
256,176,232958,1,8,0:0:0:0:
312,112,233018,1,8,0:0:0:0:
256,176,233078,1,8,0:0:0:0:
312,112,233138,1,8,0:0:0:0:
256,176,233198,1,8,0:0:0:0:
312,112,233258,1,8,0:0:0:0:
256,176,233318,1,8,0:0:0:0:
288,144,233378,1,8,0:0:0:0:
256,176,233438,1,8,0:0:0:0:
288,144,233498,1,8,0:0:0:0:
256,176,233558,1,8,0:0:0:0:
312,176,233618,1,8,0:0:0:0:
256,176,233678,1,8,0:0:0:0:
320,176,233738,1,8,0:0:0:0:
256,176,233798,1,8,0:0:0:0:
272,168,233858,1,8,0:0:0:0:
256,176,233918,1,8,0:0:0:0:
264,168,233978,1,8,0:0:0:0:
256,176,234038,1,8,0:0:0:0:
280,168,234098,1,8,0:0:0:0:
256,176,234158,1,8,0:0:0:0:
280,168,234218,1,8,0:0:0:0:
256,176,234278,1,8,0:0:0:0:
280,168,234338,1,8,0:0:0:0:
256,176,234398,1,8,0:0:0:0:
280,176,234458,1,8,0:0:0:0:
256,176,234518,1,8,0:0:0:0:
264,176,234578,1,8,0:0:0:0:
256,176,234638,1,8,0:0:0:0:
256,176,234698,1,8,0:0:0:0:
256,176,234758,1,8,0:0:0:0:
304,192,234818,1,8,0:0:0:0:
256,176,234878,1,8,0:0:0:0:
296,192,234938,1,8,0:0:0:0:
256,176,234998,1,8,0:0:0:0:
312,176,235058,1,8,0:0:0:0:
256,176,235118,1,8,0:0:0:0:
312,176,235178,1,8,0:0:0:0:
256,176,235238,1,8,0:0:0:0:
320,168,235298,1,8,0:0:0:0:
256,176,235358,1,8,0:0:0:0:
320,168,235418,1,8,0:0:0:0:
256,176,235478,1,8,0:0:0:0:
328,168,235538,1,8,0:0:0:0:
256,176,235598,1,8,0:0:0:0:
328,176,235658,1,8,0:0:0:0:
256,176,235718,1,8,0:0:0:0:
352,168,235778,1,8,0:0:0:0:
256,176,235838,1,8,0:0:0:0:
344,168,235898,1,8,0:0:0:0:
256,176,235958,1,8,0:0:0:0:
336,176,236018,1,8,0:0:0:0:
256,176,236078,1,8,0:0:0:0:
376,208,236138,1,8,0:0:0:0:
256,176,236198,1,8,0:0:0:0:
360,224,236258,1,8,0:0:0:0:
256,176,236318,1,8,0:0:0:0:
280,152,236378,1,8,0:0:0:0:
256,176,236438,1,8,0:0:0:0:
280,160,236498,1,8,0:0:0:0:
256,176,236558,1,8,0:0:0:0:
272,152,236618,1,8,0:0:0:0:
256,176,236678,1,8,0:0:0:0:
272,152,236738,1,8,0:0:0:0:
256,176,236798,1,8,0:0:0:0:
272,80,236858,1,8,0:0:0:0:
256,176,236918,1,8,0:0:0:0:
192,160,236978,1,8,0:0:0:0:
256,176,237038,1,8,0:0:0:0:
208,160,237098,1,8,0:0:0:0:
112,152,237158,1,8,0:0:0:0:
176,144,237218,1,8,0:0:0:0:
264,96,237278,1,8,0:0:0:0:
176,144,237338,1,8,0:0:0:0:
136,144,237458,1,8,0:0:0:0:
144,144,237578,1,8,0:0:0:0:
248,152,237638,1,8,0:0:0:0:
248,152,237698,1,8,0:0:0:0:
256,152,237758,1,8,0:0:0:0:
256,152,237818,1,8,0:0:0:0:
256,232,237938,1,8,0:0:0:0:
296,232,238058,1,8,0:0:0:0:
296,232,238118,1,8,0:0:0:0:
296,232,238178,1,8,0:0:0:0:
296,232,238238,1,8,0:0:0:0:
296,232,238298,1,8,0:0:0:0:
296,232,238358,1,8,0:0:0:0:
296,232,238418,1,8,0:0:0:0:
296,232,238478,1,8,0:0:0:0:
296,232,238538,1,8,0:0:0:0:
296,232,238598,1,8,0:0:0:0:
296,232,238658,1,8,0:0:0:0:
296,232,238718,1,8,0:0:0:0:
296,232,238778,1,8,0:0:0:0:
296,232,238838,1,8,0:0:0:0:
296,232,238898,1,8,0:0:0:0:
296,232,238958,1,8,0:0:0:0:
192,216,239018,1,8,0:0:0:0:
224,168,239138,1,8,0:0:0:0:
224,168,239258,1,8,0:0:0:0:
224,168,239318,1,8,0:0:0:0:
256,240,239378,1,8,0:0:0:0:
248,232,239498,1,8,0:0:0:0:
248,232,239618,1,8,0:0:0:0:
248,232,239678,1,8,0:0:0:0:
216,88,239738,1,8,0:0:0:0:
224,80,239858,1,8,0:0:0:0:
152,160,239978,1,8,0:0:0:0:
280,160,240038,1,8,0:0:0:0:
280,160,240098,1,8,0:0:0:0:
280,160,240158,1,8,0:0:0:0:
280,160,240218,1,8,0:0:0:0:
280,160,240278,1,8,0:0:0:0:
280,160,240338,1,8,0:0:0:0:
280,160,240398,1,8,0:0:0:0:
280,160,240458,1,8,0:0:0:0:
280,160,240518,1,8,0:0:0:0:
280,160,240578,1,8,0:0:0:0:
280,160,240638,1,8,0:0:0:0:
288,152,240698,1,8,0:0:0:0:
288,128,240758,1,8,0:0:0:0:
296,128,240818,1,8,0:0:0:0:
296,128,240878,1,8,0:0:0:0:
296,128,240938,1,8,0:0:0:0:
328,128,241058,1,8,0:0:0:0:
328,128,241178,1,8,0:0:0:0:
328,128,241238,1,8,0:0:0:0:
328,136,241298,1,8,0:0:0:0:
248,184,241358,1,8,0:0:0:0:
328,136,241418,1,8,0:0:0:0:
256,184,241478,1,8,0:0:0:0:
328,136,241538,1,8,0:0:0:0:
352,112,241598,1,8,0:0:0:0:
352,112,241658,1,8,0:0:0:0:
352,112,241718,1,8,0:0:0:0:
352,112,241778,1,8,0:0:0:0:
264,160,241838,1,8,0:0:0:0:
248,144,241898,1,8,0:0:0:0:
264,160,241958,1,8,0:0:0:0:
296,232,242018,1,8,0:0:0:0:
264,160,242078,1,8,0:0:0:0:
296,232,242138,1,8,0:0:0:0:
264,160,242198,1,8,0:0:0:0:
320,256,242258,1,8,0:0:0:0:
264,160,242318,1,8,0:0:0:0:
312,240,242378,1,8,0:0:0:0:
264,160,242438,1,8,0:0:0:0:
312,240,242498,1,8,0:0:0:0:
264,160,242558,1,8,0:0:0:0:
312,240,242618,1,8,0:0:0:0:
240,160,242678,1,8,0:0:0:0:
248,208,242738,1,8,0:0:0:0:
240,160,242798,1,8,0:0:0:0:
256,192,242858,1,8,0:0:0:0:
296,128,242918,1,8,0:0:0:0:
368,160,242978,1,8,0:0:0:0:
296,128,243038,1,8,0:0:0:0:
368,168,243098,1,8,0:0:0:0:
296,128,243158,1,8,0:0:0:0:
360,176,243218,1,8,0:0:0:0:
304,112,243278,1,8,0:0:0:0:
360,176,243338,1,8,0:0:0:0:
304,112,243398,1,8,0:0:0:0:
360,176,243458,1,8,0:0:0:0:
304,112,243518,1,8,0:0:0:0:
360,176,243578,1,8,0:0:0:0:
304,112,243638,1,8,0:0:0:0:
360,176,243698,1,8,0:0:0:0:
272,120,243758,1,8,0:0:0:0:
216,184,243818,1,8,0:0:0:0:
272,120,243878,1,8,0:0:0:0:
304,176,243938,1,8,0:0:0:0:
224,144,243998,1,8,0:0:0:0:
304,168,244058,1,8,0:0:0:0:
224,144,244118,1,8,0:0:0:0:
304,168,244178,1,8,0:0:0:0:
224,144,244238,1,8,0:0:0:0:
304,168,244298,1,8,0:0:0:0:
224,144,244358,1,8,0:0:0:0:
304,168,244418,1,8,0:0:0:0:
224,144,244478,1,8,0:0:0:0:
304,160,244538,1,8,0:0:0:0:
224,144,244598,1,8,0:0:0:0:
304,160,244658,1,8,0:0:0:0:
224,144,244718,1,8,0:0:0:0:
368,160,244778,1,12,0:0:0:0:
304,224,244898,1,8,0:0:0:0:
304,224,245018,1,8,0:0:0:0:
272,120,245078,1,8,0:0:0:0:
272,256,245138,1,8,0:0:0:0:
272,248,245258,1,8,0:0:0:0:
272,240,245378,1,8,0:0:0:0:
272,240,245498,1,8,0:0:0:0:
272,80,245558,1,8,0:0:0:0:
272,240,245618,1,8,0:0:0:0:
272,240,245738,1,8,0:0:0:0:
352,160,245858,1,8,0:0:0:0:
368,184,245978,1,8,0:0:0:0:
280,80,246038,1,8,0:0:0:0:
368,184,246098,1,8,0:0:0:0:
368,184,246218,1,8,0:0:0:0:
368,184,246338,1,8,0:0:0:0:
368,184,246458,1,8,0:0:0:0:
272,64,246518,1,8,0:0:0:0:
368,184,246578,1,8,0:0:0:0:
368,176,246698,1,8,0:0:0:0:
368,176,246818,1,8,0:0:0:0:
368,176,246938,1,8,0:0:0:0:
272,80,246998,1,8,0:0:0:0:
368,176,247058,1,8,0:0:0:0:
368,176,247178,1,8,0:0:0:0:
368,176,247298,1,8,0:0:0:0:
368,176,247418,1,8,0:0:0:0:
280,72,247478,1,8,0:0:0:0:
368,176,247538,1,8,0:0:0:0:
368,176,247658,1,8,0:0:0:0:
368,176,247778,1,8,0:0:0:0:
240,72,247838,1,8,0:0:0:0:
368,176,247898,1,8,0:0:0:0:
224,88,247958,1,8,0:0:0:0:
368,176,248018,1,8,0:0:0:0:
176,128,248078,1,8,0:0:0:0:
368,176,248138,1,8,0:0:0:0:
312,112,248198,1,8,0:0:0:0:
368,176,248258,1,8,0:0:0:0:
160,160,248318,1,8,0:0:0:0:
368,176,248378,1,8,0:0:0:0:
192,96,248438,1,8,0:0:0:0:
336,208,248498,1,8,0:0:0:0:
208,128,248618,1,12,0:0:0:0:
272,160,248738,1,8,0:0:0:0:
352,224,248858,1,8,0:0:0:0:
272,160,248918,1,8,0:0:0:0:
352,224,248978,1,8,0:0:0:0:
352,224,249098,1,8,0:0:0:0:
352,224,249218,1,8,0:0:0:0:
352,224,249338,1,8,0:0:0:0:
272,160,249398,1,8,0:0:0:0:
352,224,249458,1,8,0:0:0:0:
352,224,249578,1,8,0:0:0:0:
352,224,249698,1,8,0:0:0:0:
352,224,249818,1,8,0:0:0:0:
224,80,249878,1,8,0:0:0:0:
352,224,249938,1,8,0:0:0:0:
352,224,250058,1,8,0:0:0:0:
352,224,250178,1,8,0:0:0:0:
352,224,250298,1,8,0:0:0:0:
256,64,250358,1,8,0:0:0:0:
360,216,250418,1,8,0:0:0:0:
360,216,250538,1,8,0:0:0:0:
360,216,250658,1,8,0:0:0:0:
360,216,250778,1,8,0:0:0:0:
264,88,250838,1,8,0:0:0:0:
360,216,250898,1,8,0:0:0:0:
360,216,251018,1,8,0:0:0:0:
264,80,251078,1,8,0:0:0:0:
360,216,251138,1,8,0:0:0:0:
360,216,251258,1,8,0:0:0:0:
272,72,251318,1,8,0:0:0:0:
360,216,251378,1,8,0:0:0:0:
360,216,251498,1,8,0:0:0:0:
272,72,251558,1,8,0:0:0:0:
360,216,251618,1,8,0:0:0:0:
360,216,251738,1,8,0:0:0:0:
272,80,251798,1,8,0:0:0:0:
360,216,251858,1,8,0:0:0:0:
360,216,251978,1,8,0:0:0:0:
360,216,252098,1,8,0:0:0:0:
248,152,252158,1,8,0:0:0:0:
360,216,252218,1,8,0:0:0:0:
360,216,252338,1,8,0:0:0:0:
328,160,252458,1,8,0:0:0:0:
296,176,252518,1,8,0:0:0:0:
328,160,252578,1,8,0:0:0:0:
296,176,252638,1,8,0:0:0:0:
328,160,252698,1,8,0:0:0:0:
144,144,252758,1,8,0:0:0:0:
160,136,252818,1,8,0:0:0:0:
272,208,252878,1,8,0:0:0:0:
280,208,252938,1,8,0:0:0:0:
280,208,252998,1,8,0:0:0:0:
280,208,253058,1,8,0:0:0:0:
232,208,253118,1,8,0:0:0:0:
232,208,253178,1,8,0:0:0:0:
256,208,253238,1,8,0:0:0:0:
232,208,253298,1,8,0:0:0:0:
336,192,253358,1,8,0:0:0:0:
336,192,253418,1,8,0:0:0:0:
344,176,253478,1,8,0:0:0:0:
272,192,253538,1,8,0:0:0:0:
344,176,253598,1,8,0:0:0:0:
280,192,253658,1,8,0:0:0:0:
336,176,253718,1,8,0:0:0:0:
272,240,253778,1,8,0:0:0:0:
320,168,253838,1,8,0:0:0:0:
272,240,253898,1,8,0:0:0:0:
136,168,253958,1,8,0:0:0:0:
168,136,254018,1,8,0:0:0:0:
184,80,254078,1,8,0:0:0:0:
176,144,254138,1,8,0:0:0:0:
208,200,254258,1,8,0:0:0:0:
208,200,254378,1,8,0:0:0:0:
208,168,254438,1,8,0:0:0:0:
208,200,254498,1,8,0:0:0:0:
280,264,254558,1,8,0:0:0:0:
216,184,254618,1,8,0:0:0:0:
176,168,254678,1,8,0:0:0:0:
200,184,254738,1,8,0:0:0:0:
192,160,254798,1,8,0:0:0:0:
320,232,254858,1,8,0:0:0:0:
192,168,254918,1,8,0:0:0:0:
320,216,254978,1,8,0:0:0:0:
192,168,255038,1,8,0:0:0:0:
320,216,255098,1,8,0:0:0:0:
192,168,255158,1,8,0:0:0:0:
240,176,255218,1,8,0:0:0:0:
192,168,255278,1,8,0:0:0:0:
240,176,255338,1,8,0:0:0:0:
272,208,255398,1,8,0:0:0:0:
168,160,255458,1,8,0:0:0:0:
256,208,255518,1,8,0:0:0:0:
168,160,255578,1,8,0:0:0:0:
256,208,255638,1,8,0:0:0:0:
248,176,255698,1,8,0:0:0:0:
264,200,255758,1,8,0:0:0:0:
248,176,255818,1,8,0:0:0:0:
264,200,255878,1,8,0:0:0:0:
240,176,255938,1,8,0:0:0:0:
224,128,255998,1,8,0:0:0:0:
216,64,256058,1,8,0:0:0:0:
256,80,256178,1,8,0:0:0:0:
144,128,256298,1,8,0:0:0:0:
208,96,256358,1,8,0:0:0:0:
264,208,256418,1,8,0:0:0:0:
240,200,256478,1,8,0:0:0:0:
264,216,256538,1,8,0:0:0:0:
256,184,256598,1,8,0:0:0:0:
232,136,256658,1,8,0:0:0:0:
256,184,256718,1,8,0:0:0:0:
224,128,256778,1,8,0:0:0:0:
264,168,256838,1,8,0:0:0:0:
224,128,256898,1,8,0:0:0:0:
264,168,256958,1,8,0:0:0:0:
224,152,257018,1,8,0:0:0:0:
296,144,257078,1,8,0:0:0:0:
280,160,257138,1,8,0:0:0:0:
296,144,257198,1,8,0:0:0:0:
280,168,257258,1,8,0:0:0:0:
296,144,257318,1,8,0:0:0:0:
216,248,257378,1,8,0:0:0:0:
296,168,257438,1,8,0:0:0:0:
216,248,257498,1,8,0:0:0:0:
248,168,257558,1,8,0:0:0:0:
240,224,257618,1,8,0:0:0:0:
256,160,257678,1,8,0:0:0:0:
240,216,257738,1,8,0:0:0:0:
280,176,257798,1,8,0:0:0:0:
288,280,257858,1,8,0:0:0:0:
280,160,257918,1,8,0:0:0:0:
288,280,257978,1,8,0:0:0:0:
280,160,258038,1,8,0:0:0:0:
288,272,258098,1,8,0:0:0:0:
288,160,258158,1,8,0:0:0:0:
288,272,258218,1,8,0:0:0:0:
288,160,258278,1,8,0:0:0:0:
288,256,258338,1,8,0:0:0:0:
288,160,258398,1,8,0:0:0:0:
296,256,258458,1,8,0:0:0:0:
288,160,258518,1,8,0:0:0:0:
320,208,258578,1,8,0:0:0:0:
288,160,258638,1,8,0:0:0:0:
312,208,258698,1,8,0:0:0:0:
288,160,258758,1,8,0:0:0:0:
304,152,258818,1,8,0:0:0:0:
296,192,258878,1,8,0:0:0:0:
304,152,258938,1,8,0:0:0:0:
304,192,258998,1,8,0:0:0:0:
304,144,259058,1,8,0:0:0:0:
312,192,259118,1,8,0:0:0:0:
296,152,259178,1,8,0:0:0:0:
312,192,259238,1,8,0:0:0:0:
296,160,259298,1,8,0:0:0:0:
312,192,259358,1,8,0:0:0:0:
304,200,259418,1,8,0:0:0:0:
312,192,259478,1,8,0:0:0:0:
304,200,259538,1,8,0:0:0:0:
312,192,259598,1,8,0:0:0:0:
304,200,259658,1,8,0:0:0:0:
304,192,259718,1,8,0:0:0:0:
304,200,259778,1,8,0:0:0:0:
304,184,259838,1,8,0:0:0:0:
304,200,259898,1,8,0:0:0:0:
304,184,259958,1,8,0:0:0:0:
176,144,260018,1,8,0:0:0:0:
304,184,260078,1,8,0:0:0:0:
360,264,260138,1,12,0:0:0:0:
328,112,260258,1,8,0:0:0:0:
328,112,260378,1,8,0:0:0:0:
328,112,260498,1,8,0:0:0:0:
264,144,260618,1,12,0:0:0:0:
328,112,260738,1,8,0:0:0:0:
328,112,260858,1,8,0:0:0:0:
336,104,260978,1,8,0:0:0:0:
248,144,261098,1,12,0:0:0:0:
424,136,261218,1,8,0:0:0:0:
424,136,261338,1,8,0:0:0:0:
416,136,261458,1,8,0:0:0:0:
264,152,261578,1,12,0:0:0:0:
400,128,261698,1,8,0:0:0:0:
400,128,261818,1,8,0:0:0:0:
400,128,261938,1,8,0:0:0:0:
256,152,262058,1,12,0:0:0:0:
392,160,262178,1,8,0:0:0:0:
392,160,262298,1,8,0:0:0:0:
392,160,262418,1,8,0:0:0:0:
400,160,262538,1,8,0:0:0:0:
400,160,262658,1,8,0:0:0:0:
208,168,262778,1,8,0:0:0:0:
248,136,262898,1,8,0:0:0:0:
256,96,263018,1,12,0:0:0:0:
280,200,263138,1,8,0:0:0:0:
280,200,263258,1,8,0:0:0:0:
280,200,263378,1,8,0:0:0:0:
280,200,263498,1,8,0:0:0:0:
200,128,263618,1,8,0:0:0:0:
256,120,263738,1,8,0:0:0:0:
328,264,263858,1,8,0:0:0:0:
