osu file format v14

[General]
AudioFilename: audio.mp3
AudioLeadIn: 0
PreviewTime: 133545
Countdown: 0
SampleSet: Normal
StackLeniency: 0.7
Mode: 1
LetterboxInBreaks: 0
WidescreenStoryboard: 0

[Editor]
Bookmarks: 18796,40614,49342,58069,65977,81249,89977,107431,116158,124886,133613,148886,188158,196886,205613,214340,238340
DistanceSpacing: 0.4
BeatDivisor: 4
GridSize: 32
TimelineZoom: 2.2

[Metadata]
Title:Seishin no Kairi no, Sakebi to Nageki.
TitleUnicode:精神ノ乖離ノ、叫ビト嘆キ。
Artist:Imperial Circus Dead Decadence
ArtistUnicode:Imperial Circus Dead Decadence
Creator:Nepuri
Version:Spiritual Dissolution
Source:osu!
Tags:melodic death symphonic black metal japanese Raiden icdd fa featured artist
BeatmapID:2420422
BeatmapSetID:1160027

[Difficulty]
HPDrainRate:5
CircleSize:5
OverallDifficulty:6.5
ApproachRate:5
SliderMultiplier:1.4
SliderTickRate:1

[Events]
//Background and Video events
0,0,"twisted_happiness_by_nanomortis_d957li0.png",0,0
//Break Periods
//Storyboard Layer 0 (Background)
//Storyboard Layer 1 (Fail)
//Storyboard Layer 2 (Pass)
//Storyboard Layer 3 (Foreground)
//Storyboard Layer 4 (Overlay)
//Storyboard Sound Samples

[TimingPoints]
1342,272.727272727273,4,1,0,100,1,0
65705,272.727272727273,4,1,0,100,1,8
65977,272.727272727273,4,1,0,100,1,0
65977,-86.9565217391304,4,1,0,100,0,1
81249,-86.9565217391304,4,1,0,100,0,0
81317,-100,4,1,0,100,0,0
133613,-86.9565217391304,4,1,0,100,0,1
148886,-86.9565217391304,4,1,0,100,0,0
149090,-100,4,1,0,75,0,0
153113,-100,4,1,0,40,0,0
170567,-100,4,1,0,75,0,0
187817,-100,4,1,0,100,0,0
205749,-100,4,1,0,75,0,0
214204,-100,4,1,0,100,0,0
214340,-86.9565217391304,4,1,0,100,0,1
223067,-83.3333333333333,4,1,0,100,0,1
238340,-83.3333333333333,4,1,0,100,0,0
238477,-86.9565217391304,4,1,0,100,0,0
238613,-90.9090909090909,4,1,0,100,0,0
238681,-93.0232558139535,4,1,0,100,0,0
238749,-95.2380952380952,4,1,0,100,0,0
238886,-100,4,1,0,100,0,0

[HitObjects]
256,192,1342,5,12,0:0:0:0:
352,192,1614,1,0,0:0:0:0:
272,154,1751,1,8,0:0:0:0:
256,192,1887,1,0,0:0:0:0:
352,192,2160,1,8,0:0:0:0:
306,156,2296,1,0,0:0:0:0:
256,192,2432,1,8,0:0:0:0:
128,160,2705,1,8,0:0:0:0:
157,112,2842,1,0,0:0:0:0:
224,224,2978,1,8,0:0:0:0:
213,176,3114,1,8,0:0:0:0:
128,160,3251,1,0,0:0:0:0:
161,143,3387,1,8,0:0:0:0:
192,224,3523,1,4,0:0:0:0:
229,109,3796,1,0,0:0:0:0:
211,167,3932,1,8,0:0:0:0:
228,111,4069,1,0,0:0:0:0:
212,163,4205,1,0,0:0:0:0:
227,117,4342,1,8,0:0:0:0:
190,229,4614,1,8,0:0:0:0:
209,171,4751,1,0,0:0:0:0:
225,123,4887,1,8,0:0:0:0:
128,160,5160,1,0,0:0:0:0:
160,192,5296,1,8,0:0:0:0:
128,160,5432,1,0,0:0:0:0:
160,192,5569,1,8,0:0:0:0:
128,160,5705,1,4,0:0:0:0:
352,192,5978,1,0,0:0:0:0:
272,154,6115,1,8,0:0:0:0:
256,192,6251,1,0,0:0:0:0:
352,192,6524,1,8,0:0:0:0:
306,156,6660,1,0,0:0:0:0:
256,192,6796,1,8,0:0:0:0:
215,153,6932,1,8,0:0:0:0:
128,160,7069,1,0,0:0:0:0:
157,112,7206,1,8,0:0:0:0:
157,112,7342,1,0,0:0:0:0:
157,112,7478,1,8,0:0:0:0:
157,112,7614,1,0,0:0:0:0:
161,143,7751,1,8,0:0:0:0:
192,224,7887,1,4,0:0:0:0:
270,140,8160,1,8,0:0:0:0:
250,160,8228,1,8,0:0:0:0:
231,181,8296,1,0,0:0:0:0:
231,181,8432,1,8,0:0:0:0:
231,181,8501,1,8,0:0:0:0:
231,181,8569,1,8,0:0:0:0:
231,181,8637,1,8,0:0:0:0:
231,181,8705,1,0,0:0:0:0:
228,162,8842,1,8,0:0:0:0:
225,144,8910,1,8,0:0:0:0:
222,128,8978,1,0,0:0:0:0:
211,47,9182,1,8,0:0:0:0:
211,47,9251,1,0,0:0:0:0:
211,47,9387,1,8,0:0:0:0:
211,47,9455,1,8,0:0:0:0:
211,47,9523,1,0,0:0:0:0:
259,85,9660,1,8,0:0:0:0:
259,85,9728,1,8,0:0:0:0:
259,85,9796,1,0,0:0:0:0:
259,85,9932,1,0,0:0:0:0:
259,85,10069,1,12,0:0:0:0:
352,192,10342,1,0,0:0:0:0:
272,154,10479,1,8,0:0:0:0:
256,192,10615,1,0,0:0:0:0:
352,192,10888,1,8,0:0:0:0:
306,156,11024,1,0,0:0:0:0:
256,192,11160,1,8,0:0:0:0:
128,160,11433,1,8,0:0:0:0:
157,112,11570,1,8,0:0:0:0:
224,224,11706,1,0,0:0:0:0:
213,176,11842,1,8,0:0:0:0:
128,160,11979,1,0,0:0:0:0:
161,143,12115,1,8,0:0:0:0:
192,224,12251,1,0,0:0:0:0:
229,109,12524,1,12,0:0:0:0:
228,111,12797,1,0,0:0:0:0:
212,163,12933,1,8,0:0:0:0:
227,117,13070,1,0,0:0:0:0:
190,229,13342,1,8,0:0:0:0:
209,171,13479,1,8,0:0:0:0:
225,123,13615,1,0,0:0:0:0:
180,111,13751,1,8,0:0:0:0:
128,160,13888,1,0,0:0:0:0:
160,192,14024,1,8,0:0:0:0:
128,160,14160,1,0,0:0:0:0:
160,192,14297,1,0,0:0:0:0:
128,160,14433,1,4,0:0:0:0:
352,192,14569,1,8,0:0:0:0:
175,63,14637,1,8,0:0:0:0:
272,154,14705,1,8,0:0:0:0:
237,120,14842,1,0,0:0:0:0:
256,192,14979,1,8,0:0:0:0:
242,170,15046,1,8,0:0:0:0:
230,151,15114,1,8,0:0:0:0:
352,192,15252,1,0,0:0:0:0:
306,156,15388,1,8,0:0:0:0:
285,148,15455,1,8,0:0:0:0:
256,192,15524,1,0,0:0:0:0:
215,153,15660,1,8,0:0:0:0:
206,129,15728,1,8,0:0:0:0:
128,160,15797,1,0,0:0:0:0:
157,112,15932,1,8,0:0:0:0:
170,99,16001,1,8,0:0:0:0:
157,112,16070,1,0,0:0:0:0:
157,112,16206,1,8,0:0:0:0:
179,90,16273,1,8,0:0:0:0:
157,112,16342,1,0,0:0:0:0:
186,84,16410,1,0,0:0:0:0:
161,143,16478,1,8,0:0:0:0:
159,119,16546,1,8,0:0:0:0:
192,224,16615,1,4,0:0:0:0:
164,185,16751,1,8,0:0:0:0:
181,175,16819,1,0,0:0:0:0:
145,139,16887,1,8,0:0:0:0:
172,103,17023,1,0,0:0:0:0:
199,68,17160,1,8,0:0:0:0:
215,75,17228,1,0,0:0:0:0:
213,51,17296,1,8,0:0:0:0:
213,51,17432,1,0,0:0:0:0:
159,119,17569,1,8,0:0:0:0:
172,103,17637,1,8,0:0:0:0:
158,82,17705,1,4,0:0:0:0:
165,138,18796,1,4,0:0:0:0:
239,174,18932,1,0,0:0:0:0:
252,180,19069,1,8,0:0:0:0:
226,168,19137,1,8,0:0:0:0:
292,200,19205,1,0,0:0:0:0:
301,157,19342,1,8,0:0:0:0:
305,139,19478,1,0,0:0:0:0:
279,140,19546,1,0,0:0:0:0:
305,139,19614,1,8,0:0:0:0:
274,140,19682,1,8,0:0:0:0:
305,139,19751,1,0,0:0:0:0:
257,133,19887,1,8,0:0:0:0:
208,127,20023,1,0,0:0:0:0:
159,122,20160,1,8,0:0:0:0:
141,103,20228,1,8,0:0:0:0:
128,160,20296,1,0,0:0:0:0:
113,180,20432,1,8,0:0:0:0:
113,180,20569,1,0,0:0:0:0:
349,170,20705,1,8,0:0:0:0:
326,164,20773,1,0,0:0:0:0:
303,158,20842,1,8,0:0:0:0:
303,158,20910,1,8,0:0:0:0:
303,158,20978,1,0,0:0:0:0:
305,110,21114,1,0,0:0:0:0:
305,110,21251,1,0,0:0:0:0:
305,110,21319,1,0,0:0:0:0:
305,110,21387,1,0,0:0:0:0:
305,110,21523,1,8,0:0:0:0:
305,110,21592,1,0,0:0:0:0:
305,110,21660,1,8,0:0:0:0:
305,110,21796,1,0,0:0:0:0:
282,113,21864,1,0,0:0:0:0:
260,116,21932,1,8,0:0:0:0:
241,117,22001,1,0,0:0:0:0:
212,119,22069,1,8,0:0:0:0:
163,123,22205,1,0,0:0:0:0:
212,119,22342,1,8,0:0:0:0:
212,119,22410,1,0,0:0:0:0:
212,119,22478,1,8,0:0:0:0:
212,119,22614,1,0,0:0:0:0:
212,119,22682,1,0,0:0:0:0:
212,119,22751,1,8,0:0:0:0:
212,119,22819,1,0,0:0:0:0:
212,119,22887,1,8,0:0:0:0:
227,100,22955,1,8,0:0:0:0:
212,119,23023,1,0,0:0:0:0:
227,100,23160,1,4,0:0:0:0:
212,119,23296,1,0,0:0:0:0:
230,123,23364,1,0,0:0:0:0:
242,126,23432,1,8,0:0:0:0:
256,129,23501,1,0,0:0:0:0:
271,133,23569,1,8,0:0:0:0:
245,113,23705,1,8,0:0:0:0:
232,103,23773,1,8,0:0:0:0:
221,95,23842,1,0,0:0:0:0:
197,77,23978,1,0,0:0:0:0:
214,105,24114,1,8,0:0:0:0:
226,124,24182,1,0,0:0:0:0:
238,141,24251,1,8,0:0:0:0:
226,128,24319,1,0,0:0:0:0:
214,115,24387,1,8,0:0:0:0:
182,103,24523,1,0,0:0:0:0:
207,121,24660,1,8,0:0:0:0:
222,131,24728,1,0,0:0:0:0:
241,144,24796,1,8,0:0:0:0:
259,157,24864,1,0,0:0:0:0:
278,170,24932,1,0,0:0:0:0:
242,168,25069,1,0,0:0:0:0:
223,167,25137,1,0,0:0:0:0:
211,167,25205,1,8,0:0:0:0:
190,166,25342,1,4,0:0:0:0:
161,143,25478,1,0,0:0:0:0:
161,143,25614,1,0,0:0:0:0:
161,143,25682,1,0,0:0:0:0:
229,52,25751,1,8,0:0:0:0:
239,21,25887,1,0,0:0:0:0:
239,21,26023,1,0,0:0:0:0:
220,50,26160,1,8,0:0:0:0:
202,47,26228,1,8,0:0:0:0:
185,45,26296,1,0,0:0:0:0:
150,48,26432,1,0,0:0:0:0:
173,64,26569,1,8,0:0:0:0:
192,77,26705,1,0,0:0:0:0:
176,90,26773,1,0,0:0:0:0:
160,103,26842,1,0,0:0:0:0:
135,125,26978,1,8,0:0:0:0:
162,167,27046,1,8,0:0:0:0:
162,167,27114,1,0,0:0:0:0:
164,142,27182,1,0,0:0:0:0:
162,167,27251,1,8,0:0:0:0:
131,149,27387,1,0,0:0:0:0:
131,149,27523,1,12,0:0:0:0:
239,174,27660,1,0,0:0:0:0:
252,180,27797,1,8,0:0:0:0:
226,168,27865,1,8,0:0:0:0:
292,200,27933,1,0,0:0:0:0:
301,157,28070,1,8,0:0:0:0:
305,139,28206,1,0,0:0:0:0:
279,140,28274,1,0,0:0:0:0:
305,139,28342,1,8,0:0:0:0:
274,140,28410,1,8,0:0:0:0:
305,139,28479,1,0,0:0:0:0:
257,133,28615,1,8,0:0:0:0:
208,127,28751,1,0,0:0:0:0:
159,122,28888,1,8,0:0:0:0:
141,103,28956,1,8,0:0:0:0:
128,160,29024,1,0,0:0:0:0:
113,180,29160,1,8,0:0:0:0:
186,17,29228,1,0,0:0:0:0:
113,180,29297,1,8,0:0:0:0:
349,170,29433,1,8,0:0:0:0:
326,164,29501,1,8,0:0:0:0:
303,158,29569,1,0,0:0:0:0:
303,158,29638,1,0,0:0:0:0:
303,158,29705,1,8,0:0:0:0:
305,110,29842,1,0,0:0:0:0:
305,110,29979,1,0,0:0:0:0:
305,110,30047,1,0,0:0:0:0:
305,110,30115,1,0,0:0:0:0:
305,110,30251,1,8,0:0:0:0:
305,110,30320,1,0,0:0:0:0:
305,110,30388,1,8,0:0:0:0:
305,110,30524,1,0,0:0:0:0:
282,113,30592,1,0,0:0:0:0:
260,116,30660,1,8,0:0:0:0:
241,117,30729,1,0,0:0:0:0:
212,119,30797,1,8,0:0:0:0:
163,123,30933,1,8,0:0:0:0:
212,119,31069,1,8,0:0:0:0:
212,119,31206,1,0,0:0:0:0:
212,119,31342,1,0,0:0:0:0:
150,147,31478,1,8,0:0:0:0:
150,147,31614,1,0,0:0:0:0:
150,147,31682,1,0,0:0:0:0:
150,147,31751,1,8,0:0:0:0:
227,100,31888,1,4,0:0:0:0:
212,119,32024,1,0,0:0:0:0:
230,123,32092,1,0,0:0:0:0:
242,126,32160,1,8,0:0:0:0:
256,129,32229,1,0,0:0:0:0:
271,133,32297,1,8,0:0:0:0:
245,113,32433,1,8,0:0:0:0:
232,103,32501,1,8,0:0:0:0:
221,95,32570,1,0,0:0:0:0:
197,77,32706,1,0,0:0:0:0:
214,105,32842,1,8,0:0:0:0:
226,124,32910,1,0,0:0:0:0:
238,141,32979,1,8,0:0:0:0:
226,128,33047,1,0,0:0:0:0:
214,115,33115,1,8,0:0:0:0:
182,103,33251,1,0,0:0:0:0:
207,121,33388,1,8,0:0:0:0:
222,131,33456,1,0,0:0:0:0:
241,144,33524,1,8,0:0:0:0:
259,157,33592,1,8,0:0:0:0:
278,170,33660,1,8,0:0:0:0:
242,168,33797,1,8,0:0:0:0:
223,167,33865,1,8,0:0:0:0:
211,167,33933,1,0,0:0:0:0:
190,166,34069,1,12,0:0:0:0:
161,143,34206,1,0,0:0:0:0:
161,143,34342,1,0,0:0:0:0:
161,143,34410,1,0,0:0:0:0:
229,52,34479,1,8,0:0:0:0:
239,21,34615,1,0,0:0:0:0:
239,21,34751,1,0,0:0:0:0:
220,50,34888,1,8,0:0:0:0:
202,47,34956,1,8,0:0:0:0:
185,45,35024,1,0,0:0:0:0:
150,48,35160,1,8,0:0:0:0:
257,136,35228,1,0,0:0:0:0:
173,64,35297,1,0,0:0:0:0:
96,217,35364,1,0,0:0:0:0:
192,77,35433,1,0,0:0:0:0:
176,90,35501,1,0,0:0:0:0:
160,103,35569,1,8,0:0:0:0:
326,110,35637,1,8,0:0:0:0:
135,125,35705,1,0,0:0:0:0:
162,167,35774,1,0,0:0:0:0:
162,167,35842,1,0,0:0:0:0:
164,142,35910,1,0,0:0:0:0:
162,167,35979,1,8,0:0:0:0:
230,61,36046,1,8,0:0:0:0:
131,149,36114,1,8,0:0:0:0:
278,228,36182,1,8,0:0:0:0:
232,17,36251,1,0,0:0:0:0:
116,133,36319,1,0,0:0:0:0:
116,133,36387,1,0,0:0:0:0:
116,133,36455,1,0,0:0:0:0:
115,134,36523,1,0,0:0:0:0:
114,135,36592,1,0,0:0:0:0:
113,135,36660,1,0,0:0:0:0:
113,135,36728,1,0,0:0:0:0:
113,135,36796,1,8,0:0:0:0:
113,135,36864,1,0,0:0:0:0:
113,135,36932,1,8,0:0:0:0:
113,135,37001,1,0,0:0:0:0:
113,135,37069,1,8,0:0:0:0:
113,135,37137,1,0,0:0:0:0:
116,133,37205,1,8,0:0:0:0:
116,133,37273,1,0,0:0:0:0:
116,133,37342,1,8,0:0:0:0:
116,133,37410,1,8,0:0:0:0:
116,133,37478,1,8,0:0:0:0:
115,134,37546,1,8,0:0:0:0:
114,135,37614,1,8,0:0:0:0:
113,135,37682,1,8,0:0:0:0:
113,135,37751,1,8,0:0:0:0:
113,135,37819,1,8,0:0:0:0:
113,135,37887,1,0,0:0:0:0:
113,135,37955,1,0,0:0:0:0:
113,135,38023,1,0,0:0:0:0:
113,135,38092,1,0,0:0:0:0:
113,135,38160,1,0,0:0:0:0:
116,133,38228,1,0,0:0:0:0:
116,133,38296,1,0,0:0:0:0:
116,133,38364,1,0,0:0:0:0:
116,133,38432,1,12,0:0:0:0:
244,112,38842,1,0,0:0:0:0:
244,112,38978,1,8,0:0:0:0:
244,112,39114,1,8,0:0:0:0:
244,112,39251,1,8,0:0:0:0:
244,112,39387,1,8,0:0:0:0:
244,112,39523,1,4,0:0:0:0:
125,46,39660,1,8,0:0:0:0:
403,239,39932,1,8,0:0:0:0:
403,239,40069,1,4,0:0:0:0:
403,239,40205,1,8,0:0:0:0:
403,239,40342,1,4,0:0:0:0:
403,239,40478,1,8,0:0:0:0:
403,239,40614,1,4,0:0:0:0:
403,239,40751,1,8,0:0:0:0:
153,143,40887,1,0,0:0:0:0:
153,143,40955,1,0,0:0:0:0:
153,143,41023,1,8,0:0:0:0:
153,143,41160,1,0,0:0:0:0:
153,143,41296,1,8,0:0:0:0:
153,143,41432,1,0,0:0:0:0:
153,143,41501,1,0,0:0:0:0:
153,143,41569,1,8,0:0:0:0:
153,143,41705,1,0,0:0:0:0:
286,239,41842,1,8,0:0:0:0:
286,239,41910,1,0,0:0:0:0:
286,239,41978,1,0,0:0:0:0:
286,239,42114,1,8,0:0:0:0:
286,239,42251,1,0,0:0:0:0:
286,239,42319,1,0,0:0:0:0:
286,239,42387,1,8,0:0:0:0:
297,121,42455,1,0,0:0:0:0:
286,239,42523,1,0,0:0:0:0:
297,121,42592,1,0,0:0:0:0:
286,239,42660,1,8,0:0:0:0:
286,239,42796,1,0,0:0:0:0:
295,130,42932,1,8,0:0:0:0:
295,130,43069,1,0,0:0:0:0:
294,130,43137,1,0,0:0:0:0:
294,130,43205,1,8,0:0:0:0:
294,130,43342,1,0,0:0:0:0:
294,130,43478,1,8,0:0:0:0:
295,130,43614,1,0,0:0:0:0:
188,147,43682,1,0,0:0:0:0:
188,147,43751,1,8,0:0:0:0:
188,147,43887,1,0,0:0:0:0:
126,117,43955,1,0,0:0:0:0:
188,147,44023,1,8,0:0:0:0:
126,117,44092,1,0,0:0:0:0:
188,147,44160,1,0,0:0:0:0:
293,180,44296,1,8,0:0:0:0:
293,180,44364,1,0,0:0:0:0:
293,180,44432,1,0,0:0:0:0:
317,174,44569,1,8,0:0:0:0:
317,174,44705,1,0,0:0:0:0:
317,174,44773,1,0,0:0:0:0:
317,174,44842,1,8,0:0:0:0:
317,174,44978,1,4,0:0:0:0:
102,122,45114,1,8,0:0:0:0:
102,122,45251,1,0,0:0:0:0:
66,57,45319,1,0,0:0:0:0:
102,122,45387,1,8,0:0:0:0:
176,137,45523,1,0,0:0:0:0:
176,137,45660,1,8,0:0:0:0:
179,153,45728,1,0,0:0:0:0:
179,153,45796,1,8,0:0:0:0:
203,211,45864,1,8,0:0:0:0:
203,211,45932,1,0,0:0:0:0:
203,211,46069,1,0,0:0:0:0:
209,115,46137,1,8,0:0:0:0:
203,211,46205,1,8,0:0:0:0:
203,211,46342,1,0,0:0:0:0:
203,211,46478,1,8,0:0:0:0:
156,156,46546,1,8,0:0:0:0:
156,156,46614,1,0,0:0:0:0:
214,186,46751,1,8,0:0:0:0:
214,186,46819,1,0,0:0:0:0:
214,186,46887,1,8,0:0:0:0:
214,186,46955,1,8,0:0:0:0:
214,186,47023,1,0,0:0:0:0:
214,186,47160,1,0,0:0:0:0:
261,113,47296,1,8,0:0:0:0:
261,113,47432,1,0,0:0:0:0:
261,113,47501,1,0,0:0:0:0:
261,113,47569,1,8,0:0:0:0:
258,141,47705,1,8,0:0:0:0:
258,141,47773,1,8,0:0:0:0:
258,141,47842,1,0,0:0:0:0:
258,141,47910,1,0,0:0:0:0:
258,141,47978,1,8,0:0:0:0:
221,152,48114,1,0,0:0:0:0:
221,152,48251,1,8,0:0:0:0:
243,146,48319,1,8,0:0:0:0:
243,146,48387,1,0,0:0:0:0:
243,146,48523,1,8,0:0:0:0:
243,146,48592,1,0,0:0:0:0:
245,146,48660,1,8,0:0:0:0:
313,190,48728,1,0,0:0:0:0:
313,190,48796,1,0,0:0:0:0:
313,190,48932,1,8,0:0:0:0:
313,190,49069,1,0,0:0:0:0:
313,190,49205,1,8,0:0:0:0:
313,190,49342,1,4,0:0:0:0:
293,78,49478,1,0,0:0:0:0:
293,78,49614,1,0,0:0:0:0:
293,78,49751,1,8,0:0:0:0:
264,125,49887,1,0,0:0:0:0:
264,125,50023,1,0,0:0:0:0:
264,125,50160,1,8,0:0:0:0:
210,52,50296,1,0,0:0:0:0:
210,52,50364,1,0,0:0:0:0:
210,52,50432,1,0,0:0:0:0:
210,52,50569,1,8,0:0:0:0:
283,103,50705,1,0,0:0:0:0:
283,103,50842,1,0,0:0:0:0:
283,103,50910,1,0,0:0:0:0:
254,75,50978,1,8,0:0:0:0:
222,157,51114,1,0,0:0:0:0:
222,157,51251,1,0,0:0:0:0:
222,157,51319,1,0,0:0:0:0:
222,157,51387,1,8,0:0:0:0:
239,120,51523,1,4,0:0:0:0:
286,150,51660,1,0,0:0:0:0:
286,150,51796,1,8,0:0:0:0:
298,157,51932,1,0,0:0:0:0:
298,157,52069,1,0,0:0:0:0:
298,157,52137,1,0,0:0:0:0:
298,157,52205,1,0,0:0:0:0:
298,157,52342,1,8,0:0:0:0:
336,88,52478,1,0,0:0:0:0:
338,151,52614,1,0,0:0:0:0:
338,151,52682,1,0,0:0:0:0:
338,151,52751,1,0,0:0:0:0:
338,151,52887,1,8,0:0:0:0:
338,151,53023,1,0,0:0:0:0:
235,72,53160,1,0,0:0:0:0:
328,4,53228,1,0,0:0:0:0:
235,72,53364,1,0,0:0:0:0:
328,4,53432,1,8,0:0:0:0:
328,4,53569,1,0,0:0:0:0:
328,4,53705,1,12,0:0:0:0:
293,78,53842,1,0,0:0:0:0:
293,78,53978,1,0,0:0:0:0:
293,78,54115,1,8,0:0:0:0:
264,125,54251,1,0,0:0:0:0:
264,125,54387,1,0,0:0:0:0:
264,125,54524,1,8,0:0:0:0:
210,52,54660,1,0,0:0:0:0:
210,52,54796,1,0,0:0:0:0:
210,52,54864,1,0,0:0:0:0:
210,52,54933,1,8,0:0:0:0:
283,103,55069,1,0,0:0:0:0:
283,103,55206,1,0,0:0:0:0:
283,103,55274,1,0,0:0:0:0:
254,75,55342,1,8,0:0:0:0:
222,157,55478,1,8,0:0:0:0:
222,157,55615,1,0,0:0:0:0:
222,157,55683,1,0,0:0:0:0:
222,157,55751,1,8,0:0:0:0:
239,120,55887,1,4,0:0:0:0:
286,150,56024,1,0,0:0:0:0:
286,150,56160,1,8,0:0:0:0:
298,157,56296,1,0,0:0:0:0:
298,157,56433,1,0,0:0:0:0:
298,157,56501,1,0,0:0:0:0:
298,157,56569,1,0,0:0:0:0:
298,157,56706,1,8,0:0:0:0:
336,88,56842,1,0,0:0:0:0:
338,151,56978,1,0,0:0:0:0:
338,151,57046,1,0,0:0:0:0:
338,151,57115,1,8,0:0:0:0:
338,151,57251,1,8,0:0:0:0:
338,151,57387,1,0,0:0:0:0:
178,95,57455,1,0,0:0:0:0:
235,72,57523,1,8,0:0:0:0:
178,95,57660,1,0,0:0:0:0:
178,95,57796,1,0,0:0:0:0:
178,95,57864,1,0,0:0:0:0:
178,95,57932,1,8,0:0:0:0:
387,175,58069,1,4,0:0:0:0:
278,210,58205,1,0,0:0:0:0:
278,210,58478,1,0,0:0:0:0:
278,210,58614,1,8,0:0:0:0:
278,210,58751,1,0,0:0:0:0:
358,195,58887,1,0,0:0:0:0:
358,195,59023,1,0,0:0:0:0:
358,195,59296,1,0,0:0:0:0:
358,195,59569,1,0,0:0:0:0:
358,195,59705,1,8,0:0:0:0:
358,195,59842,1,0,0:0:0:0:
358,195,59910,1,0,0:0:0:0:
358,195,59978,1,0,0:0:0:0:
358,195,60046,1,0,0:0:0:0:
358,195,60114,1,0,0:0:0:0:
358,195,60182,1,0,0:0:0:0:
358,195,60251,1,8,0:0:0:0:
300,201,60523,1,0,0:0:0:0:
300,201,60660,1,8,0:0:0:0:
300,201,60796,1,8,0:0:0:0:
252,210,61069,1,0,0:0:0:0:
252,210,61205,1,0,0:0:0:0:
252,210,61342,1,8,0:0:0:0:
252,210,61614,1,0,0:0:0:0:
252,210,61751,1,0,0:0:0:0:
252,210,61887,1,8,0:0:0:0:
410,133,62023,1,0,0:0:0:0:
410,133,62296,1,12,0:0:0:0:
459,126,62705,1,0,0:0:0:0:
459,126,62842,1,0,0:0:0:0:
459,126,63114,1,0,0:0:0:0:
459,126,63251,1,0,0:0:0:0:
459,126,63387,1,8,0:0:0:0:
298,133,63455,1,8,0:0:0:0:
298,133,63523,1,8,0:0:0:0:
298,133,63660,1,0,0:0:0:0:
387,130,63796,1,8,0:0:0:0:
387,130,63864,1,8,0:0:0:0:
387,130,63932,1,0,0:0:0:0:
387,130,64001,1,0,0:0:0:0:
387,130,64069,1,0,0:0:0:0:
197,207,64137,1,0,0:0:0:0:
266,180,64205,1,8,0:0:0:0:
387,130,64273,1,8,0:0:0:0:
266,180,64342,1,0,0:0:0:0:
197,207,64410,1,0,0:0:0:0:
266,180,64478,1,0,0:0:0:0:
266,180,64546,1,0,0:0:0:0:
266,180,64614,1,8,0:0:0:0:
232,172,64751,1,4,0:0:0:0:
244,182,65023,1,0,0:0:0:0:
244,182,65160,1,0,0:0:0:0:
244,182,65296,1,12,0:0:0:0:
244,182,65569,1,0,0:0:0:0:
244,182,65705,1,0,0:0:0:0:
244,182,65977,1,12,0:0:0:0:
294,181,66113,1,0,0:0:0:0:
294,181,66181,1,0,0:0:0:0:
347,239,66249,1,8,0:0:0:0:
347,239,66317,1,0,0:0:0:0:
347,239,66386,1,8,0:0:0:0:
347,239,66454,1,0,0:0:0:0:
347,239,66522,1,8,0:0:0:0:
250,173,66590,1,8,0:0:0:0:
347,239,66658,1,0,0:0:0:0:
347,239,66727,1,0,0:0:0:0:
347,239,66795,1,8,0:0:0:0:
250,173,66863,1,8,0:0:0:0:
250,173,66931,1,0,0:0:0:0:
250,173,66999,1,0,0:0:0:0:
250,173,67067,1,8,0:0:0:0:
250,173,67136,1,8,0:0:0:0:
250,173,67204,1,8,0:0:0:0:
250,173,67272,1,8,0:0:0:0:
250,173,67340,1,0,0:0:0:0:
250,173,67408,1,0,0:0:0:0:
250,173,67477,1,8,0:0:0:0:
250,173,67545,1,0,0:0:0:0:
250,173,67613,1,8,0:0:0:0:
250,173,67681,1,8,0:0:0:0:
250,173,67749,1,0,0:0:0:0:
250,173,67817,1,0,0:0:0:0:
250,173,67886,1,8,0:0:0:0:
250,173,67954,1,8,0:0:0:0:
250,173,68022,1,0,0:0:0:0:
250,173,68090,1,0,0:0:0:0:
250,173,68158,1,8,0:0:0:0:
250,173,68227,1,0,0:0:0:0:
250,173,68295,1,8,0:0:0:0:
250,173,68363,1,0,0:0:0:0:
250,173,68431,1,8,0:0:0:0:
250,173,68499,1,8,0:0:0:0:
250,173,68567,1,0,0:0:0:0:
250,173,68636,1,0,0:0:0:0:
250,173,68704,1,8,0:0:0:0:
250,173,68772,1,8,0:0:0:0:
250,173,68840,1,0,0:0:0:0:
250,173,68908,1,0,0:0:0:0:
250,173,68977,1,8,0:0:0:0:
250,173,69045,1,8,0:0:0:0:
250,173,69113,1,0,0:0:0:0:
250,173,69181,1,0,0:0:0:0:
250,173,69249,1,8,0:0:0:0:
250,173,69317,1,8,0:0:0:0:
250,173,69386,1,8,0:0:0:0:
250,173,69454,1,8,0:0:0:0:
250,173,69522,1,0,0:0:0:0:
301,175,69590,1,0,0:0:0:0:
250,173,69658,1,8,0:0:0:0:
301,175,69727,1,0,0:0:0:0:
250,173,69795,1,8,0:0:0:0:
250,173,69863,1,8,0:0:0:0:
250,173,69931,1,0,0:0:0:0:
250,173,69999,1,0,0:0:0:0:
250,173,70067,1,8,0:0:0:0:
250,173,70136,1,8,0:0:0:0:
250,173,70204,1,0,0:0:0:0:
250,173,70272,1,0,0:0:0:0:
361,110,70340,1,8,0:0:0:0:
361,110,70408,1,8,0:0:0:0:
361,110,70477,1,0,0:0:0:0:
361,110,70545,1,0,0:0:0:0:
361,110,70613,1,8,0:0:0:0:
361,110,70681,1,0,0:0:0:0:
361,110,70749,1,8,0:0:0:0:
361,110,70817,1,0,0:0:0:0:
361,110,70886,1,8,0:0:0:0:
361,110,70954,1,8,0:0:0:0:
361,110,71022,1,8,0:0:0:0:
361,110,71090,1,8,0:0:0:0:
361,110,71158,1,0,0:0:0:0:
361,110,71227,1,0,0:0:0:0:
361,110,71295,1,0,0:0:0:0:
361,110,71363,1,0,0:0:0:0:
361,110,71431,1,8,0:0:0:0:
361,110,71499,1,8,0:0:0:0:
361,110,71567,1,0,0:0:0:0:
361,110,71636,1,0,0:0:0:0:
361,110,71704,1,8,0:0:0:0:
361,110,71772,1,0,0:0:0:0:
361,110,71840,1,8,0:0:0:0:
361,110,71908,1,0,0:0:0:0:
361,110,71977,1,8,0:0:0:0:
361,110,72045,1,8,0:0:0:0:
361,110,72113,1,0,0:0:0:0:
361,110,72181,1,0,0:0:0:0:
361,110,72249,1,8,0:0:0:0:
361,110,72317,1,8,0:0:0:0:
361,110,72386,1,0,0:0:0:0:
361,110,72454,1,0,0:0:0:0:
361,110,72522,1,8,0:0:0:0:
361,110,72590,1,8,0:0:0:0:
361,110,72658,1,0,0:0:0:0:
361,110,72727,1,0,0:0:0:0:
361,110,72795,1,8,0:0:0:0:
361,110,72863,1,0,0:0:0:0:
361,110,72931,1,8,0:0:0:0:
361,110,72999,1,0,0:0:0:0:
361,110,73067,1,8,0:0:0:0:
361,110,73136,1,8,0:0:0:0:
361,110,73204,1,0,0:0:0:0:
361,110,73272,1,0,0:0:0:0:
361,110,73340,1,8,0:0:0:0:
361,110,73408,1,0,0:0:0:0:
361,110,73477,1,8,0:0:0:0:
361,110,73545,1,0,0:0:0:0:
361,110,73613,1,8,0:0:0:0:
361,110,73681,1,8,0:0:0:0:
361,110,73749,1,8,0:0:0:0:
361,110,73817,1,8,0:0:0:0:
361,110,73886,1,0,0:0:0:0:
361,110,73954,1,0,0:0:0:0:
361,110,74022,1,8,0:0:0:0:
361,110,74090,1,0,0:0:0:0:
361,110,74158,1,8,0:0:0:0:
361,110,74227,1,8,0:0:0:0:
361,110,74295,1,0,0:0:0:0:
361,110,74363,1,0,0:0:0:0:
361,110,74431,1,8,0:0:0:0:
361,110,74499,1,0,0:0:0:0:
361,110,74567,1,0,0:0:0:0:
361,110,74636,1,0,0:0:0:0:
361,110,74704,1,8,0:0:0:0:
165,38,74772,1,8,0:0:0:0:
294,181,74840,1,0,0:0:0:0:
294,181,74908,1,0,0:0:0:0:
347,239,74976,1,8,0:0:0:0:
347,239,75044,1,0,0:0:0:0:
347,239,75113,1,8,0:0:0:0:
347,239,75181,1,0,0:0:0:0:
347,239,75249,1,8,0:0:0:0:
250,173,75317,1,8,0:0:0:0:
347,239,75385,1,0,0:0:0:0:
347,239,75454,1,0,0:0:0:0:
347,239,75522,1,8,0:0:0:0:
250,173,75590,1,8,0:0:0:0:
250,173,75658,1,0,0:0:0:0:
250,173,75726,1,0,0:0:0:0:
250,173,75794,1,8,0:0:0:0:
250,173,75863,1,8,0:0:0:0:
250,173,75931,1,8,0:0:0:0:
250,173,75999,1,8,0:0:0:0:
250,173,76067,1,0,0:0:0:0:
250,173,76135,1,0,0:0:0:0:
250,173,76204,1,8,0:0:0:0:
250,173,76272,1,0,0:0:0:0:
250,173,76340,1,8,0:0:0:0:
250,173,76408,1,8,0:0:0:0:
250,173,76476,1,0,0:0:0:0:
250,173,76544,1,0,0:0:0:0:
250,173,76613,1,8,0:0:0:0:
250,173,76681,1,8,0:0:0:0:
250,173,76749,1,0,0:0:0:0:
250,173,76817,1,0,0:0:0:0:
250,173,76885,1,8,0:0:0:0:
250,173,76954,1,0,0:0:0:0:
250,173,77022,1,8,0:0:0:0:
250,173,77090,1,0,0:0:0:0:
250,173,77158,1,8,0:0:0:0:
250,173,77226,1,8,0:0:0:0:
250,173,77294,1,0,0:0:0:0:
250,173,77363,1,0,0:0:0:0:
250,173,77431,1,8,0:0:0:0:
250,173,77499,1,8,0:0:0:0:
250,173,77567,1,0,0:0:0:0:
250,173,77635,1,0,0:0:0:0:
250,173,77704,1,8,0:0:0:0:
250,173,77772,1,8,0:0:0:0:
250,173,77840,1,0,0:0:0:0:
250,173,77908,1,0,0:0:0:0:
250,173,77976,1,8,0:0:0:0:
250,173,78044,1,8,0:0:0:0:
250,173,78113,1,8,0:0:0:0:
250,173,78181,1,8,0:0:0:0:
250,173,78249,1,0,0:0:0:0:
301,175,78317,1,0,0:0:0:0:
250,173,78385,1,8,0:0:0:0:
301,175,78454,1,0,0:0:0:0:
250,173,78522,1,8,0:0:0:0:
250,173,78590,1,8,0:0:0:0:
250,173,78658,1,0,0:0:0:0:
250,173,78726,1,0,0:0:0:0:
250,173,78794,1,8,0:0:0:0:
250,173,78863,1,8,0:0:0:0:
250,173,78931,1,0,0:0:0:0:
250,173,78999,1,0,0:0:0:0:
361,110,79067,1,12,0:0:0:0:
230,160,79204,1,8,0:0:0:0:
160,149,79340,1,0,0:0:0:0:
160,149,79408,1,0,0:0:0:0:
160,149,79477,1,8,0:0:0:0:
160,149,79613,1,0,0:0:0:0:
160,149,79681,1,0,0:0:0:0:
181,161,79749,1,0,0:0:0:0:
181,161,79886,1,8,0:0:0:0:
181,161,80022,1,0,0:0:0:0:
106,111,80158,1,12,0:0:0:0:
346,219,80295,1,8,0:0:0:0:
346,219,80363,1,8,0:0:0:0:
346,219,80431,1,0,0:0:0:0:
346,219,80567,1,8,0:0:0:0:
346,219,80636,1,0,0:0:0:0:
346,219,80704,1,8,0:0:0:0:
346,219,80840,1,8,0:0:0:0:
346,219,80908,1,0,0:0:0:0:
346,219,80977,1,0,0:0:0:0:
346,219,81045,1,0,0:0:0:0:
346,219,81113,1,8,0:0:0:0:
346,219,81181,1,8,0:0:0:0:
346,219,81249,1,4,0:0:0:0:
352,192,81522,1,0,0:0:0:0:
272,154,81659,1,8,0:0:0:0:
256,192,81795,1,0,0:0:0:0:
352,192,82068,1,8,0:0:0:0:
306,156,82204,1,0,0:0:0:0:
256,192,82340,1,8,0:0:0:0:
128,160,82613,1,8,0:0:0:0:
157,112,82750,1,8,0:0:0:0:
224,224,82886,1,0,0:0:0:0:
213,176,83022,1,8,0:0:0:0:
128,160,83159,1,0,0:0:0:0:
161,143,83295,1,8,0:0:0:0:
192,224,83431,1,0,0:0:0:0:
229,109,83704,1,12,0:0:0:0:
228,111,83977,1,0,0:0:0:0:
212,163,84113,1,8,0:0:0:0:
227,117,84250,1,0,0:0:0:0:
190,229,84522,1,8,0:0:0:0:
209,171,84659,1,8,0:0:0:0:
225,123,84795,1,0,0:0:0:0:
180,111,84931,1,8,0:0:0:0:
128,160,85068,1,0,0:0:0:0:
160,192,85204,1,8,0:0:0:0:
128,160,85340,1,0,0:0:0:0:
160,192,85477,1,0,0:0:0:0:
128,160,85613,1,4,0:0:0:0:
352,192,85749,1,8,0:0:0:0:
138,187,85817,1,8,0:0:0:0:
272,154,85885,1,8,0:0:0:0:
237,120,86022,1,0,0:0:0:0:
256,192,86159,1,0,0:0:0:0:
81,108,86227,1,8,0:0:0:0:
230,151,86294,1,8,0:0:0:0:
352,192,86432,1,0,0:0:0:0:
306,156,86568,1,8,0:0:0:0:
285,148,86635,1,8,0:0:0:0:
256,192,86704,1,0,0:0:0:0:
215,153,86840,1,8,0:0:0:0:
206,129,86908,1,8,0:0:0:0:
128,160,86977,1,0,0:0:0:0:
157,112,87114,1,8,0:0:0:0:
170,99,87181,1,8,0:0:0:0:
157,112,87250,1,0,0:0:0:0:
157,112,87386,1,8,0:0:0:0:
179,90,87453,1,8,0:0:0:0:
157,112,87522,1,0,0:0:0:0:
186,84,87590,1,0,0:0:0:0:
161,143,87658,1,8,0:0:0:0:
159,119,87726,1,8,0:0:0:0:
192,224,87795,1,4,0:0:0:0:
164,185,87931,1,8,0:0:0:0:
181,175,87999,1,8,0:0:0:0:
145,139,88067,1,0,0:0:0:0:
273,98,88136,1,0,0:0:0:0:
172,103,88204,1,8,0:0:0:0:
199,68,88340,1,8,0:0:0:0:
215,75,88408,1,0,0:0:0:0:
213,51,88476,1,8,0:0:0:0:
351,61,88545,1,8,0:0:0:0:
213,51,88613,1,0,0:0:0:0:
332,46,88681,1,8,0:0:0:0:
159,119,88749,1,0,0:0:0:0:
158,82,88885,1,12,0:0:0:0:
280,147,89977,1,4,0:0:0:0:
476,221,90113,1,8,0:0:0:0:
476,221,90249,1,0,0:0:0:0:
476,221,90386,1,8,0:0:0:0:
476,221,90522,1,8,0:0:0:0:
476,221,90590,1,0,0:0:0:0:
476,221,90658,1,8,0:0:0:0:
476,221,90795,1,0,0:0:0:0:
476,221,90931,1,8,0:0:0:0:
267,140,90977,1,8,0:0:0:0:
190,78,91022,1,0,0:0:0:0:
267,140,91067,1,8,0:0:0:0:
267,140,91136,1,8,0:0:0:0:
383,84,91204,1,0,0:0:0:0:
267,140,91272,1,8,0:0:0:0:
291,130,91340,1,8,0:0:0:0:
291,130,91408,1,0,0:0:0:0:
291,130,91477,1,8,0:0:0:0:
288,131,91545,1,0,0:0:0:0:
288,131,91613,1,8,0:0:0:0:
272,151,91749,1,8,0:0:0:0:
272,151,91817,1,8,0:0:0:0:
272,151,91886,1,0,0:0:0:0:
272,151,91954,1,0,0:0:0:0:
272,151,92022,1,8,0:0:0:0:
272,151,92090,1,0,0:0:0:0:
272,151,92158,1,8,0:0:0:0:
232,135,92295,1,0,0:0:0:0:
232,135,92363,1,8,0:0:0:0:
229,140,92431,1,8,0:0:0:0:
232,135,92567,1,0,0:0:0:0:
232,135,92636,1,0,0:0:0:0:
232,135,92704,1,8,0:0:0:0:
320,72,92772,1,8,0:0:0:0:
320,72,92840,1,0,0:0:0:0:
320,72,92908,1,0,0:0:0:0:
320,72,92977,1,8,0:0:0:0:
392,193,93045,1,0,0:0:0:0:
392,193,93113,1,8,0:0:0:0:
265,120,93181,1,0,0:0:0:0:
190,84,93249,1,8,0:0:0:0:
111,98,93317,1,8,0:0:0:0:
111,98,93386,1,0,0:0:0:0:
111,98,93454,1,0,0:0:0:0:
111,98,93522,1,8,0:0:0:0:
245,45,93590,1,0,0:0:0:0:
268,105,93658,1,0,0:0:0:0:
436,142,93795,1,8,0:0:0:0:
436,142,93863,1,0,0:0:0:0:
436,142,93931,1,8,0:0:0:0:
436,142,94067,1,8,0:0:0:0:
436,142,94158,1,8,0:0:0:0:
436,142,94249,1,8,0:0:0:0:
436,142,94340,1,4,0:0:0:0:
315,107,94477,1,8,0:0:0:0:
315,107,94545,1,8,0:0:0:0:
315,107,94613,1,0,0:0:0:0:
315,107,94749,1,8,0:0:0:0:
315,107,94886,1,0,0:0:0:0:
315,107,95022,1,8,0:0:0:0:
315,107,95158,1,0,0:0:0:0:
315,107,95295,1,8,0:0:0:0:
344,141,95363,1,0,0:0:0:0:
344,141,95431,1,8,0:0:0:0:
344,141,95499,1,8,0:0:0:0:
344,141,95567,1,0,0:0:0:0:
216,94,95704,1,0,0:0:0:0:
216,94,95840,1,8,0:0:0:0:
216,94,95908,1,0,0:0:0:0:
216,94,95977,1,0,0:0:0:0:
254,107,96113,1,8,0:0:0:0:
254,107,96249,1,8,0:0:0:0:
254,107,96317,1,8,0:0:0:0:
254,107,96386,1,0,0:0:0:0:
254,107,96522,1,8,0:0:0:0:
254,107,96590,1,8,0:0:0:0:
254,107,96658,1,8,0:0:0:0:
269,149,96727,1,8,0:0:0:0:
269,149,96795,1,0,0:0:0:0:
394,208,96931,1,8,0:0:0:0:
394,208,97067,1,0,0:0:0:0:
394,208,97204,1,8,0:0:0:0:
394,208,97340,1,0,0:0:0:0:
394,208,97408,1,0,0:0:0:0:
394,208,97477,1,8,0:0:0:0:
394,208,97613,1,0,0:0:0:0:
246,151,97749,1,8,0:0:0:0:
246,151,97886,1,8,0:0:0:0:
246,151,98022,1,8,0:0:0:0:
280,137,98158,1,0,0:0:0:0:
280,137,98295,1,8,0:0:0:0:
276,140,98363,1,8,0:0:0:0:
276,140,98431,1,0,0:0:0:0:
276,140,98567,1,8,0:0:0:0:
234,194,98704,1,4,0:0:0:0:
357,153,98977,1,8,0:0:0:0:
357,153,99249,1,0,0:0:0:0:
357,153,99386,1,0,0:0:0:0:
357,153,99522,1,8,0:0:0:0:
357,153,99795,1,0,0:0:0:0:
321,169,99863,1,0,0:0:0:0:
357,153,99931,1,0,0:0:0:0:
357,153,100067,1,0,0:0:0:0:
346,177,100204,1,8,0:0:0:0:
124,29,100272,1,8,0:0:0:0:
357,153,100340,1,0,0:0:0:0:
357,153,100477,1,0,0:0:0:0:
357,153,100613,1,8,0:0:0:0:
284,23,100886,1,12,0:0:0:0:
231,184,101022,1,0,0:0:0:0:
231,184,101158,1,8,0:0:0:0:
231,184,101295,1,0,0:0:0:0:
166,90,101363,1,0,0:0:0:0:
166,90,101431,1,0,0:0:0:0:
166,90,101567,1,0,0:0:0:0:
166,90,101704,1,8,0:0:0:0:
224,130,101772,1,8,0:0:0:0:
224,130,101840,1,0,0:0:0:0:
224,130,101977,1,8,0:0:0:0:
368,147,102113,1,0,0:0:0:0:
364,132,102181,1,0,0:0:0:0:
368,147,102249,1,0,0:0:0:0:
364,132,102386,1,8,0:0:0:0:
364,132,102522,1,0,0:0:0:0:
364,132,102590,1,0,0:0:0:0:
364,132,102658,1,8,0:0:0:0:
364,132,102795,1,8,0:0:0:0:
300,66,102931,1,0,0:0:0:0:
300,66,103067,1,12,0:0:0:0:
266,180,103204,1,0,0:0:0:0:
266,180,103340,1,8,0:0:0:0:
266,180,103477,1,0,0:0:0:0:
266,180,103613,1,8,0:0:0:0:
266,180,103749,1,0,0:0:0:0:
328,132,103886,1,8,0:0:0:0:
328,132,103954,1,8,0:0:0:0:
328,132,104022,1,0,0:0:0:0:
322,137,104158,1,8,0:0:0:0:
290,146,104227,1,8,0:0:0:0:
290,146,104363,1,0,0:0:0:0:
290,146,104431,1,8,0:0:0:0:
262,113,104499,1,8,0:0:0:0:
262,113,104567,1,8,0:0:0:0:
262,113,104636,1,8,0:0:0:0:
262,113,104704,1,0,0:0:0:0:
297,151,104840,1,8,0:0:0:0:
297,151,104908,1,8,0:0:0:0:
297,151,104977,1,0,0:0:0:0:
297,157,105045,1,0,0:0:0:0:
297,157,105113,1,8,0:0:0:0:
297,157,105181,1,0,0:0:0:0:
297,157,105249,1,12,0:0:0:0:
302,73,105386,1,8,0:0:0:0:
302,73,105522,1,0,0:0:0:0:
302,73,105658,1,8,0:0:0:0:
302,73,105727,1,0,0:0:0:0:
302,73,105795,1,8,0:0:0:0:
241,53,105931,1,0,0:0:0:0:
241,53,105999,1,0,0:0:0:0:
241,53,106067,1,8,0:0:0:0:
360,47,106136,1,8,0:0:0:0:
138,116,106204,1,0,0:0:0:0:
61,142,106340,1,4,0:0:0:0:
296,202,106477,1,8,0:0:0:0:
249,147,106545,1,8,0:0:0:0:
296,202,106613,1,0,0:0:0:0:
296,202,106681,1,0,0:0:0:0:
296,202,106749,1,8,0:0:0:0:
296,202,106886,1,0,0:0:0:0:
296,202,107022,1,8,0:0:0:0:
296,202,107158,1,12,0:0:0:0:
291,212,107431,1,4,0:0:0:0:
434,231,107567,1,4,0:0:0:0:
315,152,108522,1,8,0:0:0:0:
315,152,108658,1,0,0:0:0:0:
315,152,108727,1,0,0:0:0:0:
315,152,108795,1,0,0:0:0:0:
315,152,108863,1,0,0:0:0:0:
315,152,108931,1,8,0:0:0:0:
270,53,109067,1,0,0:0:0:0:
270,53,109204,1,0,0:0:0:0:
270,53,109340,1,8,0:0:0:0:
270,53,109477,1,4,0:0:0:0:
403,239,109749,1,8,0:0:0:0:
153,143,109885,1,0,0:0:0:0:
153,143,109953,1,0,0:0:0:0:
153,143,110021,1,8,0:0:0:0:
153,143,110158,1,0,0:0:0:0:
153,143,110294,1,8,0:0:0:0:
153,143,110430,1,0,0:0:0:0:
153,143,110499,1,0,0:0:0:0:
153,143,110567,1,8,0:0:0:0:
153,143,110703,1,0,0:0:0:0:
286,239,110840,1,8,0:0:0:0:
286,239,110908,1,0,0:0:0:0:
286,239,110976,1,0,0:0:0:0:
286,239,111112,1,8,0:0:0:0:
297,121,111181,1,0,0:0:0:0:
286,239,111249,1,0,0:0:0:0:
286,239,111317,1,0,0:0:0:0:
286,239,111385,1,8,0:0:0:0:
297,121,111522,1,0,0:0:0:0:
286,239,111658,1,8,0:0:0:0:
286,239,111794,1,0,0:0:0:0:
295,130,111930,1,8,0:0:0:0:
295,130,112067,1,0,0:0:0:0:
294,130,112135,1,0,0:0:0:0:
294,130,112203,1,8,0:0:0:0:
294,130,112340,1,0,0:0:0:0:
294,130,112476,1,8,0:0:0:0:
295,130,112612,1,0,0:0:0:0:
188,147,112680,1,0,0:0:0:0:
188,147,112749,1,8,0:0:0:0:
188,147,112885,1,8,0:0:0:0:
126,117,112953,1,0,0:0:0:0:
188,147,113021,1,8,0:0:0:0:
126,117,113090,1,8,0:0:0:0:
188,147,113158,1,0,0:0:0:0:
293,180,113294,1,8,0:0:0:0:
293,180,113362,1,0,0:0:0:0:
293,180,113430,1,8,0:0:0:0:
262,40,113499,1,0,0:0:0:0:
317,174,113567,1,8,0:0:0:0:
317,174,113703,1,0,0:0:0:0:
317,174,113771,1,0,0:0:0:0:
317,174,113840,1,8,0:0:0:0:
317,174,113976,1,0,0:0:0:0:
102,122,114112,1,8,0:0:0:0:
102,122,114249,1,0,0:0:0:0:
66,57,114317,1,0,0:0:0:0:
102,122,114385,1,8,0:0:0:0:
176,137,114521,1,0,0:0:0:0:
176,137,114658,1,8,0:0:0:0:
179,153,114726,1,0,0:0:0:0:
179,153,114794,1,0,0:0:0:0:
203,211,114930,1,8,0:0:0:0:
203,211,115067,1,4,0:0:0:0:
214,186,115749,1,8,0:0:0:0:
268,49,115886,1,0,0:0:0:0:
214,186,116021,1,0,0:0:0:0:
214,186,116158,1,12,0:0:0:0:
357,123,116431,1,0,0:0:0:0:
357,123,116567,1,8,0:0:0:0:
357,123,116704,1,0,0:0:0:0:
357,123,116840,1,0,0:0:0:0:
357,123,116977,1,8,0:0:0:0:
292,114,117113,1,0,0:0:0:0:
292,114,117249,1,0,0:0:0:0:
292,114,117386,1,8,0:0:0:0:
311,197,117658,1,0,0:0:0:0:
311,197,117795,1,8,0:0:0:0:
311,197,117931,1,0,0:0:0:0:
311,197,117999,1,0,0:0:0:0:
311,197,118067,1,0,0:0:0:0:
311,197,118204,1,8,0:0:0:0:
282,110,118340,1,4,0:0:0:0:
282,110,118477,1,0,0:0:0:0:
282,110,118613,1,8,0:0:0:0:
324,223,118749,1,0,0:0:0:0:
324,223,119022,1,0,0:0:0:0:
324,223,119158,1,8,0:0:0:0:
324,223,119295,1,0,0:0:0:0:
276,147,119431,1,0,0:0:0:0:
276,147,119567,1,0,0:0:0:0:
276,147,119704,1,8,0:0:0:0:
276,147,119840,1,8,0:0:0:0:
113,151,119977,1,0,0:0:0:0:
113,151,120045,1,0,0:0:0:0:
113,151,120113,1,0,0:0:0:0:
392,56,120181,1,0,0:0:0:0:
113,151,120249,1,8,0:0:0:0:
212,35,120522,1,4,0:0:0:0:
242,221,120795,1,0,0:0:0:0:
242,221,120931,1,8,0:0:0:0:
242,221,121204,1,0,0:0:0:0:
242,221,121340,1,8,0:0:0:0:
220,145,121477,1,0,0:0:0:0:
220,145,121613,1,0,0:0:0:0:
220,145,121749,1,8,0:0:0:0:
271,160,122022,1,0,0:0:0:0:
271,160,122158,1,8,0:0:0:0:
271,160,122295,1,0,0:0:0:0:
271,160,122363,1,0,0:0:0:0:
271,160,122431,1,0,0:0:0:0:
271,160,122567,1,8,0:0:0:0:
91,85,122704,1,4,0:0:0:0:
91,85,122840,1,0,0:0:0:0:
196,80,122977,1,8,0:0:0:0:
336,154,123249,1,0,0:0:0:0:
336,154,123386,1,0,0:0:0:0:
336,154,123522,1,8,0:0:0:0:
285,157,123795,1,0,0:0:0:0:
259,159,123931,1,8,0:0:0:0:
231,161,124067,1,8,0:0:0:0:
224,159,124136,1,0,0:0:0:0:
204,154,124204,1,8,0:0:0:0:
196,152,124272,1,8,0:0:0:0:
188,150,124340,1,0,0:0:0:0:
194,125,124477,1,0,0:0:0:0:
194,125,124613,1,0,0:0:0:0:
194,125,124681,1,0,0:0:0:0:
194,125,124749,1,8,0:0:0:0:
194,125,124886,1,4,0:0:0:0:
278,210,125022,1,0,0:0:0:0:
278,210,125295,1,0,0:0:0:0:
278,210,125431,1,8,0:0:0:0:
278,210,125568,1,0,0:0:0:0:
358,195,125704,1,0,0:0:0:0:
358,195,125840,1,0,0:0:0:0:
358,195,126113,1,0,0:0:0:0:
358,195,126386,1,0,0:0:0:0:
358,195,126522,1,8,0:0:0:0:
358,195,126659,1,0,0:0:0:0:
358,195,126727,1,0,0:0:0:0:
358,195,126795,1,0,0:0:0:0:
358,195,126863,1,0,0:0:0:0:
358,195,126931,1,0,0:0:0:0:
358,195,126999,1,0,0:0:0:0:
358,195,127068,1,8,0:0:0:0:
300,201,127340,1,0,0:0:0:0:
300,201,127477,1,8,0:0:0:0:
300,201,127613,1,8,0:0:0:0:
252,210,127886,1,0,0:0:0:0:
252,210,128022,1,0,0:0:0:0:
252,210,128159,1,8,0:0:0:0:
252,210,128431,1,0,0:0:0:0:
252,210,128568,1,0,0:0:0:0:
252,210,128704,1,8,0:0:0:0:
410,133,128840,1,0,0:0:0:0:
410,133,129113,1,12,0:0:0:0:
459,126,129522,1,0,0:0:0:0:
459,126,129659,1,0,0:0:0:0:
459,126,129931,1,0,0:0:0:0:
459,126,130068,1,0,0:0:0:0:
433,126,130204,1,8,0:0:0:0:
411,126,130340,1,8,0:0:0:0:
386,130,130477,1,0,0:0:0:0:
363,133,130613,1,8,0:0:0:0:
320,128,130886,1,12,0:0:0:0:
288,128,131022,1,0,0:0:0:0:
224,128,131295,1,0,0:0:0:0:
224,128,131431,1,12,0:0:0:0:
224,128,131567,1,0,0:0:0:0:
224,128,131704,1,8,0:0:0:0:
224,160,131840,1,0,0:0:0:0:
224,160,131977,1,8,0:0:0:0:
224,160,132113,1,0,0:0:0:0:
224,160,132181,1,0,0:0:0:0:
224,160,132249,1,8,0:0:0:0:
192,160,132386,1,0,0:0:0:0:
192,160,132454,1,0,0:0:0:0:
192,160,132522,1,8,0:0:0:0:
192,160,132590,1,8,0:0:0:0:
192,160,132658,1,0,0:0:0:0:
192,128,132795,1,8,0:0:0:0:
192,128,132863,1,8,0:0:0:0:
192,128,132931,1,0,0:0:0:0:
192,128,132999,1,0,0:0:0:0:
192,128,133067,1,0,0:0:0:0:
192,160,133204,1,8,0:0:0:0:
192,192,133340,1,8,0:0:0:0:
224,224,133477,1,0,0:0:0:0:
244,182,133613,5,12,0:0:0:0:
294,181,133749,1,0,0:0:0:0:
294,181,133817,1,0,0:0:0:0:
347,239,133885,1,8,0:0:0:0:
347,239,133953,1,0,0:0:0:0:
347,239,134022,1,8,0:0:0:0:
347,239,134090,1,0,0:0:0:0:
347,239,134158,1,8,0:0:0:0:
250,173,134226,1,8,0:0:0:0:
347,239,134294,1,0,0:0:0:0:
347,239,134363,1,0,0:0:0:0:
347,239,134431,1,8,0:0:0:0:
250,173,134499,1,8,0:0:0:0:
250,173,134567,1,0,0:0:0:0:
250,173,134635,1,0,0:0:0:0:
250,173,134703,1,8,0:0:0:0:
250,173,134772,1,8,0:0:0:0:
250,173,134840,1,8,0:0:0:0:
250,173,134908,1,8,0:0:0:0:
250,173,134976,1,0,0:0:0:0:
250,173,135044,1,0,0:0:0:0:
250,173,135113,1,8,0:0:0:0:
250,173,135181,1,0,0:0:0:0:
250,173,135249,1,8,0:0:0:0:
250,173,135317,1,8,0:0:0:0:
250,173,135385,1,0,0:0:0:0:
250,173,135453,1,0,0:0:0:0:
250,173,135522,1,8,0:0:0:0:
250,173,135590,1,8,0:0:0:0:
250,173,135658,1,0,0:0:0:0:
250,173,135726,1,0,0:0:0:0:
250,173,135794,1,8,0:0:0:0:
250,173,135863,1,0,0:0:0:0:
250,173,135931,1,8,0:0:0:0:
250,173,135999,1,0,0:0:0:0:
250,173,136067,1,8,0:0:0:0:
250,173,136135,1,8,0:0:0:0:
250,173,136203,1,0,0:0:0:0:
250,173,136272,1,0,0:0:0:0:
250,173,136340,1,8,0:0:0:0:
250,173,136408,1,8,0:0:0:0:
250,173,136476,1,0,0:0:0:0:
250,173,136544,1,0,0:0:0:0:
250,173,136613,1,8,0:0:0:0:
250,173,136681,1,0,0:0:0:0:
250,173,136749,1,8,0:0:0:0:
250,173,136817,1,0,0:0:0:0:
250,173,136885,1,8,0:0:0:0:
250,173,136953,1,8,0:0:0:0:
250,173,137022,1,8,0:0:0:0:
250,173,137090,1,8,0:0:0:0:
250,173,137158,1,0,0:0:0:0:
301,175,137226,1,0,0:0:0:0:
250,173,137294,1,8,0:0:0:0:
301,175,137363,1,0,0:0:0:0:
250,173,137431,1,8,0:0:0:0:
250,173,137499,1,8,0:0:0:0:
250,173,137567,1,0,0:0:0:0:
250,173,137635,1,0,0:0:0:0:
250,173,137703,1,8,0:0:0:0:
250,173,137772,1,8,0:0:0:0:
250,173,137840,1,0,0:0:0:0:
250,173,137908,1,0,0:0:0:0:
361,110,137976,1,8,0:0:0:0:
361,110,138044,1,8,0:0:0:0:
361,110,138113,1,0,0:0:0:0:
361,110,138181,1,0,0:0:0:0:
361,110,138249,1,8,0:0:0:0:
361,110,138317,1,0,0:0:0:0:
361,110,138385,1,8,0:0:0:0:
361,110,138453,1,0,0:0:0:0:
361,110,138522,1,8,0:0:0:0:
361,110,138590,1,8,0:0:0:0:
361,110,138658,1,8,0:0:0:0:
361,110,138726,1,8,0:0:0:0:
361,110,138794,1,0,0:0:0:0:
361,110,138863,1,0,0:0:0:0:
361,110,138931,1,0,0:0:0:0:
361,110,138999,1,0,0:0:0:0:
361,110,139067,1,8,0:0:0:0:
361,110,139135,1,8,0:0:0:0:
361,110,139203,1,0,0:0:0:0:
361,110,139272,1,0,0:0:0:0:
361,110,139340,1,8,0:0:0:0:
361,110,139408,1,0,0:0:0:0:
361,110,139476,1,8,0:0:0:0:
361,110,139544,1,0,0:0:0:0:
361,110,139613,1,8,0:0:0:0:
361,110,139681,1,8,0:0:0:0:
361,110,139749,1,0,0:0:0:0:
361,110,139817,1,0,0:0:0:0:
361,110,139885,1,8,0:0:0:0:
361,110,139953,1,8,0:0:0:0:
361,110,140022,1,0,0:0:0:0:
361,110,140090,1,0,0:0:0:0:
361,110,140158,1,8,0:0:0:0:
361,110,140226,1,8,0:0:0:0:
361,110,140294,1,0,0:0:0:0:
361,110,140363,1,0,0:0:0:0:
361,110,140431,1,8,0:0:0:0:
361,110,140499,1,0,0:0:0:0:
361,110,140567,1,8,0:0:0:0:
361,110,140635,1,0,0:0:0:0:
361,110,140703,1,8,0:0:0:0:
361,110,140772,1,8,0:0:0:0:
361,110,140840,1,0,0:0:0:0:
361,110,140908,1,0,0:0:0:0:
361,110,140976,1,8,0:0:0:0:
361,110,141044,1,0,0:0:0:0:
361,110,141113,1,8,0:0:0:0:
361,110,141181,1,0,0:0:0:0:
361,110,141249,1,8,0:0:0:0:
361,110,141317,1,8,0:0:0:0:
361,110,141385,1,8,0:0:0:0:
361,110,141453,1,8,0:0:0:0:
361,110,141522,1,0,0:0:0:0:
361,110,141590,1,0,0:0:0:0:
361,110,141658,1,8,0:0:0:0:
361,110,141726,1,0,0:0:0:0:
361,110,141794,1,8,0:0:0:0:
361,110,141863,1,8,0:0:0:0:
361,110,141931,1,0,0:0:0:0:
361,110,141999,1,0,0:0:0:0:
361,110,142067,1,8,0:0:0:0:
361,110,142135,1,0,0:0:0:0:
361,110,142203,1,0,0:0:0:0:
361,110,142272,1,0,0:0:0:0:
361,110,142340,1,8,0:0:0:0:
165,38,142408,1,8,0:0:0:0:
294,181,142476,1,0,0:0:0:0:
294,181,142544,1,0,0:0:0:0:
347,239,142612,1,8,0:0:0:0:
347,239,142680,1,0,0:0:0:0:
347,239,142749,1,8,0:0:0:0:
347,239,142817,1,0,0:0:0:0:
347,239,142885,1,8,0:0:0:0:
250,173,142953,1,8,0:0:0:0:
347,239,143021,1,0,0:0:0:0:
347,239,143090,1,0,0:0:0:0:
347,239,143158,1,8,0:0:0:0:
250,173,143226,1,8,0:0:0:0:
250,173,143294,1,0,0:0:0:0:
250,173,143362,1,0,0:0:0:0:
250,173,143430,1,8,0:0:0:0:
250,173,143499,1,8,0:0:0:0:
250,173,143567,1,8,0:0:0:0:
250,173,143635,1,8,0:0:0:0:
250,173,143703,1,0,0:0:0:0:
250,173,143771,1,0,0:0:0:0:
250,173,143840,1,8,0:0:0:0:
250,173,143908,1,0,0:0:0:0:
250,173,143976,1,8,0:0:0:0:
250,173,144044,1,8,0:0:0:0:
250,173,144112,1,0,0:0:0:0:
250,173,144180,1,0,0:0:0:0:
250,173,144249,1,8,0:0:0:0:
250,173,144317,1,8,0:0:0:0:
250,173,144385,1,0,0:0:0:0:
250,173,144453,1,0,0:0:0:0:
250,173,144521,1,8,0:0:0:0:
250,173,144590,1,0,0:0:0:0:
250,173,144658,1,8,0:0:0:0:
250,173,144726,1,0,0:0:0:0:
250,173,144794,1,8,0:0:0:0:
250,173,144862,1,8,0:0:0:0:
250,173,144930,1,0,0:0:0:0:
250,173,144999,1,0,0:0:0:0:
250,173,145067,1,8,0:0:0:0:
250,173,145135,1,8,0:0:0:0:
250,173,145203,1,0,0:0:0:0:
250,173,145271,1,0,0:0:0:0:
250,173,145340,1,8,0:0:0:0:
250,173,145408,1,8,0:0:0:0:
250,173,145476,1,0,0:0:0:0:
250,173,145544,1,0,0:0:0:0:
250,173,145612,1,8,0:0:0:0:
250,173,145680,1,8,0:0:0:0:
250,173,145749,1,8,0:0:0:0:
250,173,145817,1,8,0:0:0:0:
250,173,145885,1,0,0:0:0:0:
301,175,145953,1,0,0:0:0:0:
250,173,146021,1,8,0:0:0:0:
301,175,146090,1,0,0:0:0:0:
250,173,146158,1,8,0:0:0:0:
250,173,146226,1,8,0:0:0:0:
250,173,146294,1,0,0:0:0:0:
250,173,146362,1,0,0:0:0:0:
250,173,146430,1,8,0:0:0:0:
250,173,146499,1,8,0:0:0:0:
250,173,146567,1,0,0:0:0:0:
250,173,146635,1,0,0:0:0:0:
361,110,146703,1,12,0:0:0:0:
230,160,146840,1,8,0:0:0:0:
160,149,146976,1,0,0:0:0:0:
160,149,147113,1,8,0:0:0:0:
160,149,147249,1,0,0:0:0:0:
160,149,147317,1,0,0:0:0:0:
181,161,147385,1,0,0:0:0:0:
181,161,147522,1,8,0:0:0:0:
181,161,147658,1,0,0:0:0:0:
106,111,147794,1,12,0:0:0:0:
206,213,147931,1,8,0:0:0:0:
206,213,148067,1,0,0:0:0:0:
206,213,148136,1,0,0:0:0:0:
206,213,148204,1,8,0:0:0:0:
206,213,148340,1,8,0:0:0:0:
206,213,148477,1,8,0:0:0:0:
206,213,148613,1,0,0:0:0:0:
206,213,148749,1,8,0:0:0:0:
206,213,148886,1,4,0:0:0:0:
256,192,149022,12,0,153113,0:0:0:0:
320,128,153249,5,8,0:0:0:0:
224,160,153658,1,8,0:0:0:0:
288,160,154067,1,8,0:0:0:0:
384,128,154477,1,8,0:0:0:0:
320,160,154886,1,8,0:0:0:0:
384,128,155158,1,8,0:0:0:0:
320,128,155431,1,8,0:0:0:0:
384,96,155840,1,8,0:0:0:0:
384,96,156249,1,8,0:0:0:0:
384,96,156658,1,8,0:0:0:0:
384,96,157067,1,8,0:0:0:0:
320,128,157340,1,8,0:0:0:0:
256,128,157613,1,8,0:0:0:0:
224,32,158022,1,8,0:0:0:0:
192,128,158431,1,8,0:0:0:0:
192,128,158840,1,8,0:0:0:0:
192,128,159249,1,8,0:0:0:0:
192,128,159522,1,8,0:0:0:0:
192,128,159795,1,8,0:0:0:0:
192,128,160204,1,8,0:0:0:0:
192,128,160613,1,8,0:0:0:0:
192,128,160886,1,8,0:0:0:0:
192,128,161295,1,8,0:0:0:0:
160,64,161704,1,8,0:0:0:0:
160,96,161977,1,8,0:0:0:0:
224,160,162386,1,8,0:0:0:0:
288,160,162795,1,8,0:0:0:0:
384,128,163205,1,8,0:0:0:0:
320,160,163614,1,8,0:0:0:0:
384,128,163886,1,8,0:0:0:0:
320,128,164159,1,8,0:0:0:0:
384,96,164568,1,8,0:0:0:0:
384,96,164977,1,8,0:0:0:0:
384,96,165386,1,8,0:0:0:0:
384,96,165795,1,8,0:0:0:0:
320,128,166068,1,8,0:0:0:0:
256,128,166341,1,8,0:0:0:0:
224,32,166750,1,8,0:0:0:0:
192,128,167159,1,8,0:0:0:0:
192,128,167568,1,8,0:0:0:0:
192,128,167977,1,8,0:0:0:0:
192,128,168250,1,8,0:0:0:0:
192,128,168523,1,8,0:0:0:0:
192,128,168932,1,8,0:0:0:0:
192,128,169341,1,8,0:0:0:0:
192,128,169614,1,8,0:0:0:0:
192,128,170023,1,8,0:0:0:0:
160,64,170432,1,8,0:0:0:0:
192,96,170704,1,0,0:0:0:0:
256,128,171113,1,0,0:0:0:0:
288,192,171522,1,8,0:0:0:0:
352,128,171931,1,0,0:0:0:0:
320,192,172340,1,8,0:0:0:0:
60,75,172613,1,0,0:0:0:0:
116,175,172681,1,0,0:0:0:0:
116,175,172749,1,0,0:0:0:0:
116,175,172817,1,0,0:0:0:0:
320,160,172886,1,0,0:0:0:0:
384,128,173295,1,0,0:0:0:0:
320,128,173567,1,0,0:0:0:0:
288,128,173704,1,8,0:0:0:0:
288,32,174113,1,0,0:0:0:0:
256,128,174386,1,0,0:0:0:0:
256,96,174522,1,8,0:0:0:0:
256,64,174658,1,0,0:0:0:0:
288,96,174795,1,0,0:0:0:0:
288,96,175067,1,0,0:0:0:0:
256,160,175477,1,0,0:0:0:0:
320,128,175749,1,0,0:0:0:0:
288,128,175886,1,8,0:0:0:0:
256,128,176022,1,0,0:0:0:0:
192,128,176295,1,0,0:0:0:0:
192,128,176567,1,0,0:0:0:0:
192,128,176704,1,8,0:0:0:0:
192,128,176840,1,0,0:0:0:0:
192,128,176977,1,0,0:0:0:0:
192,128,177113,1,0,0:0:0:0:
192,128,177249,1,0,0:0:0:0:
224,160,177522,1,0,0:0:0:0:
192,128,177658,1,0,0:0:0:0:
224,128,177795,1,8,0:0:0:0:
224,128,177931,1,0,0:0:0:0:
256,160,178204,1,0,0:0:0:0:
288,192,178477,1,0,0:0:0:0:
288,192,178613,1,0,0:0:0:0:
288,192,178886,1,8,0:0:0:0:
288,192,179158,1,0,0:0:0:0:
288,192,179431,1,0,0:0:0:0:
256,128,179840,1,0,0:0:0:0:
288,192,180249,1,8,0:0:0:0:
352,128,180658,1,0,0:0:0:0:
288,128,180931,1,0,0:0:0:0:
320,192,181067,1,8,0:0:0:0:
96,153,181136,1,8,0:0:0:0:
288,192,181204,1,0,0:0:0:0:
96,153,181272,1,0,0:0:0:0:
96,153,181340,1,0,0:0:0:0:
352,128,181477,1,0,0:0:0:0:
320,160,181613,1,0,0:0:0:0:
288,160,181749,1,0,0:0:0:0:
256,160,181886,1,0,0:0:0:0:
384,128,182022,1,0,0:0:0:0:
352,128,182158,1,8,0:0:0:0:
320,128,182294,1,0,0:0:0:0:
256,128,182567,1,0,0:0:0:0:
288,32,182840,1,0,0:0:0:0:
256,64,182977,1,0,0:0:0:0:
256,128,183113,1,0,0:0:0:0:
256,96,183249,1,8,0:0:0:0:
256,64,183385,1,0,0:0:0:0:
288,96,183522,1,0,0:0:0:0:
288,96,183794,1,0,0:0:0:0:
256,160,184204,1,0,0:0:0:0:
320,128,184476,1,0,0:0:0:0:
288,128,184613,1,8,0:0:0:0:
256,128,184749,1,0,0:0:0:0:
192,128,185022,1,0,0:0:0:0:
192,128,185294,1,0,0:0:0:0:
192,128,185431,1,8,0:0:0:0:
192,128,185567,1,0,0:0:0:0:
192,128,185704,1,0,0:0:0:0:
192,128,185976,1,0,0:0:0:0:
224,160,186249,1,0,0:0:0:0:
192,128,186385,1,8,0:0:0:0:
128,128,186658,1,0,0:0:0:0:
96,128,186795,1,8,0:0:0:0:
192,128,187067,1,0,0:0:0:0:
352,96,187886,1,0,0:0:0:0:
352,96,187954,1,0,0:0:0:0:
352,96,188022,1,8,0:0:0:0:
145,23,188090,1,8,0:0:0:0:
105,170,188158,1,0,0:0:0:0:
288,96,188295,1,0,0:0:0:0:
256,96,188431,1,12,0:0:0:0:
320,160,188840,1,4,0:0:0:0:
288,128,189113,1,12,0:0:0:0:
256,288,189931,1,0,0:0:0:0:
256,256,190067,1,8,0:0:0:0:
288,192,190340,1,0,0:0:0:0:
320,160,190477,1,0,0:0:0:0:
352,160,190613,1,12,0:0:0:0:
352,160,190749,1,0,0:0:0:0:
352,160,190886,1,0,0:0:0:0:
352,160,191022,1,12,0:0:0:0:
352,160,191158,1,0,0:0:0:0:
320,160,191295,1,12,0:0:0:0:
288,224,191567,1,8,0:0:0:0:
288,224,191704,1,8,0:0:0:0:
256,224,191840,1,0,0:0:0:0:
224,192,191977,1,8,0:0:0:0:
224,192,192045,1,8,0:0:0:0:
224,192,192113,1,0,0:0:0:0:
224,192,192181,1,0,0:0:0:0:
224,192,192249,1,8,0:0:0:0:
256,160,192386,1,0,0:0:0:0:
256,160,192454,1,0,0:0:0:0:
256,160,192522,1,12,0:0:0:0:
288,192,192795,1,8,0:0:0:0:
288,192,192863,1,8,0:0:0:0:
288,192,192931,1,0,0:0:0:0:
320,224,193067,1,0,0:0:0:0:
352,224,193204,1,0,0:0:0:0:
352,256,193340,1,8,0:0:0:0:
352,224,193477,1,8,0:0:0:0:
320,192,193613,1,0,0:0:0:0:
288,160,193749,1,8,0:0:0:0:
210,179,193817,1,8,0:0:0:0:
288,160,193886,1,0,0:0:0:0:
256,128,194022,1,0,0:0:0:0:
256,128,194090,1,8,0:0:0:0:
256,128,194158,1,8,0:0:0:0:
288,160,194363,1,0,0:0:0:0:
288,160,194431,1,8,0:0:0:0:
320,192,194567,1,0,0:0:0:0:
320,192,194636,1,0,0:0:0:0:
320,192,194704,1,12,0:0:0:0:
256,192,194977,1,0,0:0:0:0:
224,192,195045,1,8,0:0:0:0:
224,192,195113,1,0,0:0:0:0:
224,160,195249,1,0,0:0:0:0:
149,182,195317,1,0,0:0:0:0:
224,128,195386,1,8,0:0:0:0:
149,182,195454,1,8,0:0:0:0:
224,128,195522,1,0,0:0:0:0:
192,128,195658,1,8,0:0:0:0:
160,128,195795,1,4,0:0:0:0:
224,128,196067,1,0,0:0:0:0:
224,128,196136,1,0,0:0:0:0:
224,128,196204,1,8,0:0:0:0:
224,128,196272,1,8,0:0:0:0:
224,128,196340,1,0,0:0:0:0:
224,128,196408,1,8,0:0:0:0:
224,128,196477,1,8,0:0:0:0:
224,128,196545,1,8,0:0:0:0:
224,128,196613,1,0,0:0:0:0:
224,128,196681,1,0,0:0:0:0:
224,128,196749,1,0,0:0:0:0:
224,128,196817,1,0,0:0:0:0:
224,128,196886,1,12,0:0:0:0:
224,96,197022,1,0,0:0:0:0:
256,96,197158,1,8,0:0:0:0:
256,96,197227,1,0,0:0:0:0:
224,128,197295,1,0,0:0:0:0:
192,128,197431,1,0,0:0:0:0:
160,128,197567,1,8,0:0:0:0:
128,128,197704,1,0,0:0:0:0:
128,128,197772,1,0,0:0:0:0:
128,128,197840,1,8,0:0:0:0:
128,128,197908,1,8,0:0:0:0:
160,128,197977,1,0,0:0:0:0:
192,128,198113,1,0,0:0:0:0:
192,128,198249,1,8,0:0:0:0:
192,128,198317,1,8,0:0:0:0:
192,128,198386,1,0,0:0:0:0:
192,96,198522,1,8,0:0:0:0:
192,96,198658,1,0,0:0:0:0:
192,64,198795,1,8,0:0:0:0:
192,64,198863,1,0,0:0:0:0:
192,64,198931,1,0,0:0:0:0:
224,64,199067,1,0,0:0:0:0:
256,64,199204,1,0,0:0:0:0:
256,64,199340,1,8,0:0:0:0:
256,64,199408,1,0,0:0:0:0:
256,64,199477,1,0,0:0:0:0:
256,96,199613,1,0,0:0:0:0:
256,128,199749,1,8,0:0:0:0:
256,128,199886,1,0,0:0:0:0:
256,160,199954,1,0,0:0:0:0:
256,160,200022,1,8,0:0:0:0:
256,160,200090,1,8,0:0:0:0:
256,160,200158,1,8,0:0:0:0:
256,160,200295,1,8,0:0:0:0:
224,160,200431,1,0,0:0:0:0:
224,160,200499,1,0,0:0:0:0:
224,160,200567,1,8,0:0:0:0:
224,128,200704,1,0,0:0:0:0:
224,96,200772,1,0,0:0:0:0:
224,96,200840,1,8,0:0:0:0:
224,96,200908,1,8,0:0:0:0:
224,96,200977,1,0,0:0:0:0:
224,96,201045,1,0,0:0:0:0:
224,96,201113,1,8,0:0:0:0:
256,96,201249,1,4,0:0:0:0:
256,128,201386,1,0,0:0:0:0:
256,128,201454,1,0,0:0:0:0:
256,128,201522,1,8,0:0:0:0:
256,128,201590,1,0,0:0:0:0:
256,128,201658,1,8,0:0:0:0:
256,128,201727,1,0,0:0:0:0:
256,128,201795,1,8,0:0:0:0:
256,128,201863,1,8,0:0:0:0:
256,128,201931,1,0,0:0:0:0:
256,128,201999,1,0,0:0:0:0:
256,128,202067,1,8,0:0:0:0:
256,128,202136,1,0,0:0:0:0:
288,128,202204,1,0,0:0:0:0:
288,128,202272,1,0,0:0:0:0:
288,128,202340,1,8,0:0:0:0:
288,128,202408,1,8,0:0:0:0:
288,128,202477,1,0,0:0:0:0:
288,128,202545,1,0,0:0:0:0:
288,160,202613,1,8,0:0:0:0:
288,160,202681,1,8,0:0:0:0:
288,160,202749,1,0,0:0:0:0:
288,160,202817,1,0,0:0:0:0:
288,160,202886,1,8,0:0:0:0:
288,160,202954,1,0,0:0:0:0:
288,160,203022,1,8,0:0:0:0:
288,160,203090,1,0,0:0:0:0:
288,160,203158,1,8,0:0:0:0:
288,160,203227,1,8,0:0:0:0:
288,160,203295,1,0,0:0:0:0:
288,160,203363,1,0,0:0:0:0:
288,160,203431,1,8,0:0:0:0:
288,160,203499,1,8,0:0:0:0:
288,160,203567,1,8,0:0:0:0:
288,160,203636,1,8,0:0:0:0:
288,160,203704,1,0,0:0:0:0:
288,160,203772,1,0,0:0:0:0:
288,160,203840,1,0,0:0:0:0:
288,160,203908,1,0,0:0:0:0:
288,160,203977,1,8,0:0:0:0:
288,160,204045,1,8,0:0:0:0:
288,160,204113,1,8,0:0:0:0:
288,160,204181,1,8,0:0:0:0:
288,160,204249,1,0,0:0:0:0:
288,160,204317,1,0,0:0:0:0:
288,160,204386,1,0,0:0:0:0:
288,160,204454,1,0,0:0:0:0:
288,160,204522,1,8,0:0:0:0:
288,160,204590,1,0,0:0:0:0:
288,160,204658,1,0,0:0:0:0:
288,160,204727,1,0,0:0:0:0:
288,160,204795,1,8,0:0:0:0:
288,128,204931,1,0,0:0:0:0:
288,128,204999,1,0,0:0:0:0:
288,128,205067,1,8,0:0:0:0:
256,96,205204,1,8,0:0:0:0:
256,96,205272,1,0,0:0:0:0:
224,64,205340,1,8,0:0:0:0:
192,64,205477,1,0,0:0:0:0:
224,64,205613,1,8,0:0:0:0:
352,160,206431,1,0,0:0:0:0:
288,128,206704,1,8,0:0:0:0:
384,192,207249,1,8,0:0:0:0:
352,160,207522,1,0,0:0:0:0:
288,160,207795,1,8,0:0:0:0:
288,160,208340,1,8,0:0:0:0:
288,160,208613,1,0,0:0:0:0:
288,160,208749,1,8,0:0:0:0:
288,160,208886,1,0,0:0:0:0:
160,160,209431,1,0,0:0:0:0:
224,160,209704,1,0,0:0:0:0:
256,160,209977,1,8,0:0:0:0:
288,256,210522,1,0,0:0:0:0:
256,160,211067,1,8,0:0:0:0:
288,192,211340,1,8,0:0:0:0:
288,192,211613,1,0,0:0:0:0:
288,192,211886,1,8,0:0:0:0:
288,192,212158,1,0,0:0:0:0:
288,192,212704,1,8,0:0:0:0:
288,192,212977,1,0,0:0:0:0:
288,192,213249,1,8,0:0:0:0:
64,128,214340,1,4,0:0:0:0:
294,181,214477,1,0,0:0:0:0:
294,181,214545,1,0,0:0:0:0:
347,239,214613,1,8,0:0:0:0:
347,239,214681,1,0,0:0:0:0:
347,239,214750,1,8,0:0:0:0:
347,239,214818,1,0,0:0:0:0:
347,239,214886,1,8,0:0:0:0:
250,173,214954,1,8,0:0:0:0:
347,239,215022,1,0,0:0:0:0:
347,239,215091,1,0,0:0:0:0:
347,239,215159,1,8,0:0:0:0:
250,173,215227,1,8,0:0:0:0:
250,173,215295,1,0,0:0:0:0:
250,173,215363,1,0,0:0:0:0:
250,173,215431,1,8,0:0:0:0:
250,173,215500,1,8,0:0:0:0:
250,173,215568,1,8,0:0:0:0:
250,173,215636,1,8,0:0:0:0:
250,173,215704,1,0,0:0:0:0:
250,173,215772,1,0,0:0:0:0:
250,173,215841,1,8,0:0:0:0:
250,173,215909,1,0,0:0:0:0:
250,173,215977,1,8,0:0:0:0:
250,173,216045,1,8,0:0:0:0:
250,173,216113,1,0,0:0:0:0:
250,173,216181,1,0,0:0:0:0:
250,173,216250,1,8,0:0:0:0:
250,173,216318,1,8,0:0:0:0:
250,173,216386,1,0,0:0:0:0:
250,173,216454,1,0,0:0:0:0:
250,173,216522,1,8,0:0:0:0:
250,173,216591,1,0,0:0:0:0:
250,173,216659,1,8,0:0:0:0:
250,173,216727,1,0,0:0:0:0:
250,173,216795,1,8,0:0:0:0:
250,173,216863,1,8,0:0:0:0:
250,173,216931,1,0,0:0:0:0:
250,173,217000,1,0,0:0:0:0:
250,173,217068,1,8,0:0:0:0:
250,173,217136,1,8,0:0:0:0:
250,173,217204,1,0,0:0:0:0:
250,173,217272,1,0,0:0:0:0:
250,173,217341,1,8,0:0:0:0:
250,173,217409,1,8,0:0:0:0:
250,173,217477,1,0,0:0:0:0:
250,173,217545,1,0,0:0:0:0:
250,173,217613,1,8,0:0:0:0:
250,173,217681,1,8,0:0:0:0:
250,173,217750,1,8,0:0:0:0:
250,173,217818,1,8,0:0:0:0:
250,173,217886,1,0,0:0:0:0:
301,175,217954,1,0,0:0:0:0:
250,173,218022,1,8,0:0:0:0:
301,175,218091,1,0,0:0:0:0:
250,173,218159,1,8,0:0:0:0:
250,173,218227,1,8,0:0:0:0:
250,173,218295,1,0,0:0:0:0:
250,173,218363,1,0,0:0:0:0:
250,173,218431,1,8,0:0:0:0:
250,173,218500,1,8,0:0:0:0:
250,173,218568,1,0,0:0:0:0:
250,173,218636,1,0,0:0:0:0:
361,110,218704,1,12,0:0:0:0:
352,128,218840,1,8,0:0:0:0:
320,128,218977,1,0,0:0:0:0:
320,128,219113,1,8,0:0:0:0:
288,128,219249,1,0,0:0:0:0:
288,128,219317,1,0,0:0:0:0:
288,128,219386,1,8,0:0:0:0:
256,128,219522,1,0,0:0:0:0:
224,128,219658,1,8,0:0:0:0:
192,128,219795,1,4,0:0:0:0:
192,96,219931,1,8,0:0:0:0:
224,96,220067,1,8,0:0:0:0:
224,96,220204,1,8,0:0:0:0:
256,96,220340,1,0,0:0:0:0:
256,96,220408,1,0,0:0:0:0:
256,96,220477,1,0,0:0:0:0:
288,96,220613,1,0,0:0:0:0:
288,64,220749,1,8,0:0:0:0:
288,64,220886,1,4,0:0:0:0:
320,64,221022,1,8,0:0:0:0:
320,64,221158,1,0,0:0:0:0:
320,64,221227,1,0,0:0:0:0:
320,64,221295,1,8,0:0:0:0:
320,32,221431,1,0,0:0:0:0:
320,32,221567,1,8,0:0:0:0:
320,32,221704,1,0,0:0:0:0:
320,32,221772,1,0,0:0:0:0:
320,32,221840,1,8,0:0:0:0:
320,32,221977,1,4,0:0:0:0:
320,32,222113,1,8,0:0:0:0:
320,32,222181,1,8,0:0:0:0:
320,32,222249,1,0,0:0:0:0:
320,32,222386,1,8,0:0:0:0:
320,32,222454,1,8,0:0:0:0:
320,32,222522,1,0,0:0:0:0:
288,32,222658,1,0,0:0:0:0:
320,32,222795,1,0,0:0:0:0:
288,32,222931,1,0,0:0:0:0:
256,32,223067,1,12,0:0:0:0:
294,181,223204,1,0,0:0:0:0:
294,181,223272,1,0,0:0:0:0:
347,239,223340,1,0,0:0:0:0:
347,239,223408,1,0,0:0:0:0:
347,239,223477,1,0,0:0:0:0:
347,239,223545,1,0,0:0:0:0:
347,239,223613,1,8,0:0:0:0:
250,173,223681,1,8,0:0:0:0:
347,239,223749,1,8,0:0:0:0:
347,239,223818,1,8,0:0:0:0:
347,239,223886,1,0,0:0:0:0:
250,173,223954,1,0,0:0:0:0:
250,173,224022,1,0,0:0:0:0:
250,173,224090,1,0,0:0:0:0:
250,173,224158,1,8,0:0:0:0:
250,173,224227,1,8,0:0:0:0:
250,173,224295,1,8,0:0:0:0:
250,173,224363,1,8,0:0:0:0:
250,173,224431,1,8,0:0:0:0:
250,173,224499,1,8,0:0:0:0:
250,173,224568,1,0,0:0:0:0:
250,173,224636,1,0,0:0:0:0:
250,173,224704,1,8,0:0:0:0:
250,173,224772,1,8,0:0:0:0:
250,173,224840,1,0,0:0:0:0:
250,173,224908,1,0,0:0:0:0:
250,173,224977,1,8,0:0:0:0:
250,173,225045,1,8,0:0:0:0:
250,173,225113,1,0,0:0:0:0:
250,173,225181,1,0,0:0:0:0:
250,173,225249,1,8,0:0:0:0:
250,173,225317,1,8,0:0:0:0:
250,173,225386,1,8,0:0:0:0:
250,173,225454,1,8,0:0:0:0:
250,173,225522,1,0,0:0:0:0:
250,173,225590,1,0,0:0:0:0:
250,173,225658,1,0,0:0:0:0:
250,173,225727,1,0,0:0:0:0:
250,173,225795,1,8,0:0:0:0:
250,173,225863,1,8,0:0:0:0:
250,173,225931,1,0,0:0:0:0:
250,173,225999,1,0,0:0:0:0:
250,173,226068,1,8,0:0:0:0:
250,173,226136,1,0,0:0:0:0:
250,173,226204,1,8,0:0:0:0:
250,173,226272,1,0,0:0:0:0:
250,173,226340,1,8,0:0:0:0:
250,173,226408,1,8,0:0:0:0:
250,173,226477,1,8,0:0:0:0:
250,173,226545,1,8,0:0:0:0:
250,173,226613,1,8,0:0:0:0:
301,175,226681,1,8,0:0:0:0:
250,173,226749,1,0,0:0:0:0:
301,175,226818,1,0,0:0:0:0:
250,173,226886,1,8,0:0:0:0:
250,173,226954,1,8,0:0:0:0:
250,173,227022,1,0,0:0:0:0:
250,173,227090,1,0,0:0:0:0:
250,173,227158,1,8,0:0:0:0:
250,173,227227,1,8,0:0:0:0:
250,173,227295,1,0,0:0:0:0:
250,173,227363,1,0,0:0:0:0:
361,110,227431,1,8,0:0:0:0:
361,110,227499,1,8,0:0:0:0:
361,110,227568,1,8,0:0:0:0:
361,110,227636,1,8,0:0:0:0:
361,110,227704,1,8,0:0:0:0:
361,110,227772,1,8,0:0:0:0:
361,110,227840,1,8,0:0:0:0:
361,110,227908,1,8,0:0:0:0:
361,110,227977,1,0,0:0:0:0:
361,110,228045,1,0,0:0:0:0:
361,110,228113,1,0,0:0:0:0:
361,110,228181,1,0,0:0:0:0:
361,110,228249,1,0,0:0:0:0:
361,110,228318,1,0,0:0:0:0:
361,110,228386,1,0,0:0:0:0:
361,110,228454,1,0,0:0:0:0:
361,110,228522,1,8,0:0:0:0:
361,110,228590,1,8,0:0:0:0:
361,110,228658,1,8,0:0:0:0:
361,110,228727,1,8,0:0:0:0:
361,110,228795,1,0,0:0:0:0:
361,110,228863,1,0,0:0:0:0:
361,110,228931,1,0,0:0:0:0:
361,110,228999,1,0,0:0:0:0:
361,110,229068,1,8,0:0:0:0:
361,110,229136,1,8,0:0:0:0:
361,110,229204,1,8,0:0:0:0:
361,110,229272,1,8,0:0:0:0:
361,110,229340,1,0,0:0:0:0:
361,110,229408,1,0,0:0:0:0:
361,110,229477,1,0,0:0:0:0:
361,110,229545,1,0,0:0:0:0:
361,110,229613,1,8,0:0:0:0:
361,110,229681,1,8,0:0:0:0:
361,110,229749,1,8,0:0:0:0:
361,110,229818,1,8,0:0:0:0:
361,110,229886,1,0,0:0:0:0:
361,110,229954,1,0,0:0:0:0:
361,110,230022,1,0,0:0:0:0:
361,110,230090,1,0,0:0:0:0:
361,110,230158,1,8,0:0:0:0:
361,110,230227,1,8,0:0:0:0:
361,110,230295,1,0,0:0:0:0:
361,110,230363,1,0,0:0:0:0:
361,110,230431,1,8,0:0:0:0:
361,110,230499,1,8,0:0:0:0:
361,110,230568,1,0,0:0:0:0:
361,110,230636,1,0,0:0:0:0:
361,110,230704,1,8,0:0:0:0:
361,110,230772,1,8,0:0:0:0:
361,110,230840,1,8,0:0:0:0:
361,110,230908,1,8,0:0:0:0:
361,110,230977,1,8,0:0:0:0:
361,110,231045,1,8,0:0:0:0:
361,110,231113,1,8,0:0:0:0:
361,110,231181,1,8,0:0:0:0:
361,110,231249,1,0,0:0:0:0:
361,110,231318,1,0,0:0:0:0:
361,110,231386,1,0,0:0:0:0:
361,110,231454,1,0,0:0:0:0:
361,110,231522,1,0,0:0:0:0:
361,110,231590,1,0,0:0:0:0:
361,110,231658,1,0,0:0:0:0:
361,110,231727,1,0,0:0:0:0:
361,110,231795,1,12,0:0:0:0:
294,181,231931,1,0,0:0:0:0:
294,181,231999,1,0,0:0:0:0:
347,239,232067,1,0,0:0:0:0:
347,239,232135,1,0,0:0:0:0:
347,239,232204,1,0,0:0:0:0:
347,239,232272,1,0,0:0:0:0:
347,239,232340,1,8,0:0:0:0:
250,173,232408,1,8,0:0:0:0:
347,239,232476,1,8,0:0:0:0:
347,239,232545,1,8,0:0:0:0:
347,239,232613,1,0,0:0:0:0:
250,173,232681,1,0,0:0:0:0:
250,173,232749,1,0,0:0:0:0:
250,173,232817,1,0,0:0:0:0:
250,173,232885,1,8,0:0:0:0:
250,173,232954,1,8,0:0:0:0:
250,173,233022,1,8,0:0:0:0:
250,173,233090,1,8,0:0:0:0:
250,173,233158,1,8,0:0:0:0:
250,173,233226,1,8,0:0:0:0:
250,173,233295,1,0,0:0:0:0:
250,173,233363,1,0,0:0:0:0:
250,173,233431,1,8,0:0:0:0:
250,173,233499,1,8,0:0:0:0:
250,173,233567,1,0,0:0:0:0:
250,173,233635,1,0,0:0:0:0:
250,173,233704,1,8,0:0:0:0:
250,173,233772,1,8,0:0:0:0:
250,173,233840,1,0,0:0:0:0:
250,173,233908,1,0,0:0:0:0:
250,173,233976,1,8,0:0:0:0:
250,173,234045,1,8,0:0:0:0:
250,173,234113,1,8,0:0:0:0:
250,173,234181,1,8,0:0:0:0:
250,173,234249,1,0,0:0:0:0:
250,173,234317,1,0,0:0:0:0:
250,173,234385,1,0,0:0:0:0:
250,173,234454,1,0,0:0:0:0:
250,173,234522,1,8,0:0:0:0:
250,173,234590,1,8,0:0:0:0:
250,173,234658,1,8,0:0:0:0:
250,173,234726,1,8,0:0:0:0:
250,173,234795,1,0,0:0:0:0:
250,173,234863,1,0,0:0:0:0:
250,173,234931,1,0,0:0:0:0:
250,173,234999,1,0,0:0:0:0:
250,173,235067,1,8,0:0:0:0:
250,173,235135,1,8,0:0:0:0:
250,173,235204,1,8,0:0:0:0:
250,173,235272,1,8,0:0:0:0:
250,173,235340,1,8,0:0:0:0:
301,175,235408,1,8,0:0:0:0:
250,173,235476,1,0,0:0:0:0:
301,175,235545,1,0,0:0:0:0:
250,173,235613,1,8,0:0:0:0:
250,173,235681,1,8,0:0:0:0:
250,173,235749,1,0,0:0:0:0:
250,173,235817,1,0,0:0:0:0:
250,173,235885,1,8,0:0:0:0:
250,173,235954,1,8,0:0:0:0:
250,173,236022,1,0,0:0:0:0:
250,173,236090,1,0,0:0:0:0:
361,110,236158,1,12,0:0:0:0:
230,160,236295,1,8,0:0:0:0:
256,160,236363,1,8,0:0:0:0:
160,149,236431,1,0,0:0:0:0:
160,149,236568,1,8,0:0:0:0:
160,149,236704,1,0,0:0:0:0:
160,149,236772,1,0,0:0:0:0:
181,161,236840,1,0,0:0:0:0:
181,161,236977,1,8,0:0:0:0:
181,161,237113,1,0,0:0:0:0:
106,111,237249,1,12,0:0:0:0:
206,213,237386,1,8,0:0:0:0:
224,192,237454,1,8,0:0:0:0:
206,213,237522,1,0,0:0:0:0:
206,213,237659,1,8,0:0:0:0:
224,192,237727,1,8,0:0:0:0:
206,213,237795,1,0,0:0:0:0:
206,213,237932,1,0,0:0:0:0:
206,213,238068,1,0,0:0:0:0:
192,224,238204,1,0,0:0:0:0:
192,192,238340,1,12,0:0:0:0:
239,174,238477,1,0,0:0:0:0:
252,180,238614,1,8,0:0:0:0:
226,168,238682,1,8,0:0:0:0:
292,200,238750,1,0,0:0:0:0:
301,157,238886,1,8,0:0:0:0:
305,139,239023,1,0,0:0:0:0:
279,140,239091,1,0,0:0:0:0:
305,139,239159,1,8,0:0:0:0:
274,140,239227,1,8,0:0:0:0:
305,139,239296,1,0,0:0:0:0:
257,133,239432,1,8,0:0:0:0:
208,127,239568,1,0,0:0:0:0:
159,122,239705,1,8,0:0:0:0:
141,103,239773,1,8,0:0:0:0:
128,160,239841,1,0,0:0:0:0:
113,180,239977,1,8,0:0:0:0:
113,180,240114,1,0,0:0:0:0:
349,170,240250,1,8,0:0:0:0:
326,164,240318,1,0,0:0:0:0:
303,158,240387,1,8,0:0:0:0:
303,158,240523,1,4,0:0:0:0:
305,110,240659,1,0,0:0:0:0:
305,110,240796,1,0,0:0:0:0:
305,110,240864,1,0,0:0:0:0:
305,110,240932,1,0,0:0:0:0:
305,110,241068,1,8,0:0:0:0:
305,110,241137,1,0,0:0:0:0:
305,110,241205,1,8,0:0:0:0:
305,110,241341,1,0,0:0:0:0:
282,113,241409,1,0,0:0:0:0:
260,116,241477,1,8,0:0:0:0:
241,117,241546,1,0,0:0:0:0:
212,119,241614,1,8,0:0:0:0:
163,123,241750,1,0,0:0:0:0:
212,119,241887,1,8,0:0:0:0:
212,119,241955,1,0,0:0:0:0:
212,119,242023,1,8,0:0:0:0:
212,119,242159,1,0,0:0:0:0:
212,119,242227,1,0,0:0:0:0:
212,119,242296,1,8,0:0:0:0:
212,119,242364,1,0,0:0:0:0:
212,119,242432,1,8,0:0:0:0:
227,100,242500,1,8,0:0:0:0:
212,119,242568,1,0,0:0:0:0:
227,100,242705,1,4,0:0:0:0:
212,119,242841,1,0,0:0:0:0:
230,123,242909,1,0,0:0:0:0:
242,126,242977,1,8,0:0:0:0:
256,129,243046,1,0,0:0:0:0:
271,133,243114,1,8,0:0:0:0:
245,113,243250,1,8,0:0:0:0:
232,103,243318,1,8,0:0:0:0:
221,95,243387,1,0,0:0:0:0:
197,77,243523,1,0,0:0:0:0:
214,105,243659,1,8,0:0:0:0:
226,124,243727,1,0,0:0:0:0:
238,141,243796,1,8,0:0:0:0:
226,128,243864,1,0,0:0:0:0:
214,115,243932,1,8,0:0:0:0:
182,103,244068,1,0,0:0:0:0:
207,121,244205,1,8,0:0:0:0:
222,131,244273,1,0,0:0:0:0:
241,144,244341,1,8,0:0:0:0:
259,157,244409,1,0,0:0:0:0:
278,170,244477,1,0,0:0:0:0:
242,168,244614,1,0,0:0:0:0:
223,167,244682,1,0,0:0:0:0:
211,167,244750,1,8,0:0:0:0:
190,166,244887,1,4,0:0:0:0:
161,143,245023,1,0,0:0:0:0:
161,143,245159,1,0,0:0:0:0:
161,143,245227,1,0,0:0:0:0:
229,52,245296,1,8,0:0:0:0:
239,21,245432,1,0,0:0:0:0:
239,21,245568,1,0,0:0:0:0:
220,50,245705,1,8,0:0:0:0:
202,47,245773,1,8,0:0:0:0:
185,45,245841,1,0,0:0:0:0:
150,48,245977,1,0,0:0:0:0:
173,64,246114,1,8,0:0:0:0:
192,77,246250,1,0,0:0:0:0:
176,90,246318,1,0,0:0:0:0:
160,103,246387,1,0,0:0:0:0:
135,125,246523,1,8,0:0:0:0:
162,167,246591,1,8,0:0:0:0:
162,167,246659,1,0,0:0:0:0:
164,142,246727,1,0,0:0:0:0:
162,167,246796,1,8,0:0:0:0:
131,149,246932,1,0,0:0:0:0:
131,149,247068,1,12,0:0:0:0:
239,174,247205,1,0,0:0:0:0:
252,180,247341,1,8,0:0:0:0:
226,168,247409,1,8,0:0:0:0:
292,200,247477,1,0,0:0:0:0:
301,157,247614,1,8,0:0:0:0:
305,139,247750,1,0,0:0:0:0:
279,140,247818,1,0,0:0:0:0:
305,139,247886,1,8,0:0:0:0:
274,140,247954,1,8,0:0:0:0:
305,139,248023,1,0,0:0:0:0:
257,133,248159,1,8,0:0:0:0:
208,127,248295,1,0,0:0:0:0:
159,122,248432,1,8,0:0:0:0:
141,103,248500,1,8,0:0:0:0:
128,160,248568,1,0,0:0:0:0:
113,180,248704,1,8,0:0:0:0:
186,17,248772,1,0,0:0:0:0:
113,180,248841,1,8,0:0:0:0:
349,170,248977,1,8,0:0:0:0:
326,164,249045,1,8,0:0:0:0:
303,158,249113,1,0,0:0:0:0:
303,158,249182,1,0,0:0:0:0:
303,158,249249,1,8,0:0:0:0:
305,110,249386,1,0,0:0:0:0:
305,110,249523,1,0,0:0:0:0:
305,110,249591,1,0,0:0:0:0:
305,110,249659,1,0,0:0:0:0:
305,110,249795,1,8,0:0:0:0:
305,110,249864,1,0,0:0:0:0:
305,110,249932,1,8,0:0:0:0:
305,110,250068,1,0,0:0:0:0:
282,113,250136,1,0,0:0:0:0:
260,116,250204,1,8,0:0:0:0:
241,117,250273,1,0,0:0:0:0:
212,119,250341,1,8,0:0:0:0:
163,123,250477,1,8,0:0:0:0:
212,119,250613,1,8,0:0:0:0:
212,119,250750,1,0,0:0:0:0:
212,119,250886,1,0,0:0:0:0:
150,147,251022,1,8,0:0:0:0:
150,147,251158,1,0,0:0:0:0:
150,147,251226,1,0,0:0:0:0:
150,147,251295,1,8,0:0:0:0:
227,100,251432,1,4,0:0:0:0:
212,119,251568,1,0,0:0:0:0:
230,123,251636,1,0,0:0:0:0:
242,126,251704,1,8,0:0:0:0:
256,129,251773,1,0,0:0:0:0:
271,133,251841,1,8,0:0:0:0:
245,113,251977,1,8,0:0:0:0:
232,103,252045,1,8,0:0:0:0:
221,95,252114,1,0,0:0:0:0:
197,77,252250,1,0,0:0:0:0:
214,105,252386,1,8,0:0:0:0:
226,124,252454,1,0,0:0:0:0:
238,141,252523,1,8,0:0:0:0:
226,128,252591,1,0,0:0:0:0:
214,115,252659,1,8,0:0:0:0:
182,103,252795,1,0,0:0:0:0:
207,121,252932,1,8,0:0:0:0:
222,131,253000,1,0,0:0:0:0:
241,144,253068,1,8,0:0:0:0:
259,157,253136,1,8,0:0:0:0:
278,170,253204,1,8,0:0:0:0:
242,168,253341,1,8,0:0:0:0:
223,167,253409,1,8,0:0:0:0:
211,167,253477,1,0,0:0:0:0:
190,166,253613,1,12,0:0:0:0:
161,143,253750,1,0,0:0:0:0:
161,143,253886,1,0,0:0:0:0:
161,143,253954,1,0,0:0:0:0:
229,52,254023,1,8,0:0:0:0:
239,21,254159,1,0,0:0:0:0:
239,21,254295,1,0,0:0:0:0:
220,50,254432,1,8,0:0:0:0:
202,47,254500,1,8,0:0:0:0:
185,45,254568,1,0,0:0:0:0:
150,48,254704,1,8,0:0:0:0:
257,136,254772,1,0,0:0:0:0:
173,64,254841,1,0,0:0:0:0:
87,177,254908,1,0,0:0:0:0:
192,77,254977,1,0,0:0:0:0:
176,90,255045,1,0,0:0:0:0:
160,103,255113,1,8,0:0:0:0:
87,177,255181,1,8,0:0:0:0:
135,125,255250,1,0,0:0:0:0:
162,167,255317,1,0,0:0:0:0:
162,167,255387,1,0,0:0:0:0:
164,142,255455,1,0,0:0:0:0:
162,167,255522,1,8,0:0:0:0:
230,61,255591,1,8,0:0:0:0:
131,149,255659,1,8,0:0:0:0:
87,177,255727,1,8,0:0:0:0:
232,17,255796,1,0,0:0:0:0:
116,133,255864,1,0,0:0:0:0:
116,133,255932,1,0,0:0:0:0:
116,133,256000,1,0,0:0:0:0:
115,134,256068,1,0,0:0:0:0:
114,135,256137,1,0,0:0:0:0:
113,135,256205,1,0,0:0:0:0:
113,135,256273,1,0,0:0:0:0:
113,135,256341,1,8,0:0:0:0:
113,135,256409,1,0,0:0:0:0:
113,135,256477,1,8,0:0:0:0:
113,135,256546,1,0,0:0:0:0:
113,135,256614,1,8,0:0:0:0:
113,135,256682,1,0,0:0:0:0:
116,133,256750,1,8,0:0:0:0:
116,133,256818,1,0,0:0:0:0:
116,133,256887,1,8,0:0:0:0:
116,133,256955,1,8,0:0:0:0:
116,133,257023,1,8,0:0:0:0:
115,134,257091,1,8,0:0:0:0:
114,135,257159,1,8,0:0:0:0:
113,135,257227,1,8,0:0:0:0:
113,135,257296,1,8,0:0:0:0:
113,135,257364,1,8,0:0:0:0:
113,135,257432,1,0,0:0:0:0:
113,135,257500,1,0,0:0:0:0:
113,135,257568,1,0,0:0:0:0:
113,135,257637,1,0,0:0:0:0:
113,135,257705,1,0,0:0:0:0:
116,133,257773,1,0,0:0:0:0:
116,133,257841,1,0,0:0:0:0:
116,133,257909,1,0,0:0:0:0:
116,133,257977,1,12,0:0:0:0:
256,192,258113,12,0,262340,0:0:0:0:
