osu file format v14

[General]
AudioFilename: audio.mp3
AudioLeadIn: 0
PreviewTime: 205602
Countdown: 1
SampleSet: Drum
StackLeniency: 0.7
Mode: 0
LetterboxInBreaks: 0
WidescreenStoryboard: 1

[Editor]
DistanceSpacing: 0.4
BeatDivisor: 3
GridSize: 32
TimelineZoom: 2.4

[Metadata]
Title:Seishin no Kairi no, Sakebi to Nageki.
TitleUnicode:精神ノ乖離ノ、叫ビト嘆キ。
Artist:Imperial Circus Dead Decadence
ArtistUnicode:Imperial Circus Dead Decadence
Creator:Esutarosa
Version:Sh3rg_'s Extra.
Source:
Tags:Fushoku Ressentiment, Fushi Yoku No Sarugakuza. icdd val Kuon- Xahlt Gweon Sua -Kemsyt StripedGoose Sh4rq_ Blood9 turtatical Symphonic Melodic Death Metal Japanese 腐蝕ルサンチマン、不死欲の猿楽座。 featured artist fa mappers' guild mpg L.G.C. Last Governed Connector Sh3rg_
BeatmapID:3613686
BeatmapSetID:1761637

[Difficulty]
HPDrainRate:5
CircleSize:3.5
OverallDifficulty:8.5
ApproachRate:9.2
SliderMultiplier:1.7
SliderTickRate:1

[Events]
//Background and Video events
0,0,"bg.jpg",0,0
//Break Periods
2,153438,170123
2,205802,213759
//Storyboard Layer 0 (Background)
//Storyboard Layer 1 (Fail)
//Storyboard Layer 2 (Pass)
//Storyboard Layer 3 (Foreground)
//Storyboard Layer 4 (Overlay)
//Storyboard Sound Samples

[TimingPoints]
238,272.727272727273,4,3,1,65,1,0
1056,-100,4,2,0,65,0,0
1328,-100,4,3,1,65,0,0
8148,-100,4,3,1,40,0,0
8216,-100,4,3,1,53,0,0
8284,-100,4,3,1,65,0,0
9784,-100,4,3,7,65,0,0
9920,-100,4,3,8,65,0,0
10057,-100,4,3,1,65,0,0
14148,-100,4,3,7,65,0,0
14284,-100,4,3,8,65,0,0
14420,-100,4,3,1,65,0,0
14557,-100,4,3,1,50,0,0
14693,-100,4,3,1,65,0,0
14966,-100,4,3,1,40,0,0
15034,-100,4,3,1,47,0,0
15102,-100,4,3,1,55,0,0
15239,-100,4,3,1,65,0,0
15375,-100,4,3,1,47,0,0
15443,-100,4,3,1,55,0,0
15511,-100,4,3,1,65,0,0
18784,-83.3333333333333,4,3,1,65,0,0
35966,-83.3333333333333,4,3,7,65,0,0
36034,-83.3333333333333,4,3,8,65,0,0
36102,-83.3333333333333,4,3,9,65,0,0
36239,-83.3333333333333,4,3,1,65,0,0
37602,-83.3333333333333,4,3,7,65,0,0
37807,-83.3333333333333,4,3,1,65,0,0
37943,-83.3333333333333,4,3,8,65,0,0
38011,-83.3333333333333,4,3,1,65,0,0
38080,-83.3333333333333,4,3,8,65,0,0
38148,-83.3333333333333,4,3,9,65,0,0
38419,-111.111111111111,4,3,1,65,0,0
38830,-111.111111111111,4,3,10,65,0,0
39102,-111.111111111111,4,3,1,65,0,0
40601,-83.3333333333333,4,3,1,65,0,0
48920,-83.3333333333333,4,3,7,65,0,0
49057,-83.3333333333333,4,3,8,65,0,0
49193,-83.3333333333333,4,3,1,65,0,0
49328,-100,4,3,1,65,0,0
57375,-100,4,3,7,65,0,0
57511,-100,4,3,1,65,0,0
57648,-100,4,3,8,65,0,0
57784,-100,4,3,9,65,0,0
57920,-100,4,3,1,65,0,0
63920,-100,4,3,7,65,0,0
64057,-100,4,3,8,65,0,0
64193,-100,4,3,1,65,0,0
64330,-100,4,3,8,65,0,0
64466,-100,4,3,9,65,0,0
64602,-100,4,3,1,65,0,0
64738,-166.666666666667,4,3,1,65,0,0
65148,-100,4,3,1,65,0,0
65966,272.727272727273,4,3,1,65,1,1
65966,-90.9090909090909,4,3,1,65,0,1
67057,-90.9090909090909,4,3,1,65,0,1
81102,-90.9090909090909,4,3,7,65,0,1
81238,-133.333333333333,4,3,1,65,0,0
87920,-133.333333333333,4,3,7,65,0,0
88057,-133.333333333333,4,3,8,65,0,0
88193,-133.333333333333,4,3,1,65,0,0
88329,-133.333333333333,4,3,7,65,0,0
88466,-133.333333333333,4,3,8,65,0,0
88602,-133.333333333333,4,3,1,65,0,0
89966,-83.3333333333333,4,3,1,65,0,0
104966,-83.3333333333333,4,3,7,65,0,0
105102,-83.3333333333333,4,3,8,65,0,0
105238,-83.3333333333333,4,3,1,65,0,0
107420,-83.3333333333333,4,3,10,65,0,0
108511,-100,4,3,1,65,0,0
115875,-100,4,3,7,65,0,0
116011,-100,4,3,1,65,0,0
124193,-100,4,3,7,65,0,0
124329,-100,4,3,1,65,0,0
132238,-100,4,3,8,65,0,0
132375,-100,4,3,7,65,0,0
132511,-100,4,3,1,65,0,0
132647,-100,4,3,9,65,0,0
132784,-100,4,3,8,65,0,0
132920,-100,4,3,7,65,0,0
133057,-100,4,3,1,65,0,0
133602,-90.9090909090909,4,3,1,65,0,1
148875,-250,4,3,1,65,0,0
188147,-66.6666666666667,4,3,1,65,0,0
189102,-133.333333333333,4,3,1,65,0,0
190329,-100,4,3,1,65,0,0
191829,-100,4,3,7,65,0,0
191966,-100,4,3,1,65,0,0
192102,-100,4,3,8,65,0,0
192238,-100,4,3,1,65,0,0
192375,-100,4,3,9,65,0,0
192443,-100,4,3,1,65,0,0
193057,-100,4,3,7,65,0,0
193193,-100,4,3,1,65,0,0
196602,-100,4,3,7,65,0,0
196875,-100,4,3,1,65,0,0
205602,-133.333333333333,4,3,1,65,0,0
214329,-90.9090909090909,4,3,1,65,0,1
218693,-90.9090909090909,4,3,1,65,0,0
223056,-83.3333333333333,4,3,1,65,0,1
238329,-100,4,3,1,65,0,0
255511,-100,4,3,7,65,0,0
255647,-100,4,3,1,65,0,0
255784,-100,4,3,1,65,0,1
257216,-100,4,3,7,65,0,1
257352,-100,4,3,1,65,0,1
257693,-100,4,3,8,65,0,1
257761,-100,4,3,1,65,0,1
257966,-100,4,3,1,65,0,0
262466,-100,4,3,1,65,0,0
263420,-100,4,3,1,65,0,0
264511,-111.111111111111,4,3,1,5,0,0

[Colours]
Combo1 : 128,128,255
Combo2 : 255,128,128

[HitObjects]
95,243,1056,6,0,P|89:215|82:195,1,42.5,2|0,0:0|0:0,0:0:0:0:
105,164,1192,2,0,P|109:137|118:116,1,42.5,2|0,0:0|0:0,0:0:0:0:
43,79,1328,5,6,0:0:0:0:
256,192,1397,12,6,3510,0:0:0:0:
256,192,3578,12,8,5556,2:3:0:0:
274,136,5692,5,4,0:2:0:0:
280,116,5965,1,0,0:0:0:0:
286,97,6238,1,0,0:0:0:0:
292,78,6510,1,0,0:0:0:0:
299,59,6783,1,0,0:0:0:0:
306,40,7056,1,0,0:0:0:0:
401,16,7328,5,0,0:0:0:0:
401,16,7465,1,8,2:0:0:0:
447,114,7601,1,0,0:0:0:0:
447,114,7738,1,8,2:0:0:0:
361,168,7874,6,0,L|368:281,1,85,6|0,0:0|0:0,0:0:0:0:
446,304,8147,2,0,L|443:353,2,42.5,8|8|4,2:3|2:3|0:2,0:0:0:0:
336,365,8419,5,8,0:0:0:0:
330,364,8488,1,8,2:3:0:0:
324,363,8556,2,0,L|274:356,2,42.5,8|8|4,2:3|2:3|0:2,0:0:0:0:
249,285,8828,1,8,2:3:0:0:
219,289,8897,1,8,2:3:0:0:
189,293,8965,6,0,L|67:307,1,85,6|2,0:0|2:3,0:0:0:0:
89,316,9169,1,8,2:3:0:0:
89,316,9238,1,4,0:2:0:0:
3,245,9374,2,0,L|6:196,2,42.5,8|8|2,2:3|2:3|0:0,0:0:0:0:
113,167,9647,1,8,2:3:0:0:
111,141,9715,1,8,2:3:0:0:
109,115,9783,2,0,L|106:50,3,42.5,0|0|0|0,0:0|0:0|0:0|0:0,0:0:0:0:
120,47,10056,5,6,0:0:0:0:
136,43,10328,1,2,0:0:0:0:
152,40,10601,1,2,0:0:0:0:
168,37,10874,1,2,0:0:0:0:
184,34,11147,1,2,0:0:0:0:
200,31,11419,1,2,0:0:0:0:
287,88,11692,5,2,0:0:0:0:
287,88,11828,1,8,2:3:0:0:
190,131,11965,1,0,0:0:0:0:
190,131,12101,1,10,0:0:0:0:
377,65,12238,6,0,B|385:121|385:121|388:123|388:123|397:190,1,127.5,2|0,0:0|0:0,0:0:0:0:
360,281,12510,1,14,0:0:0:0:
343,278,12783,1,2,0:0:0:0:
326,275,13056,1,2,0:0:0:0:
309,272,13328,1,2,0:0:0:0:
240,212,13601,5,2,0:0:0:0:
220,358,13738,1,8,2:3:0:0:
67,199,13874,5,0,0:0:0:0:
154,204,14010,1,8,2:3:0:0:
60,352,14147,5,0,0:0:0:0:
60,342,14283,1,0,0:0:0:0:
161,193,14419,6,0,L|154:133,1,42.5,6|0,0:0|0:0,0:0:0:0:
148,64,14556,1,8,2:3:0:0:
146,51,14624,1,8,2:3:0:0:
144,38,14692,1,8,2:3:0:0:
247,188,14828,6,0,L|240:128,1,42.5,2|0,0:0|0:0,0:0:0:0:
234,59,14965,2,0,L|230:13,2,42.5,2|8|8,2:3|2:3|2:3,0:0:0:0:
333,183,15238,6,0,L|326:123,1,42.5,2|0,0:0|0:0,0:0:0:0:
320,54,15374,1,8,2:3:0:0:
318,41,15442,1,8,2:3:0:0:
316,28,15510,1,2,0:0:0:0:
424,54,15647,2,0,L|418:97,2,42.5,8|8|2,2:3|2:3|0:0,0:0:0:0:
503,151,15919,2,0,L|509:194,2,42.5,8|8|2,2:3|2:3|0:0,0:0:0:0:
477,295,16192,5,8,2:3:0:0:
460,296,16260,1,8,2:3:0:0:
442,297,16328,2,0,L|380:302,3,42.5,2|8|2|8,0:0|2:3|0:0|2:3,0:0:0:0:
337,353,16601,5,6,0:0:0:0:
265,255,16738,5,10,2:3:0:0:
249,248,16806,1,0,0:0:0:0:
232,251,16874,1,8,2:3:0:0:
220,262,16942,1,8,2:3:0:0:
215,278,17010,2,0,P|215:301|195:325,1,42.5,8|0,2:3|0:0,0:0:0:0:
114,259,17147,5,10,0:0:0:0:
116,242,17215,1,0,0:0:0:0:
118,225,17283,1,10,0:0:0:0:
120,208,17351,1,0,0:0:0:0:
122,191,17419,2,0,L|130:137,3,42.5,10|8|10|8,2:3|2:3|2:3|2:3,0:0:0:0:
67,52,17692,5,14,0:0:0:0:
162,37,18783,5,6,0:0:0:0:
166,20,18919,1,10,0:0:0:0:
285,91,19056,2,0,B|292:138|292:138|305:146|305:146|313:199,1,101.999996887207,0|0,0:0|0:0,0:0:0:0:
360,298,19328,2,0,B|367:251|367:251|380:243|380:243|388:190,1,101.999996887207,0|10,0:0|0:0,0:0:0:0:
452,121,19601,5,0,0:0:0:0:
448,104,19738,1,10,0:0:0:0:
333,23,19874,2,0,P|280:5|237:27,1,101.999996887207,0|10,0:0|0:0,0:0:0:0:
190,115,20147,2,0,P|144:134|98:116,1,101.999996887207,0|10,0:0|0:0,0:0:0:0:
47,24,20419,5,0,0:0:0:0:
43,41,20556,1,10,0:0:0:0:
0,144,20692,2,0,P|32:158|31:230,1,101.999996887207,0|10,0:0|0:0,0:0:0:0:
1,311,20965,5,4,0:2:0:0:
52,238,21101,2,0,L|106:248,1,50.9999984436036,0|0,0:0|0:0,0:0:0:0:
195,282,21238,1,0,0:0:0:0:
204,264,21306,1,0,0:0:0:0:
203,243,21374,1,10,0:0:0:0:
168,167,21510,6,0,B|196:165|196:165|201:162|201:162|228:160,1,50.9999984436036,0|0,0:0|0:0,0:0:0:0:
295,213,21647,2,0,B|323:215|323:215|328:218|328:218|355:220,3,50.9999984436036,10|0|0|0,0:0|0:0|0:0|0:0,0:0:0:0:
424,270,21919,2,0,B|442:291|442:291|443:296|443:296|461:317,1,50.9999984436036,10|0,0:0|0:0,0:0:0:0:
331,370,22056,6,0,B|344:309|344:309|337:253|337:253|358:176,1,152.999995330811,0|0,0:0|0:0,0:0:0:0:
385,152,22328,2,0,B|380:125|380:125|351:102,1,50.9999984436036,0|0,0:0|0:0,0:0:0:0:
340,20,22465,2,0,B|313:25|313:25|239:160,1,152.999995330811,10|0,0:0|0:0,0:0:0:0:
295,213,22738,5,10,0:0:0:0:
185,94,22874,1,0,0:0:0:0:
185,94,22942,1,0,0:0:0:0:
185,94,23010,1,10,0:0:0:0:
200,247,23147,5,4,0:1:0:0:
204,257,23283,1,10,0:0:0:0:
185,341,23419,1,0,0:0:0:0:
86,360,23556,1,0,0:0:0:0:
196,238,23692,6,0,L|326:254,1,101.999996887207,0|8,0:0|0:0,0:0:0:0:
341,334,23965,1,0,0:0:0:0:
424,219,24101,2,0,L|373:212,1,50.9999984436036,10|0,0:0|0:0,0:0:0:0:
260,97,24238,6,0,L|390:113,1,101.999996887207,0|10,0:0|0:0,0:0:0:0:
440,78,24510,1,0,0:0:0:0:
451,73,24647,2,0,L|461:19,1,50.9999984436036,10|0,0:0|0:0,0:0:0:0:
343,92,24783,2,0,L|364:208,1,101.999996887207,0|10,0:0|0:0,0:0:0:0:
463,152,25056,1,0,0:0:0:0:
458,167,25192,1,10,0:0:0:0:
389,17,25328,6,0,P|327:8|286:27,1,101.999996887207,4|10,0:2|0:0,0:0:0:0:
198,75,25601,1,0,0:0:0:0:
193,76,25669,1,0,0:0:0:0:
188,78,25738,2,0,P|126:87|85:68,1,101.999996887207,10|0,0:0|0:0,0:0:0:0:
39,8,26010,5,10,0:0:0:0:
51,145,26147,1,0,0:0:0:0:
50,149,26215,1,0,0:0:0:0:
49,153,26283,1,10,0:0:0:0:
146,227,26419,5,0,0:0:0:0:
94,296,26556,2,0,B|123:311|123:311|261:293,1,152.999995330811,10|0,0:0|0:0,0:0:0:0:
295,233,26828,1,10,0:0:0:0:
303,52,26965,5,0,0:0:0:0:
242,165,27101,1,10,0:0:0:0:
240,169,27169,1,0,0:0:0:0:
238,174,27238,1,4,0:2:0:0:
323,138,27374,1,10,0:0:0:0:
379,265,27510,6,0,P|337:312|231:295,1,152.999995330811,6|0,0:0|0:0,0:0:0:0:
146,227,27783,2,0,B|98:223|98:223|86:228|86:228|38:224,1,101.999996887207,0|8,0:0|0:0,0:0:0:0:
130,144,28056,2,0,B|82:140|82:140|70:145|70:145|22:141,1,101.999996887207,0|10,0:0|0:0,0:0:0:0:
60,57,28328,1,0,0:0:0:0:
65,44,28465,1,10,0:0:0:0:
183,0,28601,6,0,B|236:-10|236:-10|289:6,1,101.999996887207,0|10,0:0|0:0,0:0:0:0:
184,81,28874,2,0,B|230:94|230:94|283:84,1,101.999996887207,0|10,0:0|0:0,0:0:0:0:
371,36,29147,5,0,0:0:0:0:
389,133,29283,1,10,0:0:0:0:
505,135,29419,1,0,0:0:0:0:
449,216,29556,1,10,0:0:0:0:
393,126,29692,5,6,0:0:0:0:
392,283,29828,2,0,P|356:274|339:281,1,50.9999984436036,10|0,0:0|0:0,0:0:0:0:
296,348,29965,1,2,0:0:0:0:
296,348,30033,1,0,0:0:0:0:
296,348,30101,1,10,0:0:0:0:
197,305,30238,2,0,P|180:313|167:287,1,50.9999984436036,0|0,0:0|0:0,0:0:0:0:
199,218,30374,2,0,P|216:210|229:236,1,50.9999984436036,10|0,0:0|0:0,0:0:0:0:
104,348,30510,5,0,0:0:0:0:
98,348,30578,1,0,0:0:0:0:
92,348,30647,1,10,0:0:0:0:
86,348,30715,1,0,0:0:0:0:
78,348,30783,2,0,B|68:280|68:280|73:269|73:269|63:182,1,152.999995330811,0|0,0:0|0:0,0:0:0:0:
1,175,31056,2,0,P|36:186|57:176,1,50.9999984436036,10|0,0:1|0:0,0:0:0:0:
130,84,31192,6,0,B|149:102|149:102|17:81,1,152.999995330811,2|0,0:0|0:0,0:0:0:0:
87,13,31465,1,10,0:1:0:0:
235,29,31601,2,0,L|363:13,1,101.999996887207,2|10,0:1|0:0,0:0:0:0:
308,106,31874,5,6,0:0:0:0:
304,117,32010,1,10,0:0:0:0:
337,200,32147,1,0,0:0:0:0:
430,170,32283,1,10,0:0:0:0:
371,275,32419,6,0,B|345:277|345:277|310:354,1,101.999996887207,0|10,0:0|0:0,0:0:0:0:
407,379,32692,1,0,0:0:0:0:
305,357,32828,2,0,L|250:364,1,50.9999984436036,10|0,0:0|0:0,0:0:0:0:
165,339,32965,5,0,0:0:0:0:
170,328,33101,1,10,0:0:0:0:
116,258,33238,1,0,0:0:0:0:
59,337,33374,5,10,0:0:0:0:
105,253,33510,1,0,0:0:0:0:
41,178,33647,1,10,0:0:0:0:
87,94,33783,2,0,B|132:82|132:82|148:86|148:86|206:75,1,101.999996887207,0|10,0:0|0:0,0:0:0:0:
271,23,34056,5,6,0:0:0:0:
278,42,34192,1,8,0:0:0:0:
350,99,34328,2,0,L|339:154,2,50.9999984436036,0|0|10,0:0|0:0|0:0,0:0:0:0:
402,0,34601,5,0,0:0:0:0:
409,19,34738,1,10,0:0:0:0:
481,76,34874,2,0,L|470:131,2,50.9999984436036,0|0|10,0:0|0:0|0:0,0:0:0:0:
394,193,35147,1,0,0:0:0:0:
395,197,35215,1,0,0:0:0:0:
396,201,35283,2,0,L|407:259,3,50.9999984436036,10|0|0|0,0:0|0:0|0:0|0:0,0:0:0:0:
482,290,35556,2,0,L|471:348,1,50.9999984436036,10|0,0:0|0:0,0:0:0:0:
387,366,35692,5,0,0:0:0:0:
381,365,35760,1,0,0:0:0:0:
375,364,35828,1,10,0:0:0:0:
369,363,35897,1,0,0:0:0:0:
363,362,35965,2,0,L|303:353,3,50.9999984436036,0|0|0|0,0:0|0:0|0:0|0:0,0:0:0:0:
227,376,36238,6,0,L|172:383,1,50.9999984436036,6|8,0:0|0:0,0:0:0:0:
239,366,36374,2,0,L|184:359,1,50.9999984436036,0|8,0:0|0:0,0:0:0:0:
109,326,36510,2,0,L|54:333,1,50.9999984436036,2|8,0:2|0:0,0:0:0:0:
121,316,36647,2,0,L|66:309,1,50.9999984436036,2|8,0:2|0:0,0:0:0:0:
29,232,36783,6,0,L|18:163,7,50.9999984436036,2|8|2|8|2|8|2|8,0:1|0:0|0:2|0:0|0:1|0:0|0:2|0:0,0:0:0:0:
153,211,37328,5,6,0:0:0:0:
157,209,37397,1,8,2:3:0:0:
161,207,37465,1,8,2:3:0:0:
165,205,37533,1,8,0:0:0:0:
171,203,37601,2,0,L|233:222,3,50.9999984436036,0|0|0|8,0:0|0:0|0:0|0:0,0:0:0:0:
212,101,37874,6,0,P|244:94|276:106,7,50.9999984436036,8|0|8|0|0|0|0|0,0:0|0:0|0:0|0:0|0:0|0:0|0:0|0:0,0:0:0:0:
312,237,38419,2,0,B|364:234|390:196|390:196|386:141|423:98|481:108,1,229.499992996216,4|0,0:1|0:0,0:0:0:0:
470,188,38965,2,0,B|356:131|356:131|332:132|332:132|251:93,1,229.499992996216,0|4,0:0|0:2,0:0:0:0:
212,18,39510,5,4,0:1:0:0:
206,0,39647,1,8,0:0:0:0:
124,131,39919,1,8,0:0:0:0:
20,64,40192,5,8,0:0:0:0:
95,46,40328,1,4,0:2:0:0:
115,120,40465,1,8,0:0:0:0:
40,138,40601,6,0,P|32:188|57:252,1,101.999996887207,4|8,0:1|0:0,0:0:0:0:
117,302,40874,2,0,P|122:340|47:316,1,152.999995330811,0|0,0:0|0:0,0:0:0:0:
124,227,41147,2,0,B|173:213|204:227|193:254|232:267|271:249,1,152.999995330811,0|0,0:0|0:0,0:0:0:0:
305,186,41419,1,0,0:0:0:0:
344,328,41556,6,0,B|361:305|380:291|380:291|391:265|383:232,1,101.999996887207,2|0,0:0|0:0,0:0:0:0:
295,173,41828,2,0,B|278:150|259:136|259:136|248:110|256:77,1,101.999996887207,10|0,0:0|0:0,0:0:0:0:
331,37,42101,1,10,0:0:0:0:
196,16,42238,5,0,0:0:0:0:
170,117,42374,1,10,0:0:0:0:
66,93,42510,1,0,0:0:0:0:
114,213,42647,6,0,P|111:227|104:186,1,203.999993774414,10|8,0:0|0:0,0:0:0:0:
188,193,43056,2,0,B|240:203|262:157|236:147|246:106|290:94,1,152.999995330811,0|0,0:0|0:0,0:0:0:0:
370,105,43328,2,0,B|406:118|406:118|418:176|395:241,1,152.999995330811,0|0,0:0|0:0,0:0:0:0:
313,243,43601,2,0,P|380:234|422:277,1,101.999996887207,0|8,0:0|0:0,0:0:0:0:
410,343,43874,5,0,0:0:0:0:
504,266,44010,2,0,B|506:215|506:215|487:176|487:176|486:99,1,152.999995330811,10|0,0:0|0:0,0:0:0:0:
510,42,44283,1,10,0:0:0:0:
386,27,44419,1,2,0:0:0:0:
379,32,44556,1,10,0:0:0:0:
283,96,44692,1,2,0:0:0:0:
290,101,44828,1,10,0:0:0:0:
191,28,44965,6,0,L|58:22,1,101.999996887207,4|8,0:2|0:0,0:0:0:0:
20,66,45238,1,0,0:0:0:0:
71,200,45374,2,0,B|85:147|85:147|82:140|82:140|96:90,1,101.999996887207,10|0,0:0|0:0,0:0:0:0:
28,62,45647,1,10,0:0:0:0:
79,196,45783,2,0,B|93:143|93:143|90:136|90:136|104:86,1,101.999996887207,0|8,0:0|0:0,0:0:0:0:
182,33,46056,5,0,0:0:0:0:
233,131,46192,2,0,B|210:122|210:122|223:248,1,101.999996887207,10|8,0:0|0:0,0:0:0:0:
266,275,46465,1,10,0:0:0:0:
270,285,46601,1,0,0:0:0:0:
322,353,46738,1,10,0:0:0:0:
420,314,46874,1,0,0:0:0:0:
261,267,47010,6,0,B|206:272|206:272|169:303|169:303|111:308,1,152.999995330811,10|0,0:0|0:0,0:0:0:0:
53,265,47283,1,10,0:0:0:0:
123,126,47419,2,0,P|74:148|128:142,1,152.999995330811,0|0,0:0|0:0,0:0:0:0:
230,129,47692,2,0,B|223:133|223:133|244:151|269:151|298:141|298:141|303:125,3,101.999996887207,0|10|0|8,0:0|0:0|0:0|0:0,0:0:0:0:
316,50,48238,5,0,0:0:0:0:
319,38,48374,1,10,0:0:0:0:
410,2,48510,1,0,0:0:0:0:
383,112,48647,6,0,B|366:148|391:175|391:175|442:166|473:212,1,152.999995330811,10|0,0:0|0:0,0:0:0:0:
405,255,48919,1,0,0:0:0:0:
458,360,49056,2,0,B|464:350|464:350|411:368|367:371|308:348,1,152.999995330811,0|0,0:0|0:0,0:0:0:0:
250,312,49328,6,0,P|210:298|189:336,1,85,4|0,0:1|0:0,0:0:0:0:
55,341,49601,2,0,P|95:327|116:365,1,85,0|10,0:0|0:0,0:0:0:0:
114,369,49874,1,0,0:0:0:0:
45,248,50010,2,0,B|43:202|33:156,2,85,0|10|0,0:0|0:0|0:0,0:0:0:0:
124,240,50419,5,2,0:0:0:0:
132,239,50488,1,0,0:0:0:0:
138,244,50556,1,10,0:0:0:0:
197,191,50692,1,0,0:0:0:0:
129,94,50828,2,0,B|146:112|173:104|173:104|192:72|238:49|284:63,1,170,0|0,0:0|0:0,0:0:0:0:
337,126,51238,2,0,B|366:121|374:89|374:89|405:67|444:78,1,127.5,2|0,0:0|0:0,0:0:0:0:
441,216,51510,6,0,B|449:156|449:156|443:142|443:142|456:69,1,127.5,6|0,0:0|0:0,0:0:0:0:
502,24,51783,1,10,0:0:0:0:
372,0,51919,1,2,0:0:0:0:
327,138,52056,2,0,B|335:198|335:198|329:212|329:212|342:285,1,127.5,0|0,0:0|0:0,0:0:0:0:
401,331,52328,1,10,0:0:0:0:
260,263,52465,1,2,0:0:0:0:
239,372,52601,5,0,0:0:0:0:
271,274,52738,1,2,0:0:0:0:
151,368,52874,1,10,0:1:0:0:
69,254,53010,2,0,B|81:177|81:177|86:175|86:175|98:73,1,170,2|0,0:0|0:0,0:0:0:0:
49,26,53419,1,10,0:0:0:0:
49,26,53556,1,0,0:0:0:0:
186,9,53692,6,0,L|321:17,1,127.5,6|0,0:0|0:0,0:0:0:0:
397,64,53965,1,2,0:0:0:0:
397,64,54101,1,8,0:0:0:0:
205,86,54238,2,0,L|326:93,1,85,4|0,0:1|0:0,0:0:0:0:
445,168,54510,2,0,L|360:162,1,85,10|0,0:0|0:0,0:0:0:0:
281,208,54783,1,4,0:2:0:0:
349,360,54919,2,0,P|361:290|339:255,1,85,10|2,0:0|2:3,0:0:0:0:
281,208,55192,5,0,0:0:0:0:
274,216,55328,1,10,0:0:0:0:
201,285,55465,1,0,0:0:0:0:
180,205,55601,1,0,0:0:0:0:
220,365,55738,2,0,B|154:367|154:367|149:371|149:371|32:377,1,170,10|2,0:0|0:0,0:0:0:0:
35,197,56147,6,0,P|74:212|79:251,1,85,10|0,0:0|0:0,0:0:0:0:
23,305,56419,1,0,0:0:0:0:
6,118,56556,2,0,L|152:132,1,127.5,0|0,0:0|0:0,0:0:0:0:
211,99,56828,1,0,0:0:0:0:
211,99,56965,5,0,0:0:0:0:
226,140,57101,1,10,0:0:0:0:
297,167,57238,1,10,0:0:0:0:
377,132,57374,1,0,0:0:0:0:
403,33,57510,6,0,P|377:23|363:37,3,42.5,10|0|0|0,0:0|0:0|0:0|0:0,0:0:0:0:
357,39,57783,1,0,0:0:0:0:
467,116,57919,1,10,0:0:0:0:
417,265,58056,5,4,0:2:0:0:
422,252,58192,1,0,0:0:0:0:
312,363,58465,1,0,0:0:0:0:
245,245,58738,5,0,0:0:0:0:
240,232,58874,1,0,0:0:0:0:
235,219,59010,1,0,0:0:0:0:
182,364,59283,5,0,0:0:0:0:
58,249,59556,1,0,0:0:0:0:
162,127,59828,5,0,0:0:0:0:
142,102,59897,1,0,0:0:0:0:
119,97,59965,1,0,0:0:0:0:
99,101,60033,1,0,0:0:0:0:
91,108,60101,1,0,0:0:0:0:
91,115,60169,1,0,0:0:0:0:
95,115,60238,1,6,0:0:0:0:
8,4,60510,5,0,0:0:0:0:
14,9,60647,1,0,0:0:0:0:
125,0,60783,1,12,0:2:0:0:
6,140,61056,5,0,0:0:0:0:
0,145,61192,1,2,0:2:0:0:
84,210,61328,2,0,L|100:300,1,85,2|0,0:1|0:0,0:0:0:0:
198,310,61601,2,0,L|272:362,1,85,0|0,0:0|0:0,0:0:0:0:
358,325,61874,5,12,0:2:0:0:
361,312,62010,1,0,0:0:0:0:
337,241,62147,5,0,0:0:0:0:
503,376,62283,1,4,0:1:0:0:
481,202,62692,5,10,0:0:0:0:
449,303,62828,1,10,0:0:0:0:
378,95,63101,2,0,B|388:136|388:136|385:141|385:141|396:186,2,85,0|0|8,0:0|0:0|2:3,0:0:0:0:
458,42,63510,1,8,2:3:0:0:
458,42,63647,1,8,2:3:0:0:
315,9,63783,5,8,2:3:0:0:
306,9,63851,1,8,2:3:0:0:
297,9,63919,1,0,0:0:0:0:
288,10,63988,1,0,0:0:0:0:
277,11,64056,2,0,L|221:14,1,42.5,0|0,0:0|0:0,0:0:0:0:
152,59,64192,6,0,L|96:56,3,42.5,8|8|0|0,2:3|2:3|0:0|0:0,0:0:0:0:
229,107,64465,2,0,L|271:104,1,42.5,0|0,0:0|0:0,0:0:0:0:
232,185,64601,2,0,L|274:182,1,42.5,8|0,0:0|0:0,0:0:0:0:
347,239,64738,6,0,P|361:242|336:245,1,101.999996887207,4|4,0:1|0:2,0:0:0:0:
366,159,65147,1,4,0:2:0:0:
271,316,65283,1,4,0:1:0:0:
176,253,65556,5,12,0:2:0:0:
166,249,65692,1,12,0:2:0:0:
77,313,65965,5,14,0:0:0:0:
78,303,66034,1,0,0:0:0:0:
79,293,66102,1,10,0:0:0:0:
80,283,66170,1,0,0:0:0:0:
81,272,66238,2,0,L|88:215,3,46.7500014266968,10|0|10|0,0:0|0:0|0:0|0:0,0:0:0:0:
0,131,66511,2,0,L|45:165,3,46.7500014266968,10|0|10|0,0:0|0:0|0:0|0:0,0:0:0:0:
162,131,66784,2,0,L|109:153,3,46.7500014266968,10|0|10|0,0:0|0:0|0:0|0:0,0:0:0:0:
60,28,67056,5,14,0:2:0:0:
68,23,67125,1,0,0:0:0:0:
77,22,67193,1,10,0:0:0:0:
86,23,67261,1,0,0:0:0:0:
96,27,67329,2,0,P|126:50|158:49,3,46.7500014266968,10|0|10|0,0:0|0:0|0:0|0:0,0:0:0:0:
182,135,67602,2,0,P|212:112|244:113,3,46.7500014266968,10|0|10|0,0:0|0:0|0:0|0:0,0:0:0:0:
231,17,67875,2,0,P|263:4|288:13,3,46.7500014266968,10|0|10|0,0:0|0:0|0:0|0:0,0:0:0:0:
363,41,68147,5,14,0:2:0:0:
366,49,68216,1,0,0:0:0:0:
368,58,68284,2,0,L|389:137,1,46.7500014266968,10|0,0:0|0:0,0:0:0:0:
469,137,68420,5,10,0:0:0:0:
466,145,68488,1,0,0:0:0:0:
464,154,68556,2,0,L|443:233,1,46.7500014266968,10|0,0:0|0:0,0:0:0:0:
383,268,68693,2,0,B|354:269|354:269|351:267|351:267|325:268,3,46.7500014266968,10|0|10|0,0:0|0:0|0:0|0:0,0:0:0:0:
343,349,68966,2,0,B|314:350|314:350|311:348|311:348|285:349,3,46.7500014266968,10|0|10|0,0:0|0:0|0:0|0:0,0:0:0:0:
197,332,69238,5,14,0:2:0:0:
196,322,69306,1,0,0:0:0:0:
195,312,69375,1,10,0:0:0:0:
194,302,69443,1,0,0:0:0:0:
192,291,69511,2,0,P|194:255|207:232,3,46.7500014266968,10|0|10|0,0:0|0:0|0:0|0:0,0:0:0:0:
321,271,69784,2,0,L|269:264,3,46.7500014266968,10|0|10|0,0:0|0:0|0:0|0:0,0:0:0:0:
265,176,70056,2,0,L|213:169,3,46.7500014266968,10|0|10|0,0:0|0:0|0:0|0:0,0:0:0:0:
129,159,70329,5,14,0:2:0:0:
137,156,70397,1,0,0:0:0:0:
143,149,70466,1,10,0:0:0:0:
146,140,70534,1,0,0:0:0:0:
147,128,70602,2,0,P|144:97|131:78,3,46.7500014266968,10|0|10|0,0:0|0:0|0:0|0:0,0:0:0:0:
17,103,70875,2,0,P|45:115|68:114,7,46.7500014266968,10|0|10|0|10|0|10|0,0:0|0:0|0:0|0:0|0:0|0:0|0:0|0:0,0:0:0:0:
32,7,71420,5,14,0:2:0:0:
41,8,71488,1,0,0:0:0:0:
50,9,71556,2,0,L|121:22,1,46.7500014266968,10|0,0:0|0:0,0:0:0:0:
175,0,71693,5,8,0:0:0:0:
184,1,71761,1,0,0:0:0:0:
193,2,71829,2,0,L|264:15,1,46.7500014266968,10|0,0:0|0:0,0:0:0:0:
264,114,71966,2,0,P|287:77|287:56,3,46.7500014266968,10|0|10|0,0:0|0:0|0:0|0:0,0:0:0:0:
343,12,72238,2,0,P|366:49|366:70,3,46.7500014266968,10|0|10|0,0:0|0:0|0:0|0:0,0:0:0:0:
365,146,72511,6,0,L|365:198,7,46.7500014266968,14|0|10|0|10|0|10|0,0:2|0:0|0:0|0:0|0:0|0:0|0:0|0:0,0:0:0:0:
448,206,73056,2,0,L|438:257,3,46.7500014266968,10|0|10|0,0:0|0:0|0:0|0:0,0:0:0:0:
284,215,73329,2,0,L|294:266,3,46.7500014266968,10|0|10|0,0:0|0:0|0:0|0:0,0:0:0:0:
412,381,73602,5,14,0:2:0:0:
382,384,73670,1,0,0:0:0:0:
353,378,73738,1,10,0:0:0:0:
331,360,73806,1,0,0:0:0:0:
315,335,73875,2,0,P|295:308|270:305,3,46.7500014266968,10|0|10|0,0:0|0:0|0:0|0:0,0:0:0:0:
211,331,74147,2,0,P|193:375|196:396,7,46.7500014266968,10|0|10|0|10|0|0|0,0:0|0:0|0:0|0:0|0:0|0:0|0:0|0:0,0:0:0:0:
114,368,74693,5,14,0:2:0:0:
104,351,74761,1,0,0:0:0:0:
103,332,74829,1,10,0:0:0:0:
107,313,74897,1,0,0:0:0:0:
117,297,74966,6,0,P|133:272|134:248,3,46.7500014266968,10|0|10|0,0:0|0:0|0:0|0:0,0:0:0:0:
31,204,75238,2,0,P|37:232|53:250,3,46.7500014266968,10|0|10|0,0:0|0:0|0:0|0:0,0:0:0:0:
163,170,75511,2,0,L|110:182,1,46.7500014266968,10|0,0:0|0:0,0:0:0:0:
173,176,75647,2,0,L|120:188,1,46.7500014266968,10|0,0:0|0:0,0:0:0:0:
63,70,75784,5,14,0:2:0:0:
81,71,75852,1,0,0:0:0:0:
99,72,75920,1,10,0:0:0:0:
117,73,75988,1,0,0:0:0:0:
135,75,76056,6,0,L|197:80,3,46.7500014266968,10|0|10|0,0:0|0:0|0:0|0:0,0:0:0:0:
253,128,76329,2,0,L|315:123,3,46.7500014266968,10|0|10|0,0:0|0:0|0:0|0:0,0:0:0:0:
307,29,76602,2,0,P|289:38|311:37,1,46.7500014266968,10|0,0:0|0:0,0:0:0:0:
298,23,76738,2,0,P|278:16|295:31,1,46.7500014266968,10|0,0:0|0:0,0:0:0:0:
404,22,76875,5,14,0:2:0:0:
419,31,76943,1,0,0:0:0:0:
430,46,77011,1,10,0:0:0:0:
435,63,77079,1,0,0:0:0:0:
434,81,77147,6,0,P|429:114|441:137,3,46.7500014266968,10|0|10|0,0:0|0:0|0:0|0:0,0:0:0:0:
501,177,77420,2,0,P|506:210|494:233,3,46.7500014266968,10|0|10|0,0:0|0:0|0:0|0:0,0:0:0:0:
380,227,77693,2,0,L|438:214,1,46.7500014266968,10|0,0:0|0:0,0:0:0:0:
373,218,77829,2,0,L|431:205,1,46.7500014266968,10|0,0:0|0:0,0:0:0:0:
356,311,77966,6,0,L|299:294,1,46.7500014266968,14|0,0:2|0:0,0:0:0:0:
364,323,78102,2,0,L|307:306,1,46.7500014266968,10|0,0:0|0:0,0:0:0:0:
280,207,78238,2,0,L|223:190,1,46.7500014266968,10|0,0:0|0:0,0:0:0:0:
288,219,78375,2,0,L|231:202,1,46.7500014266968,10|0,0:0|0:0,0:0:0:0:
155,242,78511,2,0,L|151:296,3,46.7500014266968,10|0|10|0,0:0|0:0|0:0|0:0,0:0:0:0:
202,359,78784,1,10,0:0:0:0:
202,359,78920,1,10,0:0:0:0:
73,238,79056,6,0,L|95:127,1,93.5000028533936,14|10,0:2|0:0,0:0:0:0:
49,73,79329,1,2,0:0:0:0:
49,73,79466,1,10,0:0:0:0:
157,16,79602,2,0,P|209:3|254:42,1,93.5000028533936,2|10,0:0|0:0,0:0:0:0:
283,110,79875,1,2,0:0:0:0:
283,110,80011,1,10,0:0:0:0:
413,20,80147,6,0,P|361:7|316:46,1,93.5000028533936,4|8,0:2|2:3,0:0:0:0:
334,38,80352,1,8,2:3:0:0:
332,40,80420,1,0,0:0:0:0:
405,145,80556,2,0,L|414:92,2,46.7500014266968,8|8|0,2:3|2:3|0:0,0:0:0:0:
319,187,80829,5,8,2:3:0:0:
320,191,80897,1,8,2:3:0:0:
321,195,80966,1,0,0:0:0:0:
322,199,81034,1,0,0:0:0:0:
323,203,81102,1,0,0:0:0:0:
324,207,81170,1,0,0:0:0:0:
335,215,81238,6,0,L|325:347,6,127.500004863739,6|2|2|2|2|2|2,0:0|0:0|0:0|0:0|0:0|0:0|0:0,0:0:0:0:
249,373,83011,1,10,2:3:0:0:
201,276,83147,1,2,0:0:0:0:
196,268,83284,1,10,2:3:0:0:
142,373,83420,1,6,0:0:0:0:
109,124,83693,6,0,L|87:250,4,127.500004863739,12|2|2|2|2,0:2|0:0|0:0|0:0|0:0,0:0:0:0:
20,308,84920,1,10,2:3:0:0:
11,194,85056,1,2,0:0:0:0:
11,194,85193,1,10,2:3:0:0:
121,116,85329,6,0,P|134:112|119:121,1,63.7500024318696,2|2,0:0|0:0,0:0:0:0:
168,26,85602,6,0,L|228:33,1,31.8750012159348,6|0,0:1|0:0,0:0:0:0:
260,86,85738,2,0,L|320:93,1,31.8750012159348,0|0,0:0|0:0,0:0:0:0:
355,41,85875,1,10,2:3:0:0:
491,185,86011,6,0,L|431:178,1,31.8750012159348,2|0,0:0|0:0,0:0:0:0:
396,124,86147,2,0,L|336:117,1,31.8750012159348,0|0,0:0|0:0,0:0:0:0:
301,169,86284,1,10,2:3:0:0:
373,220,86420,5,2,0:0:0:0:
380,232,86556,2,0,L|386:274,2,31.8750012159348,8|8|4,2:3|2:3|0:2,0:0:0:0:
458,317,86829,1,8,2:3:0:0:
457,320,86897,1,8,2:3:0:0:
456,323,86966,1,2,0:0:0:0:
325,326,87102,2,0,L|319:368,2,31.8750012159348,8|8|2,2:3|2:3|0:0,0:0:0:0:
264,253,87375,5,8,2:3:0:0:
261,251,87443,1,8,2:3:0:0:
257,251,87511,2,0,P|232:248|226:266,3,31.8750012159348,2|0|8|8,0:0|0:0|2:3|2:3,0:0:0:0:
123,285,87784,2,0,P|136:291|150:284,5,31.8750012159348,6|0|0|0|0|0,0:0|0:0|0:0|0:0|0:0|0:0,0:0:0:0:
164,200,88193,2,0,P|180:168|176:155,3,31.8750012159348,8|0|0|0,2:3|0:0|0:0|0:0,0:0:0:0:
104,98,88466,5,0,0:0:0:0:
106,99,88534,1,0,0:0:0:0:
125,99,88602,1,8,2:3:0:0:
130,103,88670,1,0,0:0:0:0:
135,95,88738,1,2,0:0:0:0:
144,88,88806,1,0,0:0:0:0:
158,92,88875,5,14,0:0:0:0:
490,52,89966,6,0,B|438:29|438:29|279:44,1,203.999993774414,6|2,0:0|0:0,0:0:0:0:
234,117,90375,1,10,0:0:0:0:
120,25,90511,2,0,L|101:104,1,50.9999984436036,2|0,0:0|0:0,0:0:0:0:
19,107,90647,2,0,B|41:141|37:182|37:182|70:211|69:268,1,152.999995330811,10|0,0:0|0:0,0:0:0:0:
56,261,90920,2,0,P|85:243|115:244,1,50.9999984436036,10|0,0:0|2:0,0:0:0:0:
182,302,91056,5,2,0:0:0:0:
196,306,91125,1,0,2:0:0:0:
211,307,91193,1,10,0:0:0:0:
226,306,91261,1,0,2:0:0:0:
240,301,91329,2,0,P|265:282|271:251,1,50.9999984436036,2|0,0:0|2:0,0:0:0:0:
343,282,91466,2,0,P|347:250|329:224,1,50.9999984436036,10|0,0:0|2:0,0:0:0:0:
234,117,91602,2,0,P|237:80|247:57,3,50.9999984436036,2|0|10|0,0:0|2:0|0:0|2:0,0:0:0:0:
312,106,91875,2,0,P|344:126|349:146,1,50.9999984436036,2|0,0:0|2:0,0:0:0:0:
420,110,92011,2,0,P|428:146|417:164,1,50.9999984436036,10|0,0:0|2:0,0:0:0:0:
279,185,92147,5,2,0:0:0:0:
164,63,92284,1,10,0:0:0:0:
150,56,92352,1,0,2:0:0:0:
134,54,92420,2,0,B|115:68|115:68|101:113,1,50.9999984436036,2|0,0:0|2:0,0:0:0:0:
27,82,92556,2,0,B|23:105|23:105|45:147,1,50.9999984436036,10|0,0:0|2:0,0:0:0:0:
56,261,92693,2,0,L|46:320,3,50.9999984436036,2|0|10|0,0:0|2:0|0:0|2:0,0:0:0:0:
157,357,92966,5,2,0:0:0:0:
179,354,93034,1,0,2:0:0:0:
201,352,93102,1,10,0:0:0:0:
224,350,93170,1,0,2:0:0:0:
246,359,93238,6,0,L|264:281,1,67.9999979248048,2|0,0:0|0:0,0:0:0:0:
326,217,93420,1,0,0:0:0:0:
339,227,93511,2,0,B|375:229|391:215|391:215|417:214|435:241,1,101.999996887207,2|10,0:0|0:0,0:0:0:0:
501,277,93784,2,0,P|511:228|494:180,1,67.9999979248048,2|0,0:0|0:0,0:0:0:0:
481,111,93966,1,0,0:0:0:0:
467,121,94056,2,0,B|445:116|430:106|430:106|397:103|367:133,1,101.999996887207,2|8,0:0|0:0,0:0:0:0:
246,157,94329,5,6,0:0:0:0:
246,157,94466,1,10,0:0:0:0:
195,61,94602,1,2,0:0:0:0:
195,61,94738,1,10,0:0:0:0:
138,164,94875,1,2,0:0:0:0:
138,164,95011,1,10,0:0:0:0:
101,19,95147,5,2,0:0:0:0:
35,180,95284,1,10,0:0:0:0:
195,61,95420,6,0,L|321:53,1,101.999996887207,2|10,0:0|0:0,0:0:0:0:
387,11,95693,1,2,0:0:0:0:
239,170,95829,2,0,L|113:162,1,101.999996887207,10|2,0:0|0:0,0:0:0:0:
67,98,96102,1,10,0:0:0:0:
0,261,96238,2,0,L|126:253,1,101.999996887207,2|10,0:0|0:0,0:0:0:0:
163,360,96511,5,2,0:0:0:0:
163,360,96647,1,10,0:0:0:0:
214,264,96784,1,2,0:0:0:0:
214,264,96920,1,10,0:0:0:0:
271,367,97056,1,2,0:0:0:0:
271,367,97193,1,10,0:0:0:0:
308,222,97329,5,2,0:0:0:0:
328,219,97397,1,0,0:0:0:0:
348,216,97466,1,10,0:0:0:0:
368,213,97534,1,0,0:0:0:0:
388,210,97602,5,2,0:0:0:0:
363,316,97738,1,10,0:0:0:0:
355,130,97875,1,2,0:0:0:0:
512,89,98011,6,0,B|449:107|412:75|430:54|376:26|310:47,1,203.999993774414,12|8,0:2|2:3,0:0:0:0:
312,50,98352,1,8,2:3:0:0:
305,60,98420,1,0,0:0:0:0:
308,222,98556,1,10,0:0:0:0:
198,89,98693,5,4,0:2:0:0:
198,89,98829,1,0,0:0:0:0:
72,182,98966,2,0,L|190:194,1,101.999996887207,10|0,0:2|0:0,0:0:0:0:
308,222,99238,1,2,0:2:0:0:
308,222,99375,1,0,0:0:0:0:
434,315,99511,2,0,L|316:327,1,101.999996887207,10|0,0:2|0:0,0:0:0:0:
215,299,99784,6,0,B|252:227|222:160|222:160|210:198|175:215,1,203.999993774414,2|2,0:2|0:1,0:0:0:0:
106,314,100193,2,0,L|224:302,1,101.999996887207,10|2,0:2|0:1,0:0:0:0:
265,368,100466,1,0,0:0:0:0:
389,245,100602,2,0,L|398:185,1,50.9999984436036,10|0,0:2|0:0,0:0:0:0:
401,237,100738,2,0,L|408:186,1,50.9999984436036,0|0,0:0|0:0,0:0:0:0:
471,117,100875,5,4,0:1:0:0:
471,117,101011,1,0,0:0:0:0:
381,39,101147,2,0,B|329:47|329:47|326:46|326:46|277:54,1,101.999996887207,12|0,0:1|0:0,0:0:0:0:
204,14,101420,1,6,0:1:0:0:
204,14,101556,1,0,0:0:0:0:
114,92,101693,2,0,B|62:84|62:84|59:85|59:85|10:77,1,101.999996887207,12|0,0:1|0:0,0:0:0:0:
135,188,101966,6,0,P|184:172|207:113,1,101.999996887207,4|8,2:1|2:0,0:0:0:0:
125,85,102238,1,8,2:0:0:0:
83,253,102375,2,0,P|128:276|186:250,1,101.999996887207,8|4,2:0|0:1,0:0:0:0:
125,85,102647,1,8,2:0:0:0:
0,262,102784,2,0,P|15:311|75:334,1,101.999996887207,0|8,0:0|2:0,0:0:0:0:
256,309,103056,5,4,0:1:0:0:
135,188,103193,1,0,0:0:0:0:
176,371,103329,1,10,0:0:0:0:
256,208,103466,1,2,0:0:0:0:
334,363,103602,1,10,0:0:0:0:
175,262,103738,1,2,0:0:0:0:
346,234,103875,2,0,L|407:226,1,50.9999984436036,10|0,0:0|2:0,0:0:0:0:
339,243,104011,2,0,L|400:235,1,50.9999984436036,2|0,0:0|2:0,0:0:0:0:
475,179,104147,6,0,L|486:124,3,50.9999984436036,10|0|2|0,0:0|2:0|0:0|2:0,0:0:0:0:
406,101,104420,2,0,L|374:54,3,50.9999984436036,10|0|10|0,0:0|2:0|0:0|2:0,0:0:0:0:
302,94,104693,2,0,L|247:83,3,50.9999984436036,2|0|8|8,0:0|2:0|2:0|2:0,0:0:0:0:
185,26,104966,5,0,0:0:0:0:
164,28,105034,1,0,0:0:0:0:
143,30,105102,1,0,0:0:0:0:
122,32,105170,1,0,0:0:0:0:
101,34,105238,5,6,0:0:0:0:
6,45,105375,2,0,L|10:98,1,50.9999984436036,10|0,0:0|2:0,0:0:0:0:
34,176,105511,2,0,P|71:224|131:209,1,101.999996887207,2|10,0:0|0:0,0:0:0:0:
174,180,105784,2,0,P|196:168|231:168,3,50.9999984436036,2|0|10|0,0:0|2:0|0:0|2:0,0:0:0:0:
291,221,106056,5,2,0:0:0:0:
310,225,106125,1,0,2:0:0:0:
327,224,106193,1,10,0:0:0:0:
313,132,106329,1,6,0:0:0:0:
222,285,106466,5,8,2:0:0:0:
256,306,106534,1,8,2:0:0:0:
301,319,106602,1,8,2:0:0:0:
342,314,106670,1,8,2:0:0:0:
387,303,106738,5,0,0:0:0:0:
412,209,106875,1,0,0:0:0:0:
484,360,107011,1,8,2:0:0:0:
484,360,107147,2,0,L|381:381,1,101.999996887207,0|0,0:0|0:0,0:0:0:0:
255,384,107420,5,0,0:0:0:0:
310,225,107556,1,0,0:0:0:0:
310,225,108511,5,12,0:1:0:0:
194,141,108647,2,0,L|147:148,3,42.5,0|0|0|0,0:0|0:0|0:0|0:0,0:0:0:0:
200,132,108920,1,4,0:1:0:0:
134,58,109056,1,0,0:0:0:0:
134,58,109193,1,4,0:1:0:0:
237,8,109329,1,8,2:0:0:0:
200,132,109466,6,0,L|179:304,1,170,4|10,0:2|0:0,0:0:0:0:
104,384,109875,2,0,L|87:246,1,127.5,2|0,0:0|0:0,0:0:0:0:
25,203,110147,1,2,0:0:0:0:
25,203,110284,1,10,0:0:0:0:
117,154,110420,2,0,P|162:149|214:214,1,127.5,2|0,0:0|0:0,0:0:0:0:
179,300,110693,5,2,0:0:0:0:
223,214,110829,2,0,L|331:207,1,85,10|0,0:0|0:0,0:0:0:0:
368,266,111102,1,10,0:0:0:0:
428,166,111238,1,0,0:0:0:0:
428,166,111375,1,8,0:0:0:0:
310,64,111511,1,2,0:0:0:0:
345,140,111647,2,0,P|294:148|251:126,1,85,10|6,0:0|0:0,0:0:0:0:
216,66,111920,1,10,0:0:0:0:
216,66,112056,5,2,0:0:0:0:
112,17,112193,2,0,B|103:62|103:62|104:66|104:66|96:106,1,85,10|0,0:0|0:0,0:0:0:0:
125,178,112466,1,10,0:0:0:0:
21,129,112602,2,0,B|12:174|12:174|13:178|13:178|5:218,1,85,2|8,0:0|0:0,0:0:0:0:
31,291,112875,1,2,0:0:0:0:
137,257,113011,2,0,B|146:302|146:302|145:306|145:306|153:346,1,85,10|0,0:0|0:0,0:0:0:0:
239,371,113284,5,10,0:0:0:0:
239,371,113420,1,2,0:0:0:0:
227,325,113556,1,10,0:0:0:0:
281,262,113693,1,2,0:0:0:0:
349,372,113829,6,0,P|393:369|433:329,1,85,10|2,0:0|0:0,0:0:0:0:
415,254,114102,1,8,0:0:0:0:
364,96,114238,2,0,P|329:129|354:210,1,127.5,0|0,0:0|0:0,0:0:0:0:
415,254,114511,1,2,0:0:0:0:
415,254,114647,1,10,0:0:0:0:
468,165,114784,1,0,0:0:0:0:
468,165,114920,1,8,0:0:0:0:
318,29,115056,5,12,0:1:0:0:
318,29,115738,6,0,B|296:26|279:36|279:36|306:37|329:42,2,85,8|0|0,2:0|0:0|0:0,0:0:0:0:
252,124,116147,6,0,B|208:119|208:119|202:122|202:122|146:115,1,85,6|10,0:0|0:0,0:0:0:0:
191,42,116420,2,0,B|147:37|147:37|141:40|141:40|85:33,1,85,2|10,0:0|0:0,0:0:0:0:
28,4,116693,1,4,0:2:0:0:
4,107,116829,1,0,0:0:0:0:
4,107,116966,2,0,P|34:127|96:106,1,85,10|0,0:0|0:0,0:0:0:0:
101,210,117238,5,4,0:2:0:0:
101,210,117375,2,0,P|141:201|177:223,1,85,10|0,0:0|0:0,0:0:0:0:
181,307,117647,1,0,0:0:0:0:
261,232,117784,1,0,0:0:0:0:
261,232,117920,1,0,0:0:0:0:
281,342,118056,1,0,0:0:0:0:
376,261,118193,2,0,B|362:234|349:219|349:219|406:226|406:226|410:224|410:224|472:234,1,170,8|8,0:0|0:0,0:0:0:0:
512,160,118602,6,0,L|414:145,1,85,10|4,0:0|2:0,0:0:0:0:
366,83,118875,1,0,0:0:0:0:
366,83,119011,1,4,0:2:0:0:
512,39,119147,2,0,L|414:24,1,85,10|4,0:0|0:2,0:0:0:0:
311,8,119420,5,0,0:0:0:0:
311,8,119488,1,0,0:0:0:0:
311,8,119556,2,0,L|214:16,1,85,0|10,0:0|0:1,0:0:0:0:
120,40,119829,2,0,L|78:33,3,42.5,2|0|0|0,0:1|0:0|0:0|0:0,0:0:0:0:
61,37,120102,1,0,0:0:0:0:
19,136,120238,1,10,0:0:0:0:
121,123,120375,2,0,B|140:117|140:117|152:107|152:107|139:179|139:179|134:186|134:186|123:246,1,170,0|0,0:0|0:0,0:0:0:0:
76,306,120784,5,2,0:0:0:0:
161,383,120920,2,0,P|198:376|233:325,1,85,8|4,0:0|2:2,0:0:0:0:
230,249,121193,1,0,0:0:0:0:
320,184,121329,2,0,P|357:191|392:242,1,85,8|0,2:0|0:0,0:0:0:0:
355,318,121602,1,4,0:2:0:0:
465,176,121738,2,0,P|486:207|474:267,1,85,12|0,0:2|0:0,0:0:0:0:
355,318,122011,5,0,0:0:0:0:
359,310,122147,1,12,0:2:0:0:
391,236,122284,1,0,0:0:0:0:
369,123,122420,1,0,0:0:0:0:
508,89,122556,6,0,B|462:103|426:76|439:57|397:34|344:48,1,170,8|0,2:0|0:0,0:0:0:0:
265,94,122966,2,0,P|214:108|177:91,1,85,8|0,0:0|0:0,0:0:0:0:
141,23,123238,1,0,0:0:0:0:
141,23,123375,1,2,0:0:0:0:
114,148,123511,2,0,P|63:134|26:151,1,85,8|2,0:0|0:0,0:0:0:0:
71,228,123784,5,2,0:0:0:0:
74,237,123920,1,8,2:0:0:0:
118,282,124056,1,8,2:0:0:0:
197,289,124193,1,0,0:0:0:0:
258,216,124329,2,0,P|249:213|260:223,3,42.5,8|0|0|0,2:0|0:0|0:0|0:0,0:0:0:0:
265,207,124602,1,0,0:0:0:0:
354,195,124738,1,10,0:0:0:0:
426,117,124875,5,6,0:0:0:0:
431,130,125011,1,0,0:0:0:0:
321,19,125284,1,0,0:0:0:0:
470,15,125556,5,0,0:0:0:0:
465,28,125693,1,0,0:0:0:0:
460,41,125829,1,0,0:0:0:0:
319,113,126102,5,0,0:0:0:0:
200,64,126375,1,0,0:0:0:0:
160,227,126647,5,0,0:0:0:0:
128,230,126716,1,0,2:0:0:0:
108,217,126784,1,0,0:0:0:0:
97,200,126852,1,0,2:0:0:0:
96,190,126920,1,0,0:0:0:0:
101,185,126988,1,0,2:0:0:0:
104,188,127056,1,4,0:1:0:0:
17,378,127329,5,0,0:0:0:0:
23,373,127466,1,0,0:0:0:0:
134,382,127602,1,10,0:0:0:0:
15,242,127875,5,0,0:0:0:0:
9,237,128011,1,4,0:1:0:0:
93,172,128147,2,0,P|95:116|109:82,1,85,4|8,0:1|2:0,0:0:0:0:
207,72,128420,2,0,P|241:35|281:20,1,85,0|0,0:0|0:0,0:0:0:0:
367,57,128693,5,10,2:1:0:0:
370,70,128829,1,0,0:0:0:0:
346,141,128966,5,0,0:0:0:0:
512,6,129102,1,4,0:1:0:0:
499,252,129511,5,12,0:1:0:0:
442,133,129647,1,12,0:1:0:0:
365,236,129920,2,0,B|351:259|354:284|354:284|370:261|365:236,2,85,8|0|8,2:0|0:0|2:0,0:0:0:0:
380,226,130329,5,8,2:0:0:0:
422,348,130466,1,8,2:0:0:0:
258,191,130602,1,8,2:0:0:0:
258,191,130875,5,14,0:0:0:0:
217,330,131011,1,0,0:0:0:0:
137,128,131284,5,8,2:0:0:0:
180,245,131420,1,6,0:0:0:0:
137,128,131556,2,0,L|39:113,1,85,0|10,0:0|0:0,0:0:0:0:
5,179,131829,1,0,0:0:0:0:
86,17,131966,6,0,P|112:14|141:21,1,42.5,8|8,2:0|2:0,0:0:0:0:
105,3,132102,2,0,P|129:10|153:29,1,42.5,8|8,2:0|2:0,0:0:0:0:
206,72,132238,2,0,P|232:75|261:68,1,42.5,0|0,0:0|0:0,0:0:0:0:
344,24,132375,5,0,0:0:0:0:
344,24,132443,1,0,0:0:0:0:
344,24,132511,1,8,2:0:0:0:
344,24,132579,1,8,2:0:0:0:
344,24,132647,2,0,B|344:51|342:73,1,42.5,0|0,0:0|0:0,0:0:0:0:
239,199,132784,2,0,B|239:172|237:150,1,42.5,0|0,0:0|0:0,0:0:0:0:
334,146,132920,2,0,P|376:143|398:124,3,42.5,0|0|0|0,0:0|0:0|0:0|0:0,0:0:0:0:
433,65,133193,1,8,2:0:0:0:
457,227,133329,1,8,2:0:0:0:
457,227,133466,1,8,2:0:0:0:
389,324,133602,5,14,0:0:0:0:
375,327,133670,1,0,0:0:0:0:
361,326,133738,1,10,0:0:0:0:
347,321,133806,1,0,0:0:0:0:
333,313,133875,2,0,L|321:259,3,46.7500014266968,10|0|10|0,0:0|0:0|0:0|0:0,0:0:0:0:
261,172,134147,2,0,L|249:226,3,46.7500014266968,10|0|10|0,0:0|0:0|0:0|0:0,0:0:0:0:
252,370,134420,2,0,L|240:316,3,46.7500014266968,10|0|10|0,0:0|0:0|0:0|0:0,0:0:0:0:
174,236,134693,5,12,0:2:0:0:
174,222,134761,1,0,0:0:0:0:
168,209,134829,1,10,0:0:0:0:
158,198,134897,1,0,0:0:0:0:
142,189,134966,2,0,P|106:182|87:193,3,46.7500014266968,10|0|10|0,0:0|0:0|0:0|0:0,0:0:0:0:
71,308,135238,2,0,P|95:280|95:258,3,46.7500014266968,10|0|10|0,0:0|0:0|0:0|0:0,0:0:0:0:
3,187,135511,2,0,P|14:221|33:232,3,46.7500014266968,10|0|10|0,0:0|0:0|0:0|0:0,0:0:0:0:
17,47,135784,5,12,0:2:0:0:
30,48,135852,1,0,0:0:0:0:
43,49,135920,1,10,0:0:0:0:
56,50,135988,1,0,0:0:0:0:
70,51,136056,1,10,0:0:0:0:
83,52,136125,1,0,0:0:0:0:
96,53,136193,1,10,0:0:0:0:
109,54,136261,1,0,0:0:0:0:
122,56,136329,2,0,L|181:51,3,46.7500014266968,10|0|10|0,0:0|0:0|0:0|0:0,0:0:0:0:
248,14,136602,2,0,P|257:36|253:65,1,46.7500014266968,10|0,0:0|0:0,0:0:0:0:
239,154,136738,2,0,P|217:144|199:121,1,46.7500014266968,10|0,0:0|0:0,0:0:0:0:
353,50,136875,5,12,0:2:0:0:
362,60,136943,1,0,0:0:0:0:
366,73,137011,1,10,0:0:0:0:
367,86,137079,1,0,0:0:0:0:
362,101,137147,2,0,L|309:110,3,46.7500014266968,10|0|10|0,0:0|0:0|0:0|0:0,0:0:0:0:
457,62,137420,5,10,0:0:0:0:
457,62,137488,1,0,0:0:0:0:
457,62,137556,2,0,L|446:110,1,46.7500014266968,10|0,0:0|0:0,0:0:0:0:
374,226,137693,1,10,0:0:0:0:
374,226,137761,1,0,0:0:0:0:
374,226,137829,2,0,L|363:178,1,46.7500014266968,10|0,0:0|0:0,0:0:0:0:
478,179,137966,5,12,0:2:0:0:
476,192,138034,1,0,0:0:0:0:
474,205,138102,1,10,0:0:0:0:
472,218,138170,1,0,0:0:0:0:
471,233,138238,2,0,L|462:287,3,46.7500014266968,10|0|10|0,0:0|0:0|0:0|0:0,0:0:0:0:
396,325,138511,2,0,L|344:344,3,46.7500014266968,10|0|10|0,0:0|0:0|0:0|0:0,0:0:0:0:
278,306,138784,2,0,L|235:271,3,46.7500014266968,10|0|10|0,0:0|0:0|0:0|0:0,0:0:0:0:
255,177,139056,1,12,0:2:0:0:
273,174,139125,1,0,0:0:0:0:
291,171,139193,2,0,L|347:162,1,46.7500014266968,10|0,0:0|0:0,0:0:0:0:
177,212,139329,1,10,0:0:0:0:
159,209,139397,1,0,0:0:0:0:
141,206,139466,2,0,L|85:197,1,46.7500014266968,10|0,0:0|0:0,0:0:0:0:
26,122,139602,2,0,L|12:168,3,46.7500014266968,10|0|10|0,0:0|0:0|0:0|0:0,0:0:0:0:
96,278,139875,2,0,L|106:323,3,46.7500014266968,12|0|10|0,0:2|0:0|0:0|0:0,0:0:0:0:
105,82,140147,5,12,0:2:0:0:
120,70,140216,1,0,0:0:0:0:
138,69,140284,1,10,0:0:0:0:
155,76,140352,1,0,0:0:0:0:
165,91,140420,2,0,L|161:139,3,46.7500014266968,10|0|10|0,0:0|0:0|0:0|0:0,0:0:0:0:
177,212,140693,2,0,L|230:202,3,46.7500014266968,10|0|10|0,0:0|0:0|0:0|0:0,0:0:0:0:
287,130,140966,2,0,L|241:121,3,46.7500014266968,10|0|10|0,0:0|0:0|0:0|0:0,0:0:0:0:
382,27,141238,5,12,0:2:0:0:
397,44,141306,1,0,0:0:0:0:
404,66,141375,1,10,0:0:0:0:
399,88,141443,1,0,0:0:0:0:
386,105,141511,2,0,L|456:107,3,46.7500014266968,10|0|10|0,0:0|0:0|0:0|0:0,0:0:0:0:
380,188,141784,2,0,L|434:190,7,46.7500014266968,10|0|10|0|10|0|10|0,0:0|0:0|0:0|0:0|0:0|0:0|0:0|0:0,0:0:0:0:
340,314,142329,5,12,0:2:0:0:
319,325,142397,1,0,0:0:0:0:
295,327,142466,1,10,0:0:0:0:
272,321,142534,1,0,0:0:0:0:
250,292,142602,2,0,L|261:230,3,46.7500014266968,10|0|10|0,0:0|0:0|0:0|0:0,0:0:0:0:
160,304,142875,2,0,B|138:313|138:313|106:312,3,46.7500014266968,10|0|10|0,0:0|0:0|0:0|0:0,0:0:0:0:
16,239,143147,2,0,B|38:238|38:238|60:247,3,46.7500014266968,10|0|10|0,0:0|0:0|0:0|0:0,0:0:0:0:
142,191,143420,5,12,0:2:0:0:
147,168,143488,1,0,0:0:0:0:
152,145,143556,1,10,0:0:0:0:
158,122,143625,1,0,0:0:0:0:
145,100,143693,2,0,L|94:88,3,46.7500014266968,10|0|10|0,0:0|0:0|0:0|0:0,0:0:0:0:
152,9,143966,6,0,P|181:19|206:16,3,46.7500014266968,10|0|10|0,0:0|0:0|0:0|0:0,0:0:0:0:
263,60,144238,2,0,P|286:59|307:50,3,46.7500014266968,10|0|10|0,0:0|0:0|0:0|0:0,0:0:0:0:
402,6,144511,5,12,0:2:0:0:
394,28,144579,1,0,0:0:0:0:
393,50,144647,2,0,P|405:81|421:100,1,46.7500014266968,10|0,0:0|0:0,0:0:0:0:
495,138,144784,5,10,0:0:0:0:
503,160,144852,1,0,0:0:0:0:
504,182,144920,2,0,P|492:213|476:232,1,46.7500014266968,10|0,0:0|0:0,0:0:0:0:
404,169,145056,6,0,L|352:165,3,46.7500014266968,10|0|10|0,0:0|0:0|0:0|0:0,0:0:0:0:
287,245,145329,2,0,L|339:241,3,46.7500014266968,10|0|10|0,0:0|0:0|0:0|0:0,0:0:0:0:
187,191,145602,5,12,0:2:0:0:
150,195,145670,1,0,0:0:0:0:
119,218,145738,1,10,0:0:0:0:
103,250,145806,1,0,0:0:0:0:
105,288,145875,6,0,P|126:314|151:317,1,46.7500014266968,10|0,0:0|0:0,0:0:0:0:
148,333,146011,2,0,P|181:336|201:320,1,46.7500014266968,10|0,0:0|0:0,0:0:0:0:
209,310,146147,2,0,P|242:306|262:322,1,46.7500014266968,10|0,0:0|0:0,0:0:0:0:
271,308,146284,2,0,P|296:329|300:354,1,46.7500014266968,10|0,0:0|0:0,0:0:0:0:
294,362,146420,1,10,0:0:0:0:
201,202,146556,1,10,0:0:0:0:
339,237,146693,6,0,B|350:257|350:257|421:258,1,93.5000028533936,12|10,0:2|0:0,0:0:0:0:
415,171,146966,1,0,0:0:0:0:
415,171,147102,1,10,0:0:0:0:
271,172,147238,2,0,L|286:75,1,93.5000028533936,2|10,0:0|0:0,0:0:0:0:
354,0,147511,2,0,L|369:97,1,93.5000028533936,2|10,0:0|0:0,0:0:0:0:
268,1,147784,5,4,0:2:0:0:
268,1,147920,1,10,0:0:0:0:
179,78,148056,2,0,B|135:75|135:75|123:70|123:70|66:66,1,93.5000028533936,4|2,0:2|0:0,0:0:0:0:
11,0,148329,5,2,0:0:0:0:
75,92,148466,1,10,0:0:0:0:
16,144,148602,1,0,0:0:0:0:
53,170,148738,1,0,0:0:0:0:
48,184,148875,6,0,B|142:159|142:159|144:154|144:154|239:127|239:127|244:129|244:129|342:103|342:103|313:182|313:182|317:295|317:295|281:372|281:372|232:329|180:288|180:288|201:279|201:279|206:275|206:275|260:258|260:258|266:260|266:260|376:230|376:230|381:224|381:224|471:199|471:199|476:206|476:206|489:153,1,1088,6|0,0:0|0:0,0:0:0:0:
114,81,170693,5,0,0:0:0:0:
158,212,171102,1,0,0:0:0:0:
87,69,171511,5,10,0:0:0:0:
158,212,171920,1,0,0:0:0:0:
87,69,172329,5,10,0:0:0:0:
158,212,172602,2,0,L|153:241,4,17,0|0|0|0|0,0:0|0:0|0:0|0:0|0:0,0:0:0:0:
302,107,173284,1,0,0:0:0:0:
240,283,173556,1,0,0:0:0:0:
325,231,173693,5,10,0:0:0:0:
373,380,174102,1,0,0:0:0:0:
325,231,174375,1,0,0:0:0:0:
422,266,174511,6,0,P|426:278|426:269,2,34,10|0|2,0:0|0:0|0:2,0:0:0:0:
365,157,175056,1,2,0:2:0:0:
504,59,175466,1,2,0:2:0:0:
365,157,175738,1,0,0:0:0:0:
300,83,175875,5,10,0:0:0:0:
300,83,176011,1,0,0:0:0:0:
229,224,176284,1,0,0:0:0:0:
133,76,176556,1,0,0:0:0:0:
90,161,176693,6,0,B|81:172|82:178|82:178|88:164,2,34,10|0|0,0:0|0:0|0:0,0:0:0:0:
99,156,177102,1,0,0:0:0:0:
126,239,177238,1,0,0:0:0:0:
29,371,177511,1,0,0:0:0:0:
29,371,177647,1,0,0:0:0:0:
126,239,177784,5,10,0:0:0:0:
108,325,177920,1,0,0:0:0:0:
245,381,178193,1,0,0:0:0:0:
198,303,178466,1,0,0:0:0:0:
198,303,178602,1,0,0:0:0:0:
310,314,178875,6,0,B|382:322|382:322,2,68,10|0|0,0:0|0:0|0:0,0:0:0:0:
316,145,179829,1,0,0:0:0:0:
467,69,180238,5,10,0:0:0:0:
316,145,180647,1,0,0:0:0:0:
467,69,180920,1,0,0:0:0:0:
371,52,181056,5,10,0:0:0:0:
369,51,181125,1,0,0:0:0:0:
367,51,181193,1,0,0:0:0:0:
365,50,181261,1,0,0:0:0:0:
363,50,181329,1,0,0:0:0:0:
284,83,181466,1,2,0:2:0:0:
193,37,181602,2,0,L|155:34,3,34,2|2|2|2,0:2|0:2|0:2|0:2,0:0:0:0:
89,86,182147,5,10,0:0:0:0:
89,86,182284,1,0,0:0:0:0:
56,227,182556,1,0,0:0:0:0:
175,204,182829,1,0,0:0:0:0:
175,218,182966,1,0,0:0:0:0:
176,230,183102,1,0,0:0:0:0:
123,316,183238,6,0,P|126:342|132:358,2,34,10|0|0,0:0|0:0|0:0,0:0:0:0:
12,163,183784,1,0,0:0:0:0:
32,355,184193,1,0,0:0:0:0:
12,163,184466,1,0,0:0:0:0:
95,122,184602,5,10,0:0:0:0:
95,122,184738,1,0,0:0:0:0:
2,2,185011,1,0,0:0:0:0:
157,17,185284,1,0,0:0:0:0:
206,83,185420,6,0,P|217:85|207:85,3,34,10|0|2|2,0:0|0:0|0:2|2:2,0:0:0:0:
306,19,185966,2,0,L|300:63,1,34,2|0,0:2|0:0,0:0:0:0:
324,128,186238,1,0,0:0:0:0:
348,234,186375,6,0,L|352:200,1,34,10|0,0:0|0:0,0:0:0:0:
324,128,186647,1,0,0:0:0:0:
438,115,186784,6,0,L|404:110,1,34,10|0,0:0|0:0,0:0:0:0:
324,128,187056,1,0,0:0:0:0:
199,163,187329,5,0,0:0:0:0:
204,163,187397,1,0,0:0:0:0:
209,163,187466,2,0,L|222:173,4,17,0|0|0|0|0,2:0|2:0|2:0|2:0|2:0,0:0:0:0:
176,252,187875,5,0,2:0:0:0:
169,260,187943,1,0,2:0:0:0:
176,277,188011,1,0,2:0:0:0:
185,308,188079,1,0,2:0:0:0:
159,348,188147,1,0,2:0:0:0:
78,267,188420,6,0,B|75:281|47:298|47:298|69:224|67:161|49:119|49:119|50:175|22:216,1,318.750012159348,6|0,0:0|0:0,0:0:0:0:
12,43,188829,2,0,B|10:29|10:29|87:29|145:94|145:94|120:98,1,191.250007295609,6|0,0:0|0:0,0:0:0:0:
209,163,189102,6,0,B|182:176|151:167|151:167|211:226|282:195|260:165|329:138|392:174|392:174|357:172|330:195,1,382.500014591218,6|0,0:0|0:0,0:0:0:0:
389,256,190056,1,10,0:0:0:0:
323,358,190329,5,0,0:0:0:0:
323,358,190466,1,0,0:0:0:0:
229,276,190602,2,0,P|196:265|141:298,1,85,12|8,0:1|0:0,0:0:0:0:
92,342,190875,1,0,0:0:0:0:
8,207,191011,2,0,P|41:196|96:229,1,85,12|8,0:1|0:0,0:0:0:0:
92,342,191284,6,0,L|85:197,1,127.5,4|0,0:1|0:0,0:0:0:0:
141,146,191556,1,8,2:0:0:0:
58,86,191693,1,8,2:0:0:0:
58,86,191829,1,0,0:0:0:0:
152,27,191966,5,8,2:0:0:0:
168,28,192034,1,8,2:0:0:0:
184,30,192102,2,0,L|250:35,1,42.5,0|0,0:0|0:0,0:0:0:0:
320,77,192238,1,8,2:0:0:0:
337,75,192306,1,8,2:0:0:0:
353,74,192375,1,0,0:0:0:0:
369,73,192443,1,0,0:0:0:0:
384,71,192511,6,0,B|412:62|412:62|398:122|398:122|393:125|393:125|372:205,1,170,4|8,0:1|2:0,0:0:0:0:
367,205,192852,1,8,2:0:0:0:
367,205,192920,1,8,2:0:0:0:
480,114,193056,2,0,B|468:165|468:165|463:168|463:168|452:212,1,85,0|0,0:0|0:0,0:0:0:0:
423,273,193329,1,12,2:1:0:0:
270,175,193466,2,0,B|282:226|282:226|287:229|287:229|298:273,1,85,8|4,2:0|0:2,0:0:0:0:
269,348,193738,5,8,2:0:0:0:
269,348,193806,1,0,0:0:0:0:
269,348,193875,2,0,L|209:359,1,42.5,8|0,2:0|0:0,0:0:0:0:
195,262,194011,2,0,L|145:270,1,42.5,0|8,0:0|2:0,0:0:0:0:
100,330,194147,2,0,L|50:322,1,42.5,8|0,2:0|0:0,0:0:0:0:
46,239,194284,2,0,L|16:197,1,42.5,8|8,2:0|2:0,0:0:0:0:
66,110,194420,1,8,2:0:0:0:
76,87,194488,1,8,2:0:0:0:
87,63,194556,1,8,2:0:0:0:
98,40,194625,1,8,2:0:0:0:
111,18,194693,6,0,B|183:8|183:8|211:22|211:22|303:9,1,170,6|8,0:0|2:0,0:0:0:0:
288,19,195034,1,8,2:0:0:0:
288,19,195102,1,6,0:0:0:0:
367,86,195238,2,0,L|357:137,3,42.5,8|0|8|8,2:0|0:0|2:0|2:0,0:0:0:0:
375,80,195511,1,4,0:2:0:0:
442,171,195647,1,8,2:0:0:0:
443,184,195716,1,0,0:0:0:0:
442,196,195784,6,0,P|430:225|398:232,1,42.5,4|0,0:2|0:0,0:0:0:0:
346,252,195920,2,0,P|358:281|390:288,1,42.5,8|8,2:0|2:0,0:0:0:0:
451,309,196056,2,0,P|435:322|430:343,1,42.5,6|0,0:0|0:0,0:0:0:0:
345,369,196193,2,0,P|331:353|310:348,1,42.5,8|8,2:0|2:0,0:0:0:0:
199,360,196329,5,8,2:0:0:0:
174,364,196397,1,8,2:0:0:0:
149,357,196466,1,8,2:0:0:0:
132,337,196534,1,8,2:0:0:0:
124,308,196602,2,0,L|142:264,3,42.5,8|8|8|8,0:0|0:0|0:0|0:0,0:0:0:0:
152,259,196875,5,6,0:0:0:0:
14,187,197011,1,10,0:0:0:0:
14,187,197147,2,0,P|80:176|119:183,1,85,2|8,0:0|0:0,0:0:0:0:
206,200,197420,1,2,0:0:0:0:
132,70,197556,2,0,P|186:108|209:141,1,85,10|2,0:0|0:0,0:0:0:0:
280,227,197829,2,0,B|286:198|286:198|344:173|344:173|355:176|355:176|426:150,1,170,10|10,0:0|0:0,0:0:0:0:
420,299,198238,6,0,B|407:275|411:257|411:257|422:273|420:299,1,85,2|10,0:0|0:0,0:0:0:0:
315,355,198511,2,0,B|328:331|324:313|324:313|313:329|315:355,1,85,2|10,0:0|0:0,0:0:0:0:
207,298,198784,2,0,B|194:274|198:256|198:256|209:272|207:298,1,85,2|8,0:0|0:0,0:0:0:0:
122,348,199056,1,2,0:0:0:0:
122,348,199193,1,10,0:0:0:0:
31,273,199329,1,2,0:0:0:0:
107,176,199466,6,0,B|111:208|111:208|107:216|107:216|114:259,1,85,10|2,0:0|0:0,0:0:0:0:
42,359,199738,1,10,0:0:0:0:
19,191,199875,1,2,0:0:0:0:
19,191,199943,1,0,0:0:0:0:
19,191,200011,1,10,0:0:0:0:
61,88,200147,6,0,L|124:81,1,42.5,2|0,0:0|0:0,0:0:0:0:
172,124,200284,2,0,L|235:131,1,42.5,10|0,0:0|0:0,0:0:0:0:
279,81,200420,2,0,L|270:29,3,42.5,0|0|10|0,0:0|0:0|0:0|0:0,0:0:0:0:
334,198,200693,6,0,L|345:146,1,42.5,2|0,0:0|0:0,0:0:0:0:
366,78,200829,1,8,2:0:0:0:
366,78,200897,1,8,2:0:0:0:
366,78,200966,2,0,L|377:26,1,42.5,2|0,0:0|0:0,0:0:0:0:
381,67,201102,2,0,L|392:15,1,42.5,10|0,0:0|0:0,0:0:0:0:
427,152,201238,5,6,0:0:0:0:
428,160,201306,1,0,0:0:0:0:
428,168,201375,1,10,0:0:0:0:
429,176,201443,1,0,0:0:0:0:
429,184,201511,2,0,L|432:252,1,42.5,10|0,0:0|0:0,0:0:0:0:
359,276,201647,2,0,L|316:267,3,42.5,10|0|10|0,0:0|0:0|0:0|0:0,0:0:0:0:
236,235,201920,2,0,L|244:290,1,42.5,10|0,0:0|0:0,0:0:0:0:
268,365,202056,2,0,L|222:353,3,42.5,10|0|10|0,0:0|0:0|0:0|0:0,0:0:0:0:
166,289,202329,6,0,P|144:278|122:283,3,42.5,10|0|10|0,0:0|0:0|0:0|0:0,0:0:0:0:
83,371,202602,1,10,0:0:0:0:
94,358,202670,1,0,0:0:0:0:
99,341,202738,1,10,0:0:0:0:
99,323,202806,1,0,0:0:0:0:
91,305,202875,2,0,P|61:294|42:303,3,42.5,10|0|10|0,0:0|0:0|0:0|0:0,0:0:0:0:
33,221,203147,2,0,P|4:234|-3:254,3,42.5,10|0|10|0,0:0|0:0|0:0|0:0,0:0:0:0:
51,137,203420,5,10,0:0:0:0:
67,140,203488,1,0,0:0:0:0:
83,143,203556,1,10,0:0:0:0:
99,146,203625,1,0,0:0:0:0:
115,150,203693,2,0,L|166:161,3,42.5,10|0|10|0,0:0|0:0|0:0|0:0,0:0:0:0:
184,85,203966,5,10,0:0:0:0:
200,82,204034,1,0,0:0:0:0:
216,79,204102,1,10,0:0:0:0:
232,76,204170,1,0,0:0:0:0:
248,72,204238,2,0,P|274:75|288:86,3,42.5,10|0|10|0,0:0|0:0|0:0|0:0,0:0:0:0:
304,165,204511,6,0,L|297:218,3,42.5,6|0|8|8,0:0|0:0|2:0|2:0,0:0:0:0:
285,217,204784,1,8,2:0:0:0:
363,284,204920,2,0,L|314:292,2,42.5,8|8|8,2:0|2:0|2:0,0:0:0:0:
236,349,205193,1,8,2:0:0:0:
247,353,205261,1,8,2:0:0:0:
258,357,205329,1,8,2:0:0:0:
382,198,205466,1,8,2:0:0:0:
439,258,205602,5,8,2:0:0:0:
20,242,214329,5,14,0:0:0:0:
17,236,214397,1,0,0:0:0:0:
17,231,214466,1,10,0:0:0:0:
18,225,214534,1,0,0:0:0:0:
42,213,214602,2,0,P|78:208|94:187,3,46.7500014266968,10|0|10|0,0:0|0:0|0:0|0:0,0:0:0:0:
85,122,214875,2,0,P|121:127|137:148,3,46.7500014266968,10|0|10|0,0:0|0:0|0:0|0:0,0:0:0:0:
155,277,215147,2,0,L|162:223,1,46.7500014266968,10|0,0:0|0:0,0:0:0:0:
164,285,215284,2,0,L|171:231,1,46.7500014266968,10|0,0:0|0:0,0:0:0:0:
211,158,215420,5,14,0:2:0:0:
216,150,215488,1,0,0:0:0:0:
218,140,215556,1,10,0:0:0:0:
219,130,215625,1,0,0:0:0:0:
206,96,215693,2,0,P|195:69|201:47,3,46.7500014266968,10|0|10|0,0:0|0:0|0:0|0:0,0:0:0:0:
300,126,215966,2,0,P|311:153|305:175,3,46.7500014266968,10|0|10|0,0:0|0:0|0:0|0:0,0:0:0:0:
278,38,216238,2,0,P|289:11|309:0,1,46.7500014266968,10|0,0:0|0:0,0:0:0:0:
286,37,216375,2,0,P|297:10|317:-1,1,46.7500014266968,10|0,0:0|0:0,0:0:0:0:
411,26,216511,5,14,0:2:0:0:
419,30,216579,1,0,0:0:0:0:
423,37,216647,2,0,P|433:75|431:104,1,46.7500014266968,10|0,0:0|0:0,0:0:0:0:
505,135,216784,1,10,0:0:0:0:
507,143,216852,1,0,0:0:0:0:
505,151,216920,2,0,P|485:184|463:204,1,46.7500014266968,10|0,0:0|0:0,0:0:0:0:
408,230,217056,2,0,L|362:227,3,46.7500014266968,10|0|10|0,0:0|0:0|0:0|0:0,0:0:0:0:
313,297,217329,2,0,L|253:302,3,46.7500014266968,10|0|10|0,0:0|0:0|0:0|0:0,0:0:0:0:
188,259,217602,5,14,0:2:0:0:
178,257,217670,1,0,0:0:0:0:
168,255,217738,1,10,0:0:0:0:
158,253,217806,1,0,0:0:0:0:
134,235,217875,2,0,P|112:240|90:262,3,46.7500014266968,10|0|10|0,0:0|0:0|0:0|0:0,0:0:0:0:
175,347,218147,2,0,P|193:362|216:368,3,46.7500014266968,10|0|10|0,0:0|0:0|0:0|0:0,0:0:0:0:
91,340,218420,1,10,0:0:0:0:
91,340,218556,1,10,0:0:0:0:
6,218,218693,5,4,0:2:0:0:
6,218,218761,1,0,0:0:0:0:
6,218,218829,1,10,0:0:0:0:
61,129,218966,1,0,0:0:0:0:
61,129,219102,1,10,0:0:0:0:
151,164,219238,6,0,L|253:149,1,93.5000028533936,0|10,0:0|0:0,0:0:0:0:
300,81,219511,1,0,0:0:0:0:
300,81,219647,1,10,0:0:0:0:
352,238,219784,2,0,L|250:223,1,93.5000028533936,4|10,0:2|0:0,0:0:0:0:
188,259,220056,1,0,0:0:0:0:
188,259,220193,1,10,0:0:0:0:
98,350,220329,2,0,L|200:335,1,93.5000028533936,0|10,0:0|0:0,0:0:0:0:
272,367,220602,1,0,0:0:0:0:
272,367,220738,1,10,0:0:0:0:
352,238,220875,5,4,0:2:0:0:
412,354,221011,1,8,0:0:0:0:
412,354,221079,1,0,0:0:0:0:
412,354,221147,1,0,0:0:0:0:
259,224,221284,1,10,0:0:0:0:
436,199,221420,2,0,L|492:210,2,46.7500014266968,4|0|8,0:2|0:0|0:0,0:0:0:0:
340,124,221693,1,0,0:0:0:0:
340,124,221829,1,10,0:0:0:0:
464,52,221966,6,0,L|360:37,1,93.5000028533936,4|8,0:2|2:3,0:0:0:0:
361,33,222170,1,8,2:3:0:0:
361,33,222238,1,0,0:0:0:0:
255,103,222375,1,8,2:3:0:0:
147,30,222511,1,4,0:2:0:0:
147,30,222579,1,0,0:0:0:0:
147,30,222647,1,10,0:0:0:0:
159,124,222784,2,0,L|150:178,3,46.7500014266968,4|0|10|0,0:2|0:0|0:0|0:0,0:0:0:0:
63,210,223056,5,6,0:0:0:0:
56,223,223125,1,0,0:0:0:0:
56,238,223193,1,10,0:0:0:0:
62,252,223261,1,0,0:0:0:0:
76,263,223329,2,0,P|108:262|121:232,3,50.9999984436036,10|0|10|0,0:0|0:0|0:0|0:0,0:0:0:0:
66,350,223602,2,0,P|38:361|27:392,3,50.9999984436036,10|0|10|0,0:0|0:0|0:0|0:0,0:0:0:0:
144,351,223875,2,0,P|168:346|190:357,3,50.9999984436036,10|0|10|0,0:0|0:0|0:0|0:0,0:0:0:0:
302,371,224147,5,14,0:2:0:0:
312,359,224216,1,0,0:0:0:0:
317,344,224284,1,10,0:0:0:0:
315,328,224352,1,0,0:0:0:0:
309,315,224420,2,0,P|343:275|378:278,3,50.9999984436036,10|0|10|0,0:0|0:0|0:0|0:0,0:0:0:0:
238,282,224693,2,0,P|211:273|195:253,3,50.9999984436036,10|0|10|0,0:0|0:0|0:0|0:0,0:0:0:0:
255,197,224966,2,0,P|267:171|264:146,3,50.9999984436036,10|0|10|0,0:0|0:0|0:0|0:0,0:0:0:0:
170,52,225238,5,14,0:2:0:0:
187,62,225306,1,0,0:0:0:0:
206,66,225375,1,10,0:0:0:0:
226,64,225443,1,0,0:0:0:0:
243,55,225511,2,0,L|256:2,3,50.9999984436036,10|0|10|0,0:0|0:0|0:0|0:0,0:0:0:0:
347,74,225784,2,0,L|357:132,3,50.9999984436036,10|0|10|0,0:0|0:0|0:0|0:0,0:0:0:0:
451,128,226056,2,0,L|440:184,1,50.9999984436036,10|0,0:0|0:0,0:0:0:0:
370,233,226193,2,0,L|381:289,1,50.9999984436036,10|0,0:0|0:0,0:0:0:0:
466,361,226329,5,14,0:2:0:0:
445,362,226397,1,0,0:0:0:0:
424,363,226466,1,10,0:0:0:0:
403,364,226534,1,0,0:0:0:0:
382,365,226602,2,0,L|322:370,3,50.9999984436036,10|0|10|0,0:0|0:0|0:0|0:0,0:0:0:0:
263,303,226875,5,10,0:0:0:0:
242,300,226943,1,0,0:0:0:0:
221,297,227011,2,0,L|151:288,1,50.9999984436036,10|0,0:0|0:0,0:0:0:0:
94,384,227147,5,10,0:0:0:0:
115,381,227216,1,0,0:0:0:0:
136,378,227284,2,0,L|206:369,1,50.9999984436036,10|0,0:0|0:0,0:0:0:0:
81,276,227420,1,14,0:2:0:0:
78,255,227488,1,0,0:0:0:0:
74,234,227556,1,10,0:0:0:0:
71,213,227625,1,0,0:0:0:0:
69,192,227693,2,0,L|61:136,3,50.9999984436036,10|0|10|0,0:0|0:0|0:0|0:0,0:0:0:0:
16,62,227966,6,0,L|70:68,1,50.9999984436036,10|0,0:0|0:0,0:0:0:0:
25,51,228102,2,0,L|79:57,1,50.9999984436036,10|0,0:0|0:0,0:0:0:0:
142,113,228238,2,0,L|196:107,1,50.9999984436036,10|0,0:0|0:0,0:0:0:0:
151,124,228375,2,0,L|205:118,1,50.9999984436036,10|0,0:0|0:0,0:0:0:0:
308,30,228511,5,14,0:2:0:0:
303,49,228579,1,0,0:0:0:0:
299,69,228647,2,0,L|288:124,1,50.9999984436036,10|0,0:0|0:0,0:0:0:0:
372,145,228784,1,10,0:0:0:0:
377,164,228852,1,0,0:0:0:0:
381,184,228920,2,0,L|392:239,1,50.9999984436036,10|0,0:0|0:0,0:0:0:0:
274,311,229056,2,0,L|324:300,3,50.9999984436036,10|0|10|0,0:0|0:0|0:0|0:0,0:0:0:0:
280,213,229329,2,0,L|229:202,3,50.9999984436036,10|0|10|0,0:0|0:0|0:0|0:0,0:0:0:0:
371,144,229602,6,0,L|387:96,7,50.9999984436036,14|0|10|0|10|0|10|0,0:2|0:0|0:0|0:0|0:0|0:0|0:0|0:0,0:0:0:0:
487,209,230147,1,12,0:2:0:0:
491,229,230216,1,0,0:0:0:0:
487,249,230284,2,0,P|467:289|449:303,1,50.9999984436036,10|0,0:0|0:0,0:0:0:0:
376,363,230420,1,10,0:0:0:0:
355,367,230488,1,0,0:0:0:0:
336,363,230556,2,0,P|296:343|282:325,1,50.9999984436036,10|0,0:0|0:0,0:0:0:0:
222,243,230693,5,14,0:2:0:0:
202,236,230761,1,0,0:0:0:0:
181,238,230829,1,10,0:0:0:0:
163,247,230897,1,0,0:0:0:0:
151,264,230966,2,0,L|142:328,3,50.9999984436036,10|0|10|0,0:0|0:0|0:0|0:0,0:0:0:0:
61,362,231238,6,0,L|54:309,1,50.9999984436036,10|0,0:0|0:0,0:0:0:0:
70,369,231375,2,0,L|63:316,1,50.9999984436036,2|0,0:0|0:0,0:0:0:0:
6,204,231511,2,0,L|-1:257,1,50.9999984436036,10|0,0:0|0:0,0:0:0:0:
15,197,231647,2,0,L|8:250,1,50.9999984436036,2|0,0:0|0:0,0:0:0:0:
52,71,231784,5,12,0:2:0:0:
72,69,231852,1,0,0:0:0:0:
92,67,231920,1,0,0:0:0:0:
112,65,231988,1,0,0:0:0:0:
132,63,232056,2,0,L|194:57,3,50.9999984436036,10|0|10|0,0:0|0:0|0:0|0:0,0:0:0:0:
266,76,232329,1,10,0:0:0:0:
286,78,232397,1,0,0:0:0:0:
306,80,232466,2,0,L|357:89,1,50.9999984436036,10|0,0:0|0:0,0:0:0:0:
418,24,232602,1,10,0:0:0:0:
438,22,232670,1,0,0:0:0:0:
458,20,232738,2,0,L|509:11,1,50.9999984436036,10|0,0:0|0:0,0:0:0:0:
502,193,232875,5,12,0:2:0:0:
498,172,232943,1,0,0:0:0:0:
494,151,233011,1,10,0:0:0:0:
490,130,233079,1,0,0:0:0:0:
487,109,233147,2,0,L|437:101,3,50.9999984436036,10|0|10|0,0:0|0:0|0:0|0:0,0:0:0:0:
392,203,233420,1,10,0:0:0:0:
395,222,233488,1,0,0:0:0:0:
399,242,233556,2,0,L|409:303,1,50.9999984436036,10|0,0:0|0:0,0:0:0:0:
484,384,233693,1,10,0:0:0:0:
487,365,233761,1,0,0:0:0:0:
491,345,233829,2,0,L|501:284,1,50.9999984436036,10|0,0:0|0:0,0:0:0:0:
316,306,233966,6,0,L|248:315,3,50.9999984436036,12|0|10|0,0:2|0:0|0:0|0:0,0:0:0:0:
147,228,234238,2,0,L|215:237,3,50.9999984436036,10|0|10|0,0:0|0:0|0:0|0:0,0:0:0:0:
392,203,234511,6,0,L|324:212,3,50.9999984436036,10|0|10|0,0:0|0:0|0:0|0:0,0:0:0:0:
218,132,234784,2,0,L|286:141,3,50.9999984436036,10|0|10|0,0:0|0:0|0:0|0:0,0:0:0:0:
314,52,235056,5,12,0:2:0:0:
285,41,235125,1,0,0:0:0:0:
255,47,235193,1,10,0:0:0:0:
234,69,235261,1,0,0:0:0:0:
228,98,235329,1,10,0:0:0:0:
205,118,235397,1,0,0:0:0:0:
174,123,235466,1,10,0:0:0:0:
145,113,235534,1,0,0:0:0:0:
127,87,235602,6,0,P|104:77|74:89,1,50.9999984436036,10|0,0:0|0:0,0:0:0:0:
64,76,235738,2,0,P|40:85|27:114,1,50.9999984436036,10|0,0:0|0:0,0:0:0:0:
11,112,235875,2,0,P|1:135|13:165,1,50.9999984436036,10|0,0:0|0:0,0:0:0:0:
0,178,236011,2,0,P|9:201|38:214,1,50.9999984436036,10|0,0:0|0:0,0:0:0:0:
125,205,236147,5,12,0:2:0:0:
125,205,236284,1,10,0:0:0:0:
79,317,236420,2,0,P|125:335|179:307,1,101.999996887207,0|10,0:0|0:0,0:0:0:0:
248,241,236693,2,0,B|263:235|263:235|245:331,1,101.999996887207,0|10,0:0|0:0,0:0:0:0:
345,193,236966,2,0,B|332:186|332:186|348:283,1,101.999996887207,0|10,0:0|0:0,0:0:0:0:
454,366,237238,6,0,P|404:333|360:357,1,101.999996887207,4|8,0:1|2:3,0:0:0:0:
365,356,237443,1,8,2:3:0:0:
362,368,237511,1,0,0:0:0:0:
444,265,237647,2,0,P|470:276|493:294,2,50.9999984436036,8|0|4,2:3|0:0|0:1,0:0:0:0:
475,146,237920,5,8,0:0:0:0:
479,136,237988,1,8,2:3:0:0:
484,115,238056,1,8,2:3:0:0:
475,85,238125,1,0,0:0:0:0:
447,59,238193,1,8,0:0:0:0:
396,50,238261,1,8,2:3:0:0:
348,67,238329,5,6,0:0:0:0:
293,162,238466,1,8,0:0:0:0:
240,44,238602,2,0,B|195:48|195:48|191:52|191:52|129:57,1,85,0|10,0:0|0:0,0:0:0:0:
206,131,238875,2,0,B|161:135|161:135|157:139|157:139|95:144,1,85,0|10,0:0|0:0,0:0:0:0:
39,104,239147,1,0,0:0:0:0:
39,104,239284,1,10,0:0:0:0:
99,218,239420,6,0,B|109:211|109:211|123:252|108:287|108:287,1,85,0|10,0:0|0:0,0:0:0:0:
17,281,239693,2,0,B|9:290|9:290|-6:255|8:214|8:214,1,85,0|10,0:0|0:0,0:0:0:0:
62,354,239966,2,0,P|115:372|169:346,1,85,0|10,0:0|0:0,0:0:0:0:
208,307,240238,2,0,P|261:289|315:315,1,85,0|10,0:0|0:0,0:0:0:0:
334,371,240511,5,4,0:2:0:0:
396,275,240647,1,8,0:0:0:0:
396,275,240716,1,0,0:0:0:0:
396,275,240784,1,0,0:0:0:0:
444,345,240920,1,10,0:0:0:0:
494,198,241056,2,0,L|396:182,1,85,0|10,0:0|0:0,0:0:0:0:
321,216,241329,1,0,0:0:0:0:
321,216,241466,1,10,0:0:0:0:
252,98,241602,6,0,B|275:80|275:80|347:78,1,85,0|10,0:0|0:0,0:0:0:0:
405,114,241875,1,0,0:0:0:0:
314,0,242011,2,0,B|370:2|370:2|393:20,1,85,10|0,0:0|0:0,0:0:0:0:
405,114,242284,1,10,0:0:0:0:
483,10,242420,1,0,0:0:0:0:
483,10,242488,1,0,0:0:0:0:
483,10,242556,1,10,0:0:0:0:
405,114,242693,5,4,0:1:0:0:
405,114,242829,1,10,0:0:0:0:
321,216,242966,2,0,L|226:207,1,85,0|8,0:0|0:0,0:0:0:0:
141,269,243238,2,0,P|156:226|138:179,1,85,4|8,0:0|0:0,0:0:0:0:
71,133,243511,1,0,0:0:0:0:
71,133,243647,1,10,0:0:0:0:
11,278,243784,6,0,P|52:258|72:212,1,85,0|10,0:0|0:0,0:0:0:0:
1,185,244056,1,0,0:0:0:0:
1,185,244193,1,10,0:0:0:0:
98,341,244329,2,0,P|137:355|177:345,1,85,0|10,0:0|0:0,0:0:0:0:
239,275,244602,1,0,0:0:0:0:
239,275,244738,1,10,0:0:0:0:
316,352,244875,6,0,B|364:356|364:356|371:354|371:354|417:358,1,85,4|10,0:1|0:2,0:0:0:0:
480,333,245147,1,2,0:2:0:0:
480,333,245216,1,0,0:0:0:0:
480,333,245284,1,10,0:2:0:0:
410,258,245420,1,2,0:2:0:0:
410,258,245556,1,10,0:2:0:0:
453,168,245693,2,0,P|399:155|353:175,1,85,2|10,0:2|0:2,0:0:0:0:
316,226,245966,5,2,0:2:0:0:
194,114,246102,2,0,P|248:101|294:121,1,85,10|2,0:2|0:2,0:0:0:0:
280,115,246306,1,0,0:0:0:0:
285,122,246375,1,10,0:2:0:0:
359,25,246511,1,2,0:2:0:0:
357,33,246579,1,0,0:0:0:0:
355,41,246647,1,10,0:2:0:0:
408,114,246784,1,4,0:1:0:0:
273,31,246920,1,10,0:2:0:0:
169,40,247056,5,4,0:2:0:0:
169,40,247193,1,10,0:2:0:0:
82,78,247329,2,0,L|88:172,1,85,2|8,0:2|0:0,0:0:0:0:
10,127,247602,2,0,L|16:221,1,85,2|10,0:2|0:2,0:0:0:0:
90,253,247875,1,2,0:2:0:0:
90,253,248011,1,10,0:2:0:0:
142,337,248147,6,0,P|194:340|229:306,1,85,2|10,0:0|0:0,0:0:0:0:
276,374,248420,2,0,P|304:330|292:283,1,85,2|10,0:0|0:0,0:0:0:0:
248,225,248693,1,2,0:0:0:0:
248,225,248829,1,10,0:0:0:0:
265,159,248966,1,2,0:0:0:0:
364,117,249102,1,10,0:0:0:0:
248,225,249238,6,0,L|86:162,1,170,4|2,0:1|0:0,0:0:0:0:
86,153,249579,1,0,0:0:0:0:
86,153,249647,1,12,0:1:0:0:
15,211,249784,1,2,0:0:0:0:
150,93,249920,2,0,L|246:85,1,85,12|2,0:1|0:0,0:0:0:0:
294,28,250193,1,12,0:1:0:0:
339,130,250329,6,0,L|435:138,1,85,0|10,0:0|0:1,0:0:0:0:
479,71,250602,1,10,0:1:0:0:
417,214,250738,2,0,B|427:252|427:252|433:258|433:258|444:299,1,85,0|0,0:0|0:0,0:0:0:0:
497,365,251011,1,14,0:1:0:0:
361,303,251147,1,6,0:1:0:0:
361,303,251284,1,8,0:1:0:0:
257,358,251420,6,0,B|269:256,1,85,6|10,0:0|0:0,0:0:0:0:
202,209,251693,1,0,0:0:0:0:
202,209,251829,1,10,0:0:0:0:
56,249,251966,2,0,P|100:269|150:261,2,85,0|10|0,0:0|0:0|0:0,0:0:0:0:
24,169,252375,1,10,0:0:0:0:
149,93,252511,6,0,P|193:73|243:81,2,85,2|10|0,0:0|0:0|0:0,0:0:0:0:
110,186,252920,1,10,0:0:0:0:
110,186,253056,1,0,0:0:0:0:
38,72,253193,1,10,0:0:0:0:
151,4,253329,2,0,L|253:-1,1,85,0|10,0:0|0:0,0:0:0:0:
315,39,253602,5,4,0:1:0:0:
315,39,253738,1,8,0:0:0:0:
413,16,253875,1,0,0:0:0:0:
413,16,253943,1,0,0:0:0:0:
413,16,254011,1,10,0:0:0:0:
380,108,254147,1,0,0:0:0:0:
463,181,254284,1,10,0:0:0:0:
498,89,254420,1,0,0:0:0:0:
498,89,254488,1,0,0:0:0:0:
498,89,254556,1,10,0:0:0:0:
372,197,254693,6,0,L|309:192,5,42.5,0|0|10|0|0|0,0:0|0:0|0:0|0:0|0:0|0:0,0:0:0:0:
254,157,255102,2,0,L|198:163,1,42.5,10|0,0:0|0:0,0:0:0:0:
148,224,255238,1,0,0:0:0:0:
77,110,255375,1,10,0:0:0:0:
78,118,255443,1,0,0:0:0:0:
79,126,255511,2,0,L|85:176,3,42.5,0|0|0|0,0:0|0:0|0:0|0:0,0:0:0:0:
31,241,255784,6,0,L|24:290,3,42.5,4|8|0|8,0:1|0:0|0:0|0:0,0:0:0:0:
85,342,256056,1,2,0:1:0:0:
96,348,256125,1,8,0:0:0:0:
108,350,256193,1,2,0:2:0:0:
120,350,256261,1,8,0:0:0:0:
132,346,256329,2,0,P|171:335|182:317,3,42.5,2|8|2|8,0:1|0:0|0:2|0:0,0:0:0:0:
213,259,256602,2,0,L|225:203,1,42.5,2|8,0:1|0:0,0:0:0:0:
169,140,256738,2,0,L|157:84,1,42.5,2|8,0:2|0:0,0:0:0:0:
259,66,256875,5,4,0:1:0:0:
290,78,256943,1,8,2:3:0:0:
323,80,257011,1,8,2:3:0:0:
346,74,257079,1,8,2:3:0:0:
358,68,257147,1,8,2:0:0:0:
364,61,257216,1,0,0:0:0:0:
366,55,257284,1,0,0:0:0:0:
368,49,257352,1,8,2:3:0:0:
367,42,257420,2,0,P|391:17|411:18,3,42.5,8|8|8|8,2:3|2:3|2:3|2:3,0:0:0:0:
470,51,257693,5,0,0:0:0:0:
469,55,257761,1,8,2:3:0:0:
468,59,257829,1,8,2:3:0:0:
467,63,257897,1,8,2:3:0:0:
473,81,257966,5,6,0:0:0:0:
256,192,258034,12,0,264511,0:0:0:0:
