osu file format v14

[General]
AudioFilename: audio.mp3
AudioLeadIn: 0
PreviewTime: 205602
Countdown: 1
SampleSet: Drum
StackLeniency: 0.7
Mode: 0
LetterboxInBreaks: 0
WidescreenStoryboard: 1

[Editor]
Bookmarks: 1056,18783,34056,49328,65966,81238,94329,107420,120511,133602,148875,150034,150102,150170,150306,150579,150716,150784,150988,151056,151193,151329,152011,152693,152761,152966,153443,153716,153920,154056,154397,154670,155079,155897,156034,156306,156375,156511,156579,156784,156852,157261,157602,158488,158625,158693,159238,159716,159920,160056,160193,160261,160397,160670,160943,161829,162306,162375,162852,163056,163534,163670,164011,164284,164352,164556,164625,164761,165034,165238,165511,165988,166670,166738,167147,167352,167625,168375,169125,169261,170693,188147,205602,223056,238329
DistanceSpacing: 1.5
BeatDivisor: 8
GridSize: 32
TimelineZoom: 2.899999

[Metadata]
Title:Seishin no Kairi no, Sakebi to Nageki.
TitleUnicode:精神ノ乖離ノ、叫ビト嘆キ。
Artist:Imperial Circus Dead Decadence
ArtistUnicode:Imperial Circus Dead Decadence
Creator:Esutarosa
Version:ValxBlood's Extreme.
Source:
Tags:Fushoku Ressentiment, Fushi Yoku No Sarugakuza. icdd val Kuon- Xahlt Gweon Sua -Kemsyt StripedGoose Sh4rq_ Blood9 turtatical Symphonic Melodic Death Metal Japanese 腐蝕ルサンチマン、不死欲の猿楽座。 featured artist fa mappers' guild mpg L.G.C. Last Governed Connector Sh3rg_
BeatmapID:3660409
BeatmapSetID:1761637

[Difficulty]
HPDrainRate:5
CircleSize:4
OverallDifficulty:9.6
ApproachRate:9.8
SliderMultiplier:2
SliderTickRate:0.5

[Events]
//Background and Video events
0,0,"bg.jpg",0,0
//Break Periods
2,153438,170214
2,205802,213850
//Storyboard Layer 0 (Background)
//Storyboard Layer 1 (Fail)
//Storyboard Layer 2 (Pass)
//Storyboard Layer 3 (Foreground)
//Storyboard Layer 4 (Overlay)
//Storyboard Sound Samples

[TimingPoints]
238,272.727272727273,4,3,1,65,1,0
1056,-100,4,3,0,65,0,0
1328,-66.6666666666667,4,3,1,65,0,0
1533,-1000,4,2,1,5,0,0
1601,-66.6666666666667,4,3,1,65,0,0
5147,-149.253731343284,4,3,1,65,0,0
7874,-500,4,3,1,65,0,0
8078,-1000,4,2,1,5,0,0
8147,-500,4,3,1,40,0,0
8215,-500,4,3,1,53,0,0
8283,-500,4,3,1,65,0,0
8965,-100,4,3,1,65,0,0
9783,-100,4,3,7,65,0,0
9919,-100,4,3,8,65,0,0
10056,-66.6666666666667,4,3,1,65,0,0
10260,-1000,4,2,1,5,0,0
10328,-66.6666666666667,4,3,1,65,0,0
11692,-149.253731343284,4,3,1,65,0,0
14147,-149.253731343284,4,3,7,65,0,0
14283,-149.253731343284,4,3,8,65,0,0
14419,-149.253731343284,4,3,1,65,0,0
14556,-149.253731343284,4,3,1,50,0,0
14692,-149.253731343284,4,3,1,65,0,0
14965,-149.253731343284,4,3,1,40,0,0
15033,-149.253731343284,4,3,1,47,0,0
15101,-149.253731343284,4,3,1,55,0,0
15238,-149.253731343284,4,3,1,65,0,0
15374,-149.253731343284,4,3,1,47,0,0
15442,-149.253731343284,4,3,1,55,0,0
15510,-149.253731343284,4,3,1,65,0,0
16601,-66.6666666666667,4,3,1,65,0,0
19056,-500,4,3,1,65,0,0
19260,-1000,4,2,1,5,0,0
19328,-50,4,3,1,65,0,0
20078,-1000,4,2,1,5,0,0
20147,-50,4,3,1,65,0,0
20283,-71.4285714285714,4,3,1,65,0,0
20692,-52.6315789473684,4,3,1,65,0,0
20897,-1000,4,2,1,5,0,0
20965,-71.4285714285714,4,3,1,65,0,0
21033,-1000,4,2,1,5,0,0
21101,-55.5555555555556,4,3,1,65,0,0
21169,-1000,4,2,1,5,0,0
21238,-55.5555555555556,4,3,1,65,0,0
22056,-58.8235294117647,4,3,1,65,0,0
22260,-1000,4,2,1,5,0,0
22328,-71.4285714285714,4,3,1,65,0,0
22397,-1000,4,2,1,5,0,0
22465,-52.6315789473684,4,3,1,65,0,0
22669,-1000,4,2,1,5,0,0
22738,-45.4545454545455,4,3,1,65,0,0
23078,-1000,4,2,1,5,0,0
23147,-62.5,4,3,1,65,0,0
23215,-1000,4,2,1,5,0,0
23283,-62.5,4,3,1,65,0,0
23351,-1000,4,2,1,5,0,0
23419,-500,4,3,1,65,0,0
23624,-1000,4,2,1,5,0,0
23692,-55.5555555555556,4,3,1,65,0,0
24033,-1000,4,2,1,5,0,0
24101,-55.5555555555556,4,3,1,65,0,0
24238,-83.3333333333333,4,3,1,65,0,0
24783,-55.5555555555556,4,3,1,65,0,0
25533,-1000,4,2,1,5,0,0
25601,-55.5555555555556,4,3,1,65,0,0
25738,-71.4285714285714,4,3,1,65,0,0
26283,-55.5555555555556,4,3,1,65,0,0
27783,-500,4,3,1,65,0,0
27988,-1000,4,2,1,5,0,0
28056,-50,4,3,1,65,0,0
28601,-71.4285714285714,4,3,1,65,0,0
28669,-1000,4,2,1,5,0,0
28738,-71.4285714285714,4,3,1,65,0,0
28806,-1000,4,2,1,5,0,0
28874,-71.4285714285714,4,3,1,65,0,0
29215,-1000,4,2,1,5,0,0
29283,-71.4285714285714,4,3,1,65,0,0
29419,-52.6315789473684,4,3,1,65,0,0
29624,-1000,4,2,1,5,0,0
29692,-71.4285714285714,4,3,1,65,0,0
29760,-1000,4,2,1,5,0,0
29828,-55.5555555555556,4,3,1,65,0,0
29897,-1000,4,2,1,5,0,0
29965,-55.5555555555556,4,3,1,65,0,0
30919,-62.5,4,3,1,65,0,0
30988,-1000,4,2,1,5,0,0
31056,-399.999999999997,4,3,1,65,0,0
31397,-1000,4,2,1,5,0,0
31465,-399.999999999997,4,3,1,65,0,0
31601,-55.5555555555556,4,3,1,65,0,0
31942,-1000,4,2,1,5,0,0
32010,-166.666666666667,4,3,1,65,0,0
32419,-55.5555555555556,4,3,1,65,0,0
32760,-1000,4,2,1,5,0,0
32828,-55.5555555555556,4,3,1,65,0,0
33374,-100,4,3,1,65,0,0
33578,-1000,4,2,1,5,0,0
33647,-100,4,3,1,65,0,0
33783,-45.4545454545455,4,3,1,65,0,0
33988,-1000,4,2,1,5,0,0
34056,-111.111111111111,4,3,1,65,0,0
34465,-66.6666666666667,4,3,1,65,0,0
34669,-1000,4,2,1,5,0,0
34738,-66.6666666666667,4,3,1,65,0,0
35556,-133.333333333333,4,3,1,65,0,0
35965,-133.333333333333,4,3,7,65,0,0
36033,-133.333333333333,4,3,8,65,0,0
36101,-133.333333333333,4,3,9,65,0,0
36238,-133.333333333333,4,3,1,65,0,0
37056,-66.6666666666667,4,3,1,65,0,0
37601,-66.6666666666667,4,3,7,65,0,0
37806,-66.6666666666667,4,3,1,65,0,0
37942,-66.6666666666667,4,3,8,65,0,0
38010,-66.6666666666667,4,3,1,65,0,0
38078,-66.6666666666667,4,3,8,65,0,0
38147,-66.6666666666667,4,3,9,65,0,0
38419,-45.045045045045,4,3,1,65,0,0
38828,-45.045045045045,4,3,10,65,0,0
39101,-45.045045045045,4,3,1,65,0,0
39919,-133.333333333333,4,3,1,65,0,0
40874,-71.4285714285714,4,3,1,65,0,0
41147,-43.4782608695652,4,3,1,65,0,0
41351,-1000,4,2,1,5,0,0
41419,-43.4782608695652,4,3,1,65,0,0
41556,-71.4285714285714,4,3,1,65,0,0
42783,-100,4,3,1,65,0,0
43056,-333.333333333333,4,3,1,65,0,0
43260,-1000,4,2,1,5,0,0
43328,-100,4,3,1,65,0,0
43874,-50,4,3,1,65,0,0
45510,-100,4,3,1,65,0,0
45715,-1000,4,2,1,5,0,0
45783,-100,4,3,1,65,0,0
46056,-66.6666666666667,4,3,1,65,0,0
47147,-100,4,3,1,65,0,0
47692,-50,4,3,1,65,0,0
47897,-1000,4,2,1,5,0,0
47965,-133.333333333333,4,3,1,65,0,0
48919,-133.333333333333,4,3,7,65,0,0
49056,-133.333333333333,4,3,8,65,0,0
49192,-133.333333333333,4,3,1,65,0,0
49328,-52.6315789473684,4,3,1,65,0,0
49533,-1000,4,2,1,5,0,0
49601,-71.4285714285714,4,3,1,65,0,0
49806,-1000,4,2,1,5,0,0
49874,-71.4285714285714,4,3,1,65,0,0
50283,-58.8235294117647,4,3,1,65,0,0
50488,-1000,4,2,1,5,0,0
50556,-83.3333333333333,4,3,1,65,0,0
50760,-1000,4,2,1,5,0,0
50828,-50,4,3,1,65,0,0
51033,-1000,4,2,1,5,0,0
51101,-50,4,3,1,65,0,0
51442,-1000,4,2,1,5,0,0
51510,-250,4,3,1,65,0,0
51715,-1000,4,2,1,5,0,0
51783,-250,4,3,1,65,0,0
52192,-55.5555555555556,4,3,1,65,0,0
53010,-52.6315789473684,4,3,1,65,0,0
53624,-1000,4,2,1,5,0,0
53692,-166.666666666667,4,3,1,65,0,0
53897,-1000,4,2,1,5,0,0
53965,-250.000000000001,4,3,1,65,0,0
54169,-1000,4,2,1,5,0,0
54238,-55.5555555555556,4,3,1,65,0,0
54442,-1000,4,2,1,5,0,0
54510,-83.3333333333333,4,3,1,65,0,0
54715,-1000,4,2,1,5,0,0
54783,-83.3333333333333,4,3,1,65,0,0
55874,-62.5,4,3,1,65,0,0
55942,-1000,4,2,1,5,0,0
55976,-62.5,4,3,1,65,0,0
56181,-62.5,4,3,1,5,0,0
56419,-62.5,4,3,1,65,0,0
56556,-71.4285714285714,4,3,1,65,0,0
56760,-1000,4,2,1,5,0,0
56828,-71.4285714285714,4,3,1,65,0,0
57374,-71.4285714285714,4,3,7,65,0,0
57510,-71.4285714285714,4,3,1,65,0,0
57647,-71.4285714285714,4,3,8,65,0,0
57783,-71.4285714285714,4,3,9,65,0,0
57919,-71.4285714285714,4,3,1,65,0,0
58056,-83.3333333333333,4,3,1,65,0,0
58124,-1000,4,2,1,5,0,0
58192,-83.3333333333333,4,3,1,65,0,0
58260,-1000,4,2,1,5,0,0
58328,-83.3333333333333,4,3,1,65,0,0
58533,-1000,4,2,1,5,0,0
58567,-83.3333333333333,4,3,1,65,0,0
59351,-1000,4,2,1,5,0,0
59419,-83.3333333333333,4,3,1,65,0,0
59624,-1000,4,2,1,5,0,0
59658,-83.3333333333333,4,3,1,65,0,0
60647,-83.3333333333333,4,3,1,65,0,0
60851,-1000,4,2,1,5,0,0
60919,-83.3333333333333,4,3,1,65,0,0
61124,-1000,4,2,1,5,0,0
61192,-83.3333333333333,4,3,1,65,0,0
61260,-1000,4,2,1,5,0,0
61328,-83.3333333333333,4,3,1,65,0,0
62351,-1000,4,2,1,5,0,0
62419,-83.3333333333333,4,3,1,65,0,0
62760,-1000,4,2,1,5,0,0
62828,-83.3333333333333,4,3,1,65,0,0
62897,-1000,4,2,1,5,0,0
62965,-83.3333333333333,4,3,1,65,0,0
63919,-83.3333333333333,4,3,7,65,0,0
64056,-83.3333333333333,4,3,8,65,0,0
64192,-83.3333333333333,4,3,1,65,0,0
64328,-83.3333333333333,4,3,8,65,0,0
64465,-71.4285714285714,4,3,9,65,0,0
64601,-90.9090909090909,4,3,1,65,0,0
64738,-333.333333333333,4,3,1,65,0,0
64942,-1000,4,2,1,5,0,0
65010,-66.6666666666667,4,3,1,65,0,0
65966,272.727272727273,4,3,1,65,1,1
66102,-111.111111111111,4,3,1,65,0,0
67738,-100,4,3,1,65,0,0
79056,-50,4,3,1,65,0,0
79397,-1000,4,2,1,5,0,0
79466,-50,4,3,1,65,0,0
79602,-66.6666666666667,4,3,1,65,0,0
80693,-100,4,3,1,65,0,0
81102,-100,4,3,7,65,0,0
81238,-1000,4,3,1,65,0,0
82329,-250,4,3,1,65,0,0
83011,-100,4,3,1,65,0,0
83216,-1000,4,2,1,5,0,0
83284,-100,4,3,1,65,0,0
83693,-71.4285714285714,4,3,1,65,0,0
83897,-1000,4,2,1,5,0,0
83966,-1000,4,3,1,65,0,0
84920,-83.3333333333333,4,3,1,65,0,0
85125,-1000,4,2,1,5,0,0
85193,-83.3333333333333,4,3,1,65,0,0
87784,-62.5,4,3,1,65,0,0
87920,-62.5,4,3,7,65,0,0
88056,-62.5,4,3,8,65,0,0
88193,-62.5,4,3,1,65,0,0
88329,-62.5,4,3,7,65,0,0
88466,-62.5,4,3,8,65,0,0
88602,-62.5,4,3,1,65,0,0
89966,-52.6315789473684,4,3,1,65,0,0
90647,-45.4545454545455,4,3,1,65,0,0
90920,-52.6315789473684,4,3,1,65,0,0
94056,-111.111111111111,4,3,1,65,0,0
94329,-66.6666666666667,4,3,1,65,0,0
94806,-1000,4,2,1,5,0,0
94875,-66.6666666666667,4,3,1,65,0,0
95147,-181.818181818181,4,3,1,65,0,0
95420,-83.3333333333333,4,3,1,65,0,0
96238,-500,4,3,1,65,0,0
96443,-1000,4,2,1,5,0,0
96511,-100,4,3,1,65,0,0
96988,-1000,4,2,1,5,0,0
97056,-100,4,3,1,65,0,0
97329,-181.818181818181,4,3,1,65,0,0
98693,-90.9090909090909,4,3,1,65,0,0
100602,-303.030303030303,4,3,1,65,0,0
100806,-1000,4,2,1,5,0,0
100875,-86.9565217391304,4,3,1,65,0,0
101488,-1000,4,2,1,5,0,0
101556,-86.9565217391304,4,3,1,65,0,0
101693,-133.333333333333,4,3,1,65,0,0
104011,-83.3333333333333,4,3,1,65,0,0
104966,-83.3333333333333,4,3,7,65,0,0
105102,-83.3333333333333,4,3,8,65,0,0
105238,-83.3333333333333,4,3,1,65,0,0
106329,-66.6666666666667,4,3,1,65,0,0
106806,-1000,4,2,1,5,0,0
106875,-66.6666666666667,4,3,1,65,0,0
107079,-1000,4,2,1,5,0,0
107147,-66.6666666666667,4,3,1,65,0,0
107420,-66.6666666666667,4,3,10,65,0,0
108511,-62.5,4,3,1,65,0,0
109875,-71.4285714285714,4,3,1,65,0,0
110079,-1000,4,2,1,5,0,0
110147,-142.857142857143,4,3,1,65,0,0
110829,-250,4,3,1,65,0,0
111034,-1000,4,2,1,5,0,0
111102,-62.5,4,3,1,65,0,0
111784,-250,4,3,1,65,0,0
111988,-1000,4,2,1,5,0,0
112056,-250,4,3,1,65,0,0
112193,-83.3333333333333,4,3,1,65,0,0
112602,-250,4,3,1,65,0,0
112806,-1000,4,2,1,5,0,0
112875,-250,4,3,1,65,0,0
113966,-55.5555555555556,4,3,1,65,0,0
114443,-1000,4,2,1,5,0,0
114511,-55.5555555555556,4,3,1,65,0,0
114647,-83.3333333333333,4,3,1,65,0,0
114988,-1000,4,2,1,5,0,0
115056,-333.333333333333,4,3,1,65,0,0
115466,-142.857142857143,4,3,1,65,0,0
115670,-1000,4,2,1,5,0,0
115738,-142.857142857143,4,3,1,65,0,0
115875,-333.333333333333,4,3,7,65,0,0
116011,-333.333333333333,4,3,1,65,0,0
116147,-52.6315789473684,4,3,1,65,0,0
116352,-1000,4,2,1,5,0,0
116420,-71.4285714285714,4,3,1,65,0,0
116625,-1000,4,2,1,5,0,0
116693,-71.4285714285714,4,3,1,65,0,0
117102,-58.8235294117647,4,3,1,65,0,0
117306,-1000,4,2,1,5,0,0
117375,-83.3333333333333,4,3,1,65,0,0
117579,-1000,4,2,1,5,0,0
117647,-50,4,3,1,65,0,0
117852,-1000,4,2,1,5,0,0
117920,-50,4,3,1,65,0,0
118261,-1000,4,2,1,5,0,0
118329,-250,4,3,1,65,0,0
118534,-1000,4,2,1,5,0,0
118602,-250,4,3,1,65,0,0
119011,-55.5555555555556,4,3,1,65,0,0
119829,-52.6315789473684,4,3,1,65,0,0
120511,-43.4782608695652,4,3,1,65,0,0
120716,-1000,4,2,1,5,0,0
120784,-43.4782608695652,4,3,1,65,0,0
121056,-66.6666666666667,4,3,1,65,0,0
121261,-1000,4,2,1,5,0,0
121329,-66.6666666666667,4,3,1,65,0,0
121602,-50,4,3,1,65,0,0
122966,-100,4,3,1,65,0,0
123511,-66.6666666666667,4,3,1,65,0,0
123716,-1000,4,2,1,5,0,0
123784,-55.5555555555556,4,3,1,65,0,0
124193,-45.4545454545455,4,3,7,65,0,0
124329,-45.4545454545455,4,3,1,65,0,0
124397,-1000,4,2,1,5,0,0
124466,-45.4545454545455,4,3,1,65,0,0
124875,-83.3333333333333,4,3,1,65,0,0
124943,-1000,4,2,1,5,0,0
125011,-83.3333333333333,4,3,1,65,0,0
125079,-1000,4,2,1,5,0,0
125147,-83.3333333333333,4,3,1,65,0,0
125352,-1000,4,2,1,5,0,0
125420,-83.3333333333333,4,3,1,65,0,0
126170,-1000,4,2,1,5,0,0
126238,-83.3333333333333,4,3,1,65,0,0
126443,-1000,4,2,1,5,0,0
126511,-83.3333333333333,4,3,1,65,0,0
127670,-1000,4,2,1,5,0,0
127738,-83.3333333333333,4,3,1,65,0,0
127943,-1000,4,2,1,5,0,0
128011,-83.3333333333333,4,3,1,65,0,0
128079,-1000,4,2,1,5,0,0
128147,-83.3333333333333,4,3,1,65,0,0
129170,-1000,4,2,1,5,0,0
129238,-83.3333333333333,4,3,1,65,0,0
129579,-1000,4,2,1,5,0,0
129647,-83.3333333333333,4,3,1,65,0,0
129716,-1000,4,2,1,5,0,0
129784,-83.3333333333333,4,3,1,65,0,0
130943,-1000,4,2,1,5,0,0
131011,-100,4,3,1,65,0,0
131079,-1000,4,2,1,5,0,0
131147,-100,4,3,1,65,0,0
131284,-71.4285714285714,4,3,1,65,0,0
131352,-1000,4,2,1,5,0,0
131420,-90.9090909090909,4,3,1,65,0,0
131488,-1000,4,2,1,5,0,0
131556,-90.9090909090909,4,3,1,65,0,0
131829,-66.6666666666667,4,3,1,65,0,0
132238,-66.6666666666667,4,3,8,65,0,0
132374,-66.6666666666667,4,3,7,65,0,0
132511,-66.6666666666667,4,3,1,65,0,0
132647,-66.6666666666667,4,3,9,65,0,0
132784,-66.6666666666667,4,3,8,65,0,0
132920,-66.6666666666667,4,3,7,65,0,0
133056,-66.6666666666667,4,3,1,65,0,0
133738,-100,4,3,1,65,0,0
141375,-83.3333333333333,4,3,1,65,0,0
141511,-71.4285714285714,4,3,1,65,0,0
141920,-100,4,3,1,65,0,0
142056,-83.3333333333333,4,3,1,65,0,0
142193,-71.4285714285714,4,3,1,65,0,0
142466,-100,4,3,1,65,0,0
146693,-50,4,3,1,65,0,0
147034,-1000,4,2,1,5,0,0
147102,-50,4,3,1,65,0,0
147238,-66.6666666666667,4,3,1,65,0,0
147443,-1000,4,2,1,5,0,0
147511,-76.9230769230769,4,3,1,65,0,0
147716,-1000,4,2,1,5,0,0
147784,-76.9230769230769,4,3,1,65,0,0
148329,-100,4,3,1,65,0,0
148875,-500,4,3,1,65,0,0
171511,-100,4,3,1,65,0,0
171647,-1000,4,2,1,5,0,0
171716,-100,4,3,1,65,0,0
172420,-1000,4,2,1,5,0,0
172511,-100,4,3,1,65,0,0
173897,-100,4,3,1,65,0,0
176693,-84.0309969415972,4,3,1,65,0,0
176966,-100,4,3,1,65,0,0
179011,-1000,4,2,1,5,0,0
179079,-100,4,3,1,65,0,0
180375,-1000,4,2,1,5,0,0
180443,-100,4,3,1,65,0,0
183511,-125.472197887768,4,3,1,65,0,0
184602,-100,4,3,1,65,0,0
186920,-1000,4,2,1,5,0,0
186988,-100,4,3,1,65,0,0
187329,-71.4285714285714,4,3,1,65,0,0
187806,-1000,4,2,1,5,0,0
187875,-71.4285714285714,4,3,1,65,0,0
188147,-83.3333333333333,4,3,1,65,0,0
188216,-1000,4,2,1,5,0,0
188284,-83.3333333333333,4,3,1,65,0,0
188352,-1000,4,2,1,5,0,0
188420,-55.5555555555556,4,3,1,65,0,0
189102,-62.5,4,3,1,65,0,0
189852,-1000,4,2,1,5,0,0
189920,-62.5,4,3,1,65,0,0
190329,-71.4285714285714,4,3,1,65,0,0
190397,-1000,4,2,1,5,0,0
190466,-71.4285714285714,4,3,1,65,0,0
190534,-1000,4,2,1,5,0,0
190602,-71.4285714285714,4,3,1,65,0,0
191829,-71.4285714285714,4,3,7,65,0,0
191966,-71.4285714285714,4,3,1,65,0,0
192102,-71.4285714285714,4,3,8,65,0,0
192238,-71.4285714285714,4,3,1,65,0,0
192375,-71.4285714285714,4,3,9,65,0,0
192443,-71.4285714285714,4,3,1,65,0,0
192511,-125,4,3,1,65,0,0
192716,-1000,4,2,1,5,0,0
192784,-125,4,3,1,65,0,0
193056,-125,4,3,7,65,0,0
193193,-125,4,3,1,65,0,0
194693,-62.5,4,3,1,65,0,0
194897,-1000,4,2,1,5,0,0
194966,-62.5,4,3,1,65,0,0
195102,-52.6315789473684,4,3,1,65,0,0
195375,-71.4285714285714,4,3,1,65,0,0
196602,-71.4285714285714,4,3,7,65,0,0
196875,-83.3333333333333,4,3,1,65,0,0
196943,-1000,4,2,1,5,0,0
197011,-83.3333333333333,4,3,1,65,0,0
197079,-1000,4,2,1,5,0,0
197147,-83.3333333333333,4,3,1,65,0,0
197352,-1000,4,2,1,5,0,0
197420,-83.3333333333333,4,3,1,65,0,0
197488,-1000,4,2,1,5,0,0
197556,-83.3333333333333,4,3,1,65,0,0
197761,-1000,4,2,1,5,0,0
197829,-66.6666666666667,4,3,1,65,0,0
198238,-55.5555555555556,4,3,1,65,0,0
198511,-66.6666666666667,4,3,1,65,0,0
198784,-83.3333333333333,4,3,1,65,0,0
199125,-1000,4,2,1,5,0,0
199193,-83.3333333333333,4,3,1,65,0,0
199261,-1000,4,2,1,5,0,0
199329,-83.3333333333333,4,3,1,65,0,0
199397,-1000,4,2,1,5,0,0
199466,-83.3333333333333,4,3,1,65,0,0
199670,-1000,4,2,1,5,0,0
199738,-90.9090909090909,4,3,1,65,0,0
199806,-1000,4,2,1,5,0,0
199875,-83.3333333333333,4,3,1,65,0,0
199943,-1000,4,2,1,5,0,0
200011,-76.9230769230769,4,3,1,65,0,0
200079,-1000,4,2,1,5,0,0
200147,-71.4285714285714,4,3,1,65,0,0
200216,-1000,4,2,1,5,0,0
200284,-333.333333333333,4,3,1,65,0,0
200488,-1000,4,2,1,5,0,0
200556,-62.5,4,3,1,65,0,0
200761,-1000,4,2,1,5,0,0
200829,-62.5,4,3,1,65,0,0
200966,-71.4285714285714,4,3,1,65,0,0
214466,-111.111111111111,4,3,1,65,0,0
216102,-100,4,3,1,65,0,0
218693,-50,4,3,1,65,0,0
219034,-1000,4,2,1,5,0,0
219102,-50,4,3,1,65,0,0
220329,-100,4,3,1,65,0,0
221966,-66.6666666666667,4,3,1,65,0,0
222716,-1000,4,2,1,5,0,0
222784,-133.333333333333,4,3,1,65,0,0
222988,-1000,4,2,1,5,0,0
223056,-133.333333333333,4,3,1,65,0,0
224829,-100,4,3,1,65,0,0
225784,-83.3333333333333,4,3,1,65,0,0
226056,-76.9230769230769,4,3,1,65,0,0
226193,-71.4285714285714,4,3,1,65,0,0
226875,-100,4,3,1,65,0,0
231238,-117.647058823529,4,3,1,65,0,0
231511,-142.857142857143,4,3,1,65,0,0
232329,-100,4,3,1,65,0,0
235602,-83.3333333333333,4,3,1,65,0,0
235806,-1000,4,2,1,5,0,0
235875,-83.3333333333333,4,3,1,65,0,0
236079,-1000,4,2,1,5,0,0
236147,-83.3333333333333,4,3,1,65,0,0
236284,-76.9230769230769,4,3,1,65,0,0
236625,-1000,4,2,1,5,0,0
236693,-76.9230769230769,4,3,1,65,0,0
236897,-1000,4,2,1,5,0,0
236966,-100,4,3,1,65,0,0
237170,-1000,4,2,1,5,0,0
237238,-100,4,3,1,65,0,0
238602,-66.6666666666667,4,3,1,65,0,0
239079,-1000,4,2,1,5,0,0
239147,-66.6666666666667,4,3,1,65,0,0
241602,-58.8235294117647,4,3,1,65,0,0
241806,-1000,4,2,1,5,0,0
241875,-71.4285714285714,4,3,1,65,0,0
241943,-1000,4,2,1,5,0,0
242011,-52.6315789473684,4,3,1,65,0,0
242216,-1000,4,2,1,5,0,0
242284,-45.4545454545455,4,3,1,65,0,0
242625,-1000,4,2,1,5,0,0
242693,-181.818181818181,4,3,1,65,0,0
242897,-1000,4,2,1,5,0,0
242966,-66.6666666666667,4,3,1,65,0,0
243170,-1000,4,2,1,5,0,0
243238,-55.5555555555556,4,3,1,65,0,0
243920,-100,4,3,1,65,0,0
244875,-55.5555555555556,4,3,1,65,0,0
245079,-1000,4,2,1,5,0,0
245147,-55.5555555555556,4,3,1,65,0,0
245284,-71.4285714285714,4,3,1,65,0,0
245693,-55.5555555555556,4,3,1,65,0,0
245897,-1000,4,2,1,5,0,0
245966,-55.5555555555556,4,3,1,65,0,0
247329,-500,4,3,1,65,0,0
247534,-1000,4,2,1,5,0,0
247602,-50,4,3,1,65,0,0
248147,-71.4285714285714,4,3,1,65,0,0
248352,-1000,4,2,1,5,0,0
248420,-71.4285714285714,4,3,1,65,0,0
248761,-1000,4,2,1,5,0,0
248829,-71.4285714285714,4,3,1,65,0,0
248966,-52.6315789473684,4,3,1,65,0,0
249170,-1000,4,2,1,5,0,0
249238,-71.4285714285714,4,3,1,65,0,0
249443,-1000,4,2,1,5,0,0
249511,-71.4285714285714,4,3,1,65,0,0
250329,-55.5555555555556,4,3,1,65,0,0
252170,-1000,4,2,1,5,0,0
252238,-55.5555555555556,4,3,1,65,0,0
252920,-100,4,3,1,65,0,0
253329,-45.4545454545455,4,3,1,65,0,0
253534,-1000,4,2,1,5,0,0
253602,-45.4545454545455,4,3,1,65,0,0
253806,-1000,4,2,1,5,0,0
253875,-45.4545454545455,4,3,1,65,0,0
254216,-1000,4,2,1,5,0,0
254284,-45.4545454545455,4,3,1,65,0,0
255511,-45.4545454545455,4,3,7,65,0,0
255647,-45.4545454545455,4,3,1,65,0,0
257216,-45.4545454545455,4,3,7,65,0,0
257352,-45.4545454545455,4,3,1,65,0,0
257693,-45.4545454545455,4,3,8,65,0,0
257761,-45.4545454545455,4,3,1,65,0,0
264511,-45.4545454545455,4,3,1,5,0,0

[Colours]
Combo1 : 128,128,255
Combo2 : 255,128,128

[HitObjects]
234,14,1056,5,2,2:0:0:0:
249,15,1124,1,2,2:0:0:0:
269,30,1192,1,2,2:0:0:0:
278,63,1260,1,2,2:0:0:0:
257,102,1328,6,0,B|222:55|222:55|385:115,1,225.000008583069,6|0,3:0|3:0,3:0:0:0:
436,166,1601,5,0,3:0:0:0:
429,247,1874,1,0,3:0:0:0:
352,271,2147,1,0,3:0:0:0:
290,219,2419,1,0,3:0:0:0:
270,140,2692,1,0,3:0:0:0:
198,102,2965,1,0,3:0:0:0:
134,151,3238,1,0,3:0:0:0:
115,298,3510,5,6,3:0:0:0:
188,330,3783,1,0,3:0:0:0:
264,304,4056,1,0,3:0:0:0:
290,228,4328,1,0,3:0:0:0:
242,163,4601,1,0,3:0:0:0:
162,148,4874,1,0,3:0:0:0:
93,199,5147,6,0,P|42:178|22:155,1,66.9999968307497,0|8,3:0|2:3,3:0:0:0:
128,281,5419,2,0,P|166:256|202:251,1,66.9999968307497,0|8,3:0|2:3,3:0:0:0:
361,98,5692,5,4,3:2:0:0:
441,106,5965,1,0,3:0:0:0:
482,174,6238,1,0,3:0:0:0:
447,246,6510,1,0,3:0:0:0:
369,266,6783,1,0,3:0:0:0:
347,343,7056,1,0,3:0:0:0:
424,378,7328,6,0,P|484:361|497:357,2,66.9999968307497,0|8|0,3:0|2:0|3:0,3:0:0:0:
336,353,7738,1,8,2:0:0:0:
471,276,7874,6,0,P|490:280|501:284,1,30,6|0,3:0|3:0,3:0:0:0:
464,270,8147,5,8,2:3:0:0:
468,236,8215,1,8,2:3:0:0:
473,202,8283,1,4,3:2:0:0:
504,126,8419,5,8,3:0:0:0:
469,120,8488,1,8,2:3:0:0:
434,114,8556,1,8,2:3:0:0:
421,121,8624,1,8,2:3:0:0:
408,128,8692,1,4,3:2:0:0:
328,167,8828,5,8,2:3:0:0:
324,133,8897,1,8,2:3:0:0:
319,99,8965,6,0,B|301:122|270:130|270:130|249:111|213:103,1,100,6|2,3:0|2:3,3:0:0:0:
164,249,9169,5,8,2:3:0:0:
170,260,9238,2,0,B|159:232|167:202|167:202|194:193|219:166,1,100,4|8,3:2|2:3,3:0:0:0:
110,60,9442,5,8,2:3:0:0:
104,49,9510,2,0,B|132:53|155:75|155:75|149:103|160:138,1,100,2|8,3:0|2:3,3:0:0:0:
317,251,9715,5,8,2:3:0:0:
328,256,9783,2,0,P|351:275|368:299,1,50,0|0,3:0|3:0,3:0:0:0:
459,340,9919,5,0,3:0:0:0:
451,346,9988,1,0,3:0:0:0:
441,353,10056,6,0,B|410:377|370:370|348:324|349:324|350:322|336:278|287:263|250:295,1,225.000008583069,6|0,3:0|3:0,3:0:0:0:
212,362,10328,5,2,3:0:0:0:
133,346,10601,1,2,3:0:0:0:
100,272,10874,1,2,3:0:0:0:
135,199,11147,1,2,3:0:0:0:
164,124,11419,1,2,3:0:0:0:
118,57,11692,6,0,P|73:51|51:36,1,66.9999968307497,2|10,3:0|3:0,3:0:0:0:
30,157,11965,2,0,P|67:135|100:133,1,66.9999968307497,0|10,3:0|3:0,3:0:0:0:
251,216,12238,5,2,3:0:0:0:
309,161,12510,2,0,B|320:111|307:143|320:83,1,66.9999968307497,14|0,3:0|3:0,3:0:0:0:
377,34,12783,5,2,3:0:0:0:
456,44,13056,1,2,3:0:0:0:
497,112,13328,1,2,3:0:0:0:
467,186,13601,6,0,P|431:198|411:227,1,66.9999968307497,2|8,3:0|2:3,3:0:0:0:
328,281,13874,2,0,P|376:290|394:308,1,66.9999968307497,0|8,3:0|2:3,3:0:0:0:
443,367,14147,5,0,3:0:0:0:
453,362,14283,1,0,3:0:0:0:
342,204,14419,5,6,3:0:0:0:
233,305,14556,5,8,2:3:0:0:
243,338,14624,1,8,2:3:0:0:
253,371,14692,1,8,2:3:0:0:
333,197,14828,5,2,3:0:0:0:
161,263,14965,5,2,2:3:0:0:
171,230,15033,1,8,2:3:0:0:
181,197,15101,1,8,2:3:0:0:
119,72,15238,5,2,3:0:0:0:
221,8,15374,5,8,2:3:0:0:
255,15,15442,1,8,2:3:0:0:
276,42,15510,1,2,3:0:0:0:
315,120,15647,5,8,2:3:0:0:
281,127,15715,1,8,2:3:0:0:
260,154,15783,1,2,3:0:0:0:
130,74,15919,5,8,2:3:0:0:
358,52,16056,5,2,3:0:0:0:
366,47,16124,1,0,3:0:0:0:
375,46,16192,1,8,2:3:0:0:
384,46,16260,1,8,2:3:0:0:
393,48,16328,5,2,3:0:0:0:
411,55,16397,1,8,2:3:0:0:
429,84,16465,1,2,3:0:0:0:
426,133,16533,1,8,2:3:0:0:
381,180,16601,6,0,B|391:221|375:255|375:255|395:230|451:229,1,150.000005722046,6|10,3:0|2:3,3:0:0:0:
423,329,16806,1,0,3:0:0:0:
429,326,16874,2,0,P|338:258|266:251,1,150.000005722046,8|8,2:3|2:3,3:0:0:0:
221,125,17147,5,10,3:0:0:0:
292,159,17283,1,10,3:0:0:0:
278,272,17419,1,10,2:3:0:0:
160,348,17556,1,10,2:3:0:0:
47,258,17692,5,14,3:0:0:0:
2,166,18783,5,6,3:0:0:0:
72,188,18919,1,10,3:0:0:0:
260,282,19056,6,0,P|282:274|294:273,1,30,0|0,3:0|3:0,3:0:0:0:
368,266,19328,6,0,B|322:189|223:181|175:172|-3:199|40:343|136:395|312:384|134:235|220:237|340:225|362:268,1,600,0|10,3:0|3:0,3:0:0:0:
318,62,19874,6,0,B|280:80|255:109|255:109|364:120|418:186|418:186|424:152|415:122,1,300,0|0,3:0|3:0,3:0:0:0:
402,65,20147,1,0,3:0:0:0:
500,307,20283,6,0,B|481:321|441:314|441:314|453:290|454:269|454:269|477:261|490:243|490:243|505:269|504:300,1,209.999993591309,10|0,3:0|3:0,3:0:0:0:
444,263,20556,1,10,3:0:0:0:
294,349,20692,6,0,P|334:196|397:74,1,284.999992389679,0|0,3:0|3:0,3:0:0:0:
467,43,20965,6,0,P|429:72|385:80,1,69.9999978637696,4|0,3:2|3:0,3:0:0:0:
390,180,21101,2,0,P|329:154|299:125,1,89.9999972534181,0|0,3:0|3:0,3:0:0:0:
216,35,21238,5,0,3:0:0:0:
215,26,21306,1,0,3:0:0:0:
226,31,21374,1,10,3:0:0:0:
63,255,21510,5,0,3:0:0:0:
404,191,21647,1,10,3:0:0:0:
458,267,21783,5,0,3:0:0:0:
449,273,21851,1,0,3:0:0:0:
458,279,21919,1,10,3:0:0:0:
320,231,22056,6,0,B|285:220|258:234|258:234|264:151|350:138|399:185,1,255.000004863739,0|0,3:0|3:0,3:0:0:0:
447,261,22328,2,0,P|417:235|408:194,1,69.9999978637696,0|0,3:0|3:0,3:0:0:0:
435,77,22465,6,0,B|447:46|484:39|484:39|408:-8|327:55|337:140,1,284.999992389679,10|0,3:0|3:0,3:0:0:0:
423,181,22738,2,0,B|330:96|239:137|163:210|190:205|215:366|50:255|38:190|160:121|211:290|275:97,1,550.000016784668,10|0,3:0|3:0,3:0:0:0:
193,31,23147,6,0,P|174:68|177:106,1,80,4|0,3:1|3:0,3:0:0:0:
180,107,23283,2,0,P|198:69|195:31,1,80,10|0,3:0|3:0,3:0:0:0:
115,254,23419,6,0,P|105:236|102:220,1,30,0|0,3:0|3:0,3:0:0:0:
63,152,23692,6,0,B|119:115|210:114|384:207|304:305|201:321|150:237|245:236|152:150,1,449.99998626709,0|0,3:0|3:0,3:0:0:0:
52,165,24101,1,10,3:0:0:0:
302,325,24238,6,0,B|340:298|346:253|346:253|346:277|361:298,2,119.999996337891,0|10|0,3:0|3:0|3:0,3:0:0:0:
237,233,24647,1,10,3:0:0:0:
396,22,24783,6,0,B|382:17|372:7|372:7|362:75|428:113|428:113|424:98|427:83,2,179.999994506836,0|10|0,3:0|3:0|3:0,3:0:0:0:
504,12,25192,1,10,3:0:0:0:
512,223,25328,6,0,P|394:185|228:153,1,269.999991760254,4|0,3:2|3:0,3:0:0:0:
162,179,25601,1,0,3:0:0:0:
176,189,25669,1,0,3:0:0:0:
177,173,25738,2,0,B|147:181|136:237|167:281|215:276|284:259|305:225|282:164|241:159,1,279.999991455078,10|10,3:0|3:0,3:0:0:0:
421,335,26147,5,0,3:0:0:0:
410,345,26215,1,0,3:0:0:0:
404,327,26283,2,0,B|462:289|489:416|296:414|280:274|280:274|315:243|323:193,2,359.999989013672,10|10|10,3:0|3:0|3:0,3:0:0:0:
65,311,26965,5,0,3:0:0:0:
76,246,27033,1,0,3:0:0:0:
95,203,27101,1,10,3:0:0:0:
126,178,27169,1,0,3:0:0:0:
141,176,27238,5,4,3:2:0:0:
128,184,27306,1,0,3:0:0:0:
102,213,27374,1,10,3:0:0:0:
84,263,27442,1,0,3:0:0:0:
87,333,27510,5,6,3:0:0:0:
148,381,27647,1,10,3:0:0:0:
273,272,27783,6,0,P|247:279|239:285,1,30,0|0,3:0|3:0,3:0:0:0:
158,371,28056,6,0,B|177:317|158:196|43:203|87:244|34:169|42:121|66:112|67:39|-30:59|-85:175|-3:157|-13:156|53:179|96:237|-40:162|38:290|215:177|152:375|163:426,1,600,0|10,3:0|3:0,3:0:0:0:
322,271,28601,6,0,P|281:277|245:299,1,69.9999978637696,0|0,3:0|3:0,3:0:0:0:
298,259,28738,2,0,P|253:275|229:292,1,69.9999978637696,10|0,3:0|3:0,3:0:0:0:
215,304,28874,1,0,3:0:0:0:
180,136,29010,6,0,B|163:139|147:140|147:140|179:166|199:205|199:205|232:182|265:172|265:172|246:160|232:140,1,209.999993591309,10|0,3:0|3:0,3:0:0:0:
200,218,29283,1,10,3:0:0:0:
244,51,29419,6,0,P|202:197|165:341,1,284.999992389679,0|0,3:0|3:0,3:0:0:0:
137,347,29692,6,0,P|159:266|179:217,1,69.9999978637696,6|0,3:0|3:0,3:0:0:0:
228,214,29828,2,0,P|238:170|252:127,1,89.9999972534181,10|0,3:0|3:0,3:0:0:0:
224,23,29965,5,2,3:0:0:0:
213,30,30033,1,0,3:0:0:0:
224,36,30101,2,0,L|401:0,1,179.999994506836,10|0,3:0|3:0,3:0:0:0:
34,253,30374,2,0,L|211:217,1,179.999994506836,10|0,3:0|3:0,3:0:0:0:
313,109,30578,1,0,3:0:0:0:
313,109,30647,2,0,L|136:145,1,179.999994506836,10|0,3:0|3:0,3:0:0:0:
181,342,30919,6,0,P|232:303|260:304,1,80,10|0,3:1|3:0,3:0:0:0:
297,224,31056,6,0,P|331:243|346:265,1,62.5,10|0,3:1|3:0,3:0:0:0:
322,346,31465,1,10,3:1:0:0:
512,321,31601,6,0,P|333:274|65:247,1,449.99998626709,2|0,3:1|3:0,3:0:0:0:
0,267,32010,6,0,P|46:263|73:265,2,59.9999981689454,10|0|10,3:0|3:0|3:0,3:0:0:0:
169,274,32419,6,0,B|200:238|242:72|141:-23|14:13|3:168|107:213|124:119|165:169|196:254,1,449.99998626709,0|0,3:0|3:0,3:0:0:0:
160,296,32828,1,10,3:0:0:0:
441,88,32965,5,0,3:0:0:0:
423,69,33101,2,0,B|380:107|406:163|406:163|452:169|473:214,1,179.999994506836,10|0,3:0|3:0,3:0:0:0:
369,309,33374,6,0,B|371:280|352:261|370:228|394:232|417:248|409:284|380:284|369:309,1,150,10|0,3:0|3:0,3:0:0:0:
367,315,33647,1,10,3:0:0:0:
356,21,33783,6,0,P|426:229|463:371,1,330.000010070801,0|0,3:0|3:0,3:0:0:0:
298,376,34056,6,0,P|270:326|200:327,1,89.9999972534181,6|8,3:0|3:0,3:0:0:0:
70,317,34328,5,0,3:0:0:0:
75,324,34397,1,0,3:0:0:0:
79,332,34465,2,0,P|190:287|335:241,1,225.000008583069,10|0,3:0|3:0,3:0:0:0:
338,183,34738,1,10,3:0:0:0:
467,364,34874,5,0,3:0:0:0:
472,354,34942,1,0,3:0:0:0:
478,343,35010,1,10,3:0:0:0:
321,180,35147,5,0,3:0:0:0:
277,147,35215,1,0,3:0:0:0:
272,92,35283,1,10,3:0:0:0:
307,49,35351,1,0,3:0:0:0:
361,45,35419,1,0,3:0:0:0:
407,74,35488,1,0,3:0:0:0:
414,127,35556,6,0,P|388:113|352:104,5,37.5000014305115,10|0|0|0|10|0,3:0|3:0|3:0|3:0|3:0|3:0,3:0:0:0:
314,173,35965,2,0,P|292:185|277:201,3,37.5000014305115,0|0|0|0,3:0|3:0|3:0|3:0,3:0:0:0:
128,276,36238,5,6,3:0:0:0:
157,222,36306,1,8,3:0:0:0:
216,203,36374,1,0,3:0:0:0:
275,218,36442,1,8,3:0:0:0:
307,270,36510,1,2,3:2:0:0:
362,297,36578,1,8,3:0:0:0:
416,268,36647,1,2,3:2:0:0:
449,216,36715,1,8,3:0:0:0:
427,158,36783,1,2,3:1:0:0:
375,138,36851,1,8,3:0:0:0:
336,111,36919,1,2,3:2:0:0:
323,71,36988,1,8,3:0:0:0:
342,43,37056,2,0,P|381:58|413:79,1,75.0000028610231,2|8,3:1|3:0,3:0:0:0:
431,163,37192,2,0,P|466:134|494:130,1,75.0000028610231,2|8,3:2|3:0,3:0:0:0:
325,208,37328,5,6,3:0:0:0:
323,216,37397,1,8,2:3:0:0:
320,226,37465,1,8,2:3:0:0:
317,236,37533,1,8,3:0:0:0:
314,245,37601,1,0,3:0:0:0:
310,251,37669,1,0,3:0:0:0:
307,259,37738,6,0,P|262:246|196:231,1,75.0000028610231,0|8,3:0|3:0,3:0:0:0:
149,272,37874,2,0,B|120:285|132:317|132:316|141:291|161:277,1,75.0000028610231,8|0,3:0|3:0,3:0:0:0:
54,346,38010,2,0,B|83:359|71:391|71:390|62:365|42:351,1,75.0000028610231,8|0,3:0|3:0,3:0:0:0:
60,269,38147,5,0,3:0:0:0:
61,261,38215,1,0,3:0:0:0:
62,253,38283,1,0,3:0:0:0:
63,245,38351,1,0,3:0:0:0:
37,223,38419,6,0,B|-24:212|-38:133|-9:79|52:47|132:93|143:125|143:125|84:129|80:166|33:164|3:128,1,444.000010839844,4|0,3:1|3:0,3:0:0:0:
323,158,38828,5,0,3:0:0:0:
148,212,38965,1,0,3:0:0:0:
240,87,39101,5,8,3:0:0:0:
447,140,39238,1,8,3:0:0:0:
280,257,39374,5,4,3:2:0:0:
368,45,39510,5,4,3:1:0:0:
325,147,39647,1,8,3:0:0:0:
332,159,39919,6,0,B|326:175|325:197|325:197|332:177|337:162,1,75.0000028610231,8|4,3:0|3:2,3:0:0:0:
384,42,40192,2,0,B|389:58|390:80|390:80|383:60|378:45,1,75.0000028610231,8|4,3:0|3:2,3:0:0:0:
496,231,40465,5,8,3:0:0:0:
494,240,40533,1,0,3:0:0:0:
494,248,40601,1,4,3:1:0:0:
421,290,40738,1,8,3:0:0:0:
266,373,40874,6,0,P|202:315|144:297,1,139.999995727539,0|8,3:0|3:0,3:0:0:0:
194,108,41147,6,0,B|159:110|118:163|164:217|164:217|205:198|263:253|246:294|246:294|207:298|187:341,1,345.000006580353,0|0,3:0|3:0,3:0:0:0:
256,157,41419,5,0,3:0:0:0:
328,261,41556,6,0,B|336:286|319:321|319:321|338:304|338:304|349:269|322:256,1,139.999995727539,2|0,3:0|3:0,3:0:0:0:
329,99,41828,2,0,B|345:94|353:103|353:103|312:106|282:123|268:173,1,139.999995727539,10|0,3:0|3:0,3:0:0:0:
125,49,42101,5,10,3:0:0:0:
197,18,42238,1,0,3:0:0:0:
350,184,42374,5,10,3:0:0:0:
230,259,42510,1,0,3:0:0:0:
339,365,42647,1,10,3:0:0:0:
470,255,42783,6,0,P|423:264|380:308,1,100,0|8,3:0|3:0,3:0:0:0:
456,351,43056,6,0,P|459:336|454:349,1,44.999998626709,0|0,3:0|3:0,3:0:0:0:
329,354,43328,6,0,P|270:328|249:300,1,100,0|10,3:0|3:0,3:0:0:0:
378,78,43601,5,0,3:0:0:0:
317,264,43738,1,8,3:0:0:0:
106,241,43874,6,0,B|75:224|24:247|24:247|-31:222|-37:140|10:93|93:119|108:168|108:168|89:203|108:252,1,400,0|0,3:0|3:0,3:0:0:0:
75,342,44283,2,0,P|160:222|221:206,2,200,10|2|10,3:0|3:0|3:0,3:0:0:0:
224,299,44692,5,2,3:0:0:0:
276,170,44828,1,10,3:0:0:0:
221,59,44965,5,4,3:2:0:0:
159,109,45101,1,8,3:0:0:0:
83,39,45238,5,0,3:0:0:0:
146,115,45374,1,10,3:0:0:0:
230,44,45510,6,0,B|281:19|321:70|289:109|275:90|264:50|218:42,1,150,0|0,3:0|3:0,3:0:0:0:
372,171,45783,5,0,3:0:0:0:
377,180,45919,1,8,3:0:0:0:
407,101,46056,6,0,B|306:56|224:85|173:176|225:280|358:199|305:104|264:205,1,300.000011444092,0|8,3:0|3:0,3:0:0:0:
91,272,46465,5,10,3:0:0:0:
23,117,46601,1,0,3:0:0:0:
30,358,46738,5,10,3:0:0:0:
253,294,46874,1,0,3:0:0:0:
205,363,47010,1,10,3:0:0:0:
95,263,47147,6,0,B|106:227|163:231|182:170|92:125|63:201|103:225|93:261,1,200,0|0,3:0|3:0,3:0:0:0:
250,263,47556,5,8,3:0:0:0:
398,66,47692,6,0,B|414:34|457:18|457:18|402:98|377:226,1,300,0|0,3:0|3:0,3:0:0:0:
258,251,47965,2,0,P|301:268|322:300,1,75.0000028610231,0|8,3:0|3:0,3:0:0:0:
417,368,48238,5,0,3:0:0:0:
512,139,48374,1,10,3:0:0:0:
472,230,48510,5,0,3:0:0:0:
512,363,48647,1,10,3:0:0:0:
331,336,48783,5,0,3:0:0:0:
318,334,48919,1,0,3:0:0:0:
243,293,49056,5,0,3:0:0:0:
356,245,49192,1,12,3:2:0:0:
157,184,49328,6,0,B|98:167|126:64|256:84|245:194|245:194|204:194|185:209,1,284.999992389679,4|0,3:1|3:0,3:0:0:0:
237,284,49601,2,0,B|205:316|147:262|205:184|275:237|275:237|258:253|252:272,1,209.999993591309,0|0,3:0|3:0,3:0:0:0:
286,345,49874,5,0,3:0:0:0:
309,173,50010,1,0,3:0:0:0:
332,1,50147,1,10,3:0:0:0:
398,154,50283,6,0,B|415:215|358:216|401:286|449:287|480:255|467:178|426:213|398:153,1,255.000004863739,0|0,3:0|3:0,3:0:0:0:
474,89,50556,2,0,B|462:131|502:132|471:181|438:182|416:160|425:105|454:130|473:88,1,179.999994506836,10|0,3:0|3:0,3:0:0:0:
388,40,50828,6,0,P|420:148|467:347,1,300,0|0,3:0|3:0,3:0:0:0:
399,384,51101,1,0,3:0:0:0:
187,257,51238,6,0,B|133:228|148:135|269:99|327:243|236:304,1,300,2|0,3:0|3:0,3:0:0:0:
180,287,51510,6,0,P|218:295|234:312,1,60,6|0,3:0|3:0,3:0:0:0:
259,384,51783,5,10,3:0:0:0:
317,280,51919,1,2,3:0:0:0:
87,140,52056,5,0,3:0:0:0:
100,150,52192,2,0,L|314:89,2,179.999994506836,2|10|2,3:0|3:0|3:0,3:0:0:0:
104,302,52601,5,0,3:0:0:0:
6,27,52738,1,2,3:0:0:0:
78,56,52874,1,10,3:1:0:0:
325,186,53010,6,0,B|405:253|516:261|584:211|592:145|536:56|438:3|382:91|431:155|385:227|250:219|235:216|90:199|73:96|144:2|252:58|217:108|224:170|321:156,1,854.999977169037,2|0,3:0|3:0,3:0:0:0:
329,143,53692,6,0,P|288:147|237:106,1,89.9999972534181,6|0,3:0|3:0,3:0:0:0:
264,123,53965,2,0,P|279:134|324:137,1,60,2|0,3:0|3:0,3:0:0:0:
320,45,54238,6,0,P|286:196|264:328,1,269.999991760254,4|0,3:1|3:0,3:0:0:0:
279,382,54510,2,0,B|274:318|288:267|321:272|313:326|282:382,1,179.999994506836,10|0,3:0|3:0,3:0:0:0:
199,355,54783,5,4,3:2:0:0:
384,292,54919,1,10,3:0:0:0:
420,262,55192,5,0,3:0:0:0:
150,204,55328,1,10,3:0:0:0:
14,295,55465,5,0,3:0:0:0:
95,275,55601,1,0,3:0:0:0:
111,289,55738,5,10,3:0:0:0:
4,318,55874,2,0,P|42:281|46:239,1,80,4|0,3:1|3:0,3:0:0:0:
23,260,56147,6,0,P|15:278|1:292,1,40,10|0,3:0|3:0,3:0:0:0:
94,368,56419,1,0,3:0:0:0:
76,147,56556,6,0,P|62:245|111:363,1,209.999993591309,0|0,3:0|3:0,3:0:0:0:
199,372,56828,1,0,3:0:0:0:
298,191,56965,5,0,3:0:0:0:
227,166,57101,1,10,3:0:0:0:
105,252,57238,1,10,3:0:0:0:
351,344,57374,1,0,3:0:0:0:
355,328,57442,1,0,3:0:0:0:
334,330,57510,1,10,3:0:0:0:
175,377,57647,5,0,3:0:0:0:
90,262,57783,1,0,3:0:0:0:
138,161,57919,1,10,3:0:0:0:
219,156,58056,6,0,L|200:225,1,59.9999981689454,4|0,3:2|3:0,3:0:0:0:
225,166,58192,2,0,L|206:235,1,59.9999981689454,0|0,3:0|3:0,3:0:0:0:
215,233,58465,6,0,L|231:176,1,59.9999981689454,0|0,3:0|3:0,3:0:0:0:
446,102,58738,6,0,L|311:127,2,119.999996337891,0|0|0,3:0|3:0|3:0,3:0:0:0:
320,133,59283,6,0,L|378:122,1,59.9999981689454,0|0,3:0|3:0,3:0:0:0:
454,92,59556,6,0,L|395:102,1,59.9999981689454,0|0,3:0|3:0,3:0:0:0:
143,28,59828,5,0,3:0:0:0:
183,22,59897,1,0,3:0:0:0:
207,42,59965,1,0,3:0:0:0:
211,60,60033,1,0,3:0:0:0:
169,73,60101,5,0,3:0:0:0:
186,64,60169,1,0,3:0:0:0:
206,69,60238,1,6,3:0:0:0:
217,70,60510,6,0,L|198:136,1,59.9999981689454,0|0,3:0|3:0,3:0:0:0:
177,200,60647,1,0,3:0:0:0:
269,244,60783,6,0,L|252:186,1,59.9999981689454,12|0,3:2|3:0,3:0:0:0:
260,175,61056,6,0,L|276:232,1,59.9999981689454,0|0,3:0|3:0,3:0:0:0:
267,163,61192,2,0,L|283:220,1,59.9999981689454,2|0,3:2|3:0,3:0:0:0:
314,309,61328,5,2,3:1:0:0:
244,353,61465,1,0,3:0:0:0:
154,280,61601,1,0,3:0:0:0:
0,363,61738,1,0,3:0:0:0:
86,350,61874,5,12,3:2:0:0:
95,342,62010,5,0,3:0:0:0:
10,224,62147,1,0,3:0:0:0:
112,142,62283,2,0,L|96:212,1,59.9999981689454,4|0,3:1|3:0,3:0:0:0:
106,210,62692,6,0,L|119:151,1,59.9999981689454,10|0,3:0|3:0,3:0:0:0:
199,132,62828,2,0,L|185:73,1,59.9999981689454,10|0,3:0|3:0,3:0:0:0:
175,62,63101,5,0,3:0:0:0:
305,85,63238,1,0,3:0:0:0:
434,107,63374,1,8,2:3:0:0:
512,164,63510,5,8,2:3:0:0:
383,186,63647,1,8,2:3:0:0:
242,274,63783,5,8,2:3:0:0:
242,260,63851,1,8,2:3:0:0:
251,270,63919,1,0,3:0:0:0:
236,267,63988,1,0,3:0:0:0:
252,264,64056,2,0,P|223:267|196:287,1,59.9999981689454,0|0,3:0|3:0,3:0:0:0:
84,384,64192,5,8,2:3:0:0:
77,345,64260,1,8,2:3:0:0:
71,306,64328,1,0,3:0:0:0:
64,268,64397,1,0,3:0:0:0:
59,229,64465,6,0,P|95:186|100:166,1,69.9999978637696,0|0,3:0|3:0,3:0:0:0:
188,166,64601,2,0,P|170:118|154:102,1,55.0000016784668,8|0,3:0|3:0,3:0:0:0:
85,97,64738,6,0,P|97:67|98:47,1,44.999998626709,4|0,3:1|3:0,3:0:0:0:
183,30,65010,6,0,P|108:25|38:2,2,150.000005722046,4|4|4,3:2|3:2|3:1,3:0:0:0:
0,333,65556,5,12,3:2:0:0:
146,313,65692,1,12,3:2:0:0:
140,309,65965,5,14,3:0:0:0:
154,286,66034,1,0,3:0:0:0:
178,274,66102,2,0,P|211:278|229:293,1,44.999998626709,10|0,3:0|3:0,3:0:0:0:
308,270,66238,5,10,3:0:0:0:
322,277,66306,1,0,3:0:0:0:
330,289,66375,2,0,P|330:317|320:334,1,44.999998626709,10|0,3:0|3:0,3:0:0:0:
56,250,66511,5,10,3:0:0:0:
36,204,66579,1,0,3:0:0:0:
46,155,66647,1,10,3:0:0:0:
84,122,66716,1,0,3:0:0:0:
133,115,66784,2,0,L|199:141,3,44.999998626709,10|0|10|0,3:0|3:0|3:0|3:0,3:0:0:0:
331,194,67056,5,14,3:2:0:0:
385,198,67125,1,0,3:0:0:0:
425,161,67193,1,10,3:0:0:0:
429,106,67261,1,0,3:0:0:0:
392,65,67329,1,10,3:0:0:0:
347,62,67397,1,0,3:0:0:0:
322,87,67466,1,10,3:0:0:0:
328,111,67534,1,0,3:0:0:0:
341,116,67602,5,10,3:0:0:0:
361,94,67670,1,0,3:0:0:0:
389,84,67738,2,0,P|419:74|446:70,1,50,10|0,3:0|3:0,3:0:0:0:
237,34,67875,5,10,3:0:0:0:
227,31,67943,1,0,3:0:0:0:
217,29,68011,1,10,3:0:0:0:
207,30,68079,1,0,3:0:0:0:
198,35,68147,5,14,3:2:0:0:
164,85,68216,1,0,3:0:0:0:
182,141,68284,1,10,3:0:0:0:
161,197,68352,1,0,3:0:0:0:
106,220,68420,1,10,3:0:0:0:
56,217,68488,1,0,3:0:0:0:
30,185,68556,1,10,3:0:0:0:
36,155,68625,1,0,3:0:0:0:
53,147,68693,6,0,P|82:157|106:178,3,50,10|0|10|0,3:0|3:0|3:0|3:0,3:0:0:0:
185,171,68966,2,0,P|170:213|154:232,3,50,10|0|10|0,3:0|3:0|3:0|3:0,3:0:0:0:
67,366,69238,5,14,3:2:0:0:
25,329,69306,1,0,3:0:0:0:
23,273,69375,1,10,3:0:0:0:
60,232,69443,1,0,3:0:0:0:
114,227,69511,1,10,3:0:0:0:
153,248,69579,1,0,3:0:0:0:
164,280,69647,1,10,3:0:0:0:
154,303,69716,1,0,3:0:0:0:
141,311,69784,5,10,3:0:0:0:
114,297,69852,1,0,3:0:0:0:
96,272,69920,2,0,P|78:241|70:205,1,50,10|0,3:0|3:0,3:0:0:0:
214,145,70056,5,10,3:0:0:0:
220,137,70125,1,0,3:0:0:0:
228,131,70193,1,10,3:0:0:0:
237,127,70261,1,0,3:0:0:0:
246,125,70329,5,14,3:2:0:0:
217,72,70397,1,0,3:0:0:0:
156,69,70466,1,10,3:0:0:0:
110,107,70534,1,0,3:0:0:0:
113,166,70602,1,10,3:0:0:0:
147,202,70670,1,0,3:0:0:0:
185,210,70738,1,10,3:0:0:0:
201,234,70806,1,0,3:0:0:0:
203,254,70875,5,10,3:0:0:0:
177,296,70943,1,0,3:0:0:0:
127,296,71011,1,10,3:0:0:0:
92,260,71079,1,0,3:0:0:0:
94,210,71147,1,10,3:0:0:0:
134,180,71216,1,0,3:0:0:0:
183,174,71284,1,10,3:0:0:0:
223,202,71352,1,0,3:0:0:0:
246,246,71420,5,14,3:2:0:0:
273,258,71488,1,0,3:0:0:0:
302,252,71556,2,0,P|333:230|347:202,1,50,10|0,3:0|3:0,3:0:0:0:
433,194,71693,5,8,3:0:0:0:
433,179,71761,1,0,3:0:0:0:
426,165,71829,2,0,P|410:140|375:123,1,50,10|0,3:0|3:0,3:0:0:0:
311,29,71966,6,0,P|278:46|250:71,3,50,10|0|10|0,3:0|3:0|3:0|3:0,3:0:0:0:
185,75,72238,2,0,P|180:121|199:139,3,50,10|0|10|0,3:0|3:0|3:0|3:0,3:0:0:0:
287,235,72511,5,14,3:2:0:0:
261,288,72579,1,0,3:0:0:0:
202,302,72647,1,10,3:0:0:0:
155,262,72716,1,0,3:0:0:0:
146,202,72784,1,10,3:0:0:0:
147,147,72852,1,0,3:0:0:0:
118,105,72920,1,10,3:0:0:0:
74,94,72988,1,0,3:0:0:0:
40,116,73056,5,10,3:0:0:0:
64,133,73125,1,0,3:0:0:0:
93,139,73193,2,0,P|136:125|149:115,1,50,10|0,3:0|3:0,3:0:0:0:
258,19,73329,5,10,3:0:0:0:
267,21,73397,1,0,3:0:0:0:
275,26,73466,1,10,3:0:0:0:
280,34,73534,1,0,3:0:0:0:
283,43,73602,5,14,3:2:0:0:
249,92,73670,1,0,3:0:0:0:
253,151,73738,1,10,3:0:0:0:
306,177,73806,1,0,3:0:0:0:
365,163,73875,1,10,3:0:0:0:
413,128,73943,1,0,3:0:0:0:
472,126,74011,1,10,3:0:0:0:
511,170,74079,1,0,3:0:0:0:
501,229,74147,5,10,3:0:0:0:
342,370,74284,1,10,3:0:0:0:
362,365,74352,1,0,3:0:0:0:
382,362,74420,2,0,L|442:345,1,50,10|0,3:0|3:0,3:0:0:0:
485,242,74556,2,0,L|425:225,1,50,0|0,3:0|3:0,3:0:0:0:
253,216,74693,5,14,3:2:0:0:
224,206,74761,1,0,3:0:0:0:
194,211,74829,2,0,P|164:238|152:262,1,50,10|0,3:0|3:0,3:0:0:0:
53,286,74966,5,10,3:0:0:0:
51,300,75034,1,0,3:0:0:0:
56,313,75102,2,0,P|79:341|107:350,1,50,10|0,3:0|3:0,3:0:0:0:
287,295,75238,5,10,3:0:0:0:
335,268,75306,1,0,3:0:0:0:
353,215,75375,1,10,3:0:0:0:
344,160,75443,1,0,3:0:0:0:
302,124,75511,2,0,L|286:70,3,50,10|0|10|0,3:0|3:0|3:0|3:0,3:0:0:0:
97,146,75784,5,14,3:2:0:0:
42,154,75852,1,0,3:0:0:0:
8,110,75920,1,10,3:0:0:0:
13,55,75988,1,0,3:0:0:0:
59,25,76056,1,10,3:0:0:0:
104,28,76125,1,0,3:0:0:0:
121,58,76193,1,10,3:0:0:0:
114,82,76261,1,0,3:0:0:0:
100,88,76329,5,10,3:0:0:0:
77,68,76397,1,0,3:0:0:0:
51,51,76466,2,0,P|24:40|-7:31,1,50,10|0,3:0|3:0,3:0:0:0:
156,175,76602,5,10,3:0:0:0:
161,166,76670,1,0,3:0:0:0:
169,160,76738,1,10,3:0:0:0:
178,157,76806,1,0,3:0:0:0:
190,155,76875,6,0,P|223:171|231:190,3,50,14|0|10|0,3:2|3:0|3:0|3:0,3:0:0:0:
311,187,77147,2,0,P|302:232|282:250,3,50,10|0|10|0,3:0|3:0|3:0|3:0,3:0:0:0:
502,195,77420,5,10,3:0:0:0:
481,173,77488,1,0,3:0:0:0:
452,164,77556,2,0,P|421:173|399:195,1,50,10|0,3:0|3:0,3:0:0:0:
450,366,77693,5,10,3:0:0:0:
452,356,77761,1,0,3:0:0:0:
455,346,77829,1,10,3:0:0:0:
459,337,77897,1,0,3:0:0:0:
465,329,77966,5,14,3:2:0:0:
480,271,78034,1,0,3:0:0:0:
462,213,78102,1,10,3:0:0:0:
409,184,78170,1,0,3:0:0:0:
349,188,78238,1,10,3:0:0:0:
311,220,78306,1,0,3:0:0:0:
308,260,78375,1,10,3:0:0:0:
321,286,78443,1,0,3:0:0:0:
340,290,78511,5,10,3:0:0:0:
369,262,78579,1,0,3:0:0:0:
379,223,78647,1,10,3:0:0:0:
373,182,78716,1,0,3:0:0:0:
344,154,78784,5,10,3:0:0:0:
314,150,78852,1,0,3:0:0:0:
289,133,78920,1,10,3:0:0:0:
271,108,78988,1,0,3:0:0:0:
257,76,79056,6,0,B|171:63|169:-31|273:-103|439:60|387:146|315:144|272:243|373:325|511:234|414:158,1,500,14|0,3:2|3:0,3:0:0:0:
204,200,79466,5,10,3:0:0:0:
204,200,79534,1,0,3:0:0:0:
204,200,79602,2,0,P|329:144|506:90,1,300.000011444092,2|2,3:0|3:0,3:0:0:0:
406,36,80011,1,10,3:0:0:0:
282,260,80147,5,4,3:2:0:0:
106,154,80284,1,8,2:3:0:0:
166,87,80420,1,0,3:0:0:0:
68,240,80556,5,8,2:3:0:0:
53,276,80625,1,8,2:3:0:0:
54,309,80693,2,0,P|107:270|146:263,1,100,0|8,3:0|2:3,3:0:0:0:
259,279,80966,2,0,P|279:263|292:227,1,50,0|0,3:0|3:0,3:0:0:0:
216,378,81102,2,0,P|187:354|154:360,1,50,0|0,3:0|3:0,3:0:0:0:
17,36,81238,6,0,P|27:33|38:30,3,20,6|2|2|2,3:0|3:0|3:0|3:0,3:0:0:0:
101,116,82329,6,0,P|141:127|178:138,2,80,2|2|2,3:0|3:0|3:0,3:0:0:0:
329,33,83011,6,0,B|326:20|313:11|313:11|272:5|244:55|273:102,1,150,10|0,2:3|3:0,3:0:0:0:
289,114,83284,1,10,2:3:0:0:
299,117,83420,1,6,3:0:0:0:
315,309,83693,6,0,P|383:240|484:163,1,209.999993591309,12|0,3:2|3:0,3:0:0:0:
509,169,83966,6,0,P|495:174|487:178,2,20,2|2|2,3:0|3:0|3:0,3:0:0:0:
427,245,84647,2,0,P|421:242|416:241,1,10,0|2,3:0|3:0,3:0:0:0:
85,218,84920,6,0,B|92:195|84:176|84:176|139:178|186:238|141:292,1,179.999994506836,10|0,2:3|3:0,3:0:0:0:
142,293,85193,5,10,2:3:0:0:
233,153,85329,1,2,3:0:0:0:
161,90,85466,1,2,3:0:0:0:
212,361,85602,5,6,3:1:0:0:
221,352,85738,1,0,3:0:0:0:
409,384,85875,5,10,2:3:0:0:
404,369,86284,5,10,2:3:0:0:
323,275,86420,5,2,3:0:0:0:
336,260,86488,1,0,3:0:0:0:
344,242,86556,1,8,2:3:0:0:
346,221,86625,1,8,2:3:0:0:
342,201,86693,1,4,3:2:0:0:
420,137,86829,5,8,2:3:0:0:
405,133,86897,1,8,2:3:0:0:
392,124,86966,1,2,3:0:0:0:
301,114,87102,5,8,2:3:0:0:
304,104,87170,1,8,2:3:0:0:
302,94,87238,1,2,3:0:0:0:
351,19,87375,5,8,2:3:0:0:
346,17,87443,1,8,2:3:0:0:
341,14,87511,1,2,3:0:0:0:
214,90,87647,5,8,2:3:0:0:
11,18,87784,6,0,B|42:-31|146:-7|158:117|92:145|92:145|37:151|26:208,1,320,6|0,3:0|3:0,3:0:0:0:
63,260,88125,1,0,3:0:0:0:
63,260,88193,2,0,P|139:242|50:219,1,240,8|0,2:3|3:0,3:0:0:0:
4,276,88466,6,0,P|49:295|76:330,1,80,0|0,3:0|3:0,3:0:0:0:
173,238,88602,5,8,2:3:0:0:
238,283,88670,1,0,3:0:0:0:
292,255,88738,1,2,3:0:0:0:
323,272,88806,1,0,3:0:0:0:
335,266,88875,1,14,3:0:0:0:
393,323,89966,6,0,P|449:325|481:303,1,94.9999974632264,6|0,3:0|3:0,3:0:0:0:
490,217,90102,2,0,B|373:154|263:267|364:290|251:381|145:329,1,379.999989852906,0|10,3:0|3:0,3:0:0:0:
198,195,90511,6,0,P|223:145|204:81,1,94.9999974632264,2|0,3:0|3:0,3:0:0:0:
112,73,90647,2,0,B|78:134|117:219|202:208|202:208|262:142|215:79,1,330.000010070801,10|0,3:0|3:0,3:0:0:0:
172,5,90920,6,0,P|187:55|226:84,1,94.9999974632264,10|0,3:0|2:0,3:0:0:0:
375,191,91056,5,2,3:0:0:0:
450,192,91125,1,0,2:0:0:0:
488,141,91193,1,10,3:0:0:0:
487,95,91261,1,0,2:0:0:0:
472,78,91329,5,2,3:0:0:0:
410,117,91397,1,0,2:0:0:0:
358,83,91466,1,10,3:0:0:0:
367,41,91534,1,0,2:0:0:0:
393,38,91602,5,2,3:0:0:0:
453,83,91670,1,0,2:0:0:0:
498,52,91738,1,10,3:0:0:0:
486,8,91806,1,0,2:0:0:0:
460,1,91875,1,2,3:0:0:0:
439,13,91943,1,0,2:0:0:0:
438,27,92011,1,10,3:0:0:0:
452,31,92079,1,0,2:0:0:0:
460,27,92147,1,2,3:0:0:0:
268,103,92284,5,10,3:0:0:0:
255,107,92352,1,0,2:0:0:0:
237,93,92420,1,2,3:0:0:0:
246,44,92488,1,0,2:0:0:0:
308,24,92556,1,10,3:0:0:0:
369,70,92625,1,0,2:0:0:0:
359,152,92693,5,2,3:0:0:0:
323,169,92761,1,0,2:0:0:0:
308,208,92829,1,10,3:0:0:0:
156,247,92966,5,2,3:0:0:0:
235,261,93034,1,0,2:0:0:0:
278,318,93102,1,10,3:0:0:0:
269,344,93170,1,0,2:0:0:0:
258,351,93238,5,2,3:0:0:0:
251,299,93306,1,0,2:0:0:0:
300,286,93375,1,10,3:0:0:0:
314,324,93443,1,0,2:0:0:0:
292,330,93511,5,2,3:0:0:0:
280,318,93579,1,0,2:0:0:0:
279,303,93647,1,10,3:0:0:0:
145,173,93784,5,2,3:0:0:0:
142,231,93852,1,0,2:0:0:0:
111,283,93920,1,10,3:0:0:0:
328,116,94056,6,0,P|315:88|309:59,2,59.9999981689454,2|2|2,3:0|2:0|2:0,2:0:0:0:
488,344,94329,6,0,P|249:110|9:66,1,525.000020027161,6|0,3:0|3:0,3:0:0:0:
415,117,94875,1,2,3:0:0:0:
396,263,95011,1,10,3:0:0:0:
290,176,95147,2,0,P|253:152|219:146,1,55.0000016784668,2|10,3:0|3:0,3:0:0:0:
8,268,95420,6,0,B|32:280|61:267|61:267|64:201|107:179|166:188|166:188|189:212|212:220,1,239.999992675781,2|2,3:0|3:0,3:0:0:0:
181,325,95829,2,0,B|117:324|81:273|101:228|122:215|116:163|15:157,1,239.999992675781,10|10,3:0|3:0,3:0:0:0:
195,216,96238,2,0,L|187:249,1,30,2|0,3:0|3:0,3:0:0:0:
386,274,96511,6,0,B|431:306|454:270|440:224|336:179|248:206|226:284|229:336|255:382|286:382|294:348,1,350,2|0,3:0|3:0,3:0:0:0:
464,376,97056,1,2,3:0:0:0:
362,356,97193,1,10,3:0:0:0:
448,368,97329,2,0,P|474:351|503:349,1,55.0000016784668,2|10,3:0|3:0,3:0:0:0:
492,194,97602,5,2,3:0:0:0:
368,147,97738,1,10,3:0:0:0:
241,111,97875,1,2,3:0:0:0:
193,34,98011,5,12,3:2:0:0:
218,101,98147,1,0,3:0:0:0:
283,231,98284,5,8,2:3:0:0:
285,221,98352,1,8,2:3:0:0:
287,211,98420,1,0,3:0:0:0:
209,188,98556,1,10,3:0:0:0:
89,339,98693,6,0,B|56:354|37:378|37:378|-4:331|15:259|77:240,1,220.000006713867,4|10,3:2|3:2,3:0:0:0:
54,171,99102,2,0,P|106:172|131:218,1,110.000003356934,0|2,3:0|3:2,3:0:0:0:
204,356,99375,1,0,3:0:0:0:
151,292,99511,1,10,3:2:0:0:
215,371,99647,1,0,3:0:0:0:
344,314,99784,6,0,B|312:279|321:226|378:209|382:211|385:215|431:204|455:175|423:120,1,220.000006713867,2|2,3:2|3:1,3:0:0:0:
323,153,100193,2,0,B|302:151|284:166|284:166|327:167|394:205|418:280,1,220.000006713867,10|0,3:2|3:0,3:0:0:0:
482,235,100602,2,0,P|493:213|510:194,1,49.499999848938,10|0,3:2|3:0,3:0:0:0:
494,42,100875,6,0,B|462:109|393:101|393:101|365:77|334:72,1,172.500003290176,4|0,3:1|3:0,3:0:0:0:
315,12,101147,1,12,3:1:0:0:
169,126,101284,6,0,B|220:119|241:162|241:162|237:110|268:85,1,172.500003290176,0|0,3:0|3:0,3:0:0:0:
314,3,101556,1,0,3:0:0:0:
121,23,101693,2,0,P|158:30|191:48,1,75.0000028610231,12|0,3:1|3:0,3:0:0:0:
350,215,101966,5,4,2:1:0:0:
270,341,102102,2,0,P|200:305|174:301,1,75.0000028610231,8|8,2:0|2:0,3:0:0:0:
275,102,102375,5,8,2:0:0:0:
355,228,102511,2,0,P|425:192|451:188,1,75.0000028610231,4|8,3:1|2:0,3:0:0:0:
124,114,102784,5,0,3:0:0:0:
189,284,102920,1,8,2:0:0:0:
350,143,103056,5,4,3:1:0:0:
290,300,103193,1,0,3:0:0:0:
205,275,103329,5,10,3:0:0:0:
430,218,103466,1,2,3:0:0:0:
456,309,103602,5,10,3:0:0:0:
256,169,103738,1,2,3:0:0:0:
235,369,103875,5,10,3:0:0:0:
273,353,103943,1,0,2:0:0:0:
284,312,104011,2,0,P|272:283|234:264,1,59.9999981689454,2|0,3:0|2:0,3:0:0:0:
135,189,104147,5,10,3:0:0:0:
74,193,104216,1,0,2:0:0:0:
46,239,104284,1,2,3:0:0:0:
53,286,104352,1,0,2:0:0:0:
84,313,104420,5,10,3:0:0:0:
126,291,104488,1,0,2:0:0:0:
128,249,104556,1,10,3:0:0:0:
101,223,104625,1,0,2:0:0:0:
71,221,104693,5,2,3:0:0:0:
77,231,104761,1,0,2:0:0:0:
90,242,104829,1,8,2:0:0:0:
113,246,104897,1,8,2:0:0:0:
141,236,104966,1,0,3:0:0:0:
159,205,105034,1,0,3:0:0:0:
159,163,105102,1,0,3:0:0:0:
124,129,105170,1,0,3:0:0:0:
134,69,105238,6,0,B|137:45|167:46|167:46|178:99|238:109,1,119.999996337891,6|10,3:0|3:0,3:0:0:0:
245,31,105443,1,0,2:0:0:0:
261,37,105511,2,0,P|296:25|327:-6,1,59.9999981689454,2|0,3:0|2:0,3:0:0:0:
387,22,105647,2,0,P|379:58|391:100,1,59.9999981689454,10|0,3:0|2:0,3:0:0:0:
337,139,105784,2,0,P|309:114|266:103,1,59.9999981689454,2|0,3:0|2:0,3:0:0:0:
405,215,105920,6,0,B|399:188|418:159|418:159|445:142|477:151,1,119.999996337891,10|2,3:0|3:0,3:0:0:0:
460,299,106125,1,0,2:0:0:0:
466,285,106193,2,0,P|481:232|490:211,1,59.9999981689454,10|0,3:0|2:0,3:0:0:0:
192,193,106329,6,0,B|162:160|97:147|97:147|95:142|95:142|153:79|231:120|231:120|243:118|243:118|243:127|243:127|289:167|261:250|261:250|195:259|167:326,1,525.000020027161,6|0,3:0|3:0,3:0:0:0:
265,335,106875,2,0,P|93:350|47:388,1,225.000008583069,0|0,3:0|3:0,3:0:0:0:
107,233,107147,5,0,3:0:0:0:
105,240,107216,1,0,3:0:0:0:
103,247,107284,1,0,3:0:0:0:
101,254,107352,1,0,3:0:0:0:
99,261,107420,5,0,3:0:0:0:
6,126,107556,1,0,3:0:0:0:
367,31,108511,6,0,P|309:160|289:244,2,160,12|0|0,3:1|3:0|3:0,3:0:0:0:
205,254,108920,5,4,3:1:0:0:
411,210,109056,1,0,3:0:0:0:
224,259,109193,1,4,3:1:0:0:
397,208,109329,1,8,2:0:0:0:
43,131,109466,5,4,3:2:0:0:
21,110,109738,5,10,3:0:0:0:
138,96,109875,2,0,B|169:82|171:41|171:41|136:-15|68:-2|49:40,1,209.999993591309,2|0,3:0|3:0,3:0:0:0:
116,98,110147,2,0,P|146:74|158:36,2,69.9999978637696,2|10|2,3:0|3:0|3:0,3:0:0:0:
145,239,110693,5,2,3:0:0:0:
11,190,110829,2,0,P|27:200|50:235,1,60,10|0,3:0|3:0,3:0:0:0:
47,326,111102,2,0,B|73:241|117:141|115:224|228:171|252:70|140:-85|13:-12|-27:106|33:208|75:143|73:236|46:325,1,640,10|10,3:0|3:0,3:0:0:0:
376,384,111784,6,0,P|359:361|348:329,1,60,6|0,3:0|3:0,3:0:0:0:
260,316,112056,5,2,3:0:0:0:
337,295,112193,2,0,P|378:243|379:174,1,119.999996337891,10|0,3:0|3:0,3:0:0:0:
333,124,112466,5,10,3:0:0:0:
431,55,112602,2,0,P|418:84|420:119,1,60,2|0,3:0|3:0,3:0:0:0:
469,182,112875,5,2,3:0:0:0:
320,12,113011,1,10,3:0:0:0:
300,21,113284,5,10,3:0:0:0:
225,184,113420,1,2,3:0:0:0:
110,73,113556,5,10,3:0:0:0:
428,114,113693,1,2,3:0:0:0:
507,55,113829,5,10,3:0:0:0:
405,19,113966,2,0,B|281:38|226:173|342:193|263:370|68:401|69:264|123:182|161:261|235:281|271:134,1,629.999980773926,2|0,3:0|3:0,3:0:0:0:
276,57,114511,5,2,3:0:0:0:
268,142,114647,2,0,B|252:246|314:296|373:297|370:220|346:203|322:229|284:209|273:155,1,299.999990844727,10|0,3:0|3:0,3:0:0:0:
276,59,115056,6,0,L|244:66,2,29.9999990844727,12|0|0,3:1|2:0|2:0,3:0:0:0:
212,50,115466,2,0,L|319:78,1,104.999996795654,0|0,2:0|3:0,3:0:0:0:
351,144,115738,5,8,2:0:0:0:
351,144,115875,2,0,L|383:137,1,29.9999990844727,0|0,3:0|3:0,3:0:0:0:
461,112,116147,6,0,B|502:96|515:15|399:-14|325:43|337:177,1,284.999992389679,6|0,3:0|3:0,3:0:0:0:
356,225,116420,2,0,B|379:190|340:128|257:174|244:251|325:319,1,209.999993591309,2|0,3:0|3:0,3:0:0:0:
356,369,116693,5,4,3:2:0:0:
208,329,116829,1,0,3:0:0:0:
60,289,116966,1,10,3:0:0:0:
172,158,117102,6,0,B|241:51|203:10|147:28|169:156,1,255.000004863739,0|0,3:0|3:0,3:0:0:0:
148,251,117375,2,0,B|93:147|131:159|156:139|148:248,1,179.999994506836,10|0,3:0|3:0,3:0:0:0:
193,326,117647,6,0,P|167:166|134:32,1,300,0|0,3:0|3:0,3:0:0:0:
57,0,117920,1,0,3:0:0:0:
343,133,118056,6,0,B|384:238|320:281|248:266|240:181|310:120,1,300,0|0,3:0|3:0,3:0:0:0:
355,57,118329,6,0,P|340:97|329:114,1,60,4|0,3:2|3:0,3:0:0:0:
248,173,118602,5,10,3:0:0:0:
354,128,118738,1,4,2:0:0:0:
497,294,118875,5,0,3:0:0:0:
505,312,119011,2,0,L|312:268,2,179.999994506836,4|10|4,3:2|3:0|3:2,3:0:0:0:
509,130,119420,5,0,3:0:0:0:
324,383,119556,1,0,3:0:0:0:
407,323,119693,1,10,3:1:0:0:
261,49,119829,6,0,B|145:46|30:117|12:248|129:323|266:302|329:208,1,569.999984779358,2|10,3:1|3:0,3:0:0:0:
479,215,120511,6,0,B|486:154|465:116|430:37|304:46|250:101|350:150|306:176|284:70|401:112|384:154,1,345.000006580353,6|0,3:0|3:0,3:0:0:0:
409,269,120784,1,2,3:0:0:0:
414,282,120920,1,8,3:0:0:0:
321,247,121056,6,0,P|349:71|361:0,1,225.000008583069,4|0,2:0|3:0,3:0:0:0:
443,24,121329,1,8,2:0:0:0:
456,18,121466,1,0,3:0:0:0:
505,252,121602,6,0,P|411:275|375:365,2,200,4|12|0,3:2|3:2|3:0,3:0:0:0:
217,166,122011,5,0,3:0:0:0:
135,204,122147,1,12,3:2:0:0:
54,249,122284,5,0,3:0:0:0:
142,333,122420,1,0,3:0:0:0:
208,243,122556,1,8,2:0:0:0:
147,124,122693,5,4,3:2:0:0:
29,84,122829,1,0,3:0:0:0:
24,77,122966,2,0,B|3:32|-36:117|-77:25|-2:-29|62:-3|87:82|2:33|19:81,1,200,8|0,3:0|3:0,3:0:0:0:
21,230,123375,5,2,3:0:0:0:
21,237,123511,2,0,B|72:256|133:198|68:140|102:88|184:86,1,225.000008583069,8|0,3:0|3:0,3:0:0:0:
358,112,123784,6,0,P|248:74|214:-15,2,179.999994506836,2|8|8,3:0|2:0|2:0,3:0:0:0:
206,175,124193,6,0,B|193:189|146:145|193:88|337:153|361:259|282:350|236:257|172:248|146:287|160:331|247:326|248:280|217:274,1,330.000010070801,0|0,3:0|3:0,3:0:0:0:
321,22,124466,1,0,3:0:0:0:
352,191,124602,1,0,3:0:0:0:
357,201,124670,1,0,3:0:0:0:
360,210,124738,1,10,3:0:0:0:
168,344,124875,6,0,L|99:325,1,59.9999981689454,6|0,3:0|3:0,3:0:0:0:
158,350,125011,2,0,L|89:331,1,59.9999981689454,0|0,3:0|3:0,3:0:0:0:
91,340,125284,6,0,L|148:356,1,59.9999981689454,0|0,3:0|3:0,3:0:0:0:
135,183,125556,6,0,L|110:48,2,119.999996337891,0|0|0,3:0|3:0|3:0,3:0:0:0:
104,57,126102,6,0,L|115:115,1,59.9999981689454,0|0,3:0|3:0,3:0:0:0:
145,191,126375,6,0,L|135:132,1,59.9999981689454,0|0,3:0|3:0,3:0:0:0:
369,28,126647,5,0,3:0:0:0:
329,22,126716,1,0,2:0:0:0:
305,42,126784,1,0,3:0:0:0:
301,60,126852,1,0,2:0:0:0:
343,73,126920,5,0,3:0:0:0:
326,64,126988,1,0,2:0:0:0:
306,69,127056,1,4,3:1:0:0:
295,70,127329,6,0,L|314:136,1,59.9999981689454,0|0,3:0|3:0,3:0:0:0:
335,200,127466,1,0,3:0:0:0:
243,244,127602,6,0,L|260:186,1,59.9999981689454,10|0,3:0|3:0,3:0:0:0:
252,175,127875,6,0,L|236:232,1,59.9999981689454,0|0,3:0|3:0,3:0:0:0:
245,163,128011,2,0,L|229:220,1,59.9999981689454,4|0,3:1|3:0,3:0:0:0:
198,309,128147,5,4,3:1:0:0:
96,246,128284,1,8,2:0:0:0:
145,381,128420,1,0,3:0:0:0:
269,364,128556,5,0,3:0:0:0:
278,358,128693,1,10,2:1:0:0:
268,353,128829,1,0,3:0:0:0:
35,161,128966,5,0,3:0:0:0:
136,82,129102,2,0,L|152:12,1,59.9999981689454,4|0,3:1|3:0,3:0:0:0:
142,14,129511,6,0,L|129:73,1,59.9999981689454,12|0,3:1|3:0,3:0:0:0:
231,182,129647,2,0,L|217:123,1,59.9999981689454,12|0,3:1|3:0,3:0:0:0:
337,62,129920,5,8,2:0:0:0:
420,136,130056,1,0,3:0:0:0:
382,237,130193,1,8,2:0:0:0:
257,330,130329,5,8,2:0:0:0:
398,255,130466,1,8,2:0:0:0:
142,222,130602,6,0,B|102:219|94:258|94:258|104:257|104:257|113:233|147:218,1,119.999996337891,8|0,2:0|3:0,3:0:0:0:
142,222,130875,6,0,L|202:243,1,59.9999981689454,14|0,3:0|3:0,3:0:0:0:
207,237,131011,2,0,L|159:220,1,50,0|0,3:0|3:0,3:0:0:0:
222,229,131284,6,0,L|155:205,1,69.9999978637696,8|0,2:0|3:0,3:0:0:0:
267,308,131420,2,0,L|330:277,1,55.0000016784668,6|0,3:0|3:0,3:0:0:0:
459,183,131556,6,0,P|456:114|503:71,1,110.000003356934,0|10,3:0|3:0,3:0:0:0:
329,30,131829,6,0,P|404:25|474:2,2,150.000005722046,0|8|8,3:0|2:0|2:0,3:0:0:0:
369,167,132238,2,0,P|314:116|216:95,1,150.000005722046,0|0,3:0|3:0,3:0:0:0:
228,73,132443,1,0,3:0:0:0:
216,75,132511,1,8,2:0:0:0:
147,18,132647,2,0,P|105:44|83:55,1,75.0000028610231,0|0,3:0|3:0,3:0:0:0:
25,154,132784,5,0,3:0:0:0:
25,143,132852,1,0,3:0:0:0:
16,142,132920,1,0,3:0:0:0:
8,152,132988,1,0,3:0:0:0:
14,160,133056,1,0,3:0:0:0:
41,159,133125,1,0,3:0:0:0:
72,191,133193,1,8,2:0:0:0:
83,241,133261,1,0,3:0:0:0:
54,303,133329,2,0,B|42:365|32:321|67:377,1,75.0000028610231,8|0,2:0|3:0,3:0:0:0:
135,363,133466,2,0,B|146:300|156:344|121:288,1,75.0000028610231,8|0,2:0|3:0,3:0:0:0:
71,177,133602,5,14,3:0:0:0:
85,145,133670,1,0,3:0:0:0:
114,126,133738,2,0,P|153:133|167:146,1,50,10|0,3:0|3:0,3:0:0:0:
233,63,133875,5,10,3:0:0:0:
253,72,133943,1,0,3:0:0:0:
262,89,134011,2,0,P|271:128|265:162,1,50,10|0,3:0|3:0,3:0:0:0:
181,253,134147,5,10,3:0:0:0:
194,301,134216,1,0,3:0:0:0:
231,334,134284,1,10,3:0:0:0:
279,345,134352,1,0,3:0:0:0:
327,332,134420,2,0,P|344:307|353:288,3,50,10|0|10|0,3:0|3:0|3:0|3:0,3:0:0:0:
367,166,134693,5,12,3:2:0:0:
390,110,134761,1,0,3:0:0:0:
448,93,134829,1,10,3:0:0:0:
496,114,134897,1,0,3:0:0:0:
504,164,134966,1,10,3:0:0:0:
482,202,135034,1,0,3:0:0:0:
448,207,135102,1,10,3:0:0:0:
421,191,135170,1,0,3:0:0:0:
414,174,135238,6,0,P|451:170|481:147,3,50,10|0|10|0,3:0|3:0|3:0|3:0,3:0:0:0:
332,299,135511,2,0,P|291:284|283:274,3,50,10|0|10|0,3:0|3:0|3:0|3:0,3:0:0:0:
482,295,135784,5,12,3:2:0:0:
457,240,135852,1,0,3:0:0:0:
400,220,135920,1,10,3:0:0:0:
346,247,135988,1,0,3:0:0:0:
338,306,136056,1,10,3:0:0:0:
315,348,136125,1,0,3:0:0:0:
275,362,136193,1,10,3:0:0:0:
250,350,136261,1,0,3:0:0:0:
241,332,136329,5,10,3:0:0:0:
280,324,136397,1,0,3:0:0:0:
310,297,136466,1,10,3:0:0:0:
316,257,136534,1,0,3:0:0:0:
304,218,136602,6,0,P|276:205|254:179,1,50,10|0,3:0|3:0,3:0:0:0:
183,161,136738,2,0,P|201:116|200:81,1,50,10|0,3:0|3:0,3:0:0:0:
321,2,136875,5,12,3:2:0:0:
367,46,136943,1,0,3:0:0:0:
373,110,137011,1,10,3:0:0:0:
354,172,137079,1,0,3:0:0:0:
302,211,137147,1,10,3:0:0:0:
243,202,137216,1,0,3:0:0:0:
211,156,137284,1,10,3:0:0:0:
216,112,137352,1,0,3:0:0:0:
244,90,137420,6,0,P|249:121|273:146,3,50,10|0|10|0,3:0|3:0|3:0|3:0,3:0:0:0:
257,276,137693,2,0,P|302:294|327:290,3,50,10|0|10|0,3:0|3:0|3:0|3:0,3:0:0:0:
446,186,137966,5,12,3:2:0:0:
395,217,138034,1,0,3:0:0:0:
335,207,138102,1,10,3:0:0:0:
303,156,138170,1,0,3:0:0:0:
313,97,138238,1,10,3:0:0:0:
359,67,138306,1,0,3:0:0:0:
396,81,138375,1,10,3:0:0:0:
403,112,138443,1,0,3:0:0:0:
392,128,138511,5,10,3:0:0:0:
346,159,138579,1,0,3:0:0:0:
291,159,138647,1,10,3:0:0:0:
242,132,138716,1,0,3:0:0:0:
215,84,138784,1,10,3:0:0:0:
180,41,138852,1,0,3:0:0:0:
130,16,138920,1,10,3:0:0:0:
75,16,138988,1,0,3:0:0:0:
32,50,139056,5,12,3:2:0:0:
63,66,139125,1,0,3:0:0:0:
81,95,139193,2,0,P|91:120|92:164,1,50,10|0,3:0|3:0,3:0:0:0:
178,172,139329,5,10,3:0:0:0:
156,187,139397,1,0,3:0:0:0:
142,207,139466,2,0,P|127:244|125:271,1,50,10|0,3:0|3:0,3:0:0:0:
45,331,139602,5,10,3:0:0:0:
60,366,139670,1,0,3:0:0:0:
95,384,139738,1,10,3:0:0:0:
134,383,139806,1,0,3:0:0:0:
169,364,139875,5,12,3:2:0:0:
173,339,139943,1,0,3:0:0:0:
185,317,140011,1,10,3:0:0:0:
203,300,140079,1,0,3:0:0:0:
226,291,140147,5,12,3:2:0:0:
280,263,140216,1,0,3:0:0:0:
287,205,140284,1,10,3:0:0:0:
265,159,140352,1,0,3:0:0:0:
215,151,140420,1,10,3:0:0:0:
181,182,140488,1,0,3:0:0:0:
184,222,140556,1,10,3:0:0:0:
210,243,140625,1,0,3:0:0:0:
237,240,140693,6,0,P|243:210|276:194,3,50,10|0|10|0,3:0|3:0|3:0|3:0,3:0:0:0:
184,122,140966,2,0,P|167:88|144:70,3,50,10|0|10|0,3:0|3:0|3:0|3:0,3:0:0:0:
383,111,141238,6,0,P|407:131|417:154,1,50,12|0,3:2|3:0,3:0:0:0:
434,147,141375,2,0,P|407:188|400:215,1,59.9999981689454,10|0,3:0|3:0,3:0:0:0:
382,376,141511,6,0,P|345:346|312:338,1,69.9999978637696,10|0,3:0|3:0,3:0:0:0:
300,240,141647,1,10,3:0:0:0:
272,234,141716,1,0,3:0:0:0:
244,239,141784,1,10,3:0:0:0:
221,255,141852,1,0,3:0:0:0:
204,277,141920,6,0,P|226:310|229:334,1,50,10|0,3:0|3:0,3:0:0:0:
242,322,142056,2,0,P|229:282|214:264,1,59.9999981689454,10|0,3:0|3:0,3:0:0:0:
64,253,142193,6,0,P|84:204|109:181,1,69.9999978637696,10|0,3:0|3:0,3:0:0:0:
202,135,142329,5,12,3:2:0:0:
212,107,142397,1,0,3:0:0:0:
200,79,142466,2,0,P|174:59|153:54,1,50,10|0,3:0|3:0,3:0:0:0:
65,1,142602,5,10,3:0:0:0:
46,8,142670,1,0,3:0:0:0:
34,24,142738,2,0,P|25:48|26:75,1,50,10|0,3:0|3:0,3:0:0:0:
114,186,142875,5,10,3:0:0:0:
142,157,142943,1,0,3:0:0:0:
180,146,143011,1,10,3:0:0:0:
219,146,143079,1,0,3:0:0:0:
256,160,143147,2,0,P|269:182|295:209,3,50,10|0|10|0,3:0|3:0|3:0|3:0,3:0:0:0:
335,343,143420,5,12,3:2:0:0:
391,361,143488,1,0,3:0:0:0:
447,342,143556,1,10,3:0:0:0:
474,287,143625,1,0,3:0:0:0:
459,229,143693,1,10,3:0:0:0:
414,200,143761,1,0,3:0:0:0:
368,211,143829,1,10,3:0:0:0:
350,239,143897,1,0,3:0:0:0:
354,268,143966,6,0,P|391:247|421:242,3,50,10|0|10|0,3:0|3:0|3:0|3:0,3:0:0:0:
497,328,144238,2,0,P|467:317|441:312,3,50,10|0|10|0,3:0|3:0|3:0|3:0,3:0:0:0:
449,107,144511,5,12,3:2:0:0:
389,114,144579,1,0,3:0:0:0:
348,158,144647,1,10,3:0:0:0:
331,216,144716,1,0,3:0:0:0:
349,272,144784,1,10,3:0:0:0:
336,323,144852,1,0,3:0:0:0:
301,345,144920,1,10,3:0:0:0:
263,340,144988,1,0,3:0:0:0:
245,323,145056,5,10,3:0:0:0:
264,293,145125,1,0,3:0:0:0:
267,258,145193,2,0,P|260:238|234:205,1,50,10|0,3:0|3:0,3:0:0:0:
185,103,145329,5,10,3:0:0:0:
175,100,145397,1,0,3:0:0:0:
164,101,145466,1,10,3:0:0:0:
155,105,145534,1,0,3:0:0:0:
147,111,145602,5,12,3:2:0:0:
116,168,145670,1,0,3:0:0:0:
112,232,145738,1,10,3:0:0:0:
130,294,145806,1,0,3:0:0:0:
180,335,145875,1,10,3:0:0:0:
238,344,145943,1,0,3:0:0:0:
277,331,146011,1,10,3:0:0:0:
291,299,146079,1,0,3:0:0:0:
286,274,146147,5,10,3:0:0:0:
252,250,146216,1,0,3:0:0:0:
212,248,146284,1,10,3:0:0:0:
176,266,146352,1,0,3:0:0:0:
149,310,146420,5,10,3:0:0:0:
152,327,146488,1,0,3:0:0:0:
136,352,146556,1,10,3:0:0:0:
107,363,146625,1,0,3:0:0:0:
79,356,146693,6,0,B|-33:323|44:165|181:205|248:289|209:307|188:332|286:423|387:365,1,500,12|0,3:2|3:0,3:0:0:0:
426,311,147102,1,10,3:0:0:0:
190,151,147238,6,0,P|119:237|80:342,1,225.000008583069,2|0,3:0|3:0,3:0:0:0:
98,339,147511,2,0,P|128:258|194:168,1,194.999991073609,2|0,3:0|3:0,3:0:0:0:
273,123,147784,5,4,3:2:0:0:
104,0,147920,1,10,3:0:0:0:
0,117,148056,1,4,3:2:0:0:
304,8,148193,5,2,3:0:0:0:
333,8,148261,1,0,3:0:0:0:
360,20,148329,2,0,P|388:56|388:122,1,100,2|10,3:0|3:0,3:0:0:0:
512,178,148602,6,0,P|479:185|450:209,1,50,0|0,3:0|3:0,3:0:0:0:
422,286,148738,2,0,P|381:255|358:247,1,50,0|0,3:0|3:0,3:0:0:0:
201,171,148875,6,0,B|148:124|-38:144|-90:321|-14:452|85:450|209:363|177:293|126:299|123:252|159:187|199:171,1,640,6|0,3:0|3:0,3:0:0:0:
29,35,170693,5,0,3:0:0:0:
160,135,171102,5,0,3:0:0:0:
50,212,171511,6,0,P|45:184|46:215,1,100,10|0,3:0|3:0,3:0:0:0:
132,271,171920,5,0,3:0:0:0:
72,334,172329,6,0,P|53:320|76:329,1,66.6666666666667,10|0,3:0|3:0,3:0:0:0:
110,365,172602,6,0,P|119:360|106:363,3,50,0|0|0|0,3:0|3:0|3:0|3:0,3:0:0:0:
483,349,172875,5,0,3:0:0:0:
352,249,173284,5,0,3:0:0:0:
457,168,173556,5,0,3:0:0:0:
462,172,173693,2,0,P|467:200|466:169,1,100,10|0,3:0|3:0,3:0:0:0:
380,113,174102,5,0,3:0:0:0:
432,49,174375,5,0,3:0:0:0:
439,53,174511,2,0,P|458:63|435:54,1,100,10|0,3:0|3:0,3:0:0:0:
402,19,174784,6,0,P|393:24|405:20,3,50,2|0|2|0,3:2|3:0|2:0|3:0,3:0:0:0:
29,35,175056,5,2,3:2:0:0:
160,135,175466,5,2,3:2:0:0:
53,220,175738,5,0,3:0:0:0:
50,212,175875,2,0,P|45:184|46:215,1,100,10|0,3:0|3:0,3:0:0:0:
132,271,176284,5,0,3:0:0:0:
67,328,176556,5,0,3:0:0:0:
67,328,176693,2,0,P|55:321|74:328,1,119.003705346384,10|0,3:0|3:0,3:0:0:0:
107,364,176966,6,0,P|116:359|103:362,3,50,0|0|0|0,3:0|3:0|3:0|3:0,3:0:0:0:
483,349,177238,5,0,3:0:0:0:
479,337,177511,5,0,3:0:0:0:
351,279,177647,5,0,3:0:0:0:
342,274,177784,2,0,P|327:254|354:274,1,100,10|0,3:0|3:0,3:0:0:0:
457,178,178193,5,0,3:0:0:0:
449,166,178466,5,0,3:0:0:0:
363,108,178602,5,0,3:0:0:0:
422,50,178875,6,0,P|442:36|413:46,1,100,10|0,3:0|3:0,3:0:0:0:
377,26,179147,6,0,P|367:18|381:24,3,50,0|0|0|0,3:0|3:0|3:0|3:0,3:0:0:0:
483,349,179420,5,0,3:0:0:0:
352,249,179829,5,0,3:0:0:0:
462,172,180238,6,0,P|467:200|466:169,1,100,10|0,3:0|3:0,3:0:0:0:
380,113,180647,5,0,3:0:0:0:
430,47,180920,5,0,3:0:0:0:
439,53,181056,2,0,P|458:63|435:54,1,100,10|0,3:0|3:0,3:0:0:0:
402,19,181329,6,0,P|393:24|405:20,3,50,0|0|2|0,3:0|3:0|3:2|3:0,3:0:0:0:
29,35,181602,5,2,3:2:0:0:
167,70,181738,5,2,3:2:0:0:
170,81,181875,5,2,3:2:0:0:
179,71,182011,5,2,3:2:0:0:
66,152,182147,6,0,P|61:124|62:155,1,100,10|0,3:0|3:0,3:0:0:0:
166,220,182556,5,0,3:0:0:0:
74,272,182829,5,0,3:0:0:0:
83,282,182966,5,0,3:0:0:0:
69,287,183102,5,0,3:0:0:0:
128,333,183238,6,0,P|151:319|120:328,1,100,10|0,3:0|3:0,3:0:0:0:
98,376,183511,6,0,P|89:371|101:374,3,39.8494653331312,0|0|0|0,3:0|3:0|3:0|3:0,3:0:0:0:
483,349,183784,5,0,3:0:0:0:
352,249,184193,5,0,3:0:0:0:
453,164,184466,5,0,3:0:0:0:
462,172,184602,2,0,P|467:200|466:169,1,100,10|0,3:0|3:0,3:0:0:0:
380,113,185011,5,0,3:0:0:0:
428,46,185284,5,0,3:0:0:0:
439,53,185420,2,0,P|458:63|435:54,1,100,10|0,3:0|3:0,3:0:0:0:
402,19,185693,6,0,P|393:24|405:20,3,50,2|0|2|0,3:2|3:0|2:0|3:0,3:0:0:0:
29,35,185966,5,2,3:2:0:0:
160,135,186238,5,0,3:0:0:0:
166,130,186375,2,0,P|185:111|155:128,1,100,10|0,3:0|3:0,3:0:0:0:
55,216,186647,5,0,3:0:0:0:
50,212,186784,2,0,P|45:184|46:215,1,100,10|0,3:0|3:0,3:0:0:0:
181,287,187056,5,0,3:0:0:0:
164,271,187329,6,0,B|161:252|161:252|173:254|173:254|173:243|173:243|181:272|181:272|166:260|181:245|186:243|187:243|187:243|192:246|189:255|193:263|200:269|204:263|202:255|202:255|186:251|186:251|199:235|199:235|203:243|208:243|236:218|221:248|217:253|216:253|216:253|209:245|209:245|229:244|251:230|232:246|232:246|230:255|228:258|228:258|234:267|240:258|247:253|256:253|256:253|251:266|251:266|268:260|268:260|257:273|259:279|296:284|254:283|273:296|281:301|271:288|267:280|265:279|266:278|266:278|275:275|275:275|283:288|283:288|292:298|280:302|280:302|292:306|294:310|292:309|295:323|295:323|298:324|300:328|300:333|300:334|299:338|298:339|298:340|298:340|298:342|302:347|302:347|295:367,1,489.999985046387,0|0,3:0|2:0,3:0:0:0:
297,361,187875,5,0,2:0:0:0:
310,350,187943,1,0,2:0:0:0:
326,323,188011,1,0,2:0:0:0:
330,271,188079,1,0,2:0:0:0:
288,217,188147,6,0,L|249:285,1,59.9999981689454,0|0,2:0|3:0,3:0:0:0:
283,242,188284,2,0,L|262:164,1,59.9999981689454,0|0,3:0|3:0,3:0:0:0:
390,108,188420,6,0,B|412:84|447:98|447:98|444:102|444:102|478:116|501:174|459:230,1,179.999994506836,6|0,3:0|3:0,3:0:0:0:
303,15,188829,2,0,B|276:3|250:8|250:8|254:11|254:11|183:40|173:116,1,179.999994506836,6|0,3:0|3:0,3:0:0:0:
281,312,189102,6,0,B|301:430|449:406|538:273|325:36|77:175|96:387|96:387|115:339|161:327|161:327|103:309|62:351,1,880,6|0,3:0|3:0,3:0:0:0:
53,356,189920,5,0,3:0:0:0:
176,323,190056,1,10,3:0:0:0:
174,313,190329,6,0,L|102:273,1,69.9999978637696,0|0,3:0|3:0,3:0:0:0:
142,321,190466,2,0,L|200:256,1,69.9999978637696,0|0,3:0|3:0,3:0:0:0:
90,118,190602,5,12,3:1:0:0:
63,76,190738,1,8,3:0:0:0:
17,57,190875,1,0,3:0:0:0:
71,186,191011,5,12,3:1:0:0:
93,141,191147,1,8,3:0:0:0:
270,42,191284,6,0,B|330:35|347:91|345:131|300:129|313:203|365:223,1,209.999993591309,4|0,3:1|3:0,3:0:0:0:
362,216,191556,5,8,2:0:0:0:
229,158,191693,1,8,2:0:0:0:
130,256,191829,1,0,3:0:0:0:
316,139,191966,5,8,2:0:0:0:
380,157,192034,1,8,2:0:0:0:
404,210,192102,1,0,3:0:0:0:
391,254,192170,1,0,3:0:0:0:
351,268,192238,1,8,2:0:0:0:
334,299,192306,1,8,2:0:0:0:
348,331,192375,1,0,3:0:0:0:
346,360,192443,1,0,3:0:0:0:
332,368,192511,6,0,P|377:315|427:298,1,120,4|0,3:1|3:0,3:0:0:0:
442,298,192784,5,8,2:0:0:0:
428,290,192852,1,8,2:0:0:0:
408,254,192920,1,8,2:0:0:0:
436,214,192988,1,0,3:0:0:0:
501,236,193056,5,0,3:0:0:0:
456,290,193193,1,0,3:0:0:0:
317,81,193329,5,12,2:1:0:0:
374,158,193466,1,8,2:0:0:0:
468,142,193602,1,4,3:2:0:0:
436,0,193738,5,8,2:0:0:0:
431,11,193806,1,0,3:0:0:0:
421,19,193875,1,8,2:0:0:0:
343,90,194011,5,0,3:0:0:0:
315,96,194079,1,8,2:0:0:0:
289,85,194147,1,8,2:0:0:0:
249,259,194284,5,8,2:0:0:0:
253,272,194352,1,8,2:0:0:0:
278,281,194420,1,8,2:0:0:0:
306,239,194488,1,8,2:0:0:0:
264,199,194556,1,8,2:0:0:0:
204,228,194625,1,8,2:0:0:0:
208,300,194693,6,0,B|246:404|99:435|60:326|133:291|145:358|168:344|201:321,1,240,6|0,3:0|3:0,3:0:0:0:
183,229,194966,5,8,2:0:0:0:
159,205,195034,1,8,2:0:0:0:
125,205,195102,2,0,B|75:210|65:299|152:336|210:293,1,189.999994926453,6|8,3:0|2:0,3:0:0:0:
261,234,195306,5,0,3:0:0:0:
263,213,195375,2,0,P|234:186|218:122,1,69.9999978637696,8|0,2:0|3:0,3:0:0:0:
138,113,195511,5,4,3:2:0:0:
136,98,195579,1,0,3:0:0:0:
143,82,195647,2,0,P|176:37|202:20,1,69.9999978637696,8|0,2:0|3:0,3:0:0:0:
337,4,195784,5,4,3:2:0:0:
354,27,195852,1,0,3:0:0:0:
347,66,195920,1,8,2:0:0:0:
362,106,195988,1,8,2:0:0:0:
407,116,196056,1,6,3:0:0:0:
437,80,196125,1,0,3:0:0:0:
406,50,196193,5,8,2:0:0:0:
347,73,196261,1,8,2:0:0:0:
324,131,196329,1,8,2:0:0:0:
333,192,196397,1,8,2:0:0:0:
343,254,196466,1,8,2:0:0:0:
321,312,196534,1,8,2:0:0:0:
269,348,196602,1,8,3:0:0:0:
227,341,196670,1,8,3:0:0:0:
207,316,196738,1,8,3:0:0:0:
209,290,196806,1,8,3:0:0:0:
220,281,196875,6,0,L|303:296,1,59.9999981689454,6|0,3:0|3:0,3:0:0:0:
294,285,197011,2,0,L|234:274,1,59.9999981689454,10|0,3:0|3:0,3:0:0:0:
181,162,197147,6,0,P|126:218|72:320,1,179.999994506836,2|0,3:0|3:0,3:0:0:0:
82,336,197420,6,0,P|98:292|118:262,1,59.9999981689454,2|0,3:0|3:0,3:0:0:0:
102,192,197556,2,0,P|75:123|13:34,1,179.999994506836,10|0,3:0|3:0,3:0:0:0:
180,86,197829,6,0,B|241:109|293:32|209:-61|84:-2|86:72|127:155,1,300.000011444092,10|10,3:0|3:0,3:0:0:0:
460,151,198238,6,0,P|435:82|325:19,1,179.999994506836,2|10,3:0|3:0,3:0:0:0:
355,239,198511,2,0,P|404:196|525:178,1,150.000005722046,2|10,3:0|3:0,3:0:0:0:
409,329,198784,2,0,P|363:264|320:245,1,119.999996337891,2|8,3:0|3:0,3:0:0:0:
155,213,199056,6,0,L|203:282,1,59.9999981689454,2|0,3:0|3:0,3:0:0:0:
185,225,199193,2,0,L|120:244,1,59.9999981689454,10|0,3:0|3:0,3:0:0:0:
119,372,199329,6,0,L|142:306,1,59.9999981689454,2|0,3:0|3:0,3:0:0:0:
198,151,199466,2,0,B|205:103|181:105|179:61|233:45|267:85|233:129|222:110|199:147,1,179.999994506836,10|0,3:0|3:0,3:0:0:0:
115,136,199738,6,0,P|110:101|91:74,1,55.0000016784668,10|0,3:0|3:0,3:0:0:0:
263,200,199875,2,0,P|283:177|310:164,1,59.9999981689454,2|0,3:0|3:0,3:0:0:0:
154,6,200011,6,0,P|173:32|185:63,1,64.9999970245363,10|0,3:0|3:0,3:0:0:0:
328,71,200147,2,0,P|293:77|262:92,1,69.9999978637696,2|0,3:0|3:0,3:0:0:0:
20,267,200284,6,0,P|53:284|62:297,1,44.999998626709,10|0,3:0|3:0,3:0:0:0:
111,377,200556,6,0,P|212:311|349:279,1,240,10|0,3:0|3:0,3:0:0:0:
432,298,200829,5,8,2:0:0:0:
434,308,200897,1,8,2:0:0:0:
435,317,200966,6,0,P|428:355|402:390,1,69.9999978637696,2|0,3:0|3:0,3:0:0:0:
317,354,201102,2,0,P|339:318|333:266,1,69.9999978637696,10|0,3:0|3:0,3:0:0:0:
320,188,201238,5,6,3:0:0:0:
310,181,201306,1,0,3:0:0:0:
297,179,201375,1,10,3:0:0:0:
278,184,201443,1,0,3:0:0:0:
257,202,201511,1,10,3:0:0:0:
249,236,201579,1,0,3:0:0:0:
260,274,201647,1,10,3:0:0:0:
257,320,201716,1,0,3:0:0:0:
216,365,201784,1,10,3:0:0:0:
156,362,201852,1,0,3:0:0:0:
119,314,201920,1,10,3:0:0:0:
130,255,201988,1,0,3:0:0:0:
178,220,202056,1,10,3:0:0:0:
200,180,202125,1,0,3:0:0:0:
196,139,202193,1,10,3:0:0:0:
172,112,202261,1,0,3:0:0:0:
153,106,202329,5,10,3:0:0:0:
210,123,202397,1,0,3:0:0:0:
270,117,202466,1,10,3:0:0:0:
314,77,202534,1,0,3:0:0:0:
339,22,202602,1,10,3:0:0:0:
392,0,202670,1,0,3:0:0:0:
437,12,202738,1,10,3:0:0:0:
463,47,202806,1,0,3:0:0:0:
464,76,202875,5,10,3:0:0:0:
405,64,202943,1,0,3:0:0:0:
348,84,203011,1,10,3:0:0:0:
314,133,203079,1,0,3:0:0:0:
309,192,203147,1,10,3:0:0:0:
330,236,203216,1,0,3:0:0:0:
367,256,203284,1,10,3:0:0:0:
396,253,203352,1,0,3:0:0:0:
412,236,203420,5,10,3:0:0:0:
371,286,203488,1,0,3:0:0:0:
306,289,203556,1,10,3:0:0:0:
248,256,203625,1,0,3:0:0:0:
234,192,203693,1,10,3:0:0:0:
212,130,203761,1,0,3:0:0:0:
163,87,203829,1,10,3:0:0:0:
98,83,203897,1,0,3:0:0:0:
45,123,203966,5,10,3:0:0:0:
75,180,204034,1,0,3:0:0:0:
139,188,204102,1,10,3:0:0:0:
192,150,204170,1,0,3:0:0:0:
193,135,204238,5,10,3:0:0:0:
222,94,204306,1,0,3:0:0:0:
272,91,204375,1,10,3:0:0:0:
304,128,204443,1,0,3:0:0:0:
305,147,204511,6,0,L|285:217,1,69.9999978637696,6|0,3:0|3:0,3:0:0:0:
224,287,204647,2,0,L|204:217,1,69.9999978637696,8|8,2:0|2:0,3:0:0:0:
161,79,204784,1,8,2:0:0:0:
368,79,204920,5,8,2:0:0:0:
394,115,204988,1,8,2:0:0:0:
400,159,205056,1,8,2:0:0:0:
467,210,205193,5,8,2:0:0:0:
458,241,205261,1,8,2:0:0:0:
440,266,205329,1,8,2:0:0:0:
442,348,205466,5,8,2:0:0:0:
431,359,205534,1,8,2:0:0:0:
417,363,205602,1,8,2:0:0:0:
361,211,214329,5,14,3:0:0:0:
359,184,214397,1,0,3:0:0:0:
371,160,214466,2,0,P|403:143|434:148,1,44.999998626709,10|0,3:0|3:0,3:0:0:0:
471,84,214602,5,10,3:0:0:0:
486,88,214670,1,0,3:0:0:0:
495,100,214738,2,0,P|510:131|508:152,1,44.999998626709,10|0,3:0|3:0,3:0:0:0:
317,297,214875,5,10,3:0:0:0:
280,270,214943,1,0,3:0:0:0:
237,256,215011,1,10,3:0:0:0:
192,251,215079,1,0,3:0:0:0:
148,262,215147,2,0,P|111:277|97:287,3,44.999998626709,10|0|10|0,3:0|3:0|3:0|3:0,3:0:0:0:
365,375,215420,5,14,3:2:0:0:
413,349,215488,1,0,3:0:0:0:
429,296,215556,1,10,3:0:0:0:
412,242,215625,1,0,3:0:0:0:
368,208,215693,1,10,3:0:0:0:
356,164,215761,1,0,3:0:0:0:
379,137,215829,1,10,3:0:0:0:
403,140,215897,1,0,3:0:0:0:
411,152,215966,5,10,3:0:0:0:
388,172,216034,1,0,3:0:0:0:
358,170,216102,2,0,P|324:151|314:130,1,50,10|0,3:0|3:0,3:0:0:0:
447,25,216238,5,10,3:0:0:0:
456,28,216306,1,0,3:0:0:0:
462,35,216375,1,10,3:0:0:0:
466,43,216443,1,0,3:0:0:0:
469,51,216511,6,0,P|429:35|397:22,3,50,14|0|10|0,3:2|3:0|3:0|3:0,3:0:0:0:
346,4,216784,2,0,P|306:21|282:34,3,50,10|0|10|0,3:0|3:0|3:0|3:0,3:0:0:0:
288,202,217056,5,10,3:0:0:0:
316,191,217125,1,0,3:0:0:0:
344,200,217193,2,0,P|364:220|382:251,1,50,10|0,3:0|3:0,3:0:0:0:
265,346,217329,5,10,3:0:0:0:
258,338,217397,1,0,3:0:0:0:
249,332,217466,1,10,3:0:0:0:
240,327,217534,1,0,3:0:0:0:
230,323,217602,5,14,3:2:0:0:
173,341,217670,1,0,3:0:0:0:
113,331,217738,1,10,3:0:0:0:
78,282,217806,1,0,3:0:0:0:
80,221,217875,1,10,3:0:0:0:
114,184,217943,1,0,3:0:0:0:
117,144,218011,1,10,3:0:0:0:
94,124,218079,1,0,3:0:0:0:
74,123,218147,5,10,3:0:0:0:
76,132,218216,1,0,3:0:0:0:
85,143,218284,1,10,3:0:0:0:
104,148,218352,1,0,3:0:0:0:
126,138,218420,1,10,3:0:0:0:
141,106,218488,1,0,3:0:0:0:
141,61,218556,1,10,3:0:0:0:
179,20,218625,1,0,3:0:0:0:
242,30,218693,6,0,B|298:47|295:177|224:241|136:144|128:176|195:205|208:118|186:78|162:65|112:18|-20:62|-28:81|9:204|98:190|140:162|96:94,1,500,4|0,3:2|3:0,3:0:0:0:
129,223,219102,1,10,3:0:0:0:
348,210,219238,6,0,B|261:261|197:176|205:74|117:2|5:104,1,400,0|0,3:0|3:0,3:0:0:0:
3,9,219647,1,10,3:0:0:0:
92,144,219784,5,4,3:2:0:0:
11,247,219920,1,10,3:0:0:0:
79,304,220056,1,0,3:0:0:0:
151,230,220193,1,10,3:0:0:0:
256,372,220329,6,0,P|256:320|256:272,1,100,0|10,3:0|3:0,3:0:0:0:
164,240,220602,2,0,P|156:289|149:338,1,100,0|10,3:0|3:0,3:0:0:0:
63,214,220875,5,4,3:2:0:0:
65,100,221011,1,8,3:0:0:0:
155,151,221147,1,0,3:0:0:0:
0,151,221284,5,10,3:0:0:0:
143,228,221420,1,4,3:2:0:0:
148,71,221556,1,8,3:0:0:0:
339,225,221693,5,0,3:0:0:0:
268,121,221829,1,10,3:0:0:0:
480,125,221966,6,0,B|287:181|210:268|210:268|124:182|147:82|180:23|264:-30|379:-6|388:42|341:135|268:103,1,825.000031471254,4|0,3:2|3:0,3:0:0:0:
449,56,222784,2,0,P|451:26|452:53,1,112.500004291535,4|0,3:2|3:0,3:0:0:0:
496,201,223056,5,6,3:0:0:0:
448,184,223125,1,0,3:0:0:0:
401,169,223193,1,10,3:0:0:0:
353,155,223261,1,0,3:0:0:0:
304,142,223329,1,10,3:0:0:0:
256,130,223397,1,0,3:0:0:0:
207,120,223466,1,10,3:0:0:0:
158,111,223534,1,0,3:0:0:0:
108,104,223602,5,10,3:0:0:0:
61,121,223670,1,0,3:0:0:0:
46,165,223738,1,10,3:0:0:0:
66,200,223806,1,0,3:0:0:0:
100,204,223875,1,10,3:0:0:0:
122,190,223943,1,0,3:0:0:0:
126,172,224011,1,10,3:0:0:0:
117,157,224079,1,0,3:0:0:0:
108,153,224147,5,14,3:2:0:0:
60,189,224216,1,0,3:0:0:0:
54,248,224284,1,10,3:0:0:0:
90,295,224352,1,0,3:0:0:0:
149,296,224420,1,10,3:0:0:0:
196,317,224488,1,0,3:0:0:0:
206,348,224556,1,10,3:0:0:0:
199,374,224625,1,0,3:0:0:0:
181,381,224693,5,10,3:0:0:0:
187,341,224761,1,0,3:0:0:0:
213,311,224829,2,0,P|261:293|288:295,1,50,10|0,3:0|3:0,3:0:0:0:
303,223,224966,5,10,3:0:0:0:
322,222,225034,1,0,3:0:0:0:
338,232,225102,2,0,P|363:258|378:288,1,50,10|0,3:0|3:0,3:0:0:0:
449,354,225238,5,14,3:2:0:0:
390,384,225306,1,0,3:0:0:0:
329,379,225375,1,10,3:0:0:0:
282,340,225443,1,0,3:0:0:0:
267,282,225511,1,10,3:0:0:0:
242,234,225579,1,0,3:0:0:0:
200,209,225647,1,10,3:0:0:0:
157,213,225716,1,0,3:0:0:0:
135,236,225784,6,0,P|177:261|195:300,3,59.9999981689454,10|0|10|0,3:0|3:0|3:0|3:0,3:0:0:0:
221,372,226056,6,0,P|235:331|265:300,1,64.9999970245363,10|0,3:0|3:0,3:0:0:0:
313,215,226193,2,0,P|253:237|203:210,1,69.9999978637696,10|0,3:0|3:0,3:0:0:0:
86,311,226329,5,14,3:2:0:0:
44,272,226397,1,0,3:0:0:0:
24,219,226466,1,10,3:0:0:0:
28,163,226534,1,0,3:0:0:0:
53,113,226602,1,10,3:0:0:0:
97,92,226670,1,0,3:0:0:0:
136,101,226738,1,10,3:0:0:0:
152,122,226806,1,0,3:0:0:0:
153,142,226875,6,0,P|119:158|102:181,3,50,10|0|10|0,3:0|3:0|3:0|3:0,3:0:0:0:
223,57,227147,2,0,P|255:97|258:112,3,50,10|0|10|0,3:0|3:0|3:0|3:0,3:0:0:0:
48,14,227420,5,14,3:2:0:0:
18,59,227488,1,0,3:0:0:0:
14,114,227556,1,10,3:0:0:0:
42,162,227625,1,0,3:0:0:0:
91,183,227693,2,0,P|112:157|142:147,3,50,10|0|10|0,3:0|3:0|3:0|3:0,3:0:0:0:
253,0,227966,5,10,3:0:0:0:
307,24,228034,1,0,3:0:0:0:
342,71,228102,1,10,3:0:0:0:
350,123,228170,1,0,3:0:0:0:
335,170,228238,2,0,P|309:215|292:228,3,50,10|0|10|0,3:0|3:0|3:0|3:0,3:0:0:0:
194,262,228511,5,14,3:2:0:0:
229,213,228579,1,0,3:0:0:0:
293,212,228647,1,10,3:0:0:0:
329,254,228716,1,0,3:0:0:0:
322,305,228784,1,10,3:0:0:0:
339,349,228852,1,0,3:0:0:0:
377,372,228920,1,10,3:0:0:0:
409,367,228988,1,0,3:0:0:0:
425,351,229056,5,10,3:0:0:0:
407,304,229125,1,0,3:0:0:0:
358,293,229193,1,10,3:0:0:0:
321,320,229261,1,0,3:0:0:0:
315,359,229329,2,0,P|334:379|357:383,3,50,10|0|10|0,3:0|3:0|3:0|3:0,3:0:0:0:
214,305,229602,5,14,3:2:0:0:
225,259,229670,1,0,3:0:0:0:
258,225,229738,1,10,3:0:0:0:
301,211,229806,1,0,3:0:0:0:
342,216,229875,1,10,3:0:0:0:
373,238,229943,1,0,3:0:0:0:
384,272,230011,1,10,3:0:0:0:
376,297,230079,1,0,3:0:0:0:
361,305,230147,5,12,3:2:0:0:
326,270,230216,1,0,3:0:0:0:
331,219,230284,1,10,3:0:0:0:
372,200,230352,1,0,3:0:0:0:
412,205,230420,1,10,3:0:0:0:
444,185,230488,1,0,3:0:0:0:
451,154,230556,1,10,3:0:0:0:
442,129,230625,1,0,3:0:0:0:
429,122,230693,5,14,3:2:0:0:
416,162,230761,1,0,3:0:0:0:
380,185,230829,2,0,P|345:176|331:163,1,50,10|0,3:0|3:0,3:0:0:0:
384,52,230966,5,10,3:0:0:0:
361,31,231034,1,0,3:0:0:0:
331,27,231102,2,0,P|304:35|283:51,1,50,10|0,3:0|3:0,3:0:0:0:
264,129,231238,6,0,P|239:120|219:99,3,42.5000008106232,10|0|2|0,3:0|3:0|3:0|3:0,3:0:0:0:
207,196,231511,2,0,B|168:205|162:227,3,34.9999989318848,10|0|2|0,3:0|3:0|3:0|3:0,3:0:0:0:
136,16,231784,5,12,3:2:0:0:
82,20,231852,1,0,3:0:0:0:
38,53,231920,1,0,3:0:0:0:
15,103,231988,1,0,3:0:0:0:
14,158,232056,1,10,3:0:0:0:
37,205,232125,1,0,3:0:0:0:
73,225,232193,1,10,3:0:0:0:
111,222,232261,1,0,3:0:0:0:
131,204,232329,6,0,P|108:172|106:149,3,50,10|0|10|0,3:0|3:0|3:0|3:0,3:0:0:0:
38,105,232602,2,0,P|50:68|71:51,3,50,10|0|10|0,3:0|3:0|3:0|3:0,3:0:0:0:
272,115,232875,5,12,3:2:0:0:
245,168,232943,1,0,3:0:0:0:
257,226,233011,1,10,3:0:0:0:
302,264,233079,1,0,3:0:0:0:
360,274,233147,2,0,P|364:246|390:215,3,50,10|0|10|0,3:0|3:0|3:0|3:0,3:0:0:0:
428,115,233420,5,10,3:0:0:0:
387,72,233488,1,0,3:0:0:0:
327,73,233556,1,10,3:0:0:0:
282,112,233625,1,0,3:0:0:0:
270,171,233693,1,10,3:0:0:0:
220,204,233761,1,0,3:0:0:0:
161,191,233829,1,10,3:0:0:0:
131,138,233897,1,0,3:0:0:0:
155,82,233966,5,12,3:2:0:0:
208,108,234034,1,0,3:0:0:0:
211,167,234102,1,10,3:0:0:0:
169,209,234170,1,0,3:0:0:0:
109,217,234238,1,10,3:0:0:0:
80,269,234306,1,0,3:0:0:0:
98,326,234375,1,10,3:0:0:0:
154,346,234443,1,0,3:0:0:0:
203,312,234511,5,10,3:0:0:0:
166,264,234579,1,0,3:0:0:0:
187,205,234647,1,10,3:0:0:0:
240,185,234716,1,0,3:0:0:0:
282,208,234784,1,10,3:0:0:0:
323,201,234852,1,0,3:0:0:0:
345,169,234920,1,10,3:0:0:0:
339,134,234988,1,0,3:0:0:0:
315,116,235056,5,12,3:2:0:0:
286,169,235125,1,0,3:0:0:0:
285,228,235193,1,10,3:0:0:0:
304,284,235261,1,0,3:0:0:0:
345,326,235329,1,10,3:0:0:0:
401,332,235397,1,0,3:0:0:0:
441,307,235466,1,10,3:0:0:0:
450,262,235534,1,0,3:0:0:0:
434,228,235602,6,0,P|360:303|255:321,1,179.999994506836,10|0,3:0|3:0,3:0:0:0:
227,384,235875,2,0,P|173:322|67:283,1,179.999994506836,10|0,3:0|3:0,3:0:0:0:
3,296,236147,5,12,3:2:0:0:
301,159,236284,2,0,P|232:244|204:105,1,324.999985122681,10|0,3:0|3:0,3:0:0:0:
311,49,236693,6,0,P|196:76|122:24,1,194.999991073609,0|0,3:0|3:0,3:0:0:0:
63,137,236966,2,0,P|129:103|203:105,1,150,0|0,3:0|3:0,3:0:0:0:
296,157,237238,5,4,3:1:0:0:
18,22,237375,1,8,2:3:0:0:
66,56,237443,1,8,2:3:0:0:
71,115,237511,1,0,3:0:0:0:
156,196,237647,1,8,2:3:0:0:
132,228,237716,1,0,3:0:0:0:
96,245,237784,1,4,3:1:0:0:
321,383,237920,5,8,3:0:0:0:
329,384,237988,1,8,2:3:0:0:
349,378,238056,1,8,2:3:0:0:
370,338,238125,1,0,3:0:0:0:
341,277,238193,1,8,3:0:0:0:
270,259,238261,1,8,2:3:0:0:
204,306,238329,5,6,3:0:0:0:
84,165,238466,1,8,3:0:0:0:
206,219,238602,6,0,P|257:222|369:274,1,150.000005722046,0|10,3:0|3:0,3:0:0:0:
449,320,238875,6,0,B|424:332|406:362|406:362|335:332|353:255|431:214,1,225.000008583069,0|0,3:0|3:0,3:0:0:0:
410,151,239147,5,0,3:0:0:0:
498,190,239284,1,10,3:0:0:0:
308,23,239420,6,0,B|365:21|385:65|385:65|346:82|332:136,1,150.000005722046,0|10,3:0|3:0,3:0:0:0:
332,181,239693,1,0,3:0:0:0:
273,321,239829,6,0,B|283:347|308:349|308:349|264:239,1,150.000005722046,10|0,3:0|3:0,3:0:0:0:
337,190,240102,1,10,3:0:0:0:
203,72,240238,5,0,3:0:0:0:
118,110,240375,1,10,3:0:0:0:
134,280,240511,5,4,3:2:0:0:
56,270,240647,1,8,3:0:0:0:
24,184,240784,1,0,3:0:0:0:
26,174,240852,1,0,3:0:0:0:
31,164,240920,1,10,3:0:0:0:
186,350,241056,5,0,3:0:0:0:
301,284,241193,2,0,P|377:296|475:323,1,150.000005722046,10|0,3:0|3:0,3:0:0:0:
463,328,241397,1,0,3:0:0:0:
459,339,241466,1,10,3:0:0:0:
188,196,241602,6,0,B|121:180|184:131|85:43|35:138|75:244|139:261|154:230,1,255.000004863739,0|0,3:0|3:0,3:0:0:0:
201,294,241875,2,0,P|222:303|207:271,1,69.9999978637696,0|0,3:0|3:0,3:0:0:0:
277,163,242011,6,0,P|131:228|80:344,1,284.999992389679,10|0,3:0|3:0,3:0:0:0:
10,77,242284,6,0,B|-35:128|-52:55|-6:-7|58:-13|83:57|83:57|28:153|81:212|183:165|183:165|185:91|239:79,1,550.000016784668,10|0,3:0|3:0,3:0:0:0:
7,207,242693,6,0,P|15:242|-3:295,1,82.5000025177003,4|0,3:1|3:0,3:0:0:0:
314,76,242966,6,0,B|412:122|344:201|327:227|401:270,1,225.000008583069,0|0,3:0|3:0,3:0:0:0:
436,194,243238,6,0,B|462:161|513:150|513:150|380:153|266:254|277:342,1,359.999989013672,4|0,3:0|3:0,3:0:0:0:
277,157,243784,5,0,3:0:0:0:
135,183,243920,2,0,P|189:204|224:237,1,100,10|0,3:0|3:0,3:0:0:0:
178,70,244193,5,10,3:0:0:0:
320,96,244329,2,0,P|266:117|231:150,1,100,0|10,3:0|3:0,3:0:0:0:
134,194,244602,5,0,3:0:0:0:
83,103,244738,1,10,3:0:0:0:
177,21,244875,6,0,P|151:171|118:353,1,269.999991760254,4|0,3:1|3:0,3:0:0:0:
320,129,245147,5,2,3:2:0:0:
331,123,245216,1,0,3:0:0:0:
338,110,245284,2,0,B|308:51|209:66|191:135|167:144|167:144|153:107|117:92|117:92,1,279.999991455078,10|10,3:2|3:2,3:0:0:0:
208,253,245693,6,0,B|254:257|316:333|316:333|308:213|395:163,1,269.999991760254,2|0,3:2|3:0,3:0:0:0:
258,173,245966,5,2,3:2:0:0:
367,215,246102,5,10,3:2:0:0:
474,130,246238,1,2,3:2:0:0:
465,125,246306,1,0,3:0:0:0:
450,129,246375,1,10,3:2:0:0:
464,340,246511,5,2,3:2:0:0:
470,333,246579,1,0,3:0:0:0:
474,326,246647,2,0,B|519:217|519:217|491:251|456:275,1,179.999994506836,10|4,3:2|3:1,3:0:0:0:
485,138,246920,1,10,3:2:0:0:
340,365,247056,5,4,3:2:0:0:
294,218,247193,1,10,3:2:0:0:
413,203,247329,6,0,P|425:194|444:192,1,30,2|0,3:2|3:0,3:0:0:0:
309,207,247602,6,0,B|320:124|398:96|398:96|298:32|192:88|198:174|198:174|349:219|338:371,1,600,2|10,3:2|3:2,3:0:0:0:
239,353,248147,6,0,B|255:265|357:265|357:265|387:287|424:282,1,209.999993591309,2|0,3:0|3:0,3:0:0:0:
194,260,248420,1,2,3:0:0:0:
358,367,248556,6,0,B|252:293|206:406|121:365,1,209.999993591309,10|0,3:0|3:0,3:0:0:0:
436,353,248829,1,10,3:0:0:0:
170,293,248966,6,0,L|216:-6,1,284.999992389679,2|0,3:0|3:0,3:0:0:0:
112,117,249238,6,0,B|172:124|187:184|187:184|212:136|274:127,1,209.999993591309,4|0,3:1|3:0,3:0:0:0:
107,197,249511,5,2,3:0:0:0:
95,203,249579,1,0,3:0:0:0:
89,214,249647,1,12,3:1:0:0:
78,301,249784,1,2,3:0:0:0:
153,370,249920,1,12,3:1:0:0:
35,118,250056,5,2,3:0:0:0:
37,106,250125,1,0,3:0:0:0:
39,93,250193,1,12,3:1:0:0:
266,219,250329,6,0,P|346:192|444:168,1,179.999994506836,0|10,3:0|3:1,3:0:0:0:
479,93,250602,1,10,3:1:0:0:
261,12,250738,5,0,3:0:0:0:
297,90,250875,1,0,3:0:0:0:
352,24,251011,1,14,3:1:0:0:
469,244,251147,5,6,3:1:0:0:
466,262,251216,1,0,3:1:0:0:
461,277,251284,2,0,B|382:248|394:183|394:183|436:169|458:116,1,179.999994506836,8|6,3:1|3:0,3:0:0:0:
270,13,251556,5,10,3:0:0:0:
377,101,251693,1,0,3:0:0:0:
211,76,251829,1,10,3:0:0:0:
113,260,251966,6,0,B|190:207|76:67|157:6,1,269.999991760254,0|0,3:0|3:0,3:0:0:0:
64,190,252238,1,0,3:0:0:0:
171,320,252375,5,10,3:0:0:0:
266,244,252511,1,2,3:0:0:0:
401,341,252647,5,10,3:0:0:0:
327,373,252784,1,0,3:0:0:0:
353,196,252920,6,0,L|333:325,1,100,10|0,3:0|3:0,3:0:0:0:
256,327,253193,5,10,3:0:0:0:
390,111,253329,6,0,B|424:112|457:152|457:152|337:152|210:256,1,330.000010070801,0|0,3:0|3:0,3:0:0:0:
55,223,253602,6,0,B|7:137|45:61|225:10|251:213|108:147,1,330.000010070801,4|0,3:1|3:0,3:0:0:0:
21,47,253875,5,0,3:0:0:0:
24,35,253943,1,0,3:0:0:0:
28,24,254011,2,0,B|168:48|163:239|163:239|116:264|87:320,1,330.000010070801,10|0,3:0|3:0,3:0:0:0:
187,320,254284,1,10,3:0:0:0:
328,355,254420,5,0,3:0:0:0:
337,352,254488,1,0,3:0:0:0:
349,348,254556,1,10,3:0:0:0:
464,253,254693,5,0,3:0:0:0:
448,205,254761,1,0,3:0:0:0:
407,185,254829,1,10,3:0:0:0:
367,189,254897,1,0,3:0:0:0:
346,217,254966,1,0,3:0:0:0:
352,246,255034,1,0,3:0:0:0:
374,256,255102,1,10,3:0:0:0:
393,256,255170,1,0,3:0:0:0:
405,247,255238,5,0,3:0:0:0:
401,202,255306,1,0,3:0:0:0:
368,170,255375,1,10,3:0:0:0:
325,156,255443,1,0,3:0:0:0:
280,160,255511,1,0,3:0:0:0:
271,155,255579,1,0,3:0:0:0:
272,145,255647,1,0,3:0:0:0:
281,141,255716,1,0,3:0:0:0:
266,147,255784,5,4,3:1:0:0:
289,199,255852,1,8,3:0:0:0:
267,253,255920,1,0,3:0:0:0:
212,271,255988,1,8,3:0:0:0:
157,251,256056,1,2,3:1:0:0:
139,194,256125,1,8,3:0:0:0:
163,141,256193,1,2,3:2:0:0:
163,82,256261,1,8,3:0:0:0:
119,43,256329,1,2,3:1:0:0:
65,47,256397,1,8,3:0:0:0:
35,87,256466,1,2,3:2:0:0:
37,132,256534,1,8,3:0:0:0:
68,159,256602,1,2,3:1:0:0:
105,157,256670,1,8,3:0:0:0:
125,131,256738,1,2,3:2:0:0:
121,102,256806,1,8,3:0:0:0:
99,88,256875,5,4,3:1:0:0:
106,136,256943,1,8,2:3:0:0:
115,195,257011,1,8,2:3:0:0:
124,254,257079,1,8,2:3:0:0:
133,313,257147,5,8,2:0:0:0:
142,315,257216,1,0,3:0:0:0:
151,317,257284,1,0,3:0:0:0:
160,319,257352,1,8,2:3:0:0:
169,321,257420,5,8,2:3:0:0:
176,307,257488,1,8,2:3:0:0:
196,293,257556,1,8,2:3:0:0:
230,287,257625,1,8,2:3:0:0:
273,299,257693,1,0,3:0:0:0:
310,339,257761,1,8,2:3:0:0:
369,364,257829,1,8,2:3:0:0:
442,348,257897,1,8,2:3:0:0:
479,270,257966,1,6,3:0:0:0:
256,192,258034,12,0,264511,3:0:0:0:
