osu file format v14

[General]
AudioFilename: audio.mp3
AudioLeadIn: 0
PreviewTime: 205602
Countdown: 1
SampleSet: Drum
StackLeniency: 0.7
Mode: 0
LetterboxInBreaks: 0
WidescreenStoryboard: 0

[Editor]
DistanceSpacing: 1.3
BeatDivisor: 4
GridSize: 32
TimelineZoom: 3

[Metadata]
Title:Seishin no Kairi no, Sakebi to Nageki.
TitleUnicode:精神ノ乖離ノ、叫ビト嘆キ。
Artist:Imperial Circus Dead Decadence
ArtistUnicode:Imperial Circus Dead Decadence
Creator:Esutarosa
Version:Eien no Kurushimi.
Source:
Tags:Fushoku Ressentiment, Fushi Yoku No Sarugakuza. icdd val Kuon- Xahlt Gweon Sua -Kemsyt StripedGoose Sh4rq_ Blood9 turtatical Symphonic Melodic Death Metal Japanese 腐蝕ルサンチマン、不死欲の猿楽座。 featured artist fa mappers' guild mpg L.G.C. Last Governed Connector Sh3rg_
BeatmapID:3605633
BeatmapSetID:1761637

[Difficulty]
HPDrainRate:5
CircleSize:4.2
OverallDifficulty:9.6
ApproachRate:9.8
SliderMultiplier:2
SliderTickRate:0.5

[Events]
//Background and Video events
0,0,"bg.jpg",0,0
//Break Periods
2,153438,170214
2,205802,213850
//Storyboard Layer 0 (Background)
//Storyboard Layer 1 (Fail)
//Storyboard Layer 2 (Pass)
//Storyboard Layer 3 (Foreground)
//Storyboard Layer 4 (Overlay)
//Storyboard Sound Samples

[TimingPoints]
238,272.727272727273,4,3,1,65,1,0
1055,-100,4,3,0,65,0,0
1328,-100,4,3,1,65,0,0
3442,-100,4,3,1,5,0,0
3510,-100,4,3,1,65,0,0
5215,-1000,4,2,1,5,0,0
5283,-166.666666666667,4,3,1,65,0,0
5488,-1000,4,2,1,5,0,0
5556,-83.3333333333333,4,3,1,65,0,0
5624,-1000,4,2,1,5,0,0
5692,-83.3333333333333,4,3,1,65,0,0
7397,-1000,4,2,1,5,0,0
7465,-166.666666666667,4,3,1,65,0,0
7669,-1000,4,2,1,5,0,0
7738,-83.3333333333333,4,3,1,65,0,0
7806,-1000,4,2,1,5,0,0
7874,-166.666666666667,4,3,1,65,0,0
8078,-1000,4,2,1,5,0,0
8147,-83.3333333333333,4,3,1,40,0,0
8215,-83.3333333333333,4,3,1,53,0,0
8283,-83.3333333333333,4,3,1,65,0,0
8419,-250,4,3,1,65,0,0
8827,-83.3333333333333,4,3,1,65,0,0
9101,-250,4,3,1,65,0,0
9783,-250,4,3,7,65,0,0
9919,-250,4,3,8,65,0,0
10056,-250,4,3,1,65,0,0
11827,-166.666666666667,4,3,1,65,0,0
12033,-1000,4,2,1,5,0,0
12101,-83.3333333333333,4,3,1,65,0,0
12169,-1000,4,2,1,5,0,0
12238,-83.3333333333333,4,3,1,65,0,0
12509,-66.6666666666667,4,3,1,65,0,0
12715,-1000,4,2,1,5,0,0
12783,-66.6666666666667,4,3,1,65,0,0
13738,-166.666666666667,4,3,1,65,0,0
13942,-1000,4,2,1,5,0,0
14010,-83.3333333333333,4,3,1,65,0,0
14078,-1000,4,2,1,5,0,0
14147,-83.3333333333333,4,3,7,65,0,0
14283,-83.3333333333333,4,3,8,65,0,0
14419,-83.3333333333333,4,3,1,65,0,0
14556,-250,4,3,1,50,0,0
14692,-250,4,3,1,65,0,0
14964,-250,4,3,1,40,0,0
15032,-250,4,3,1,47,0,0
15100,-250,4,3,1,55,0,0
15238,-250,4,3,1,65,0,0
15373,-250,4,3,1,47,0,0
15441,-250,4,3,1,55,0,0
15509,-250,4,3,1,65,0,0
17692,-62.5,4,3,1,65,0,0
17760,-1000,4,2,1,5,0,0
17828,-62.5,4,3,1,65,0,0
18783,-200,4,3,1,65,0,0
18851,-1000,4,2,1,5,0,0
18919,-200,4,3,1,65,0,0
18988,-1000,4,2,1,5,0,0
19056,-83.3333333333333,4,3,1,65,0,0
19260,-1000,4,2,1,5,0,0
19328,-62.5,4,3,1,65,0,0
19601,-71.4285714285714,4,3,1,65,0,0
19874,-55.5555555555556,4,3,1,65,0,0
20147,-66.6666666666667,4,3,1,65,0,0
20419,-83.3333333333333,4,3,1,65,0,0
20692,-200,4,3,1,65,0,0
20760,-1000,4,2,1,5,0,0
20828,-200,4,3,1,65,0,0
20897,-1000,4,2,1,5,0,0
20965,-66.6666666666667,4,3,1,65,0,0
21238,-66.6666666666667,4,3,1,65,0,0
21647,-62.5,4,3,1,65,0,0
22056,-83.3333333333333,4,3,1,65,0,0
22465,-62.5,4,3,1,65,0,0
22874,-71.4285714285714,4,3,1,65,0,0
23147,-200,4,3,1,65,0,0
23215,-1000,4,2,1,5,0,0
23283,-200,4,3,1,65,0,0
23351,-1000,4,2,1,5,0,0
23419,-125,4,3,1,65,0,0
23624,-1000,4,2,1,5,0,0
23692,-55.5555555555556,4,3,1,65,0,0
24374,-100,4,3,1,65,0,0
25056,-200,4,3,1,65,0,0
25124,-1000,4,2,1,5,0,0
25192,-200,4,3,1,65,0,0
25260,-1000,4,2,1,5,0,0
25328,-200,4,3,1,65,0,0
25601,-125,4,3,1,65,0,0
27510,-200,4,3,1,65,0,0
27578,-1000,4,2,1,5,0,0
27647,-200,4,3,1,65,0,0
27715,-1000,4,2,1,5,0,0
27783,-100,4,3,1,65,0,0
27988,-1000,4,2,1,5,0,0
28056,-62.5,4,3,1,65,0,0
28329,-71.4285714285714,4,3,1,65,0,0
28601,-55.5555555555556,4,3,1,65,0,0
28874,-66.6666666666667,4,3,1,65,0,0
29147,-74.074074074074,4,3,1,65,0,0
30919,-55.5555555555556,4,3,1,65,0,0
30988,-1000,4,2,1,5,0,0
31056,-71.4285714285714,4,3,1,65,0,0
31124,-1000,4,2,1,5,0,0
31192,-71.4285714285714,4,3,1,65,0,0
31397,-1000,4,2,1,5,0,0
31465,-71.4285714285714,4,3,1,65,0,0
31601,-125,4,3,1,65,0,0
32419,-71.4285714285714,4,3,1,65,0,0
32965,-83.3333333333333,4,3,1,65,0,0
34056,-71.4285714285714,4,3,1,65,0,0
34874,-125,4,3,1,65,0,0
35419,-100,4,3,1,65,0,0
35965,-100,4,3,7,65,0,0
36033,-100,4,3,8,65,0,0
36101,-100,4,3,9,65,0,0
36238,-100,4,3,1,65,0,0
37601,-100,4,3,7,65,0,0
37806,-100,4,3,1,65,0,0
37942,-100,4,3,8,65,0,0
38010,-100,4,3,1,65,0,0
38079,-100,4,3,8,65,0,0
38147,-100,4,3,9,65,0,0
38419,-100,4,3,1,65,0,0
38760,-1000,4,2,1,5,0,0
38829,-100,4,3,10,65,0,0
39101,-100,4,3,1,65,0,0
39647,-200,4,3,1,65,0,0
39851,-1000,4,2,1,5,0,0
39919,-200,4,3,1,65,0,0
39988,-1000,4,2,1,5,0,0
40056,-200,4,3,1,65,0,0
40601,-71.4285714285714,4,3,1,65,0,0
40806,-1000,4,2,1,5,0,0
40874,-333.333333333333,4,3,1,65,0,0
41078,-1000,4,2,1,5,0,0
41147,-62.5,4,3,1,65,0,0
41351,-1000,4,2,1,5,0,0
41419,-62.5,4,3,1,65,0,0
41760,-1000,4,2,1,5,0,0
41829,-333.333333333333,4,3,1,65,0,0
42033,-1000,4,2,1,5,0,0
42101,-333.333333333333,4,3,1,65,0,0
42647,-55.5555555555556,4,3,1,65,0,0
42988,-1000,4,2,1,5,0,0
43056,-50,4,3,1,65,0,0
43260,-1000,4,2,1,5,0,0
43328,-50,4,3,1,65,0,0
43806,-1000,4,2,1,5,0,0
43874,-50,4,3,1,65,0,0
44010,-62.5,4,3,1,65,0,0
44215,-1000,4,2,1,5,0,0
44283,-62.5,4,3,1,65,0,0
45169,-1000,4,2,1,5,0,0
45238,-62.5,4,3,1,65,0,0
45783,-55.5555555555556,4,3,1,65,0,0
45988,-1000,4,2,1,5,0,0
46056,-55.5555555555556,4,3,1,65,0,0
46192,-62.5,4,3,1,65,0,0
46397,-1000,4,2,1,5,0,0
46465,-62.5,4,3,1,65,0,0
47419,-83.3333333333333,4,3,1,65,0,0
47624,-1000,4,2,1,5,0,0
47692,-83.3333333333333,4,3,1,65,0,0
47829,-55.5555555555556,4,3,1,65,0,0
48169,-1000,4,2,1,5,0,0
48238,-55.5555555555556,4,3,1,65,0,0
48647,-250,4,3,1,65,0,0
48919,-250,4,3,7,65,0,0
49056,-250,4,3,8,65,0,0
49192,-250,4,3,1,65,0,0
49329,-55.5555555555556,4,3,1,65,0,0
49601,-66.6666666666667,4,3,1,65,0,0
50283,-55.5555555555556,4,3,1,65,0,0
50556,-66.6666666666667,4,3,1,65,0,0
50829,-50,4,3,1,65,0,0
51033,-1000,4,2,1,5,0,0
51101,-50,4,3,1,65,0,0
51238,-55.5555555555556,4,3,1,65,0,0
51442,-1000,4,2,1,5,0,0
51510,-62.5,4,3,1,65,0,0
51715,-1000,4,2,1,5,0,0
51783,-62.5,4,3,1,65,0,0
53010,-50,4,3,1,65,0,0
53692,-55.5555555555556,4,3,1,65,0,0
53897,-1000,4,2,1,5,0,0
53965,-333.333333333333,4,3,1,65,0,0
54169,-1000,4,2,1,5,0,0
54238,-62.5,4,3,1,65,0,0
54442,-1000,4,2,1,5,0,0
54510,-125,4,3,1,65,0,0
54715,-1000,4,2,1,5,0,0
54783,-125,4,3,1,65,0,0
55874,-71.4285714285714,4,3,1,65,0,0
56147,-62.5,4,3,1,65,0,0
56351,-1000,4,2,1,5,0,0
56419,-62.5,4,3,1,65,0,0
56556,-55.5555555555556,4,3,1,65,0,0
56760,-1000,4,2,1,5,0,0
56828,-55.5555555555556,4,3,1,65,0,0
57374,-55.5555555555556,4,3,7,65,0,0
57510,-55.5555555555556,4,3,1,65,0,0
57647,-55.5555555555556,4,3,8,65,0,0
57783,-55.5555555555556,4,3,9,65,0,0
57919,-55.5555555555556,4,3,1,65,0,0
63919,-55.5555555555556,4,3,7,65,0,0
64056,-55.5555555555556,4,3,8,65,0,0
64192,-55.5555555555556,4,3,1,65,0,0
64329,-55.5555555555556,4,3,8,65,0,0
64465,-83.3333333333333,4,3,9,65,0,0
64601,-66.6666666666667,4,3,1,65,0,0
64738,-55.5555555555556,4,3,1,65,0,0
64942,-1000,4,2,1,5,0,0
65010,-55.5555555555556,4,3,1,65,0,0
65078,-1000,4,2,1,5,0,0
65147,-66.6666666666667,4,3,1,65,0,0
65215,-1000,4,2,1,5,0,0
65283,-333.333333333333,4,3,1,65,0,0
65488,-1000,4,2,1,5,0,0
65556,-333.333333333333,4,3,1,65,0,0
65897,-1000,4,2,1,5,0,0
65966,272.727272727273,4,3,1,65,1,0
67602,-66.6666666666667,4,3,1,65,0,0
68829,-55.5555555555556,4,3,1,65,0,0
69784,-66.6666666666667,4,3,1,65,0,0
71557,-71.4285714285714,4,3,1,65,0,0
73057,-66.6666666666667,4,3,1,65,0,0
77011,-76.9230769230769,4,3,1,65,0,0
78511,-83.3333333333333,4,3,1,65,0,0
78784,-100,4,3,1,65,0,0
79602,-83.3333333333333,4,3,1,65,0,0
80216,-1000,4,2,1,5,0,0
80284,-83.3333333333333,4,3,1,65,0,0
80557,-111.111111111111,4,3,1,65,0,0
81102,-111.111111111111,4,3,7,65,0,0
81238,-111.111111111111,4,3,1,65,0,0
83011,-100,4,3,1,65,0,0
83079,-1000,4,2,1,5,0,0
83147,-100,4,3,1,65,0,0
83352,-1000,4,2,1,5,0,0
83420,-76.9230769230769,4,3,1,65,0,0
83625,-1000,4,2,1,5,0,0
83693,-76.9230769230769,4,3,1,65,0,0
83897,-1000,4,2,1,5,0,0
83966,-76.9230769230769,4,3,1,65,0,0
84920,-100,4,3,1,65,0,0
84988,-1000,4,2,1,5,0,0
85056,-100,4,3,1,65,0,0
85261,-1000,4,2,1,5,0,0
85329,-100,4,3,1,65,0,0
87920,-100,4,3,7,65,0,0
88056,-100,4,3,8,65,0,0
88193,-100,4,3,1,65,0,0
88329,-100,4,3,7,65,0,0
88466,-100,4,3,8,65,0,0
88602,-100,4,3,1,65,0,0
89966,-58.8235294117647,4,3,1,65,0,0
90170,-1000,4,2,1,5,0,0
90238,-58.8235294117647,4,3,1,65,0,0
90375,-66.6666666666667,4,3,1,65,0,0
90511,-58.8235294117647,4,3,1,65,0,0
98216,-1000,4,2,1,5,0,0
98284,-58.8235294117647,4,3,1,65,0,0
98897,-1000,4,2,1,5,0,0
98966,-111.111111111111,4,3,1,65,0,0
99511,-66.6666666666667,4,3,1,65,0,0
99716,-1000,4,2,1,5,0,0
99784,-66.6666666666667,4,3,1,65,0,0
101352,-1000,4,2,1,5,0,0
101420,-66.6666666666667,4,3,1,65,0,0
102034,-1000,4,2,1,5,0,0
102102,-66.6666666666667,4,3,1,65,0,0
102579,-1000,4,2,1,5,0,0
102647,-66.6666666666667,4,3,1,65,0,0
102784,-83.3333333333333,4,3,1,65,0,0
102852,-1000,4,2,1,5,0,0
102920,-83.3333333333333,4,3,1,65,0,0
102988,-1000,4,2,1,5,0,0
103056,-83.3333333333333,4,3,1,65,0,0
103875,-66.6666666666667,4,3,1,65,0,0
104966,-66.6666666666667,4,3,7,65,0,0
105102,-66.6666666666667,4,3,8,65,0,0
105238,-66.6666666666667,4,3,1,65,0,0
107352,-1000,4,2,1,5,0,0
107420,-66.6666666666667,4,3,10,65,0,0
108511,-66.6666666666667,4,3,1,65,0,0
109466,-55.5555555555556,4,3,1,65,0,0
109534,-1000,4,2,1,5,0,0
109602,-55.5555555555556,4,3,1,65,0,0
109875,-62.5,4,3,1,65,0,0
110079,-1000,4,2,1,5,0,0
110147,-62.5,4,3,1,65,0,0
110829,-55.5555555555556,4,3,1,65,0,0
111034,-1000,4,2,1,5,0,0
111102,-55.5555555555556,4,3,1,65,0,0
111443,-1000,4,2,1,5,0,0
111511,-55.5555555555556,4,3,1,65,0,0
111784,-71.4285714285714,4,3,1,65,0,0
112193,-55.5555555555556,4,3,1,65,0,0
112602,-50,4,3,1,65,0,0
112806,-1000,4,2,1,5,0,0
112875,-50,4,3,1,65,0,0
113011,-62.5,4,3,1,65,0,0
113216,-1000,4,2,1,5,0,0
113284,-62.5,4,3,1,65,0,0
113966,-55.5555555555556,4,3,1,65,0,0
114647,-66.6666666666667,4,3,1,65,0,0
114988,-1000,4,2,1,5,0,0
115056,-66.6666666666667,4,3,1,65,0,0
115466,-125,4,3,1,65,0,0
115670,-1000,4,2,1,5,0,0
115738,-125,4,3,1,65,0,0
115875,-500,4,3,7,65,0,0
116011,-500,4,3,1,65,0,0
116147,-50,4,3,1,65,0,0
116420,-55.5555555555556,4,3,1,65,0,0
117102,-50,4,3,1,65,0,0
117375,-55.5555555555556,4,3,1,65,0,0
117647,-50,4,3,1,65,0,0
117852,-1000,4,2,1,5,0,0
117920,-50,4,3,1,65,0,0
118057,-55.5555555555556,4,3,1,65,0,0
118261,-1000,4,2,1,5,0,0
118329,-62.5,4,3,1,65,0,0
118534,-1000,4,2,1,5,0,0
118602,-62.5,4,3,1,65,0,0
119829,-50,4,3,1,65,0,0
120511,-250,4,3,1,65,0,0
120716,-1000,4,2,1,5,0,0
120784,-83.3333333333333,4,3,1,65,0,0
120988,-1000,4,2,1,5,0,0
121057,-55.5555555555556,4,3,1,65,0,0
121261,-1000,4,2,1,5,0,0
121329,-55.5555555555556,4,3,1,65,0,0
121534,-1000,4,2,1,5,0,0
121602,-55.5555555555556,4,3,1,65,0,0
122693,-62.5,4,3,1,65,0,0
123170,-1000,4,2,1,5,0,0
123238,-62.5,4,3,1,65,0,0
123579,-1000,4,2,1,5,0,0
123647,-62.5,4,3,1,65,0,0
124193,-62.5,4,3,7,65,0,0
124329,-62.5,4,3,1,65,0,0
132238,-62.5,4,3,8,65,0,0
132374,-62.5,4,3,7,65,0,0
132511,-62.5,4,3,1,65,0,0
132648,-62.5,4,3,9,65,0,0
132784,-83.3333333333333,4,3,8,65,0,0
132920,-83.3333333333333,4,3,7,65,0,0
133056,-83.3333333333333,4,3,1,65,0,0
135375,-100,4,3,1,65,0,0
136738,-76.9230769230769,4,3,1,65,0,0
137693,-100,4,3,1,65,0,0
139466,-117.647058823529,4,3,1,65,0,0
139738,-142.857142857143,4,3,1,65,0,0
140011,-181.818181818181,4,3,1,65,0,0
140693,-83.3333333333333,4,3,1,65,0,0
140966,-100,4,3,1,65,0,0
146829,-62.5,4,3,1,65,0,0
147238,-100,4,3,1,65,0,0
147511,-58.8235294117647,4,3,1,65,0,0
148875,-200,4,3,1,65,0,0
149011,-200,4,3,1,5,0,0
153238,-200,4,3,1,65,0,0
171511,-1000,4,3,1,65,0,0
171852,-1000,4,2,1,5,0,0
171920,-1000,4,3,1,65,0,0
172329,-333.333333333333,4,3,1,65,0,0
172534,-1000,4,2,1,5,0,0
172602,-333.333333333333,4,3,1,65,0,0
172875,-1000,4,3,1,65,0,0
173216,-1000,4,2,1,5,0,0
173284,-1000,4,3,1,65,0,0
173693,-333.333333333333,4,3,1,65,0,0
173897,-1000,4,2,1,5,0,0
173966,-333.333333333333,4,3,1,65,0,0
175875,-500,4,3,1,65,0,0
177920,-400,4,3,1,65,0,0
178602,-500,4,3,1,65,0,0
178806,-1000,4,2,1,5,0,0
178875,-500,4,3,1,65,0,0
179420,-1000,4,3,1,65,0,0
179761,-1000,4,2,1,5,0,0
179829,-1000,4,3,1,65,0,0
180238,-333.333333333333,4,3,1,65,0,0
185829,-222.222222222222,4,3,1,65,0,0
186375,-333.333333333333,4,3,1,65,0,0
186579,-1000,4,2,1,5,0,0
186647,-333.333333333333,4,3,1,65,0,0
187466,-181.818181818182,4,3,1,65,0,0
187602,-153.846153846154,4,3,1,65,0,0
188420,-50,4,3,1,65,0,0
189102,-100,4,3,1,65,0,0
189852,-1000,4,2,1,5,0,0
189920,-100,4,3,1,65,0,0
190057,-76.9230769230769,4,3,1,65,0,0
190125,-1000,4,2,1,5,0,0
190193,-76.9230769230769,4,3,1,65,0,0
190329,-133.333333333333,4,3,1,65,0,0
190397,-1000,4,2,1,5,0,0
190466,-133.333333333333,4,3,1,65,0,0
190534,-1000,4,2,1,5,0,0
190602,-83.3333333333333,4,3,1,65,0,0
190875,-133.333333333333,4,3,1,65,0,0
191011,-66.6666666666667,4,3,1,65,0,0
191216,-1000,4,2,1,5,0,0
191284,-399.999999999997,4,3,1,65,0,0
191488,-1000,4,2,1,5,0,0
191556,-399.999999999997,4,3,1,65,0,0
191829,-399.999999999997,4,3,7,65,0,0
191966,-399.999999999997,4,3,1,65,0,0
192102,-399.999999999997,4,3,8,65,0,0
192238,-399.999999999997,4,3,1,65,0,0
192375,-399.999999999997,4,3,9,65,0,0
192443,-399.999999999997,4,3,1,65,0,0
192511,-80,4,3,1,65,0,0
193056,-80,4,3,7,65,0,0
193192,-80,4,3,1,65,0,0
195511,-133.333333333333,4,3,1,65,0,0
196602,-133.333333333333,4,3,7,65,0,0
196875,-62.5,4,3,1,65,0,0
196943,-1000,4,2,1,5,0,0
197011,-62.5,4,3,1,65,0,0
197079,-1000,4,2,1,5,0,0
197147,-71.4285714285714,4,3,1,65,0,0
197352,-1000,4,2,1,5,0,0
197420,-71.4285714285714,4,3,1,65,0,0
197693,-62.5,4,3,1,65,0,0
197897,-1000,4,2,1,5,0,0
197966,-62.5,4,3,1,65,0,0
198238,-50,4,3,1,65,0,0
198511,-55.5555555555556,4,3,1,65,0,0
198784,-50,4,3,1,65,0,0
198988,-1000,4,2,1,5,0,0
199056,-50,4,3,1,65,0,0
199193,-62.5,4,3,1,65,0,0
199261,-1000,4,2,1,5,0,0
199329,-62.5,4,3,1,65,0,0
200284,-55.5555555555556,4,3,1,65,0,0
200488,-1000,4,2,1,5,0,0
200556,-55.5555555555556,4,3,1,65,0,0
216102,-100,4,3,1,65,0,0
217466,-76.9230769230769,4,3,1,65,0,0
218420,-100,4,3,1,65,0,0
219238,-83.3333333333333,4,3,1,65,0,0
221079,-1000,4,2,1,5,0,0
221147,-83.3333333333333,4,3,1,65,0,0
221625,-1000,4,2,1,5,0,0
221693,-83.3333333333333,4,3,1,65,0,0
226057,-100,4,3,1,65,0,0
226193,-76.9230769230769,4,3,1,65,0,0
226875,-66.6666666666667,4,3,1,65,0,0
227147,-76.9230769230769,4,3,1,65,0,0
229193,-142.857142857143,4,3,1,65,0,0
229465,-181.818181818181,4,3,1,65,0,0
230147,-83.3333333333333,4,3,1,65,0,0
230420,-100,4,3,1,65,0,0
233966,-62.5,4,3,1,65,0,0
235602,-76.9230769230769,4,3,1,65,0,0
235875,-90.9090909090909,4,3,1,65,0,0
236693,-71.4285714285714,4,3,1,65,0,0
237784,-100,4,3,1,65,0,0
237988,-1000,4,2,1,5,0,0
238057,-125,4,3,1,65,0,0
238261,-1000,4,2,1,5,0,0
238329,-55.5555555555556,4,3,1,65,0,0
238534,-1000,4,2,1,5,0,0
238602,-55.5555555555556,4,3,1,65,0,0
238875,-62.5,4,3,1,65,0,0
239147,-71.4285714285714,4,3,1,65,0,0
239420,-55.5555555555556,4,3,1,65,0,0
239693,-66.6666666666667,4,3,1,65,0,0
239966,-83.3333333333333,4,3,1,65,0,0
240238,-200,4,3,1,65,0,0
240306,-1000,4,2,1,5,0,0
240375,-200,4,3,1,65,0,0
240443,-1000,4,2,1,5,0,0
240511,-66.6666666666667,4,3,1,65,0,0
241193,-58.8235294117647,4,3,1,65,0,0
241602,-83.3333333333333,4,3,1,65,0,0
241943,-1000,4,2,1,5,0,0
242011,-62.5,4,3,1,65,0,0
242420,-71.4285714285714,4,3,1,65,0,0
242693,-200,4,3,1,65,0,0
242761,-1000,4,2,1,5,0,0
242829,-200,4,3,1,65,0,0
242897,-1000,4,2,1,5,0,0
242966,-125,4,3,1,65,0,0
243238,-71.4285714285714,4,3,1,65,0,0
243920,-100,4,3,1,65,0,0
244602,-200,4,3,1,65,0,0
244670,-1000,4,2,1,5,0,0
244738,-200,4,3,1,65,0,0
244806,-1000,4,2,1,5,0,0
244875,-200,4,3,1,65,0,0
245147,-125,4,3,1,65,0,0
247057,-200,4,3,1,65,0,0
247125,-1000,4,2,1,5,0,0
247193,-200,4,3,1,65,0,0
247261,-1000,4,2,1,5,0,0
247329,-100,4,3,1,65,0,0
247534,-1000,4,2,1,5,0,0
247602,-62.5,4,3,1,65,0,0
247875,-71.4285714285714,4,3,1,65,0,0
248147,-55.5555555555556,4,3,1,65,0,0
248420,-66.6666666666667,4,3,1,65,0,0
248693,-74.074074074074,4,3,1,65,0,0
250466,-55.5555555555556,4,3,1,65,0,0
250534,-1000,4,2,1,5,0,0
250602,-71.4285714285714,4,3,1,65,0,0
250670,-1000,4,2,1,5,0,0
250738,-71.4285714285714,4,3,1,65,0,0
251147,-125,4,3,1,65,0,0
251966,-71.4285714285714,4,3,1,65,0,0
252511,-83.3333333333333,4,3,1,65,0,0
253602,-71.4285714285714,4,3,1,65,0,0
254216,-1000,4,2,1,5,0,0
254284,-71.4285714285714,4,3,1,65,0,0
254420,-125,4,3,1,65,0,0
254966,-142.857142857143,4,3,1,65,0,0
255511,-142.857142857143,4,3,7,65,0,0
255647,-142.857142857143,4,3,1,65,0,0
257216,-142.857142857143,4,3,7,65,0,0
257352,-142.857142857143,4,3,1,65,0,0
257693,-142.857142857143,4,3,8,65,0,0
257761,-142.857142857143,4,3,1,65,0,0
264511,-142.857142857143,4,3,1,5,0,0

[Colours]
Combo1 : 128,128,255
Combo2 : 255,128,128

[HitObjects]
131,299,1055,5,2,2:0:0:0:
145,271,1123,1,2,2:0:0:0:
131,223,1191,1,2,2:0:0:0:
82,191,1259,1,2,2:0:0:0:
64,124,1328,1,6,3:0:0:0:
256,192,1397,12,0,3442,3:0:0:0:
256,192,3510,5,6,3:0:0:0:
256,192,3578,12,0,5215,3:0:0:0:
397,296,5283,6,0,L|302:287,1,89.9999972534181,8|0,2:3|3:0,3:0:0:0:
365,313,5556,2,0,L|454:321,1,59.9999981689454,8|0,2:3|3:0,3:0:0:0:
497,325,5693,5,4,3:2:0:0:
256,192,5761,12,0,7398,3:0:0:0:
150,287,7465,6,0,L|169:386,1,89.9999972534181,8|0,2:0|3:0,3:0:0:0:
131,317,7738,2,0,L|112:218,1,59.9999981689454,8|0,2:0|3:0,3:0:0:0:
102,182,7874,6,0,L|201:201,1,89.9999972534181,6|0,3:0|3:0,3:0:0:0:
139,171,8147,2,0,L|56:155,1,59.9999981689454,8|8,2:3|2:3,3:0:0:0:
6,144,8283,5,4,3:2:0:0:
0,135,8419,2,0,L|20:131,4,20,8|8|8|8|4,3:0|2:3|2:3|2:3|3:2,3:0:0:0:
186,43,8827,6,0,L|201:125,1,59.9999981689454,8|8,2:3|2:3,3:0:0:0:
215,184,8965,5,6,3:0:0:0:
225,192,9101,2,0,L|205:200,2,20,2|8|4,2:3|2:3|3:2,3:0:0:0:
150,300,9374,2,0,L|170:308,2,20,8|8|2,2:3|2:3|3:0,3:0:0:0:
268,366,9647,5,8,2:3:0:0:
266,369,9715,1,8,2:3:0:0:
265,372,9783,1,0,3:0:0:0:
265,375,9851,1,0,3:0:0:0:
264,378,9919,1,0,3:0:0:0:
264,381,9988,1,0,3:0:0:0:
264,384,10056,5,6,3:0:0:0:
286,377,10327,1,2,3:0:0:0:
308,370,10600,1,2,3:0:0:0:
331,363,10873,1,2,3:0:0:0:
354,356,11146,5,2,3:0:0:0:
361,308,11418,1,2,3:0:0:0:
368,260,11691,1,2,3:0:0:0:
268,200,11827,6,0,L|284:296,1,89.9999972534181,8|0,2:3|3:0,3:0:0:0:
293,231,12101,2,0,L|278:146,1,59.9999981689454,10|0,3:0|3:0,3:0:0:0:
269,99,12238,5,2,3:0:0:0:
491,95,12509,6,0,B|416:48|416:48|450:184,1,225.000008583069,14|0,3:0|3:0,3:0:0:0:
455,198,12783,1,2,3:0:0:0:
461,221,13055,1,2,3:0:0:0:
468,244,13327,1,2,3:0:0:0:
474,266,13600,1,2,3:0:0:0:
303,314,13738,6,0,L|418:332,1,89.9999972534181,8|0,2:3|3:0,3:0:0:0:
329,337,14010,2,0,L|240:323,1,59.9999981689454,8|0,2:3|3:0,3:0:0:0:
139,275,14147,5,0,3:0:0:0:
179,362,14283,1,0,3:0:0:0:
27,288,14419,5,6,3:0:0:0:
23,281,14556,2,0,L|29:257,2,20,8|8|8,2:3|2:3|2:3,3:0:0:0:
237,223,14827,5,2,3:0:0:0:
241,216,14964,2,0,L|235:192,2,20,2|8|8,2:3|2:3|2:3,3:0:0:0:
74,113,15238,5,2,3:0:0:0:
70,106,15373,2,0,L|76:82,2,20,8|8|2,2:3|2:3|3:0,3:0:0:0:
225,1,15647,5,8,2:3:0:0:
220,24,15715,1,8,2:3:0:0:
215,47,15783,1,2,3:0:0:0:
351,22,15919,5,8,2:3:0:0:
347,38,15987,1,8,2:3:0:0:
343,55,16055,1,2,3:0:0:0:
466,40,16192,5,8,2:3:0:0:
463,51,16260,1,8,2:3:0:0:
461,63,16329,2,0,L|435:69,3,20,2|8|2|8,3:0|2:3|3:0|2:3,3:0:0:0:
360,198,16601,5,6,3:0:0:0:
362,216,16669,1,0,3:0:0:0:
374,236,16738,1,10,2:3:0:0:
397,246,16806,1,0,3:0:0:0:
423,245,16874,1,8,2:3:0:0:
445,228,16942,1,8,2:3:0:0:
458,200,17010,1,8,2:3:0:0:
449,169,17077,1,0,3:0:0:0:
426,148,17146,1,10,3:0:0:0:
393,133,17214,1,0,3:0:0:0:
356,135,17282,1,10,3:0:0:0:
318,146,17350,1,0,3:0:0:0:
285,171,17418,1,10,2:3:0:0:
260,208,17487,1,8,2:3:0:0:
249,253,17555,1,10,2:3:0:0:
251,301,17623,1,8,2:3:0:0:
272,347,17692,6,0,P|309:352|379:402,1,80,14|0,3:0|3:0,3:0:0:0:
324,105,18783,6,0,L|285:99,1,25,6|0,3:0|3:0,3:0:0:0:
310,93,18919,2,0,L|334:96,1,25,10|0,3:0|3:0,3:0:0:0:
309,5,19056,6,0,B|317:92|317:92|321:94|321:94|331:181,1,179.999994506836,0|0,3:0|3:0,3:0:0:0:
401,238,19328,6,0,B|333:196|333:196|273:250,1,160,0|10,3:0|3:0,3:0:0:0:
247,342,19601,2,0,B|194:389|194:389|134:352,1,139.999995727539,0|10,3:0|3:0,3:0:0:0:
66,260,19874,6,0,B|15:284|23:343|23:343|32:297|63:276,1,179.999994506836,0|10,3:0|3:0,3:0:0:0:
153,186,20147,2,0,B|193:208|183:258|183:258|177:220|153:201,1,150.000005722046,0|10,3:0|3:0,3:0:0:0:
91,107,20419,2,0,B|57:121|60:160|60:160|67:130|88:117,1,119.999996337891,0|10,3:0|3:0,3:0:0:0:
166,24,20692,6,0,L|171:-1,1,25,0|0,3:0|3:0,3:0:0:0:
176,35,20829,2,0,L|181:59,1,25,10|0,3:0|3:0,3:0:0:0:
58,9,20965,6,0,B|167:25|167:25|169:30|169:30|282:48,1,225.000008583069,4|0,3:2|3:0,3:0:0:0:
355,63,21238,5,0,3:0:0:0:
355,63,21306,1,0,3:0:0:0:
355,63,21374,1,10,3:0:0:0:
477,33,21510,5,0,3:0:0:0:
270,153,21647,2,0,B|251:195|271:232|271:232|310:251|322:308,1,160,10|0,3:0|3:0,3:0:0:0:
331,381,21851,1,0,3:0:0:0:
331,381,21919,1,10,3:0:0:0:
430,302,22056,2,0,B|429:260|410:239|410:239|450:218|461:176,1,119.999996337891,0|10,3:0|3:0,3:0:0:0:
484,44,22329,6,0,P|427:68|411:86,1,59.9999981689454,0|0,3:0|3:0,3:0:0:0:
358,148,22465,2,0,B|318:171|277:142|277:142|273:96|208:65,1,160,10|0,3:0|3:0,3:0:0:0:
108,5,22738,5,10,3:0:0:0:
260,160,22874,2,0,P|239:208|214:231,1,69.9999978637696,0|0,3:0|3:0,3:0:0:0:
122,278,23010,1,10,3:0:0:0:
192,363,23147,6,0,L|223:357,1,25,4|0,3:1|3:0,3:0:0:0:
199,350,23283,2,0,L|174:354,1,25,10|0,3:0|3:0,3:0:0:0:
72,163,23419,6,0,P|80:124|76:163,1,120,0|0,3:0|3:0,3:0:0:0:
25,236,23692,2,0,B|128:280|203:208|160:162|247:85|342:130,1,359.999989013672,0|0,3:0|3:0,3:0:0:0:
416,248,24101,5,10,3:0:0:0:
220,180,24238,1,0,3:0:0:0:
305,271,24374,2,0,B|318:244|294:225|294:225|279:251|298:275,1,100,10|0,3:0|3:0,3:0:0:0:
117,271,24647,5,10,3:0:0:0:
347,157,24783,1,0,3:0:0:0:
224,334,24919,1,10,3:0:0:0:
204,159,25056,6,0,L|232:164,1,25,0|0,3:0|3:0,3:0:0:0:
213,172,25192,2,0,L|188:167,1,25,10|0,3:0|3:0,3:0:0:0:
414,366,25329,5,4,3:2:0:0:
469,176,25465,1,10,3:0:0:0:
346,269,25601,2,0,L|389:280,2,40,0|0|10,3:0|3:0|3:0,3:0:0:0:
300,81,25874,5,0,3:0:0:0:
386,187,26010,1,10,3:0:0:0:
443,1,26147,1,0,3:0:0:0:
443,1,26215,1,0,3:0:0:0:
443,1,26283,1,10,3:0:0:0:
273,175,26419,5,0,3:0:0:0:
193,61,26556,1,10,3:0:0:0:
149,221,26692,2,0,L|190:202,2,40,0|0|10,3:0|3:0|3:0,3:0:0:0:
299,6,26965,5,0,3:0:0:0:
336,52,27033,1,0,3:0:0:0:
330,111,27101,1,10,3:0:0:0:
288,153,27169,1,0,3:0:0:0:
227,153,27238,1,4,3:2:0:0:
181,177,27306,1,0,3:0:0:0:
166,220,27374,1,10,3:0:0:0:
176,249,27442,1,0,3:0:0:0:
191,263,27510,6,0,L|221:258,1,25,6|0,3:0|3:0,3:0:0:0:
207,269,27647,2,0,L|182:273,1,25,10|0,3:0|3:0,3:0:0:0:
38,118,27783,6,0,B|62:150|104:146|104:146|104:139|104:139|68:138|46:112,1,150,0|0,3:0|3:0,3:0:0:0:
109,59,28056,2,0,P|74:146|46:242,1,160,0|10,3:0|3:0,3:0:0:0:
180,363,28329,2,0,P|164:294|142:228,1,139.999995727539,0|10,3:0|3:0,3:0:0:0:
247,136,28601,6,0,B|257:110|257:110|310:153|310:153|291:213|291:213|273:200,1,179.999994506836,0|10,3:0|3:0,3:0:0:0:
320,343,28874,2,0,B|328:364|328:364|373:328|373:328|356:278|356:278|341:289,1,150.000005722046,0|10,3:0|3:0,3:0:0:0:
442,140,29147,6,0,B|396:148|391:189|391:189|423:203|438:242,2,135.000000514984,0|10|0,3:0|3:0|3:0,3:0:0:0:
359,272,29556,1,10,3:0:0:0:
123,326,29692,5,6,3:0:0:0:
53,208,29829,1,10,3:0:0:0:
123,124,29965,1,2,3:0:0:0:
123,124,30033,1,0,3:0:0:0:
123,124,30101,1,10,3:0:0:0:
0,319,30238,5,0,3:0:0:0:
248,258,30374,1,10,3:0:0:0:
185,202,30510,5,0,3:0:0:0:
185,202,30579,1,0,3:0:0:0:
185,202,30647,1,10,3:0:0:0:
353,260,30783,1,0,3:0:0:0:
313,171,30919,6,0,B|290:169|275:150|275:150|272:176|291:190,1,89.9999972534181,10|0,3:1|3:0,3:0:0:0:
316,164,31056,2,0,B|298:160|287:147|287:147|284:168|299:179,1,69.9999978637696,10|0,3:1|3:0,3:0:0:0:
288,327,31192,6,0,B|345:281|311:210|311:210|251:199|264:112,1,209.999993591309,2|0,3:0|3:0,3:0:0:0:
259,76,31465,1,10,3:1:0:0:
316,0,31601,2,0,L|326:42,2,40,2|0|10,3:1|3:0|3:0,3:0:0:0:
103,180,31874,5,6,3:0:0:0:
58,106,32010,1,10,3:0:0:0:
58,106,32079,1,0,3:0:0:0:
58,106,32147,1,0,3:0:0:0:
106,169,32283,1,10,3:0:0:0:
92,24,32419,6,0,B|102:12|105:2|105:2|151:10|169:62|129:109,2,139.999995727539,0|10|0,3:0|3:0|3:0,3:0:0:0:
230,211,32829,5,10,3:0:0:0:
5,179,32965,2,0,B|7:222|39:231|39:231|16:208|16:181,2,119.999996337891,0|10|0,3:0|3:0|3:0,3:0:0:0:
174,306,33374,5,10,3:0:0:0:
316,204,33510,1,0,3:0:0:0:
215,122,33647,1,10,3:0:0:0:
281,78,33783,1,0,3:0:0:0:
286,351,33919,5,10,3:0:0:0:
57,249,34056,2,0,B|-9:219|-4:150|50:99|114:139|114:139|99:177|124:214,1,279.999991455078,6|0,3:0|3:0,3:0:0:0:
175,268,34397,1,0,3:0:0:0:
175,268,34465,2,0,B|262:232|237:107|141:132|141:132|120:166|138:201,1,279.999991455078,10|10,3:0|3:0,3:0:0:0:
346,375,34874,6,0,L|359:319,2,40,0|0|10,3:0|3:0|3:0,3:0:0:0:
461,208,35147,5,0,3:0:0:0:
459,200,35215,1,0,3:0:0:0:
457,192,35283,1,10,3:0:0:0:
455,184,35351,1,0,3:0:0:0:
453,176,35419,2,0,P|437:156|416:138,1,50,0|0,3:0|3:0,3:0:0:0:
302,94,35556,5,10,3:0:0:0:
304,86,35624,1,0,3:0:0:0:
306,78,35692,1,0,3:0:0:0:
308,70,35760,1,0,3:0:0:0:
310,62,35828,2,0,P|326:42|347:24,1,50,10|0,3:0|3:0,3:0:0:0:
329,222,35965,5,0,3:0:0:0:
347,230,36033,1,0,3:0:0:0:
378,229,36101,1,0,3:0:0:0:
408,198,36169,1,0,3:0:0:0:
406,144,36238,5,6,3:0:0:0:
362,110,36306,1,8,3:0:0:0:
307,110,36374,1,0,3:0:0:0:
265,145,36442,1,8,3:0:0:0:
250,197,36510,1,2,3:2:0:0:
199,220,36579,1,8,3:0:0:0:
147,201,36647,1,2,3:2:0:0:
130,148,36715,1,8,3:0:0:0:
163,104,36783,5,2,3:1:0:0:
195,147,36851,1,8,3:0:0:0:
188,201,36919,1,2,3:2:0:0:
138,226,36988,1,8,3:0:0:0:
84,216,37056,1,2,3:1:0:0:
52,243,37124,1,8,3:0:0:0:
55,281,37192,1,2,3:2:0:0:
78,298,37260,1,8,3:0:0:0:
97,294,37329,5,6,3:0:0:0:
99,234,37397,1,8,2:3:0:0:
81,176,37465,1,8,2:3:0:0:
54,122,37533,1,8,3:0:0:0:
12,78,37601,1,0,3:0:0:0:
200,0,37738,5,0,3:0:0:0:
232,49,37806,1,8,3:0:0:0:
213,98,37874,1,8,3:0:0:0:
168,106,37942,1,0,3:0:0:0:
139,82,38010,1,8,3:0:0:0:
150,49,38079,1,0,3:0:0:0:
178,43,38147,1,0,3:0:0:0:
196,59,38215,1,0,3:0:0:0:
195,80,38283,1,0,3:0:0:0:
180,87,38351,1,0,3:0:0:0:
172,84,38419,2,0,P|324:34|451:14,1,250,4|0,3:1|3:0,3:0:0:0:
492,18,38829,5,0,3:0:0:0:
487,85,38965,1,0,3:0:0:0:
411,115,39101,1,8,3:0:0:0:
337,62,39237,1,8,3:0:0:0:
217,75,39374,1,4,3:2:0:0:
171,227,39510,5,4,3:1:0:0:
171,227,39647,2,0,L|258:242,1,75,8|0,3:0|3:0,3:0:0:0:
262,252,39919,2,0,L|225:245,1,25,8|0,3:0|3:0,3:0:0:0:
40,329,40056,5,4,3:2:0:0:
93,275,40192,1,8,3:0:0:0:
100,175,40329,1,4,3:2:0:0:
1,49,40465,5,8,3:0:0:0:
1,49,40533,1,0,3:0:0:0:
1,49,40601,2,0,B|37:63|37:63|92:34|92:34|96:36|96:36|148:6|148:6|189:23,1,209.999993591309,4|0,3:1|3:0,3:0:0:0:
237,84,40874,6,0,L|285:103,1,44.999998626709,0|0,3:0|3:0,3:0:0:0:
345,132,41147,2,0,B|405:97|405:97|330:3|330:3|341:126,1,240,0|0,3:0|3:0,3:0:0:0:
345,140,41419,5,0,3:0:0:0:
190,205,41556,2,0,B|182:175|182:175|252:123|252:123|285:210|285:210|260:230,1,240,2|0,3:0|3:0,3:0:0:0:
180,215,41829,2,0,L|169:164,1,44.999998626709,10|0,3:0|3:0,3:0:0:0:
149,92,42101,5,10,3:0:0:0:
172,17,42238,1,0,3:0:0:0:
36,162,42374,5,10,3:0:0:0:
66,245,42510,1,0,3:0:0:0:
337,368,42647,6,0,B|448:302|448:302|323:275|323:275|315:261|315:261|194:233|194:233|228:289,1,449.99998626709,10|0,3:0|3:0,3:0:0:0:
268,334,43056,2,0,B|215:248|215:248|306:270|306:270|317:284|317:284|422:309,1,300,0|0,3:0|3:0,3:0:0:0:
492,304,43329,5,0,3:0:0:0:
419,289,43465,1,10,3:0:0:0:
309,81,43601,6,0,B|305:44|270:22|270:22|351:-11|430:58|403:151,1,300,0|0,3:0|3:0,3:0:0:0:
360,210,43874,5,0,3:0:0:0:
467,35,44010,2,0,B|353:61|353:61|347:61|347:61|189:96,1,240,10|0,3:0|3:0,3:0:0:0:
154,42,44283,5,10,3:0:0:0:
128,167,44419,1,2,3:0:0:0:
102,293,44556,1,10,3:0:0:0:
169,244,44692,5,2,3:0:0:0:
86,91,44829,1,10,3:0:0:0:
16,302,44965,6,0,P|139:268|282:247,1,240,4|0,3:2|3:0,3:0:0:0:
326,274,45238,1,0,3:0:0:0:
206,332,45374,1,10,3:0:0:0:
252,84,45510,5,0,3:0:0:0:
313,118,45647,1,10,3:0:0:0:
421,275,45783,6,0,B|421:230|457:215|457:215|409:149|312:192|324:270,1,269.999991760254,0|0,3:0|3:0,3:0:0:0:
362,337,46056,5,0,3:0:0:0:
498,144,46192,2,0,B|502:82|448:35|448:35|493:89|463:97|493:140,1,240,10|0,3:0|3:0,3:0:0:0:
463,212,46465,5,10,3:0:0:0:
512,60,46601,1,0,3:0:0:0:
421,298,46738,5,10,3:0:0:0:
311,29,46874,2,0,B|333:22|346:1|346:1|392:73|318:128,1,160,0|10,3:0|3:0,3:0:0:0:
233,161,47147,5,0,3:0:0:0:
157,128,47283,1,10,3:0:0:0:
165,264,47419,6,0,P|131:211|151:269,1,179.999994506836,0|0,3:0|3:0,3:0:0:0:
209,336,47692,5,0,3:0:0:0:
96,95,47829,2,0,B|78:52|34:48|34:48|96:-7|220:53|152:162|152:162|72:181|71:250,1,449.99998626709,10|0,3:0|3:0,3:0:0:0:
74,325,48238,5,0,3:0:0:0:
169,179,48374,1,10,3:0:0:0:
8,50,48510,1,0,3:0:0:0:
29,121,48647,2,0,L|93:104,1,60,10|0,3:0|3:0,3:0:0:0:
162,84,48919,5,0,3:0:0:0:
246,132,49056,1,0,3:0:0:0:
390,44,49192,1,12,3:2:0:0:
462,289,49329,6,0,B|413:283|393:233|393:233|425:272|470:275,1,179.999994506836,4|0,3:1|3:0,3:0:0:0:
264,235,49601,2,0,B|305:229|321:188|321:188|295:220|260:222,1,150.000005722046,0|10,3:0|3:0,3:0:0:0:
395,143,49874,5,0,3:0:0:0:
329,303,50010,1,0,3:0:0:0:
395,143,50147,1,10,3:0:0:0:
76,220,50283,6,0,B|15:229|43:213|-5:195|-5:195|47:203|36:170|77:215,1,179.999994506836,0|2,3:0|3:0,3:0:0:0:
139,289,50556,2,0,B|172:326|163:298|206:305|206:305|167:290|190:277|139:284,1,150.000005722046,10|0,3:0|3:0,3:0:0:0:
66,384,50829,6,0,B|94:282|94:282|99:279|99:279|97:272|97:272|108:231|108:231|106:222|106:222|112:216|112:216|158:53,1,300,0|0,3:0|3:0,3:0:0:0:
173,9,51101,1,0,3:0:0:0:
310,213,51238,6,0,B|330:220|347:241|347:241|398:149|304:98|304:98|305:128|286:150,1,269.999991760254,2|0,3:0|3:0,3:0:0:0:
211,203,51510,2,0,L|474:147,1,240,6|0,3:0|3:0,3:0:0:0:
511,109,51783,5,10,3:0:0:0:
477,226,51919,1,2,3:0:0:0:
391,190,52056,5,0,3:0:0:0:
445,302,52192,1,2,3:0:0:0:
496,233,52329,5,10,3:0:0:0:
450,382,52465,1,2,3:0:0:0:
299,192,52601,5,0,3:0:0:0:
392,216,52738,1,2,3:0:0:0:
215,324,52874,5,10,3:1:0:0:
143,111,53010,2,0,B|118:22|302:22|211:153|275:222|155:199|103:149|225:78|-64:154|54:243|116:253,1,400,2|0,3:0|3:0,3:0:0:0:
147,242,53351,1,0,3:0:0:0:
147,242,53420,1,10,3:0:0:0:
185,177,53556,1,0,3:0:0:0:
58,52,53692,6,0,P|106:211|134:331,1,269.999991760254,6|0,3:0|3:0,3:0:0:0:
184,382,53965,2,0,P|196:382|201:353,1,44.999998626709,2|0,3:0|3:0,3:0:0:0:
206,277,54238,6,0,B|275:214|349:259|352:331|441:303,1,240,4|0,3:1|3:0,3:0:0:0:
483,250,54510,2,0,P|438:287|368:262,1,119.999996337891,10|0,3:0|3:0,3:0:0:0:
364,192,54783,5,4,3:2:0:0:
268,338,54919,1,10,3:0:0:0:
268,338,55056,1,2,2:3:0:0:
248,143,55192,5,0,3:0:0:0:
408,315,55329,1,10,3:0:0:0:
422,53,55465,1,0,3:0:0:0:
252,347,55601,5,0,3:0:0:0:
322,384,55738,1,10,3:0:0:0:
430,161,55874,6,0,P|354:172|294:205,1,139.999995727539,4|2,3:1|3:0,3:0:0:0:
122,259,56147,6,0,B|60:211|118:144|183:152|239:223|178:322,1,240,10|0,3:0|3:0,3:0:0:0:
173,348,56419,1,0,3:0:0:0:
23,197,56556,6,0,P|150:222|304:292,1,269.999991760254,0|0,3:0|3:0,3:0:0:0:
342,337,56829,1,0,3:0:0:0:
436,281,56965,5,0,3:0:0:0:
259,353,57101,1,10,3:0:0:0:
314,112,57238,5,10,3:0:0:0:
421,384,57374,1,0,3:0:0:0:
421,384,57442,1,0,3:0:0:0:
421,384,57510,1,10,3:0:0:0:
340,310,57647,5,0,3:0:0:0:
394,216,57783,1,0,3:0:0:0:
394,216,57851,1,0,3:0:0:0:
394,216,57919,1,10,3:0:0:0:
333,18,58056,5,4,3:2:0:0:
333,18,58192,1,0,3:0:0:0:
470,291,58465,5,0,3:0:0:0:
150,97,58738,5,0,3:0:0:0:
150,97,58874,1,0,3:0:0:0:
150,97,59010,1,0,3:0:0:0:
42,253,59283,5,0,3:0:0:0:
457,128,59556,5,0,3:0:0:0:
292,309,59829,5,0,3:0:0:0:
250,254,59897,1,0,3:0:0:0:
271,198,59965,1,0,3:0:0:0:
312,186,60033,1,0,3:0:0:0:
332,166,60101,1,0,3:0:0:0:
333,145,60169,1,0,3:0:0:0:
326,135,60238,1,6,3:0:0:0:
204,330,60510,5,0,3:0:0:0:
347,251,60647,1,0,3:0:0:0:
43,270,60783,5,12,3:2:0:0:
199,90,61056,5,0,3:0:0:0:
234,182,61192,1,2,3:2:0:0:
80,124,61329,5,2,3:1:0:0:
118,52,61465,1,0,3:0:0:0:
229,10,61601,1,0,3:0:0:0:
353,77,61738,1,0,3:0:0:0:
28,55,61874,5,12,3:2:0:0:
44,58,62010,5,0,3:0:0:0:
155,140,62147,1,0,3:0:0:0:
49,343,62283,5,4,3:1:0:0:
473,238,62692,5,10,3:0:0:0:
473,238,62829,1,10,3:0:0:0:
242,101,63101,5,0,3:0:0:0:
233,124,63238,5,0,3:0:0:0:
143,170,63374,5,8,2:3:0:0:
190,238,63510,5,8,2:3:0:0:
345,214,63647,5,8,2:3:0:0:
262,372,63783,5,8,2:3:0:0:
227,331,63851,1,8,2:3:0:0:
249,288,63919,1,0,3:0:0:0:
290,291,63988,1,0,3:0:0:0:
304,324,64056,1,0,3:0:0:0:
288,345,64124,1,0,3:0:0:0:
270,345,64192,5,8,2:3:0:0:
245,296,64260,1,8,2:3:0:0:
252,241,64329,1,0,3:0:0:0:
290,203,64397,1,0,3:0:0:0:
343,198,64465,6,0,P|356:208|330:240,1,59.9999981689454,0|0,3:0|3:0,3:0:0:0:
486,348,64601,2,0,P|463:313|441:330,1,75.0000028610231,8|0,3:0|3:0,3:0:0:0:
461,64,64738,6,0,P|263:101|184:140,1,269.999991760254,4|0,3:1|3:0,3:0:0:0:
141,182,65010,6,0,P|184:214|234:199,1,89.9999972534181,4|0,3:2|3:0,3:0:0:0:
296,247,65147,2,0,P|301:193|285:168,1,75.0000028610231,4|0,3:2|3:0,3:0:0:0:
340,107,65283,6,0,P|309:94|295:95,1,44.999998626709,4|0,3:1|3:0,3:0:0:0:
257,24,65556,5,12,3:2:0:0:
257,24,65692,2,0,P|238:37|223:61,1,44.999998626709,12|0,3:2|3:0,3:0:0:0:
113,142,65966,5,14,3:0:0:0:
110,197,66034,1,0,3:0:0:0:
140,243,66102,1,10,3:0:0:0:
190,263,66170,1,0,3:0:0:0:
242,249,66239,1,10,3:0:0:0:
283,213,66307,1,0,3:0:0:0:
290,159,66375,1,10,3:0:0:0:
323,121,66443,1,0,3:0:0:0:
366,108,66511,1,10,3:0:0:0:
401,126,66580,1,0,3:0:0:0:
417,156,66648,1,10,3:0:0:0:
406,184,66716,1,0,3:0:0:0:
389,197,66784,5,10,3:0:0:0:
372,185,66852,1,0,3:0:0:0:
363,165,66920,1,10,3:0:0:0:
366,146,66988,1,0,3:0:0:0:
384,131,67057,5,14,3:2:0:0:
421,184,67125,1,0,3:0:0:0:
411,251,67193,1,10,3:0:0:0:
367,305,67262,1,0,3:0:0:0:
298,308,67330,1,10,3:0:0:0:
234,282,67398,1,0,3:0:0:0:
178,302,67466,1,10,3:0:0:0:
154,347,67534,1,0,3:0:0:0:
165,380,67602,6,0,P|136:356|99:354,3,75.0000028610231,10|0|10|0,3:0|3:0|3:0|3:0,3:0:0:0:
252,315,67875,6,0,P|252:278|231:247,3,75.0000028610231,10|0|10|0,3:0|3:0|3:0|3:0,3:0:0:0:
130,116,68147,5,14,3:2:0:0:
79,162,68216,1,0,3:0:0:0:
75,231,68284,1,10,3:0:0:0:
113,287,68352,1,0,3:0:0:0:
178,302,68420,1,10,3:0:0:0:
240,276,68488,1,0,3:0:0:0:
274,220,68557,1,10,3:0:0:0:
338,207,68625,1,0,3:0:0:0:
391,260,68693,5,10,3:0:0:0:
401,277,68761,1,0,3:0:0:0:
402,291,68829,2,0,B|385:307|365:308|365:308|350:285|317:282,1,89.9999972534181,10|0,3:0|3:0,3:0:0:0:
238,87,68966,5,10,3:0:0:0:
248,69,69034,1,0,3:0:0:0:
259,62,69102,2,0,B|282:68|292:85|292:85|282:112|294:140,1,89.9999972534181,10|0,3:0|3:0,3:0:0:0:
86,236,69238,5,14,3:2:0:0:
23,218,69307,1,0,3:0:0:0:
1,158,69375,1,10,3:0:0:0:
22,98,69443,1,0,3:0:0:0:
80,75,69511,1,10,3:0:0:0:
140,91,69579,1,0,3:0:0:0:
166,135,69647,1,10,3:0:0:0:
201,174,69716,1,0,3:0:0:0:
240,181,69784,6,0,B|262:180|273:168|273:168|277:168|277:168|285:149|282:133,3,75.0000028610231,10|0|10|0,3:0|3:0|3:0|3:0,3:0:0:0:
398,68,70057,6,0,B|408:48|403:32|403:32|405:29|405:29|392:13|378:7,3,75.0000028610231,10|0|10|0,3:0|3:0|3:0|3:0,3:0:0:0:
340,212,70329,5,14,3:2:0:0:
407,243,70397,1,0,3:0:0:0:
478,223,70465,1,10,3:0:0:0:
512,157,70533,1,0,3:0:0:0:
502,95,70601,1,10,3:0:0:0:
461,62,70669,1,0,3:0:0:0:
419,64,70738,1,10,3:0:0:0:
395,85,70807,1,0,3:0:0:0:
342,133,70875,5,10,3:0:0:0:
281,163,70943,1,0,3:0:0:0:
223,145,71011,1,10,3:0:0:0:
192,98,71079,1,0,3:0:0:0:
197,48,71147,1,10,3:0:0:0:
237,24,71216,1,0,3:0:0:0:
275,27,71284,1,10,3:0:0:0:
294,56,71352,1,0,3:0:0:0:
289,68,71420,5,14,3:2:0:0:
286,75,71488,1,0,3:0:0:0:
281,79,71557,2,0,P|250:72|215:55,1,69.9999978637696,10|0,3:0|3:0,3:0:0:0:
445,158,71693,5,10,3:0:0:0:
442,151,71761,1,0,3:0:0:0:
437,147,71830,2,0,P|406:154|371:170,1,69.9999978637696,10|0,3:0|3:0,3:0:0:0:
311,283,71966,5,10,3:0:0:0:
350,319,72034,1,0,3:0:0:0:
335,359,72102,1,10,3:0:0:0:
283,373,72170,1,0,3:0:0:0:
245,335,72238,1,10,3:0:0:0:
234,311,72307,1,0,3:0:0:0:
180,297,72375,1,10,3:0:0:0:
144,336,72443,1,0,3:0:0:0:
193,384,72511,5,14,3:2:0:0:
239,351,72579,1,0,3:0:0:0:
246,291,72647,1,10,3:0:0:0:
207,242,72715,1,0,3:0:0:0:
144,228,72783,1,10,3:0:0:0:
108,186,72852,1,0,3:0:0:0:
109,141,72920,1,10,3:0:0:0:
133,115,72988,1,0,3:0:0:0:
151,107,73057,6,0,P|130:138|121:174,3,75.0000028610231,10|0|10|0,3:0|3:0|3:0|3:0,3:0:0:0:
295,228,73329,6,0,P|315:259|324:295,3,75.0000028610231,10|0|10|0,3:0|3:0|3:0|3:0,3:0:0:0:
173,48,73602,5,14,3:2:0:0:
103,24,73670,1,0,3:0:0:0:
39,61,73738,1,10,3:0:0:0:
21,137,73807,1,0,3:0:0:0:
62,191,73875,1,10,3:0:0:0:
114,213,73943,1,0,3:0:0:0:
165,202,74011,1,10,3:0:0:0:
218,203,74079,1,0,3:0:0:0:
267,221,74147,1,10,3:0:0:0:
292,255,74216,1,0,3:0:0:0:
297,296,74284,1,10,3:0:0:0:
274,331,74352,1,0,3:0:0:0:
257,333,74420,1,10,3:0:0:0:
231,318,74488,1,0,3:0:0:0:
231,291,74557,1,0,3:0:0:0:
249,274,74625,1,0,3:0:0:0:
273,281,74693,5,14,3:2:0:0:
261,248,74761,1,0,3:0:0:0:
221,227,74829,1,10,3:0:0:0:
167,240,74898,1,0,3:0:0:0:
126,289,74966,1,10,3:0:0:0:
65,302,75034,1,0,3:0:0:0:
15,269,75102,1,10,3:0:0:0:
0,213,75170,1,0,3:0:0:0:
21,164,75239,1,10,3:0:0:0:
57,143,75307,1,0,3:0:0:0:
97,151,75375,1,10,3:0:0:0:
116,175,75443,1,0,3:0:0:0:
101,190,75511,5,10,3:0:0:0:
84,178,75579,1,0,3:0:0:0:
75,158,75647,1,10,3:0:0:0:
78,139,75715,1,0,3:0:0:0:
85,131,75784,5,14,3:2:0:0:
141,89,75852,1,0,3:0:0:0:
206,111,75920,1,10,3:0:0:0:
232,175,75988,1,0,3:0:0:0:
212,241,76057,1,10,3:0:0:0:
152,273,76125,1,0,3:0:0:0:
89,265,76193,1,10,3:0:0:0:
43,290,76261,1,0,3:0:0:0:
32,321,76329,6,0,P|44:356|76:373,3,75.0000028610231,10|0|10|0,3:0|3:0|3:0|3:0,3:0:0:0:
23,165,76602,6,0,P|-1:192|0:229,3,75.0000028610231,10|0|10|0,3:0|3:0|3:0|3:0,3:0:0:0:
89,54,76875,5,14,3:2:0:0:
130,36,76943,1,0,3:0:0:0:
173,49,77011,2,0,P|198:68|207:99,1,64.9999970245363,10|0,3:0|3:0,3:0:0:0:
312,53,77147,5,10,3:0:0:0:
342,74,77215,1,0,3:0:0:0:
350,111,77283,2,0,P|346:142|323:165,1,64.9999970245363,10|0,3:0|3:0,3:0:0:0:
430,213,77420,5,10,3:0:0:0:
426,245,77488,1,0,3:0:0:0:
403,268,77556,2,0,P|374:280|342:272,1,64.9999970245363,10|0,3:0|3:0,3:0:0:0:
263,357,77693,6,0,P|238:338|229:307,3,64.9999970245363,10|0|10|0,3:0|3:0|3:0|3:0,3:0:0:0:
297,186,77966,5,14,3:2:0:0:
236,156,78034,1,0,3:0:0:0:
178,174,78102,1,10,3:0:0:0:
147,221,78170,1,0,3:0:0:0:
152,271,78238,1,10,3:0:0:0:
192,295,78307,1,0,3:0:0:0:
230,292,78375,1,10,3:0:0:0:
249,263,78443,1,0,3:0:0:0:
245,247,78511,6,0,P|217:257|200:282,3,59.9999981689454,10|0|10|0,3:0|3:0|3:0|3:0,3:0:0:0:
77,261,78784,6,0,P|73:285|84:307,3,50,10|0|10|0,3:0|3:0|3:0|3:0,3:0:0:0:
178,174,79057,5,14,3:2:0:0:
9,49,79193,1,10,3:0:0:0:
83,0,79329,5,2,3:0:0:0:
9,219,79466,1,10,3:0:0:0:
195,100,79602,6,0,B|206:66|249:63|249:63|211:74|200:123,1,119.999996337891,2|10,3:0|3:0,3:0:0:0:
152,271,79875,5,2,3:0:0:0:
272,133,80011,1,10,3:0:0:0:
301,316,80147,6,0,P|280:295|273:266,1,59.9999981689454,4|0,3:2|3:0,3:0:0:0:
123,129,80284,5,8,2:3:0:0:
131,156,80352,1,8,2:3:0:0:
158,168,80420,1,0,3:0:0:0:
378,308,80557,6,0,B|396:303|396:303|403:304|403:304|422:299,2,44.999998626709,8|8|0,2:3|2:3|3:0,3:0:0:0:
239,354,80829,5,8,2:3:0:0:
222,300,80897,1,8,2:3:0:0:
253,256,80965,1,0,3:0:0:0:
269,252,81034,5,0,3:0:0:0:
300,207,81102,1,0,3:0:0:0:
286,155,81170,1,0,3:0:0:0:
233,138,81238,5,6,3:0:0:0:
235,147,81511,5,2,3:0:0:0:
237,156,81784,5,2,3:0:0:0:
239,165,82057,5,2,3:0:0:0:
269,260,82329,5,2,3:0:0:0:
267,269,82602,5,2,3:0:0:0:
206,348,82875,5,2,3:0:0:0:
289,384,83011,6,0,L|276:335,1,50,10|0,2:3|3:0,3:0:0:0:
346,190,83147,1,2,3:0:0:0:
267,269,83284,6,0,L|279:220,1,50,10|0,2:3|3:0,3:0:0:0:
161,41,83420,2,0,B|204:89|271:62|271:62|218:83|216:142,1,194.999991073609,6|0,3:0|3:0,3:0:0:0:
293,133,83693,6,0,B|312:183|384:185|401:120|401:120|382:104|375:81,1,194.999991073609,12|0,3:2|3:0,3:0:0:0:
447,60,83966,5,2,3:0:0:0:
456,58,84238,5,2,3:0:0:0:
455,67,84511,5,2,3:0:0:0:
451,55,84784,5,2,3:0:0:0:
496,128,84920,6,0,P|484:150|478:174,1,50,10|0,2:3|3:0,3:0:0:0:
363,51,85057,1,2,3:0:0:0:
266,158,85193,6,0,P|277:180|283:204,1,50,10|0,2:3|3:0,3:0:0:0:
367,47,85329,1,2,3:0:0:0:
337,119,85466,1,2,3:0:0:0:
371,285,85602,5,6,3:1:0:0:
340,252,85670,1,0,3:0:0:0:
296,248,85738,1,0,3:0:0:0:
261,274,85806,1,0,3:0:0:0:
252,316,85874,1,10,2:3:0:0:
421,214,86011,6,0,B|396:207|396:207|376:279,1,100,2|0,3:0|3:0,3:0:0:0:
226,183,86284,1,10,2:3:0:0:
66,310,86420,5,2,3:0:0:0:
97,343,86488,1,0,3:0:0:0:
141,347,86556,1,8,2:3:0:0:
176,321,86624,1,8,2:3:0:0:
185,279,86692,1,4,3:2:0:0:
285,134,86829,6,0,P|288:110|298:87,2,50,8|8|2,2:3|2:3|3:0,3:0:0:0:
382,223,87102,5,8,2:3:0:0:
401,208,87170,1,8,2:3:0:0:
401,184,87238,1,2,3:0:0:0:
465,19,87375,6,0,P|467:44|476:68,1,50,8|8,2:3|2:3,3:0:0:0:
371,120,87511,5,2,3:0:0:0:
346,95,87579,1,0,3:0:0:0:
342,61,87647,1,8,2:3:0:0:
361,32,87715,1,8,2:3:0:0:
393,21,87784,5,6,3:0:0:0:
403,59,87852,1,0,3:0:0:0:
395,97,87920,1,0,3:0:0:0:
369,127,87988,1,0,3:0:0:0:
332,141,88056,1,0,3:0:0:0:
310,131,88125,5,0,3:0:0:0:
272,144,88193,1,8,2:3:0:0:
246,174,88261,1,0,3:0:0:0:
238,213,88329,1,0,3:0:0:0:
249,251,88397,1,0,3:0:0:0:
273,264,88466,5,0,3:0:0:0:
323,242,88534,1,0,3:0:0:0:
371,268,88602,1,8,2:3:0:0:
384,321,88670,1,0,3:0:0:0:
433,318,88738,1,2,3:0:0:0:
452,276,88807,1,0,3:0:0:0:
447,264,88875,5,14,3:0:0:0:
363,72,89966,6,0,B|358:49|342:34|342:34|431:5|490:80|490:80|465:85|452:101,1,255.000004863739,6|0,3:0|3:0,3:0:0:0:
504,151,90238,1,2,3:0:0:0:
355,268,90375,6,0,P|391:262|415:234,1,75.0000028610231,10|0,3:0|3:0,3:0:0:0:
288,88,90511,2,0,P|266:123|281:161,1,85.0000016212464,2|0,3:0|3:0,3:0:0:0:
348,195,90647,1,10,3:0:0:0:
210,338,90784,2,0,P|278:289|362:284,1,170.000003242493,2|10,3:0|3:0,3:0:0:0:
426,326,90988,5,0,2:0:0:0:
470,299,91057,1,2,3:0:0:0:
478,223,91125,1,0,2:0:0:0:
420,172,91193,1,10,3:0:0:0:
409,113,91261,1,0,2:0:0:0:
441,85,91329,1,2,3:0:0:0:
482,91,91397,1,0,2:0:0:0:
494,113,91466,1,10,3:0:0:0:
438,169,91534,5,0,2:0:0:0:
370,204,91602,1,2,3:0:0:0:
318,173,91670,1,0,2:0:0:0:
301,105,91738,5,10,3:0:0:0:
271,62,91807,1,0,2:0:0:0:
220,61,91875,1,2,3:0:0:0:
150,73,91943,5,0,2:0:0:0:
116,99,92011,1,10,3:0:0:0:
123,140,92079,1,0,2:0:0:0:
164,199,92147,6,0,P|203:213|235:241,1,85.0000016212464,2|0,3:0|2:0,3:0:0:0:
383,126,92284,2,0,P|351:154|311:168,1,85.0000016212464,10|0,3:0|2:0,3:0:0:0:
170,321,92420,5,2,3:0:0:0:
128,350,92488,1,0,2:0:0:0:
70,331,92557,1,10,3:0:0:0:
29,266,92625,1,0,2:0:0:0:
63,198,92693,5,2,3:0:0:0:
112,139,92761,1,0,2:0:0:0:
94,73,92829,1,10,3:0:0:0:
46,55,92897,1,0,2:0:0:0:
0,113,92966,5,2,3:0:0:0:
19,160,93034,1,0,2:0:0:0:
63,182,93102,1,10,3:0:0:0:
109,164,93170,1,0,2:0:0:0:
185,146,93238,5,2,3:0:0:0:
242,197,93307,1,0,2:0:0:0:
288,200,93375,2,0,P|318:171|319:129,1,85.0000016212464,10|0,3:0|2:0,3:0:0:0:
386,63,93511,5,2,3:0:0:0:
365,48,93579,1,0,2:0:0:0:
367,22,93647,2,0,P|368:63|398:92,1,85.0000016212464,10|0,3:0|2:0,3:0:0:0:
440,154,93784,6,0,P|481:153|510:123,1,85.0000016212464,2|0,3:0|2:0,3:0:0:0:
288,4,93920,2,0,P|325:19|342:58,1,85.0000016212464,10|0,3:0|2:0,3:0:0:0:
419,229,94057,5,2,3:0:0:0:
406,240,94147,5,2,2:0:0:0:
396,254,94238,5,2,2:0:0:0:
389,269,94329,5,6,3:0:0:0:
271,83,94466,1,10,3:0:0:0:
367,22,94602,5,2,3:0:0:0:
270,237,94739,1,10,3:0:0:0:
192,18,94875,5,2,3:0:0:0:
263,242,95012,1,10,3:0:0:0:
204,328,95147,5,2,3:0:0:0:
315,177,95284,1,10,3:0:0:0:
112,92,95420,5,2,3:0:0:0:
325,170,95557,1,10,3:0:0:0:
392,134,95693,1,2,3:0:0:0:
354,358,95829,5,10,3:0:0:0:
392,134,95966,1,2,3:0:0:0:
457,94,96102,1,10,3:0:0:0:
270,270,96238,5,2,3:0:0:0:
469,85,96375,1,10,3:0:0:0:
220,78,96511,5,2,3:0:0:0:
462,174,96647,1,10,3:0:0:0:
208,327,96784,5,2,3:0:0:0:
301,127,96920,1,10,3:0:0:0:
324,382,97057,5,2,3:0:0:0:
258,211,97193,1,10,3:0:0:0:
140,384,97329,5,2,3:0:0:0:
312,285,97466,1,10,3:0:0:0:
165,158,97602,5,2,3:0:0:0:
109,207,97738,1,10,3:0:0:0:
152,268,97875,1,2,3:0:0:0:
338,180,98011,6,0,B|345:135|397:127|397:127|338:126|315:173|336:165|312:217|259:214,1,255.000004863739,12|0,3:2|3:0,3:0:0:0:
184,84,98284,1,8,2:3:0:0:
217,58,98352,1,8,2:3:0:0:
259,61,98420,2,0,B|281:66|294:95|294:95|293:51|251:12|182:41,1,170.000003242493,0|10,3:0|3:0,3:0:0:0:
53,131,98693,6,0,B|0:165|10:236|65:266|65:266|90:225|136:220,1,255.000004863739,4|0,3:2|3:0,3:0:0:0:
142,228,98966,2,0,P|99:239|69:271,1,89.9999972534181,10|0,3:2|3:0,3:0:0:0:
259,61,99238,1,2,3:2:0:0:
233,132,99375,1,0,3:0:0:0:
338,361,99511,2,0,P|249:302|269:198,1,225.000008583069,10|0,3:2|3:0,3:0:0:0:
233,132,99784,5,2,3:2:0:0:
399,83,99920,1,0,3:0:0:0:
352,146,100057,5,2,3:1:0:0:
177,77,100193,1,10,3:2:0:0:
111,112,100329,1,2,3:1:0:0:
130,184,100466,1,0,3:0:0:0:
349,25,100602,5,10,3:2:0:0:
269,198,100738,1,0,3:0:0:0:
171,66,100875,5,4,3:1:0:0:
177,77,101011,1,0,3:0:0:0:
342,232,101147,6,0,B|383:277|458:228|458:228|466:228|466:228|407:263|442:333,1,225.000008583069,12|0,3:1|3:0,3:0:0:0:
508,295,101420,5,6,3:1:0:0:
394,174,101556,1,0,3:0:0:0:
260,330,101693,2,0,B|225:323|206:296|206:296|201:294|201:294|196:247|229:223,1,150.000005722046,12|0,3:1|3:0,3:0:0:0:
249,81,101897,1,0,3:0:0:0:
177,77,101966,6,0,P|181:113|206:140,1,75.0000028610231,4|0,2:1|3:0,3:0:0:0:
391,253,102102,1,8,2:0:0:0:
463,230,102238,1,8,2:0:0:0:
325,365,102375,1,8,2:0:0:0:
99,177,102511,6,0,B|86:165|68:170|68:170|46:197|73:234,1,75.0000028610231,4|0,3:1|3:0,3:0:0:0:
98,274,102647,1,8,2:0:0:0:
242,142,102784,6,0,P|248:112|265:87,1,59.9999981689454,0|0,3:0|3:0,3:0:0:0:
265,88,102920,2,0,P|249:113|242:142,1,59.9999981689454,8|0,2:0|3:0,3:0:0:0:
177,77,103057,5,4,3:1:0:0:
368,179,103193,1,0,3:0:0:0:
195,304,103329,5,10,3:0:0:0:
433,141,103466,1,2,3:0:0:0:
369,351,103602,5,10,3:0:0:0:
436,69,103739,1,2,3:0:0:0:
505,325,103875,6,0,P|485:293|450:283,1,75.0000028610231,10|0,3:0|2:0,3:0:0:0:
293,197,104011,2,0,P|257:205|237:236,1,75.0000028610231,2|0,3:0|2:0,3:0:0:0:
80,352,104147,5,10,3:0:0:0:
18,314,104215,1,0,2:0:0:0:
14,242,104283,1,2,3:0:0:0:
71,198,104351,1,0,2:0:0:0:
92,199,104420,5,10,3:0:0:0:
148,154,104488,1,0,2:0:0:0:
144,82,104556,1,10,3:0:0:0:
83,45,104624,1,0,2:0:0:0:
24,89,104693,5,2,3:0:0:0:
33,100,104761,1,0,2:0:0:0:
39,114,104829,1,8,2:0:0:0:
41,129,104897,1,8,2:0:0:0:
71,198,104966,5,0,3:0:0:0:
63,206,105034,1,0,3:0:0:0:
59,217,105102,1,0,3:0:0:0:
57,229,105170,1,0,3:0:0:0:
26,293,105238,6,0,P|5:262|16:228,1,75.0000028610231,6|0,3:0|2:0,3:0:0:0:
0,157,105375,2,0,P|22:128|58:128,1,75.0000028610231,10|0,3:0|2:0,3:0:0:0:
100,42,105511,5,2,3:0:0:0:
111,32,105579,1,0,2:0:0:0:
125,32,105647,2,0,P|159:44|170:78,1,75.0000028610231,10|0,3:0|2:0,3:0:0:0:
295,150,105784,5,2,3:0:0:0:
306,160,105852,1,0,2:0:0:0:
320,160,105920,2,0,P|354:147|365:113,1,75.0000028610231,10|0,3:0|2:0,3:0:0:0:
478,86,106057,5,2,3:0:0:0:
490,78,106125,1,0,2:0:0:0:
495,65,106193,2,0,P|493:28|464:7,1,75.0000028610231,10|0,3:0|2:0,3:0:0:0:
199,88,106329,5,6,3:0:0:0:
149,146,106397,1,0,2:0:0:0:
174,217,106465,1,8,2:0:0:0:
237,259,106533,1,8,2:0:0:0:
304,252,106601,1,8,2:0:0:0:
336,198,106670,1,8,2:0:0:0:
317,177,106738,6,0,P|292:203|290:239,1,75.0000028610231,0|0,3:0|3:0,3:0:0:0:
409,360,106875,1,0,3:0:0:0:
157,384,107011,6,0,P|180:355|216:345,1,75.0000028610231,8|0,2:0|3:0,3:0:0:0:
439,199,107147,2,0,B|470:200|507:217|523:277|523:277|492:220|423:214,1,225.000008583069,0|0,3:0|3:0,3:0:0:0:
374,236,107420,5,0,3:0:0:0:
512,145,107557,1,0,3:0:0:0:
171,0,108511,5,12,3:1:0:0:
345,172,108647,1,0,3:0:0:0:
344,179,108716,1,0,3:0:0:0:
343,186,108784,1,0,3:0:0:0:
342,193,108852,1,0,3:0:0:0:
341,200,108920,1,4,3:1:0:0:
205,303,109057,1,0,3:0:0:0:
287,384,109193,1,4,3:1:0:0:
400,65,109329,5,8,2:0:0:0:
44,174,109466,2,0,P|89:201|120:273,1,89.9999972534181,4|0,3:2|3:0,3:0:0:0:
46,192,109738,5,10,3:0:0:0:
288,136,109875,2,0,B|280:68|192:41|159:101|159:101|199:119|211:173,1,240,2|0,3:0|3:0,3:0:0:0:
190,228,110147,5,2,3:0:0:0:
297,15,110284,1,10,3:0:0:0:
117,171,110420,6,0,P|219:195|282:233,1,160,2|10,3:0|3:0,3:0:0:0:
442,382,110693,5,2,3:0:0:0:
358,207,110829,2,0,B|372:130|520:131|547:214|480:230|468:181|436:158|383:191,1,269.999991760254,10|0,3:0|3:0,3:0:0:0:
423,268,111102,2,0,B|419:129|506:194|538:46|445:-9|367:35|367:35|352:101|410:121,1,449.99998626709,10|0,3:0|3:0,3:0:0:0:
512,95,111511,5,2,3:0:0:0:
474,14,111647,1,10,3:0:0:0:
306,132,111784,2,0,P|219:125|154:94,1,139.999995727539,6|10,3:0|3:0,3:0:0:0:
69,0,112057,5,2,3:0:0:0:
146,245,112193,2,0,B|126:274|70:285|27:205|78:114|78:114|99:200|145:174|148:239,1,359.999989013672,10|10,3:0|3:0,3:0:0:0:
51,353,112602,2,0,B|69:318|61:292|61:292|28:257|21:209|21:209|-8:322|45:355,1,300,2|0,3:0|3:0,3:0:0:0:
156,376,112875,5,2,3:0:0:0:
271,230,113011,2,0,B|306:220|361:254|358:307|358:307|333:243|266:247,1,240,10|0,3:0|3:0,3:0:0:0:
271,332,113284,5,10,3:0:0:0:
411,383,113420,1,2,3:0:0:0:
169,384,113557,5,10,3:0:0:0:
397,186,113693,1,2,3:0:0:0:
322,99,113829,5,10,3:0:0:0:
282,307,113966,2,0,B|278:390|413:404|453:313|426:194|311:161|205:233|205:233|248:266|234:320,1,539.999983520508,2|10,3:0|3:0,3:0:0:0:
329,384,114511,5,2,3:0:0:0:
125,301,114647,2,0,P|316:287|493:204,1,375.000014305115,10|0,3:0|3:0,3:0:0:0:
492,40,115057,5,12,3:1:0:0:
476,33,115193,1,0,2:0:0:0:
488,22,115329,1,0,2:0:0:0:
408,109,115466,6,0,B|385:92|379:58|379:58|384:93|371:116,1,120,0|0,2:0|3:0,3:0:0:0:
289,71,115738,5,8,2:0:0:0:
274,61,115875,2,0,L|296:52,1,20,0|0,3:0|3:0,3:0:0:0:
52,237,116147,6,0,B|56:211|72:212|114:244|159:160|145:210|145:210|99:212|74:239,1,200,6|10,3:0|3:0,3:0:0:0:
286,328,116420,2,0,B|282:305|268:305|231:334|198:268|203:304|203:304|262:312|274:334,1,179.999994506836,2|10,3:0|3:0,3:0:0:0:
120,374,116693,5,4,3:2:0:0:
204,280,116829,1,0,3:0:0:0:
152,171,116966,1,10,3:0:0:0:
409,122,117102,6,0,B|440:178|400:234|363:198|372:179|372:179|408:164|409:128,1,200,0|4,3:0|3:2,3:0:0:0:
301,121,117375,2,0,B|273:70|309:20|342:52|334:69|334:69|301:83|301:115,1,179.999994506836,10|0,3:0|3:0,3:0:0:0:
476,65,117647,6,0,B|366:40|334:127|374:193|256:215|198:166,1,300,0|0,3:0|3:0,3:0:0:0:
151,142,117920,1,0,3:0:0:0:
496,294,118057,6,0,B|557:275|548:168|392:164|398:295|422:325,1,269.999991760254,0|0,3:0|3:0,3:0:0:0:
475,384,118329,2,0,P|472:280|438:133,1,240,4|0,3:2|3:0,3:0:0:0:
399,48,118602,5,10,3:0:0:0:
351,174,118738,1,4,2:0:0:0:
251,115,118875,5,0,3:0:0:0:
322,253,119011,1,4,3:2:0:0:
372,192,119147,5,10,3:0:0:0:
304,331,119284,1,4,3:2:0:0:
64,203,119420,5,0,3:0:0:0:
178,246,119557,1,0,3:0:0:0:
331,94,119693,5,10,3:1:0:0:
179,234,119829,2,0,B|113:177|188:119|159:28|159:28|202:149|282:68|291:178|274:290|183:261|122:207|171:138,1,600,2|10,3:1|3:0,3:0:0:0:
384,291,120511,6,0,P|406:310|421:336,1,60,6|0,3:0|3:0,3:0:0:0:
498,314,120784,2,0,P|395:317|285:354,1,179.999994506836,2|0,3:0|3:0,3:0:0:0:
220,380,121057,6,0,B|207:299|249:245|257:264|323:214|295:105,1,269.999991760254,4|0,2:0|3:0,3:0:0:0:
274,35,121329,2,0,B|242:76|256:124|256:124|272:94|304:90|334:102|334:102|324:51|282:34,1,269.999991760254,8|0,2:0|3:0,3:0:0:0:
176,45,121602,5,4,3:2:0:0:
371,0,121738,1,12,3:2:0:0:
381,5,122011,5,0,3:0:0:0:
172,59,122147,1,12,3:2:0:0:
468,84,122284,1,0,3:0:0:0:
141,180,122420,1,0,3:0:0:0:
73,100,122557,5,8,2:0:0:0:
242,203,122693,2,0,B|209:274|269:262|286:379|244:399|167:396|122:353|88:296|171:233|215:270|234:252|240:229|244:220|242:192|242:95|198:163|197:113|219:80|260:67|295:104|292:133|259:172|239:149|241:193,1,560,4|0,3:2|3:0,3:0:0:0:
130,175,123238,5,0,3:0:0:0:
338,231,123375,2,0,B|335:203|354:179|354:179|289:145|253:196|245:258|293:295,1,240,2|0,3:0|3:0,3:0:0:0:
351,311,123647,1,2,3:0:0:0:
376,88,123784,5,2,3:0:0:0:
432,241,123920,1,8,2:0:0:0:
496,7,124057,5,8,2:0:0:0:
250,108,124193,1,0,3:0:0:0:
250,108,124261,1,0,3:0:0:0:
250,108,124329,1,8,2:0:0:0:
180,234,124466,5,0,3:0:0:0:
55,194,124602,1,0,3:0:0:0:
55,194,124670,1,0,3:0:0:0:
55,194,124738,1,10,3:0:0:0:
132,16,124875,5,6,3:0:0:0:
132,16,125011,1,0,3:0:0:0:
165,336,125284,5,0,3:0:0:0:
317,197,125557,5,0,3:0:0:0:
317,197,125693,1,0,3:0:0:0:
317,197,125829,1,0,3:0:0:0:
64,83,126102,5,0,3:0:0:0:
348,27,126375,5,0,3:0:0:0:
208,268,126647,5,0,3:0:0:0:
244,326,126715,1,0,2:0:0:0:
300,327,126783,1,0,3:0:0:0:
328,294,126852,1,0,2:0:0:0:
361,271,126920,1,0,3:0:0:0:
392,271,126988,1,0,2:0:0:0:
406,283,127057,1,4,3:1:0:0:
164,357,127329,5,0,3:0:0:0:
287,225,127465,1,0,3:0:0:0:
82,281,127602,5,10,3:0:0:0:
1,83,127875,5,0,3:0:0:0:
65,116,128011,1,4,3:1:0:0:
179,37,128147,5,4,3:1:0:0:
266,2,128284,1,8,2:0:0:0:
401,107,128420,5,0,3:0:0:0:
314,72,128557,1,0,3:0:0:0:
182,176,128693,5,10,2:1:0:0:
262,14,128829,1,0,3:0:0:0:
260,21,128966,5,0,3:0:0:0:
335,254,129102,1,4,3:1:0:0:
163,338,129511,5,12,3:1:0:0:
421,258,129647,1,12,3:1:0:0:
264,233,129920,5,8,2:0:0:0:
335,254,130057,1,0,3:0:0:0:
163,338,130193,5,8,2:0:0:0:
234,317,130330,1,8,2:0:0:0:
119,173,130466,5,8,2:0:0:0:
122,182,130602,1,8,2:0:0:0:
415,17,130875,5,14,3:0:0:0:
335,254,131011,1,0,3:0:0:0:
254,59,131284,5,8,2:0:0:0:
278,130,131420,1,6,3:0:0:0:
389,309,131557,5,0,3:0:0:0:
365,380,131693,1,10,3:0:0:0:
257,215,131829,5,0,3:0:0:0:
424,107,131966,5,8,2:0:0:0:
461,119,132034,1,8,2:0:0:0:
478,153,132102,1,8,2:0:0:0:
466,190,132170,1,8,2:0:0:0:
456,195,132238,5,0,3:0:0:0:
437,208,132306,1,0,3:0:0:0:
427,244,132374,1,0,3:0:0:0:
445,286,132443,1,0,3:0:0:0:
470,303,132511,5,8,2:0:0:0:
415,297,132579,1,8,2:0:0:0:
366,323,132648,1,0,3:0:0:0:
344,372,132716,1,0,3:0:0:0:
365,380,132784,6,0,P|374:351|366:323,1,59.9999981689454,0|0,3:0|3:0,3:0:0:0:
202,142,132920,1,0,3:0:0:0:
187,158,132988,1,0,3:0:0:0:
183,179,133056,1,0,3:0:0:0:
190,201,133124,1,0,3:0:0:0:
201,217,133193,6,0,P|230:220|255:237,1,59.9999981689454,8|0,2:0|3:0,3:0:0:0:
440,88,133329,2,0,P|415:104|385:107,1,59.9999981689454,8|0,2:0|3:0,3:0:0:0:
241,42,133466,2,0,B|238:29|223:25|223:25|247:24|258:59,1,59.9999981689454,8|0,2:0|3:0,3:0:0:0:
431,234,133602,5,14,3:0:0:0:
394,184,133670,1,0,3:0:0:0:
336,167,133738,1,10,3:0:0:0:
276,179,133807,1,0,3:0:0:0:
235,223,133875,1,10,3:0:0:0:
222,281,133943,1,0,3:0:0:0:
202,337,134011,1,10,3:0:0:0:
149,366,134079,1,0,3:0:0:0:
89,361,134147,1,10,3:0:0:0:
55,328,134216,1,0,3:0:0:0:
54,281,134284,1,10,3:0:0:0:
82,253,134352,1,0,3:0:0:0:
109,251,134420,5,10,3:0:0:0:
110,274,134488,1,0,3:0:0:0:
88,295,134557,1,10,3:0:0:0:
43,297,134625,1,0,3:0:0:0:
2,260,134693,5,12,3:2:0:0:
50,201,134761,1,0,3:0:0:0:
124,185,134829,1,10,3:0:0:0:
193,217,134897,1,0,3:0:0:0:
224,288,134966,1,10,3:0:0:0:
282,328,135034,1,0,3:0:0:0:
338,335,135102,1,10,3:0:0:0:
379,318,135170,1,0,3:0:0:0:
397,289,135238,5,10,3:0:0:0:
385,271,135307,1,0,3:0:0:0:
378,249,135375,2,0,P|379:209|394:166,1,50,10|0,3:0|3:0,3:0:0:0:
270,156,135511,5,10,3:0:0:0:
279,152,135579,1,0,3:0:0:0:
287,146,135647,2,0,P|297:135|314:97,1,50,10|0,3:0|3:0,3:0:0:0:
447,0,135784,5,12,3:2:0:0:
505,46,135852,1,0,3:0:0:0:
505,120,135920,1,10,3:0:0:0:
453,174,135988,1,0,3:0:0:0:
377,169,136057,1,10,3:0:0:0:
310,192,136125,1,0,3:0:0:0:
281,249,136193,1,10,3:0:0:0:
293,297,136261,1,0,3:0:0:0:
318,316,136329,5,10,3:0:0:0:
321,258,136397,1,0,3:0:0:0:
285,220,136466,1,10,3:0:0:0:
241,217,136534,1,0,3:0:0:0:
215,233,136602,6,0,P|205:273|192:287,1,50,10|0,3:0|3:0,3:0:0:0:
142,380,136738,2,0,P|123:350|83:325,1,64.9999970245363,10|0,3:0|3:0,3:0:0:0:
8,179,136875,5,12,3:2:0:0:
65,137,136943,1,0,3:0:0:0:
134,136,137011,1,10,3:0:0:0:
198,162,137079,1,0,3:0:0:0:
239,218,137147,1,10,3:0:0:0:
238,272,137216,1,0,3:0:0:0:
212,299,137284,1,10,3:0:0:0:
186,302,137352,1,0,3:0:0:0:
168,292,137420,6,0,P|193:265|199:223,3,64.9999970245363,10|0|10|0,3:0|3:0|3:0|3:0,3:0:0:0:
275,139,137693,2,0,P|252:106|222:88,3,50,10|0|10|0,3:0|3:0|3:0|3:0,3:0:0:0:
110,24,137966,5,12,3:2:0:0:
80,82,138034,1,0,3:0:0:0:
96,142,138102,1,10,3:0:0:0:
144,165,138170,1,0,3:0:0:0:
188,165,138238,1,10,3:0:0:0:
219,187,138307,1,0,3:0:0:0:
228,215,138375,1,10,3:0:0:0:
217,240,138443,1,0,3:0:0:0:
200,251,138511,5,10,3:0:0:0:
256,218,138579,1,0,3:0:0:0:
318,236,138647,1,10,3:0:0:0:
355,289,138716,1,0,3:0:0:0:
342,352,138784,1,10,3:0:0:0:
294,377,138852,1,0,3:0:0:0:
263,362,138920,1,10,3:0:0:0:
253,339,138988,1,0,3:0:0:0:
260,322,139057,5,12,3:2:0:0:
276,340,139125,1,0,3:0:0:0:
300,346,139193,2,0,P|332:345|355:328,1,50,10|0,3:0|3:0,3:0:0:0:
441,257,139329,5,10,3:0:0:0:
426,247,139397,1,0,3:0:0:0:
408,244,139466,2,0,P|370:250|349:267,1,42.5000008106232,10|0,3:0|3:0,3:0:0:0:
283,144,139602,5,10,3:0:0:0:
289,151,139670,1,0,3:0:0:0:
296,157,139738,2,0,P|321:164|352:161,1,34.9999989318848,10|0,3:0|3:0,3:0:0:0:
409,81,139875,5,12,3:2:0:0:
404,79,139943,1,0,3:0:0:0:
399,78,140011,2,0,P|379:81|364:93,1,27.5000008392334,10|0,3:0|3:0,3:0:0:0:
251,311,140147,5,12,3:2:0:0:
188,340,140216,1,0,3:0:0:0:
120,334,140284,1,10,3:0:0:0:
77,289,140352,1,0,3:0:0:0:
73,231,140420,1,10,3:0:0:0:
104,193,140488,1,0,3:0:0:0:
146,190,140557,1,10,3:0:0:0:
173,214,140625,1,0,3:0:0:0:
173,241,140693,6,0,P|133:213|92:206,3,59.9999981689454,10|0|10|0,3:0|3:0|3:0|3:0,3:0:0:0:
4,172,140966,2,0,P|30:151|50:143,3,50,10|0|10|0,3:0|3:0|3:0|3:0,3:0:0:0:
148,19,141238,5,12,3:2:0:0:
222,5,141307,1,0,3:0:0:0:
287,41,141375,1,10,3:0:0:0:
310,111,141443,1,0,3:0:0:0:
278,178,141511,1,10,3:0:0:0:
294,244,141579,1,0,3:0:0:0:
343,283,141647,1,10,3:0:0:0:
399,282,141716,1,0,3:0:0:0:
442,248,141784,1,10,3:0:0:0:
447,200,141852,1,0,3:0:0:0:
421,164,141920,1,10,3:0:0:0:
385,153,141988,1,0,3:0:0:0:
353,167,142057,1,10,3:0:0:0:
340,196,142125,1,0,3:0:0:0:
346,221,142193,1,10,3:0:0:0:
359,232,142261,1,0,3:0:0:0:
370,236,142329,5,12,3:2:0:0:
326,283,142397,1,0,3:0:0:0:
260,282,142466,1,10,3:0:0:0:
215,234,142534,1,0,3:0:0:0:
208,169,142602,1,10,3:0:0:0:
163,130,142670,1,0,3:0:0:0:
113,112,142738,1,10,3:0:0:0:
67,133,142807,1,0,3:0:0:0:
54,168,142875,1,10,3:0:0:0:
62,194,142943,1,0,3:0:0:0:
77,205,143011,1,10,3:0:0:0:
89,208,143079,1,0,3:0:0:0:
95,204,143147,5,10,3:0:0:0:
103,192,143216,1,0,3:0:0:0:
130,174,143284,1,10,3:0:0:0:
171,172,143352,1,0,3:0:0:0:
223,211,143420,5,12,3:2:0:0:
196,280,143488,1,0,3:0:0:0:
121,294,143557,1,10,3:0:0:0:
61,248,143625,1,0,3:0:0:0:
57,173,143693,1,10,3:0:0:0:
99,120,143761,1,0,3:0:0:0:
150,116,143829,1,10,3:0:0:0:
177,141,143897,1,0,3:0:0:0:
178,160,143966,5,10,3:0:0:0:
164,174,144034,1,0,3:0:0:0:
154,191,144102,2,0,P|145:214|145:250,1,50,10|0,3:0|3:0,3:0:0:0:
53,276,144238,5,10,3:0:0:0:
53,296,144307,1,0,3:0:0:0:
59,314,144375,2,0,P|82:344|111:358,1,50,10|0,3:0|3:0,3:0:0:0:
288,384,144511,5,12,3:2:0:0:
328,333,144579,1,0,3:0:0:0:
313,269,144647,1,10,3:0:0:0:
260,229,144716,1,0,3:0:0:0:
195,228,144784,1,10,3:0:0:0:
138,196,144852,1,0,3:0:0:0:
114,135,144920,1,10,3:0:0:0:
126,71,144988,1,0,3:0:0:0:
180,34,145057,5,10,3:0:0:0:
190,56,145125,1,0,3:0:0:0:
211,69,145193,2,0,P|242:74|282:63,1,50,10|0,3:0|3:0,3:0:0:0:
317,163,145329,5,10,3:0:0:0:
319,148,145397,1,0,3:0:0:0:
325,134,145466,2,0,P|338:114|364:96,1,50,10|0,3:0|3:0,3:0:0:0:
466,31,145602,5,12,3:2:0:0:
512,83,145670,1,0,3:0:0:0:
510,152,145738,1,10,3:0:0:0:
460,202,145807,1,0,3:0:0:0:
390,203,145875,1,10,3:0:0:0:
335,240,145943,1,0,3:0:0:0:
326,286,146011,1,10,3:0:0:0:
345,317,146079,1,0,3:0:0:0:
377,326,146147,5,10,3:0:0:0:
381,300,146216,1,0,3:0:0:0:
369,268,146284,1,10,3:0:0:0:
326,252,146352,1,0,3:0:0:0:
273,266,146420,1,10,3:0:0:0:
218,267,146488,1,0,3:0:0:0:
168,241,146557,1,10,3:0:0:0:
147,190,146625,1,0,3:0:0:0:
156,135,146693,1,12,3:2:0:0:
324,133,146829,6,0,P|226:213|66:416,1,320,10|10,3:0|3:0,3:0:0:0:
211,79,147238,6,0,P|205:126|227:188,1,100,2|10,3:0|3:0,3:0:0:0:
315,358,147511,2,0,P|235:311|153:311,1,170.000003242493,2|10,3:0|3:0,3:0:0:0:
466,163,147784,5,4,3:2:0:0:
466,163,147920,1,10,3:0:0:0:
334,247,148057,5,4,3:2:0:0:
334,247,148193,1,2,3:0:0:0:
302,10,148329,5,2,3:0:0:0:
367,133,148466,1,10,3:0:0:0:
230,192,148602,5,0,3:0:0:0:
198,289,148738,1,0,3:0:0:0:
335,367,148875,6,0,B|406:384|464:316|436:210|329:191|239:246|238:375|238:375|229:241|361:144|246:18|246:18|334:131|288:279|117:314|3:248|-29:114|67:20|145:42|173:83|173:83|62:75|86:178|7:156,1,1600,6|0,3:0|3:0,3:0:0:0:
150,105,170693,5,0,3:0:0:0:
153,113,171102,5,0,3:0:0:0:
124,190,171511,6,0,L|101:200,1,25,10|0,3:0|3:0,3:0:0:0:
101,200,171920,1,0,3:0:0:0:
237,256,172329,6,0,B|254:263|254:263|257:267|257:267|276:275,1,44.999998626709,10|0,3:0|3:0,3:0:0:0:
276,275,172602,1,0,3:0:0:0:
152,375,172875,6,0,L|158:350,1,25,0|0,3:0|3:0,3:0:0:0:
157,350,173284,1,0,3:0:0:0:
258,208,173557,5,0,3:0:0:0:
201,160,173693,2,0,B|197:139|197:139|196:142|196:142|192:120,1,44.999998626709,10|0,3:0|3:0,3:0:0:0:
192,120,173966,1,0,3:0:0:0:
258,208,174102,5,0,3:0:0:0:
86,302,174375,5,0,3:0:0:0:
156,329,174511,1,10,3:0:0:0:
261,288,174647,5,0,3:0:0:0:
251,295,174784,1,2,3:2:0:0:
262,299,174920,1,2,2:0:0:0:
303,363,175057,5,2,3:2:0:0:
145,137,175466,5,2,3:2:0:0:
243,43,175738,5,0,3:0:0:0:
295,96,175875,2,0,L|313:102,1,20,10|0,3:0|3:0,3:0:0:0:
243,43,176284,5,0,3:0:0:0:
355,165,176557,5,0,3:0:0:0:
303,218,176694,2,0,L|284:224,1,20,10|0,3:0|3:0,3:0:0:0:
355,165,176966,5,0,3:0:0:0:
284,224,177102,1,0,3:0:0:0:
382,305,177238,6,0,P|394:291|395:271,1,40,0|0,3:0|3:0,3:0:0:0:
394,270,177647,1,0,3:0:0:0:
447,370,177784,1,10,3:0:0:0:
512,285,177920,6,0,B|491:294|491:294|495:291|495:291|474:299,1,50,0|0,3:0|3:0,3:0:0:0:
328,239,178466,1,0,3:0:0:0:
240,307,178602,6,0,L|269:300,1,30,0|0,3:0|3:0,3:0:0:0:
269,300,178875,1,10,3:0:0:0:
183,217,179147,5,0,3:0:0:0:
320,57,179420,6,0,L|314:81,1,25,0|0,3:0|3:0,3:0:0:0:
314,81,179829,1,0,3:0:0:0:
135,315,180238,6,0,B|109:319|109:319|138:300,1,59.9999981689454,10|0,3:0|3:0,3:0:0:0:
183,217,180647,5,0,3:0:0:0:
318,277,180920,5,0,3:0:0:0:
389,255,181057,1,10,3:0:0:0:
388,264,181193,1,0,3:0:0:0:
300,131,181466,5,2,3:2:0:0:
362,87,181602,1,2,3:2:0:0:
377,92,181738,1,2,3:2:0:0:
448,62,181875,1,2,3:2:0:0:
300,41,182011,5,2,3:2:0:0:
362,87,182147,1,10,3:0:0:0:
377,92,182283,1,0,3:0:0:0:
451,186,182557,5,0,3:0:0:0:
358,319,182829,5,0,3:0:0:0:
350,309,182966,1,0,3:0:0:0:
361,309,183102,1,0,3:0:0:0:
296,380,183238,5,10,3:0:0:0:
284,373,183375,1,0,3:0:0:0:
281,362,183511,1,0,3:0:0:0:
151,223,183784,5,0,3:0:0:0:
151,223,184193,5,0,3:0:0:0:
267,96,184466,5,0,3:0:0:0:
205,53,184602,6,0,B|195:44|178:42|178:42|199:37|209:51,1,59.9999981689454,10|0,3:0|3:0,3:0:0:0:
267,96,185011,5,0,3:0:0:0:
151,223,185284,5,0,3:0:0:0:
124,153,185420,1,10,3:0:0:0:
144,229,185557,1,0,3:0:0:0:
201,70,185693,5,2,3:2:0:0:
196,83,185829,2,0,L|201:104,1,22.4999993133545,2|0,2:0|3:0,3:0:0:0:
125,49,185966,5,2,3:2:0:0:
281,121,186238,5,0,3:0:0:0:
234,181,186375,6,0,B|230:201|230:201|227:205|227:205|224:223,1,44.999998626709,10|0,3:0|3:0,3:0:0:0:
224,224,186647,1,0,3:0:0:0:
281,121,186784,5,10,3:0:0:0:
234,181,187057,1,0,3:0:0:0:
273,289,187329,1,0,3:0:0:0:
221,364,187466,6,0,L|247:357,1,27.5000008392334,0|0,2:0|2:0,2:0:0:0:
284,284,187602,6,0,B|301:286|301:286|315:291,3,32.4999985122681,0|0|0|0,2:0|2:0|2:0|2:0,2:0:0:0:
369,342,187875,5,0,2:0:0:0:
384,357,187943,1,0,2:0:0:0:
419,357,188011,1,0,2:0:0:0:
459,329,188079,1,0,2:0:0:0:
447,281,188147,1,0,2:0:0:0:
447,281,188420,6,0,B|438:252|455:236|458:241|474:226|470:193|470:193|505:257|449:281,1,200,6|0,3:0|3:0,3:0:0:0:
262,150,188829,6,0,B|270:121|253:105|250:110|234:95|238:62|238:62|204:119|259:150,1,200,6|0,3:0|3:0,3:0:0:0:
369,108,189102,6,0,B|369:96|372:85|378:77|378:77|351:0|237:-12|183:84|220:161|280:179|280:179|331:198|342:272|283:312|231:295|211:258,1,550.000005245209,6|0,3:0|3:0,3:0:0:0:
226,267,189920,1,0,3:0:0:0:
369,108,190057,2,0,B|372:95|387:91|387:91|363:90|354:123,1,64.9999970245363,10|0,3:0|3:0,3:0:0:0:
435,296,190329,6,0,L|399:308,1,37.5000014305115,0|0,3:0|3:0,3:0:0:0:
438,307,190466,2,0,L|473:294,1,37.5000014305115,0|0,3:0|3:0,3:0:0:0:
448,379,190602,6,0,B|423:344|423:344|458:257|458:257|432:222,1,179.999994506836,12|0,3:1|3:0,3:0:0:0:
490,178,190875,6,0,B|499:191|499:191|502:193|502:193|512:207,1,37.5000014305115,0|0,3:0|3:0,3:0:0:0:
369,266,191011,6,0,B|401:221|401:221|383:166|383:166|378:164|378:164|357:111|357:111|386:71,1,225.000008583069,12|0,3:1|3:0,3:0:0:0:
326,31,191284,6,0,B|315:45|315:45|312:47|312:47|303:60,1,37.5,4|0,3:1|3:0,3:0:0:0:
288,134,191557,5,8,2:0:0:0:
98,228,191693,1,8,2:0:0:0:
238,300,191829,5,0,3:0:0:0:
135,75,191966,1,8,2:0:0:0:
61,81,192034,1,8,2:0:0:0:
23,129,192102,1,0,3:0:0:0:
24,178,192170,1,0,3:0:0:0:
51,211,192238,1,8,2:0:0:0:
82,216,192307,1,8,2:0:0:0:
144,176,192375,5,0,3:0:0:0:
138,164,192443,1,0,3:0:0:0:
138,151,192511,2,0,P|158:174|166:204,1,62.5,4|0,3:1|3:0,3:0:0:0:
94,348,192647,1,0,3:0:0:0:
221,39,192784,5,8,2:0:0:0:
216,62,192852,1,8,2:0:0:0:
211,85,192920,1,8,2:0:0:0:
347,60,193056,5,0,3:0:0:0:
343,76,193124,1,0,2:0:0:0:
339,93,193192,1,0,3:0:0:0:
462,78,193329,5,12,2:1:0:0:
459,89,193397,1,0,2:0:0:0:
456,101,193466,1,8,2:0:0:0:
512,278,193602,5,4,3:2:0:0:
308,166,193738,1,8,2:0:0:0:
381,238,193875,5,8,2:0:0:0:
441,197,194011,1,0,3:0:0:0:
459,194,194079,1,8,2:0:0:0:
474,203,194147,1,8,2:0:0:0:
251,151,194284,5,8,2:0:0:0:
225,164,194352,1,8,2:0:0:0:
228,194,194420,1,8,2:0:0:0:
248,207,194488,1,8,2:0:0:0:
276,205,194556,1,8,2:0:0:0:
286,178,194624,1,8,2:0:0:0:
271,157,194693,5,6,3:0:0:0:
109,243,194829,1,0,3:0:0:0:
213,356,194966,5,8,2:0:0:0:
203,343,195034,1,8,2:0:0:0:
187,342,195102,1,6,3:0:0:0:
109,243,195238,5,8,2:0:0:0:
53,265,195306,1,0,3:0:0:0:
42,313,195374,1,8,2:0:0:0:
59,344,195442,1,8,2:0:0:0:
76,354,195511,6,0,P|91:343|109:338,1,37.5000014305115,4|0,3:2|3:0,3:0:0:0:
214,250,195647,1,8,2:0:0:0:
224,244,195716,1,0,3:0:0:0:
235,245,195784,6,0,P|250:255|268:260,1,37.5000014305115,4|0,3:2|3:0,3:0:0:0:
392,372,195920,1,8,2:0:0:0:
402,378,195989,1,8,2:0:0:0:
424,372,196057,5,6,3:0:0:0:
421,319,196125,1,0,3:0:0:0:
374,300,196193,1,8,2:0:0:0:
341,309,196261,1,8,2:0:0:0:
324,335,196329,5,8,2:0:0:0:
281,350,196397,1,8,2:0:0:0:
232,319,196466,1,8,2:0:0:0:
237,252,196534,1,8,2:0:0:0:
289,210,196602,1,8,3:0:0:0:
284,163,196670,1,8,3:0:0:0:
270,148,196738,1,8,3:0:0:0:
254,144,196807,1,8,3:0:0:0:
247,153,196875,6,0,P|281:172|299:207,1,80,6|0,3:0|3:0,3:0:0:0:
425,290,197011,2,0,B|428:278|438:271|438:271|436:234|402:223,1,80,10|0,3:0|3:0,3:0:0:0:
327,372,197147,6,0,P|354:270|400:176,1,209.999993591309,2|0,3:0|3:0,3:0:0:0:
368,169,197420,5,2,3:0:0:0:
470,365,197557,1,10,3:0:0:0:
286,255,197693,6,0,B|293:188|357:155|422:161|427:290|361:192|305:210|288:259,1,240,2|0,3:0|3:0,3:0:0:0:
262,327,197966,5,2,3:0:0:0:
404,101,198102,1,10,3:0:0:0:
198,202,198238,6,0,B|172:198|173:182|205:140|121:95|171:109|171:109|173:155|200:180,1,200,2|10,3:0|3:0,3:0:0:0:
309,0,198511,2,0,B|286:4|286:18|315:55|249:88|285:83|285:83|293:24|315:12,1,179.999994506836,2|10,3:0|3:0,3:0:0:0:
72,278,198784,6,0,B|78:225|127:194|127:194|127:196|127:196|179:184|231:206|231:206|183:233|189:290,1,300,2|0,3:0|3:0,3:0:0:0:
266,277,199057,1,2,3:0:0:0:
135,123,199193,6,0,P|139:161|170:186,1,80,10|0,3:0|3:0,3:0:0:0:
266,277,199329,6,0,B|284:252|328:251|328:251|280:272|260:309,1,160,2|10,3:0|3:0,3:0:0:0:
372,120,199602,1,2,3:0:0:0:
320,65,199738,6,0,P|297:96|298:136,1,80,10|0,3:0|3:0,3:0:0:0:
440,253,199875,1,2,3:0:0:0:
459,220,199943,1,0,3:0:0:0:
437,190,200011,1,10,3:0:0:0:
260,308,200147,5,2,3:0:0:0:
342,376,200284,6,0,B|391:387|434:372|463:323|463:323|409:377|325:364,1,269.999991760254,10|0,3:0|3:0,3:0:0:0:
192,236,200557,6,0,B|182:230|180:225|180:225|146:239|143:277|173:306,1,89.9999972534181,10|0,3:0|3:0,3:0:0:0:
342,376,200693,2,0,B|352:382|354:387|354:387|388:373|391:335|360:307,1,89.9999972534181,2|0,3:0|3:0,3:0:0:0:
248,153,200829,5,8,2:0:0:0:
243,145,200897,1,8,2:0:0:0:
242,135,200966,1,2,3:0:0:0:
345,221,201102,5,10,3:0:0:0:
124,298,201238,5,6,3:0:0:0:
173,264,201307,1,0,3:0:0:0:
232,268,201375,1,10,3:0:0:0:
279,305,201443,1,0,3:0:0:0:
301,349,201511,1,10,3:0:0:0:
342,376,201579,1,0,3:0:0:0:
392,377,201647,1,10,3:0:0:0:
422,337,201716,1,0,3:0:0:0:
406,288,201784,5,10,3:0:0:0:
361,283,201852,1,0,3:0:0:0:
322,305,201920,1,10,3:0:0:0:
301,349,201988,1,0,3:0:0:0:
253,372,202057,1,10,3:0:0:0:
200,360,202125,1,0,3:0:0:0:
155,320,202193,1,10,3:0:0:0:
142,261,202261,1,0,3:0:0:0:
156,213,202329,5,10,3:0:0:0:
191,186,202397,1,0,3:0:0:0:
234,190,202466,1,10,3:0:0:0:
261,218,202534,1,0,3:0:0:0:
301,247,202602,1,10,3:0:0:0:
355,254,202670,1,0,3:0:0:0:
405,231,202739,1,10,3:0:0:0:
428,181,202807,1,0,3:0:0:0:
428,126,202875,5,10,3:0:0:0:
385,91,202943,1,0,3:0:0:0:
340,87,203011,1,10,3:0:0:0:
314,111,203079,1,0,3:0:0:0:
312,135,203147,1,10,3:0:0:0:
324,150,203216,1,0,3:0:0:0:
338,154,203284,1,10,3:0:0:0:
347,150,203352,1,0,3:0:0:0:
350,146,203420,5,10,3:0:0:0:
324,125,203488,1,0,3:0:0:0:
284,145,203557,1,10,3:0:0:0:
264,192,203625,1,0,3:0:0:0:
283,249,203693,1,10,3:0:0:0:
278,309,203761,1,0,3:0:0:0:
227,344,203829,1,10,3:0:0:0:
169,352,203897,1,0,3:0:0:0:
122,314,203966,5,10,3:0:0:0:
108,258,204034,1,0,3:0:0:0:
120,201,204102,1,10,3:0:0:0:
105,145,204170,1,0,3:0:0:0:
65,118,204238,1,10,3:0:0:0:
22,126,204307,1,0,3:0:0:0:
0,162,204375,1,10,3:0:0:0:
8,209,204443,1,0,3:0:0:0:
52,230,204511,5,6,3:0:0:0:
106,220,204580,1,2,3:0:0:0:
175,230,204648,1,8,2:0:0:0:
225,278,204716,1,8,2:0:0:0:
244,334,204784,1,8,2:0:0:0:
289,371,204852,1,2,3:0:0:0:
348,380,204920,1,8,2:0:0:0:
389,336,204989,1,8,2:0:0:0:
389,276,205057,5,8,2:0:0:0:
335,230,205125,1,2,3:0:0:0:
267,247,205193,1,8,2:0:0:0:
245,308,205261,1,8,2:0:0:0:
194,334,205329,1,8,2:0:0:0:
143,309,205397,1,2,3:0:0:0:
127,257,205466,1,8,2:0:0:0:
154,214,205534,1,8,2:0:0:0:
192,214,205602,5,10,2:0:0:0:
190,155,214329,5,14,3:0:0:0:
241,199,214397,1,0,3:0:0:0:
304,184,214466,1,10,3:0:0:0:
341,133,214534,1,0,3:0:0:0:
341,69,214602,1,10,3:0:0:0:
294,27,214670,1,0,3:0:0:0:
230,30,214738,1,10,3:0:0:0:
181,70,214807,1,0,3:0:0:0:
170,128,214875,1,10,3:0:0:0:
139,174,214943,1,0,3:0:0:0:
95,185,215011,1,10,3:0:0:0:
57,170,215079,1,0,3:0:0:0:
49,141,215147,5,10,3:0:0:0:
66,129,215215,1,0,3:0:0:0:
88,128,215283,1,10,3:0:0:0:
104,138,215351,1,0,3:0:0:0:
122,161,215420,5,14,3:2:0:0:
86,232,215488,1,0,3:0:0:0:
123,303,215557,1,10,3:0:0:0:
189,336,215625,1,0,3:0:0:0:
255,317,215693,1,10,3:0:0:0:
286,260,215761,1,0,3:0:0:0:
335,224,215829,1,10,3:0:0:0:
384,240,215897,1,0,3:0:0:0:
432,297,215966,5,10,3:0:0:0:
423,309,216034,1,0,3:0:0:0:
418,323,216102,2,0,P|421:347|435:367,1,50,10|0,3:0|3:0,3:0:0:0:
293,153,216238,5,10,3:0:0:0:
303,154,216307,1,0,3:0:0:0:
312,160,216374,2,0,P|326:180|328:205,1,50,10|0,3:0|3:0,3:0:0:0:
475,17,216511,5,14,3:2:0:0:
512,80,216579,1,0,3:0:0:0:
486,149,216647,1,10,3:0:0:0:
418,181,216715,1,0,3:0:0:0:
349,149,216784,1,10,3:0:0:0:
278,147,216852,1,0,3:0:0:0:
230,189,216920,1,10,3:0:0:0:
224,239,216988,1,0,3:0:0:0:
250,277,217057,5,10,3:0:0:0:
224,335,217125,1,0,3:0:0:0:
175,348,217193,1,10,3:0:0:0:
139,318,217261,1,0,3:0:0:0:
130,300,217329,6,0,P|143:278|151:255,1,50,10|0,3:0|3:0,3:0:0:0:
304,165,217466,2,0,P|287:136|279:105,1,64.9999970245363,10|0,3:0|3:0,3:0:0:0:
38,93,217602,5,14,3:2:0:0:
84,30,217670,1,0,3:0:0:0:
158,22,217738,1,10,3:0:0:0:
220,54,217807,1,0,3:0:0:0:
240,120,217875,1,10,3:0:0:0:
230,189,217943,1,0,3:0:0:0:
263,238,218011,1,10,3:0:0:0:
313,250,218079,1,0,3:0:0:0:
341,263,218147,6,0,P|362:239|393:232,3,64.9999970245363,10|0|10|0,3:0|3:0|3:0|3:0,3:0:0:0:
423,163,218420,2,0,P|446:171|462:189,3,50,10|0|10|0,3:0|3:0|3:0|3:0,3:0:0:0:
279,105,218693,5,4,3:2:0:0:
484,225,218829,1,10,3:0:0:0:
278,348,218966,5,0,3:0:0:0:
415,253,219102,1,10,3:0:0:0:
224,162,219238,6,0,B|194:168|184:194|184:194|208:173|248:176,1,119.999996337891,0|10,3:0|3:0,3:0:0:0:
341,263,219511,5,0,3:0:0:0:
408,75,219647,1,10,3:0:0:0:
356,0,219784,5,4,3:2:0:0:
443,183,219920,1,10,3:0:0:0:
415,253,220057,1,0,3:0:0:0:
498,109,220193,5,10,3:0:0:0:
420,270,220329,1,0,3:0:0:0:
448,340,220466,1,10,3:0:0:0:
303,238,220602,5,0,3:0:0:0:
455,358,220738,1,10,3:0:0:0:
498,109,220875,6,0,B|443:118|426:172|426:172|420:177|420:177|438:130|396:91,1,179.999994506836,4|0,3:2|3:0,3:0:0:0:
351,151,221147,1,0,3:0:0:0:
512,228,221284,1,10,3:0:0:0:
266,68,221420,6,0,B|320:77|337:131|337:131|343:136|343:136|325:89|367:50,1,179.999994506836,4|0,3:2|3:0,3:0:0:0:
413,110,221692,1,0,3:0:0:0:
255,182,221829,1,10,3:0:0:0:
377,34,221966,5,4,3:2:0:0:
303,238,222102,1,8,2:3:0:0:
326,220,222170,1,8,2:3:0:0:
327,191,222238,1,0,3:0:0:0:
215,11,222375,5,8,2:3:0:0:
192,29,222443,1,8,2:3:0:0:
191,58,222511,1,4,3:2:0:0:
337,196,222647,1,10,3:0:0:0:
216,331,222784,5,4,3:2:0:0:
315,119,222920,1,10,3:0:0:0:
55,296,223057,5,6,3:0:0:0:
112,256,223125,1,0,3:0:0:0:
174,282,223193,1,10,3:0:0:0:
202,339,223261,1,0,3:0:0:0:
260,363,223329,1,10,3:0:0:0:
316,335,223397,1,0,3:0:0:0:
336,275,223466,1,10,3:0:0:0:
312,216,223534,1,0,3:0:0:0:
254,192,223602,1,10,3:0:0:0:
195,206,223670,1,0,3:0:0:0:
151,186,223738,1,10,3:0:0:0:
141,144,223807,1,0,3:0:0:0:
158,122,223875,5,10,3:0:0:0:
187,124,223943,1,0,3:0:0:0:
211,140,224011,1,10,3:0:0:0:
223,168,224079,1,0,3:0:0:0:
173,213,224147,5,14,3:2:0:0:
155,281,224215,1,0,3:0:0:0:
191,346,224283,1,10,3:0:0:0:
258,384,224352,1,0,3:0:0:0:
330,360,224420,1,10,3:0:0:0:
386,308,224488,1,0,3:0:0:0:
447,308,224556,1,10,3:0:0:0:
474,345,224624,1,0,3:0:0:0:
415,384,224693,5,10,3:0:0:0:
383,321,224761,1,0,3:0:0:0:
415,270,224829,1,10,3:0:0:0:
461,254,224897,1,0,3:0:0:0:
480,219,224966,1,10,3:0:0:0:
474,181,225034,1,0,3:0:0:0:
455,165,225102,1,10,3:0:0:0:
434,168,225170,1,0,3:0:0:0:
430,176,225238,5,14,3:2:0:0:
499,145,225307,1,0,3:0:0:0:
512,71,225375,1,10,3:0:0:0:
464,19,225443,1,0,3:0:0:0:
394,13,225511,1,10,3:0:0:0:
337,45,225579,1,0,3:0:0:0:
317,101,225647,1,10,3:0:0:0:
276,139,225716,1,0,3:0:0:0:
239,130,225784,5,10,3:0:0:0:
275,160,225852,1,0,3:0:0:0:
281,209,225920,1,10,3:0:0:0:
249,247,225988,1,0,3:0:0:0:
231,253,226057,6,0,P|209:240|185:235,1,50,10|0,3:0|3:0,3:0:0:0:
88,149,226193,2,0,P|56:154|29:172,1,64.9999970245363,10|0,3:0|3:0,3:0:0:0:
111,336,226329,5,14,3:2:0:0:
182,369,226397,1,0,3:0:0:0:
252,348,226465,1,10,3:0:0:0:
289,292,226533,1,0,3:0:0:0:
283,232,226601,1,10,3:0:0:0:
235,203,226670,1,0,3:0:0:0:
189,206,226738,1,10,3:0:0:0:
166,241,226806,1,0,3:0:0:0:
165,254,226875,6,0,B|162:274|173:287|173:287|173:291|173:291|190:302|206:301,3,75.0000028610231,10|0|10|0,3:0|3:0|3:0|3:0,3:0:0:0:
277,363,227147,2,0,B|290:368|307:364|307:364|308:360|308:360|320:352|323:335,3,64.9999970245363,10|0|10|0,3:0|3:0|3:0|3:0,3:0:0:0:
429,262,227420,5,14,3:2:0:0:
379,217,227488,1,0,3:0:0:0:
373,155,227556,1,10,3:0:0:0:
409,117,227624,1,0,3:0:0:0:
450,102,227692,1,10,3:0:0:0:
471,69,227761,1,0,3:0:0:0:
469,40,227829,1,10,3:0:0:0:
450,20,227897,1,0,3:0:0:0:
427,17,227966,5,10,3:0:0:0:
392,43,228034,1,0,3:0:0:0:
387,90,228102,1,10,3:0:0:0:
409,117,228170,1,0,3:0:0:0:
439,131,228238,1,10,3:0:0:0:
450,159,228307,1,0,3:0:0:0:
439,191,228375,1,10,3:0:0:0:
415,198,228443,1,0,3:0:0:0:
404,193,228511,5,14,3:2:0:0:
450,244,228579,1,0,3:0:0:0:
428,310,228647,1,10,3:0:0:0:
360,332,228716,1,0,3:0:0:0:
312,296,228784,1,10,3:0:0:0:
288,238,228852,1,0,3:0:0:0:
238,213,228920,1,10,3:0:0:0:
201,226,228988,1,0,3:0:0:0:
179,295,229057,5,10,3:0:0:0:
188,302,229125,1,0,3:0:0:0:
200,301,229193,2,0,P|216:296|232:288,1,34.9999989318848,10|0,3:0|3:0,3:0:0:0:
299,130,229329,5,10,3:0:0:0:
290,123,229397,1,0,3:0:0:0:
278,123,229465,2,0,P|264:126|251:132,1,27.5000008392334,10|0,3:0|3:0,3:0:0:0:
75,292,229602,5,14,3:2:0:0:
32,251,229670,1,0,3:0:0:0:
26,192,229738,1,10,3:0:0:0:
66,144,229806,1,0,3:0:0:0:
128,131,229874,1,10,3:0:0:0:
166,89,229943,1,0,3:0:0:0:
165,44,230011,1,10,3:0:0:0:
142,19,230079,1,0,3:0:0:0:
122,18,230147,6,0,P|109:44|113:73,3,59.9999981689454,12|0|10|0,3:2|3:0|3:0|3:0,3:0:0:0:
187,183,230420,2,0,P|171:165|147:158,3,50,10|0|10|0,3:0|3:0|3:0|3:0,3:0:0:0:
419,68,230693,5,14,3:2:0:0:
348,41,230762,1,0,3:0:0:0:
277,64,230830,1,10,3:0:0:0:
242,129,230898,1,0,3:0:0:0:
262,201,230966,1,10,3:0:0:0:
235,263,231034,1,0,3:0:0:0:
180,293,231102,1,10,3:0:0:0:
125,282,231171,1,0,3:0:0:0:
89,241,231239,1,10,3:0:0:0:
92,194,231307,1,0,3:0:0:0:
124,162,231375,1,2,3:0:0:0:
161,158,231443,1,0,3:0:0:0:
190,177,231512,1,10,3:0:0:0:
198,208,231580,1,0,3:0:0:0:
188,232,231648,1,2,3:0:0:0:
173,240,231716,1,0,3:0:0:0:
166,238,231784,5,12,3:2:0:0:
142,313,231852,1,0,3:0:0:0:
190,372,231920,1,0,3:0:0:0:
264,376,231988,1,0,3:0:0:0:
324,330,232057,1,10,3:0:0:0:
322,256,232125,1,0,3:0:0:0:
275,202,232193,1,10,3:0:0:0:
264,132,232261,1,0,3:0:0:0:
294,69,232329,1,10,3:0:0:0:
352,40,232397,1,0,3:0:0:0:
411,52,232466,1,10,3:0:0:0:
441,97,232534,1,0,3:0:0:0:
433,127,232602,5,10,3:0:0:0:
413,122,232670,1,0,3:0:0:0:
398,106,232738,1,10,3:0:0:0:
394,87,232806,1,0,3:0:0:0:
406,64,232875,5,12,3:2:0:0:
446,122,232943,1,0,3:0:0:0:
435,196,233011,1,10,3:0:0:0:
387,255,233080,1,0,3:0:0:0:
311,258,233148,1,10,3:0:0:0:
241,230,233216,1,0,3:0:0:0:
186,248,233284,1,10,3:0:0:0:
172,299,233352,1,0,3:0:0:0:
196,326,233420,5,10,3:0:0:0:
206,309,233488,1,0,3:0:0:0:
206,288,233557,2,0,P|194:265|178:246,1,50,10|0,3:0|3:0,3:0:0:0:
184,156,233693,5,10,3:0:0:0:
182,151,233761,1,0,3:0:0:0:
178,147,233830,2,0,P|157:132|124:128,1,50,10|0,3:0|3:0,3:0:0:0:
0,245,233966,6,0,P|39:241|68:215,1,80,12|0,3:2|3:0,3:0:0:0:
154,40,234102,1,10,3:0:0:0:
115,29,234170,1,0,3:0:0:0:
90,60,234238,2,0,P|129:63|158:89,1,80,10|0,3:0|3:0,3:0:0:0:
259,218,234375,5,10,3:0:0:0:
290,215,234443,1,0,3:0:0:0:
309,189,234511,2,0,P|300:151|278:117,1,80,10|0,3:0|3:0,3:0:0:0:
350,6,234647,5,10,3:0:0:0:
416,2,234715,1,0,3:0:0:0:
449,46,234783,1,10,3:0:0:0:
443,91,234852,1,0,3:0:0:0:
466,123,234920,1,10,3:0:0:0:
499,121,234988,1,0,3:0:0:0:
509,109,235057,5,12,3:2:0:0:
447,65,235125,1,0,3:0:0:0:
371,83,235193,1,10,3:0:0:0:
329,145,235262,1,0,3:0:0:0:
328,210,235330,1,10,3:0:0:0:
296,267,235398,1,0,3:0:0:0:
239,291,235466,1,10,3:0:0:0:
185,272,235534,1,0,3:0:0:0:
126,231,235602,6,0,P|148:208|180:200,3,64.9999970245363,10|0|10|0,3:0|3:0|3:0|3:0,3:0:0:0:
63,317,235875,2,0,P|37:306|18:286,3,55.0000016784668,10|0|10|0,3:0|3:0|3:0|3:0,3:0:0:0:
153,384,236147,5,12,3:2:0:0:
220,188,236284,1,10,3:0:0:0:
66,58,236420,5,0,3:0:0:0:
126,231,236557,1,10,3:0:0:0:
297,62,236693,6,0,B|254:70|248:116|248:116|283:128|296:172,2,139.999995727539,0|10|0,3:0|3:0|3:0,3:0:0:0:
220,188,237102,1,10,3:0:0:0:
429,308,237238,6,0,P|375:265|308:249,1,139.999995727539,4|8,3:1|2:3,3:0:0:0:
238,270,237443,1,8,2:3:0:0:
243,285,237511,1,0,3:0:0:0:
391,140,237647,1,8,2:3:0:0:
360,74,237784,6,0,B|339:29|294:33|294:33|333:44|343:73,1,150,4|8,3:1|2:3,3:0:0:0:
394,213,238057,2,0,B|411:250|449:247|449:247|416:238|407:213,1,120,8|8,2:3|2:3,3:0:0:0:
391,140,238329,6,0,B|386:212|320:232|253:200|267:126|267:126|308:126|333:91,1,269.999991760254,6|0,3:0|3:0,3:0:0:0:
269,53,238602,1,0,3:0:0:0:
191,283,238738,1,10,3:0:0:0:
63,60,238875,6,0,B|123:110|123:110|96:138|73:173,1,160,0|10,3:0|3:0,3:0:0:0:
323,8,239147,2,0,B|269:52|269:52|293:77|313:108,1,139.999995727539,0|10,3:0|3:0,3:0:0:0:
242,384,239420,6,0,B|215:327|160:321|161:362|177:367|177:367|207:354|236:379,1,179.999994506836,0|10,3:0|3:0,3:0:0:0:
364,276,239693,2,0,B|387:226|435:221|434:257|420:261|420:261|394:249|368:272,1,150.000005722046,0|10,3:0|3:0,3:0:0:0:
266,154,239966,2,0,B|247:115|210:111|211:139|222:143|222:143|242:133|262:151,1,119.999996337891,0|10,3:0|3:0,3:0:0:0:
340,83,240238,6,0,L|376:73,1,25,0|0,3:0|3:0,3:0:0:0:
331,75,240375,2,0,L|295:85,1,25,10|0,3:0|3:0,3:0:0:0:
323,8,240511,6,0,B|368:52|338:109|338:109|280:149|310:208,1,225.000008583069,4|0,3:2|3:0,3:0:0:0:
380,255,240784,5,0,3:0:0:0:
380,255,240852,1,0,3:0:0:0:
380,255,240920,1,10,3:0:0:0:
267,384,241057,5,0,3:0:0:0:
482,310,241193,2,0,B|430:321|394:276|394:276|421:312|402:363,1,170.000003242493,10|0,3:0|3:0,3:0:0:0:
351,384,241397,1,0,3:0:0:0:
351,384,241466,1,10,3:0:0:0:
196,229,241602,6,0,B|227:224|251:241|251:241|256:239|256:239|273:258|272:291,1,119.999996337891,0|10,3:0|3:0,3:0:0:0:
482,310,241875,2,0,P|454:320|432:341,1,59.9999981689454,0|0,3:0|3:0,3:0:0:0:
490,225,242011,2,0,P|415:253|357:307,1,160,10|0,3:0|3:0,3:0:0:0:
390,91,242284,5,10,3:0:0:0:
460,72,242420,2,0,P|462:105|446:136,1,69.9999978637696,0|0,3:0|3:0,3:0:0:0:
321,183,242557,1,10,3:0:0:0:
410,280,242693,6,0,L|385:273,1,25,4|0,3:1|3:0,3:0:0:0:
413,291,242829,2,0,L|437:297,1,25,10|0,3:0|3:0,3:0:0:0:
283,374,242966,2,0,P|235:342|238:285,1,120,0|0,3:0|3:0,3:0:0:0:
202,161,243238,6,0,B|136:163|100:95|100:95|138:177|71:240,1,279.999991455078,0|0,3:0|3:0,3:0:0:0:
195,65,243647,1,10,3:0:0:0:
30,150,243784,1,0,3:0:0:0:
171,259,243920,6,0,B|191:267|199:287|199:287|172:265|145:261,1,100,10|0,3:0|3:0,3:0:0:0:
26,323,244193,1,10,3:0:0:0:
147,172,244329,1,0,3:0:0:0:
141,335,244466,1,10,3:0:0:0:
27,166,244602,6,0,L|4:175,1,25,0|0,3:0|3:0,3:0:0:0:
25,152,244738,2,0,L|47:142,1,25,10|0,3:0|3:0,3:0:0:0:
171,259,244875,5,4,3:1:0:0:
376,180,245011,1,10,3:2:0:0:
305,354,245147,2,0,B|299:335|299:335|300:333|300:333|293:316,2,40,2|0|10,3:2|3:0|3:2,3:0:0:0:
197,159,245420,5,2,3:2:0:0:
377,274,245557,1,10,3:2:0:0:
323,95,245693,1,2,3:2:0:0:
318,110,245761,1,0,3:0:0:0:
314,125,245829,1,10,3:2:0:0:
233,295,245966,5,2,3:2:0:0:
384,177,246102,1,10,3:2:0:0:
233,62,246238,2,0,B|239:81|239:81|238:83|238:83|244:99,2,40,2|0|10,3:2|3:0|3:2,3:0:0:0:
155,304,246511,5,2,3:2:0:0:
100,281,246579,1,0,3:0:0:0:
79,224,246647,1,10,3:2:0:0:
105,166,246715,1,0,3:0:0:0:
163,138,246783,1,4,3:1:0:0:
188,88,246852,1,0,3:0:0:0:
175,45,246920,1,10,3:2:0:0:
146,27,246988,1,0,3:0:0:0:
132,28,247057,6,0,L|99:45,1,25,4|0,3:2|3:0,3:0:0:0:
127,14,247193,2,0,L|149:2,1,25,10|0,3:2|3:0,3:0:0:0:
29,163,247329,6,0,B|22:133|-17:124|-17:124|35:120|57:179,1,150,2|0,3:2|3:0,3:0:0:0:
118,256,247602,2,0,B|202:222|202:222|154:238|108:216,1,160,2|10,3:2|3:2,3:0:0:0:
284,108,247875,2,0,B|356:137|356:137|315:123|275:142,1,139.999995727539,2|10,3:2|3:2,3:0:0:0:
387,345,248147,6,0,B|338:340|310:302|310:302|314:299|314:299|298:259|325:219,1,179.999994506836,2|10,3:0|3:0,3:0:0:0:
476,301,248420,2,0,B|498:267|485:234|485:234|488:231|488:231|465:200|424:195,1,150.000005722046,2|10,3:0|3:0,3:0:0:0:
341,37,248693,6,0,B|350:13|388:13|388:13|348:39|344:85,2,135.000000514984,2|10|2,3:0|3:0|3:0,3:0:0:0:
422,83,249102,1,10,3:0:0:0:
217,217,249238,5,4,3:1:0:0:
79,153,249375,1,10,3:0:0:0:
184,104,249511,5,2,3:0:0:0:
184,104,249579,1,0,3:0:0:0:
184,104,249647,1,12,3:1:0:0:
93,263,249784,5,2,3:0:0:0:
279,165,249921,1,12,3:1:0:0:
360,198,250057,5,2,3:0:0:0:
360,198,250125,1,0,3:0:0:0:
360,198,250193,1,12,3:1:0:0:
209,17,250329,1,0,3:0:0:0:
96,174,250466,6,0,B|70:170|53:199|53:199|72:184|100:187,1,89.9999972534181,10|0,3:1|3:0,3:0:0:0:
92,166,250602,2,0,B|65:161|48:190|48:190|67:175|95:178,1,69.9999978637696,10|0,3:1|3:0,3:0:0:0:
117,330,250738,6,0,B|75:289|103:236|103:236|156:199|129:144,1,209.999993591309,0|0,3:0|3:0,3:0:0:0:
78,88,251011,1,14,3:1:0:0:
189,19,251147,2,0,B|183:38|183:38|184:40|184:40|178:56,2,40,6|0|8,3:1|3:1|3:1,3:1:0:0:
254,192,251420,5,6,3:0:0:0:
165,77,251557,1,10,3:0:0:0:
165,77,251625,1,0,3:0:0:0:
165,77,251693,1,0,3:0:0:0:
94,247,251829,1,10,3:0:0:0:
263,114,251966,6,0,B|274:111|280:101|280:101|337:95|361:161|312:208,2,139.999995727539,0|10|0,3:0|3:0|3:0,3:0:0:0:
404,57,252375,1,10,3:0:0:0:
319,210,252511,6,0,B|312:208|308:199|308:199|261:194|241:249|281:288,2,119.999996337891,2|10|0,3:0|3:0|3:0,3:0:0:0:
180,99,252920,1,10,3:0:0:0:
268,287,253057,5,0,3:0:0:0:
245,358,253193,1,10,3:0:0:0:
400,242,253329,5,0,3:0:0:0:
241,376,253466,1,10,3:0:0:0:
90,210,253602,6,0,B|75:166|25:159|25:159|91:148|121:210|105:203|126:253|184:243,1,279.999991455078,4|0,3:1|3:0,3:0:0:0:
309,144,253943,1,0,3:0:0:0:
310,137,254011,6,0,B|309:48|205:28|176:126|235:135,1,209.999993591309,10|0,3:0|3:0,3:0:0:0:
241,135,254284,1,10,3:0:0:0:
136,328,254420,6,0,B|132:345|132:345|134:344|134:344|128:363,2,40,0|0|10,3:0|3:0|3:0,3:0:0:0:
273,207,254693,5,0,3:0:0:0:
288,195,254761,1,0,3:0:0:0:
308,191,254829,1,10,3:0:0:0:
327,195,254897,1,0,3:0:0:0:
343,206,254966,2,0,L|355:238,1,34.9999989318848,0|0,3:0|3:0,3:0:0:0:
430,322,255102,5,10,3:0:0:0:
445,334,255170,1,0,3:0:0:0:
465,338,255238,1,0,3:0:0:0:
484,334,255306,1,0,3:0:0:0:
500,323,255375,2,0,L|512:291,1,34.9999989318848,10|0,3:0|3:0,3:0:0:0:
455,124,255511,5,0,3:0:0:0:
437,116,255579,1,0,3:0:0:0:
406,117,255647,1,0,3:0:0:0:
376,148,255715,1,0,3:0:0:0:
378,202,255784,1,4,3:1:0:0:
422,236,255852,1,8,3:0:0:0:
474,253,255920,1,0,3:0:0:0:
499,301,255988,1,8,3:0:0:0:
481,353,256057,1,2,3:1:0:0:
431,377,256125,1,8,3:0:0:0:
378,360,256193,1,2,3:2:0:0:
367,306,256261,1,8,3:0:0:0:
425,259,256329,5,2,3:1:0:0:
438,313,256397,1,8,3:0:0:0:
400,354,256466,1,2,3:2:0:0:
345,354,256534,1,8,3:0:0:0:
304,316,256602,1,2,3:1:0:0:
255,305,256670,1,8,3:0:0:0:
213,323,256738,1,2,3:2:0:0:
199,361,256807,1,8,3:0:0:0:
216,378,256875,5,4,3:1:0:0:
248,354,256943,1,8,2:3:0:0:
252,314,257011,1,8,2:3:0:0:
235,277,257079,1,8,2:3:0:0:
203,253,257147,1,8,2:0:0:0:
185,216,257216,1,0,3:0:0:0:
204,181,257284,5,0,3:0:0:0:
177,194,257352,1,8,2:3:0:0:
147,189,257420,1,8,2:3:0:0:
122,171,257488,1,8,2:3:0:0:
109,143,257557,1,8,2:3:0:0:
112,113,257625,1,8,2:3:0:0:
134,93,257693,1,0,3:0:0:0:
150,74,257761,1,8,2:3:0:0:
147,49,257829,1,8,2:3:0:0:
134,33,257897,1,8,2:3:0:0:
118,32,257966,5,6,3:0:0:0:
256,192,258034,12,0,264511,3:0:0:0:
