osu file format v14

[General]
AudioFilename: audio.mp3
AudioLeadIn: 0
PreviewTime: 121937
Countdown: 1
SampleSet: Soft
StackLeniency: 0.3
Mode: 0
LetterboxInBreaks: 0
WidescreenStoryboard: 0

[Editor]
DistanceSpacing: 2
BeatDivisor: 4
GridSize: 32
TimelineZoom: 2.699999

[Metadata]
Title:Jashin no Konrei, Giha Ai to Shiru
TitleUnicode:邪神の婚礼、儀は愛と知る。
Artist:Imperial Circus Dead Decadence
ArtistUnicode:Imperial Circus Dead Decadence
Creator:Sersh4nt
Version:The Cursed Love from the Lovecraftian Creature
Source:osu!
Tags:cthulhu wedding melodic death metal melodeath icdd uta himei 狂おしく咲いた凄惨な骸は奏で、愛おしく裂いた少女は聖餐の詞を謳う。 fa featured artist sershant
BeatmapID:1973997
BeatmapSetID:945276

[Difficulty]
HPDrainRate:4
CircleSize:4.5
OverallDifficulty:9.6
ApproachRate:9.8
SliderMultiplier:2
SliderTickRate:1

[Events]
//Background and Video events
0,0,"ThSjFX.jpg",0,0
//Break Periods
//Storyboard Layer 0 (Background)
//Storyboard Layer 1 (Fail)
//Storyboard Layer 2 (Pass)
//Storyboard Layer 3 (Foreground)
//Storyboard Sound Samples

[TimingPoints]
334,333.333333333333,4,2,0,40,1,0
4583,-285.714285714286,4,2,0,40,0,0
5000,-285.714285714286,4,2,0,33,0,0
5333,-285.714285714286,4,2,0,26,0,0
5667,-285.714285714286,4,2,0,19,0,0
6000,-285.714285714286,4,2,0,12,0,0
6333,-285.714285714286,4,2,0,5,0,0
6556,-285.714285714286,4,2,0,20,0,0
7250,-285.714285714286,4,2,0,30,0,0
7917,-285.714285714286,4,2,0,5,0,0
8000,250,4,2,1,60,1,0
16250,-100,4,2,8,60,0,0
16500,-100,4,2,9,60,0,0
16750,-100,4,2,10,60,0,0
17000,-100,4,2,1,60,0,0
24000,-100,4,2,8,60,0,0
24250,-100,4,2,9,60,0,0
24500,-100,4,2,1,60,0,0
24750,-200,4,2,10,60,0,0
25000,-100,4,2,1,60,0,0
29000,-50,4,2,1,60,0,0
29250,-100,4,2,1,60,0,0
39250,-100,4,2,8,60,0,0
39500,-100,4,2,9,60,0,0
39750,-100,4,2,10,60,0,0
40000,-100,4,2,1,60,0,0
53000,-50,4,2,1,60,0,0
53250,-100,4,2,1,60,0,0
56250,-100,4,2,8,60,0,0
56500,-100,4,2,9,60,0,0
56750,-100,4,2,10,60,0,0
57000,-100,4,2,1,60,0,1
60000,-100,4,2,1,60,0,0
61000,-100,4,2,1,60,0,1
64000,-100,4,2,9,60,0,0
64500,-100,4,2,10,60,0,0
64750,-100,4,2,1,60,0,0
65000,-100,4,2,1,60,0,1
69000,-100,4,2,1,60,0,0
72500,-100,4,2,1,60,0,1
73000,-100,4,2,1,60,0,0
73250,-100,4,2,1,40,0,0
74000,-100,4,2,1,70,0,0
74750,-100,4,2,1,60,0,0
75000,-100,4,2,1,60,0,0
93000,-50,4,2,1,60,0,0
93250,-100,4,2,1,60,0,0
96125,-100,4,2,8,60,0,0
96250,-100,4,2,9,60,0,0
96500,-100,4,2,10,60,0,0
97000,-100,4,2,1,60,0,0
104125,-100,4,2,8,60,0,0
104500,-100,4,2,1,60,0,1
104562,-100,4,2,9,60,0,1
104750,-100,4,2,10,60,0,1
105000,-133.333333333333,4,2,1,60,0,0
106000,-166.666666666667,4,2,1,60,0,1
118000,-181.818181818182,4,2,1,60,0,0
121125,-100,4,2,1,60,0,0
122000,-100,4,2,1,60,0,1
129000,-100,4,2,1,60,0,0
129125,-100,4,2,8,60,0,0
129250,-100,4,2,1,60,0,0
129375,-100,4,2,9,60,0,0
129500,-100,4,2,1,60,0,0
130000,-100,4,2,1,60,0,1
134000,-100,4,2,1,60,0,0
141000,-100,4,2,8,60,0,0
141250,-100,4,2,9,60,0,0
141500,-100,4,2,1,60,0,1
142000,-100,4,2,1,60,0,0
149937,-100,4,2,1,5,0,0
150000,-100,4,2,1,60,0,0
156500,-100,4,2,8,60,0,0
156625,-100,4,2,1,60,0,0
156750,-100,4,2,9,60,0,0
156875,-100,4,2,1,60,0,0
157375,-100,4,2,8,60,0,0
157500,-100,4,2,1,60,0,0
189625,-100,4,2,8,60,0,0
189750,-100,4,2,9,60,0,0
189875,-100,4,2,10,60,0,0
190000,-100,4,2,1,60,0,0
191000,-100,4,2,1,25,0,0
192500,-100,4,2,1,60,0,0
192875,-100,4,2,1,25,0,0
194000,-100,4,2,1,60,0,0
194875,-100,4,2,1,25,0,0
196500,-100,4,2,1,60,0,0
196875,-100,4,2,1,25,0,0
198000,-100,4,2,1,60,0,0
198875,-100,4,2,1,25,0,0
200500,-100,4,2,1,60,0,0
200875,-100,4,2,1,25,0,0
202000,-100,4,2,1,60,0,0
202875,-100,4,2,1,25,0,0
204500,-100,4,2,1,60,0,0
204875,-100,4,2,1,25,0,0
205000,-100,4,2,1,60,0,0
205687,-100,4,2,1,5,0,0
205750,-100,4,2,1,25,0,0
205937,-100,4,2,1,5,0,0
206000,-100,4,2,1,60,0,0
225500,-100,4,2,8,60,0,0
225750,-100,4,2,9,60,0,0
225875,-100,4,2,10,60,0,0
226000,-100,4,2,1,60,0,0
229687,-100,4,2,8,60,0,0
230000,-133.333333333333,4,2,1,60,0,0
232000,-333.333333333333,4,2,1,60,0,0
232500,-114.285714285714,4,2,1,60,0,0
234000,-222.222222222222,4,2,1,60,0,0
234500,-100,4,2,1,60,0,0
236750,-100,4,2,8,60,0,0
236875,-100,4,2,9,60,0,0
237000,-100,4,2,1,60,0,0
237250,-100,4,2,9,60,0,0
237375,-100,4,2,1,60,0,0
241562,-100,4,2,8,60,0,0
241625,-100,4,2,9,60,0,0
241687,-100,4,2,1,60,0,0
242000,-100,4,2,1,60,0,1
245000,-100,4,2,1,60,0,0
246000,-100,4,2,1,60,0,1
249000,-100,4,2,9,60,0,0
249500,-100,4,2,10,60,0,0
249750,-100,4,2,1,60,0,0
250000,-100,4,2,1,60,0,1
254000,-181.818181818182,4,2,1,60,0,0
257000,-100,4,2,1,60,0,0
258000,-100,4,2,1,60,0,1
265000,-100,4,2,1,60,0,0
265125,-100,4,2,8,60,0,0
265250,-100,4,2,1,60,0,0
265375,-100,4,2,9,60,0,0
265500,-100,4,2,1,60,0,0
266000,-100,4,2,1,60,0,1
270000,-100,4,2,1,60,0,0
277000,-100,4,2,8,60,0,0
277250,-100,4,2,9,60,0,0
277500,-100,4,2,1,60,0,1
278000,-100,4,2,1,60,0,0
279375,-100,4,2,1,40,0,0
279500,-100,4,2,1,60,0,0
279750,-100,4,2,1,70,0,0
280000,-100,4,2,1,60,0,0
283500,-100,4,2,1,40,0,0
283750,-100,4,2,1,60,0,0
287500,-100,4,2,1,40,0,0
287750,-100,4,2,1,60,0,0
291500,-100,4,2,1,40,0,0
291750,-100,4,2,1,60,0,0
295250,-100,4,2,8,60,0,0
295500,-100,4,2,9,60,0,0
295625,-100,4,2,10,60,0,0
295875,-100,4,2,1,60,0,0
296000,-100,4,2,1,60,0,1
296500,-83.3333333333333,4,2,1,60,0,1
296750,-83.3333333333333,4,2,1,60,0,0
296812,-83.3333333333333,4,2,1,20,0,0
299000,-83.3333333333333,4,2,1,10,0,0
301000,-83.3333333333333,4,2,1,5,0,0

[Colours]
Combo1 : 255,130,36
Combo2 : 0,44,125
Combo3 : 0,119,198
Combo4 : 255,34,244
Combo5 : 193,21,213
Combo6 : 64,128,128
Combo7 : 31,86,72
Combo8 : 255,0,0

[HitObjects]
112,118,334,69,2,0:2:0:0:
123,143,667,1,0,0:0:0:0:
87,275,1000,5,2,0:2:0:0:
178,216,1333,1,0,0:0:0:0:
196,359,1667,101,2,0:2:0:0:
107,290,2000,1,0,0:0:0:0:
282,275,2333,5,2,0:2:0:0:
105,61,3000,101,2,0:2:0:0:
392,149,3667,5,2,0:2:0:0:
410,229,4000,1,2,0:2:0:0:
202,294,4445,101,2,0:2:0:0:
237,295,4583,2,0,B|309:295|337:187|211:132|114:185|66:278,1,367.49998878479,2|0,0:2|0:0,0:0:0:0:
256,192,6556,12,0,7917,0:0:0:0:
183,12,8000,54,0,L|190:68,1,50,12|0,0:3|0:0,0:0:0:0:
204,220,8125,1,0,3:0:0:0:
193,242,8187,1,0,3:0:0:0:
177,261,8250,1,0,3:0:0:0:
156,274,8312,1,0,3:0:0:0:
132,283,8375,2,0,P|101:288|81:282,1,50,12|0,0:3|0:0,0:0:0:0:
268,309,8500,5,0,3:0:0:0:
290,299,8562,1,0,3:0:0:0:
315,294,8625,1,0,3:0:0:0:
339,298,8687,1,0,3:0:0:0:
362,306,8750,2,0,P|401:336|415:384,1,100,12|0,0:3|0:0,0:0:0:0:
434,91,9000,101,4,3:0:0:0:
434,91,9062,1,0,3:0:0:0:
434,91,9125,1,8,0:2:0:0:
362,306,9250,2,0,B|380:282|380:282|460:272,1,100,4|8,3:1|0:2,0:0:0:0:
228,160,9500,2,0,B|254:176|254:176|332:158,2,100,4|8|4,3:1|0:2|3:1,0:0:0:0:
188,337,9875,1,8,0:2:0:0:
63,234,10000,6,0,L|84:119,1,100,4|8,3:1|0:2,0:0:0:0:
222,240,10250,1,4,3:1:0:0:
99,319,10375,1,8,0:2:0:0:
315,294,10500,1,4,3:1:0:0:
144,193,10625,1,8,0:2:0:0:
345,161,10750,1,4,3:1:0:0:
221,332,10875,1,8,0:2:0:0:
223,148,11000,102,0,L|202:33,1,100,4|8,3:1|0:2,0:0:0:0:
345,161,11250,2,0,B|398:171|398:171|440:152,1,100,4|8,3:1|0:2,0:0:0:0:
318,36,11500,1,4,3:1:0:0:
273,261,11625,2,0,L|255:359,1,100,8|4,0:2|3:1,0:0:0:0:
345,161,11875,1,8,0:2:0:0:
160,174,12000,6,0,L|44:184,1,100,4|8,3:1|0:2,0:0:0:0:
273,261,12250,2,0,L|166:314,1,100,4|8,3:1|0:2,0:0:0:0:
252,167,12500,1,4,3:1:0:0:
384,341,12625,1,8,0:2:0:0:
167,318,12750,1,4,3:1:0:0:
396,193,12875,1,8,0:2:0:0:
182,107,13000,101,4,3:3:0:0:
182,107,13062,1,0,3:0:0:0:
182,107,13125,1,8,0:2:0:0:
109,221,13250,2,0,B|122:287|122:287|105:316,1,100,4|8,3:1|0:2,0:0:0:0:
18,190,13500,2,0,B|6:125|6:125|23:96,2,100,4|8|4,3:1|0:2|3:1,0:0:0:0:
2,315,13875,1,8,0:2:0:0:
93,150,14000,6,0,P|141:155|175:190,1,100,4|8,3:1|0:2,0:0:0:0:
243,339,14250,2,0,P|281:308|330:304,1,100,4|8,3:1|0:2,0:0:0:0:
318,170,14500,2,0,B|311:125|311:125|300:117|300:117|291:54,2,100,4|8|4,3:1|0:2|3:1,0:0:0:0:
165,285,14875,1,8,0:2:0:0:
358,321,15000,102,0,B|385:305|385:305|463:321,1,100,4|8,3:1|0:2,0:0:0:0:
476,102,15250,2,0,L|465:215,1,100,4|8,3:1|0:2,0:0:0:0:
270,129,15500,1,4,3:1:0:0:
351,223,15625,1,8,0:2:0:0:
165,285,15750,1,4,3:1:0:0:
287,322,15875,1,8,0:2:0:0:
123,198,16000,5,4,3:3:0:0:
116,148,16062,1,0,0:0:0:0:
110,98,16125,1,8,0:2:0:0:
103,49,16187,1,8,0:2:0:0:
97,0,16250,101,12,3:2:0:0:
95,12,16312,1,8,0:2:0:0:
94,24,16375,1,8,0:2:0:0:
92,37,16437,1,8,0:2:0:0:
91,49,16500,5,12,3:2:0:0:
112,63,16562,1,8,0:2:0:0:
136,70,16625,1,8,0:2:0:0:
160,64,16687,1,8,0:2:0:0:
182,52,16750,101,12,3:2:0:0:
223,24,16812,1,8,0:2:0:0:
272,16,16875,1,8,0:2:0:0:
319,31,16937,1,8,0:2:0:0:
356,64,17000,6,0,B|367:181,1,100,4|8,3:0|0:2,0:0:0:0:
216,232,17250,2,0,B|227:114,1,100,4|8,3:1|0:2,0:0:0:0:
313,347,17500,1,4,3:1:0:0:
133,336,17625,2,0,L|119:215,1,100,8|4,0:2|3:1,0:0:0:0:
104,87,17875,1,8,0:2:0:0:
233,289,18000,102,0,L|257:169,1,100,4|8,3:1|0:2,0:0:0:0:
283,43,18250,1,4,3:1:0:0:
329,188,18375,1,8,0:2:0:0:
396,26,18500,1,4,3:1:0:0:
405,185,18625,1,8,0:2:0:0:
509,9,18750,1,4,3:1:0:0:
481,182,18875,1,8,0:2:0:0:
339,34,19000,6,0,B|315:49|315:49|243:35,1,100,4|8,3:1|0:2,0:0:0:0:
149,184,19250,2,0,B|173:199|173:199|243:185,1,100,4|8,3:1|0:2,0:0:0:0:
127,81,19500,1,4,3:1:0:0:
101,268,19625,1,8,0:2:0:0:
243,185,19750,1,4,3:1:0:0:
183,343,19875,1,8,0:2:0:0:
149,184,20000,102,0,P|101:170|53:183,1,100,4|8,3:1|0:2,0:0:0:0:
183,343,20250,2,0,P|230:356|278:343,1,100,4|8,3:1|0:2,0:0:0:0:
414,152,20500,1,4,3:1:0:0:
231,263,20625,1,8,0:2:0:0:
440,248,20750,1,4,3:1:0:0:
235,111,20875,1,8,0:2:0:0:
446,36,21000,6,0,L|417:140,1,100,4|8,3:0|0:2,0:0:0:0:
309,256,21250,2,0,P|290:210|248:186,1,100,4|8,3:1|0:2,0:0:0:0:
402,361,21500,2,0,P|461:350|496:302,2,100,4|8|4,3:1|0:2|3:1,0:0:0:0:
201,340,21875,1,8,0:2:0:0:
418,282,22000,102,0,B|398:258|398:258|418:165,1,100,4|8,3:1|0:2,0:0:0:0:
266,23,22250,1,4,3:1:0:0:
385,81,22375,1,8,0:2:0:0:
201,135,22500,1,4,3:1:0:0:
353,154,22625,1,8,0:2:0:0:
136,247,22750,1,4,3:1:0:0:
321,227,22875,1,8,0:2:0:0:
130,168,23000,6,0,B|114:156|114:156|104:76,1,100,4|8,3:1|0:2,0:0:0:0:
22,317,23250,2,0,B|37:305|37:305|47:225,1,100,4|8,3:1|0:2,0:0:0:0:
161,330,23500,101,12,0:2:0:0:
203,354,23562,1,0,3:0:0:0:
252,349,23625,1,12,0:2:0:0:
289,316,23687,1,0,3:0:0:0:
324,281,23749,1,12,0:2:0:0:
371,266,23812,1,0,3:0:0:0:
420,272,23874,1,12,0:2:0:0:
462,299,23937,1,0,3:0:0:0:
487,342,24000,5,12,0:2:0:0:
488,325,24062,1,8,0:2:0:0:
489,308,24125,1,8,0:2:0:0:
490,292,24187,1,8,0:2:0:0:
491,275,24250,1,12,0:2:0:0:
493,258,24312,1,8,0:2:0:0:
475,234,24375,101,0,3:0:0:0:
473,229,24437,1,0,3:0:0:0:
493,207,24500,5,12,0:1:0:0:
457,172,24562,1,8,0:1:0:0:
409,159,24625,1,8,0:1:0:0:
361,171,24687,1,8,0:1:0:0:
322,203,24750,2,0,L|314:167,3,25,12|8|8|0,0:2|0:2|0:2|0:0,0:0:0:0:
371,71,25000,6,0,L|359:189,1,100,12|0,0:3|3:0,0:0:0:0:
238,300,25250,2,0,L|228:200,1,100,12|0,0:1|3:0,0:0:0:0:
83,40,25500,5,12,0:1:0:0:
218,100,25625,1,0,3:0:0:0:
139,229,25750,101,12,0:1:0:0:
274,169,25875,1,0,3:0:0:0:
111,135,26000,5,12,0:1:0:0:
167,323,26125,1,0,3:0:0:0:
274,169,26250,101,12,0:1:0:0:
251,363,26375,1,0,3:0:0:0:
400,88,26500,5,12,0:1:0:0:
344,276,26625,1,0,3:0:0:0:
484,48,26750,101,12,0:1:0:0:
507,242,26875,1,0,3:0:0:0:
274,169,27000,5,12,0:1:0:0:
448,162,27125,1,0,3:0:0:0:
264,310,27250,101,12,0:1:0:0:
425,243,27375,1,0,3:0:0:0:
175,199,27500,5,12,0:1:0:0:
349,206,27625,1,0,3:0:0:0:
165,58,27750,101,12,0:1:0:0:
326,125,27875,1,0,3:0:0:0:
178,296,28000,6,0,B|187:249|187:249|174:198,1,100,12|0,0:1|3:0,0:0:0:0:
245,95,28250,2,0,B|236:142|236:142|248:192,1,100,12|0,0:1|3:0,0:0:0:0:
316,237,28500,102,0,B|325:190|325:190|312:139,1,100,12|0,0:1|3:0,0:0:0:0:
383,34,28750,2,0,B|374:81|374:81|386:131,1,100,12|0,0:1|3:0,0:0:0:0:
458,298,29000,6,0,B|475:275|502:273|502:273|456:214|384:263|413:328,1,200,12|0,0:3|3:0,0:0:0:0:
253,202,29250,2,0,P|302:199|343:225,1,100,12|0,0:1|3:0,0:0:0:0:
138,112,29500,102,0,L|145:211,1,100,12|0,0:1|3:0,0:0:0:0:
276,375,29750,2,0,L|283:275,1,100,12|0,0:1|3:0,0:0:0:0:
85,264,30000,6,0,P|150:293|209:260,1,100,12|0,0:1|3:0,0:0:0:0:
344,226,30250,2,0,P|279:197|220:230,1,100,12|0,0:1|3:0,0:0:0:0:
114,32,30500,101,12,0:1:0:0:
162,191,30625,1,0,3:0:0:0:
263,86,30750,5,12,0:1:0:0:
215,245,30875,1,0,3:0:0:0:
189,59,31000,101,12,0:1:0:0:
382,33,31125,1,0,3:0:0:0:
239,165,31250,5,12,0:1:0:0:
432,191,31375,1,0,3:0:0:0:
316,286,31500,101,12,0:1:0:0:
509,260,31625,1,0,3:0:0:0:
316,98,31750,5,12,0:1:0:0:
509,124,31875,1,0,3:0:0:0:
226,16,32000,69,12,3:3:0:0:
230,65,32062,1,8,0:2:0:0:
234,115,32125,1,12,0:1:0:0:
239,165,32187,1,8,0:2:0:0:
243,215,32250,1,0,3:0:0:0:
131,143,32375,5,8,0:2:0:0:
105,170,32437,1,8,0:2:0:0:
72,188,32500,1,8,0:2:0:0:
36,193,32562,1,8,0:2:0:0:
0,184,32625,1,0,3:0:0:0:
120,347,32750,101,8,0:2:0:0:
158,315,32812,1,8,0:2:0:0:
205,299,32875,1,8,0:2:0:0:
254,302,32937,1,8,0:2:0:0:
299,324,33000,6,0,B|344:331|344:331|352:342|352:342|415:351,1,100,4|8,3:0|0:2,0:0:0:0:
416,90,33250,2,0,L|405:208,1,100,4|8,3:1|0:2,0:0:0:0:
172,196,33500,2,0,L|61:186,2,100,4|8|4,3:1|0:2|3:1,0:0:0:0:
318,99,33875,1,8,0:2:0:0:
237,272,34000,102,0,L|112:324,1,100,4|8,3:1|0:2,0:0:0:0:
72,187,34250,1,4,3:1:0:0:
246,148,34375,1,8,0:2:0:0:
118,320,34500,2,0,L|6:310,2,100,4|8|4,3:1|0:2|3:1,0:0:0:0:
149,121,34875,1,8,0:2:0:0:
279,330,35000,6,0,P|308:288|371:278,1,100,4|8,3:1|0:2,0:0:0:0:
476,139,35250,2,0,P|437:108|388:107,1,100,4|8,3:1|0:2,0:0:0:0:
232,203,35500,1,4,3:1:0:0:
350,350,35625,1,8,0:2:0:0:
413,179,35750,1,4,3:1:0:0:
220,340,35875,1,8,0:2:0:0:
325,189,36000,102,0,L|343:85,1,100,4|8,3:1|0:2,0:0:0:0:
227,271,36250,1,4,3:1:0:0:
184,122,36375,1,8,0:2:0:0:
334,211,36500,1,4,3:1:0:0:
97,218,36625,1,8,0:2:0:0:
322,108,36750,1,4,3:1:0:0:
73,221,36875,1,8,0:2:0:0:
317,223,37000,6,0,B|297:247|297:247|316:323,1,100,4|8,3:0|0:2,0:0:0:0:
449,171,37250,2,0,L|457:68,1,100,4|8,3:1|0:2,0:0:0:0:
232,73,37500,2,0,P|188:49|140:55,2,100,4|8|4,3:1|0:2|3:1,0:0:0:0:
317,223,37875,1,8,0:2:0:0:
135,208,38000,102,0,P|168:171|173:123,1,100,4|8,3:1|0:2,0:0:0:0:
52,273,38250,1,4,3:1:0:0:
231,297,38375,1,8,0:2:0:0:
100,141,38500,1,4,3:1:0:0:
248,310,38625,1,8,0:2:0:0:
29,279,38750,1,4,3:1:0:0:
265,182,38875,1,8,0:2:0:0:
370,384,39000,5,8,3:2:0:0:
374,334,39062,1,8,0:2:0:0:
378,284,39125,1,8,0:2:0:0:
383,234,39187,1,8,0:2:0:0:
355,187,39250,101,8,3:2:0:0:
353,177,39312,1,8,0:2:0:0:
352,168,39375,1,8,0:2:0:0:
351,159,39437,1,8,0:2:0:0:
393,122,39500,5,8,3:2:0:0:
395,112,39562,1,8,0:2:0:0:
396,103,39625,1,8,0:2:0:0:
397,94,39687,1,8,0:2:0:0:
354,56,39750,101,12,3:2:0:0:
353,52,39812,1,8,0:2:0:0:
353,49,39875,1,12,0:2:0:0:
352,46,39937,1,8,0:2:0:0:
352,43,40000,53,12,0:1:0:0:
352,43,40250,5,12,0:1:0:0:
352,43,40500,101,12,0:1:0:0:
352,43,40750,5,12,0:1:0:0:
352,43,41000,38,0,B|310:38|310:38|295:45|295:45|254:40,1,100,4|8,3:0|0:2,0:0:0:0:
331,197,41250,2,0,B|373:192|373:192|388:199|388:199|429:194,1,100,4|8,3:1|0:2,0:0:0:0:
268,126,41500,1,4,3:1:0:0:
377,291,41625,2,0,L|503:328,1,100,8|4,0:2|3:1,0:0:0:0:
255,257,41875,1,8,0:2:0:0:
417,122,42000,6,0,L|434:12,1,100,4|8,3:1|0:2,0:0:0:0:
180,100,42250,1,4,3:1:0:0:
330,187,42375,1,8,0:2:0:0:
335,54,42500,37,4,3:1:0:0:
351,41,42625,1,8,0:2:0:0:
240,240,42750,69,4,3:1:0:0:
399,112,42875,1,8,0:2:0:0:
163,116,43000,102,0,B|146:131|146:131|65:120,1,100,4|8,3:1|0:2,0:0:0:0:
216,237,43250,2,0,B|233:252|233:252|309:241,1,100,4|8,3:1|0:2,0:0:0:0:
65,227,43500,1,4,3:1:0:0:
238,121,43625,2,0,L|257:21,1,100,8|4,0:2|3:1,0:0:0:0:
208,274,43875,1,8,0:2:0:0:
128,141,44000,6,0,L|109:41,1,100,4|8,3:1|0:2,0:0:0:0:
259,134,44250,1,4,3:1:0:0:
108,154,44375,1,8,0:2:0:0:
250,35,44500,1,4,3:1:0:0:
165,206,44625,1,8,0:2:0:0:
354,104,44750,1,4,3:1:0:0:
223,259,44875,1,8,0:2:0:0:
458,173,45000,102,0,L|447:287,1,100,4|8,3:3|0:2,0:0:0:0:
259,134,45250,2,0,L|250:34,1,100,4|8,3:1|0:2,0:0:0:0:
418,75,45500,1,4,3:1:0:0:
306,212,45625,2,0,B|258:228|258:228|211:211,1,100,8|4,0:2|3:1,0:0:0:0:
334,56,45875,1,8,0:2:0:0:
397,213,46000,6,0,B|381:247|381:247|399:316,1,100,4|8,3:1|0:2,0:0:0:0:
188,208,46250,1,4,3:1:0:0:
364,135,46375,1,8,0:2:0:0:
244,321,46500,2,0,L|147:346,2,100,4|8|4,3:1|0:2|3:1,0:0:0:0:
257,126,46875,1,8,0:2:0:0:
88,284,47000,102,0,P|61:334|73:389,1,100,4|8,3:1|0:2,0:0:0:0:
90,146,47250,2,0,P|45:110|-10:112,1,100,4|8,3:1|0:2,0:0:0:0:
208,216,47500,1,4,3:1:0:0:
207,24,47625,2,0,B|175:36|175:36|105:19,1,100,8|4,0:2|3:1,0:0:0:0:
325,106,47875,1,8,0:2:0:0:
185,205,48000,6,0,P|128:206|86:244,1,100,4|8,3:1|0:2,0:0:0:0:
261,295,48250,1,4,3:1:0:0:
242,116,48375,1,8,0:2:0:0:
339,284,48500,1,4,3:1:0:0:
357,99,48625,1,8,0:2:0:0:
293,189,48750,1,4,3:1:0:0:
403,200,48875,1,8,0:2:0:0:
229,131,49000,6,0,B|217:163|217:163|232:231,1,100,12|0,0:3|3:0,0:0:0:0:
409,315,49250,2,0,B|421:283|421:283|406:215,1,100,12|0,0:1|3:0,0:0:0:0:
204,306,49500,5,12,0:1:0:0:
386,276,49625,1,0,3:0:0:0:
140,123,49750,101,12,0:1:0:0:
322,153,49875,1,0,3:0:0:0:
222,321,50000,5,12,0:1:0:0:
231,138,50125,1,0,3:0:0:0:
120,367,50250,101,12,0:1:0:0:
65,191,50375,1,0,3:0:0:0:
300,231,50500,5,12,0:1:0:0:
331,52,50625,1,0,3:0:0:0:
192,237,50750,101,12,0:1:0:0:
160,58,50875,1,0,3:0:0:0:
375,177,51000,5,12,0:1:0:0:
192,237,51125,1,0,3:0:0:0:
294,91,51250,101,12,0:1:0:0:
103,63,51375,1,0,3:0:0:0:
328,249,51500,5,12,0:1:0:0:
381,51,51625,1,0,3:0:0:0:
411,327,51750,101,12,0:1:0:0:
512,148,51875,1,0,3:0:0:0:
293,125,52000,6,0,L|163:113,1,100,12|0,0:1|3:0,0:0:0:0:
271,255,52250,2,0,L|400:243,1,100,12|0,0:1|3:0,0:0:0:0:
196,204,52500,102,0,B|178:252|178:252|188:301,1,100,12|0,0:1|3:0,0:0:0:0:
371,165,52750,2,0,B|389:119|389:119|378:62,1,100,12|0,0:1|3:0,0:0:0:0:
115,93,53000,6,0,B|90:101|65:84|65:84|62:148|146:170|171:91,1,200,12|0,0:3|3:0,0:0:0:0:
8,213,53250,2,0,L|-1:318,1,100,12|0,0:1|3:0,0:0:0:0:
196,204,53500,102,0,P|148:178|98:190,1,100,12|0,0:1|3:0,0:0:0:0:
269,322,53750,2,0,P|317:328|359:303,1,100,12|0,0:1|3:0,0:0:0:0:
139,253,54000,6,0,L|130:362,1,100,12|0,0:1|3:0,0:0:0:0:
303,255,54250,2,0,L|295:155,1,100,12|0,0:1|3:0,0:0:0:0:
215,319,54500,101,12,0:1:0:0:
414,231,54625,1,0,3:0:0:0:
209,28,54750,5,12,0:1:0:0:
213,222,54875,1,0,3:0:0:0:
409,137,55000,101,12,0:1:0:0:
211,125,55125,1,0,3:0:0:0:
335,320,55250,5,12,0:1:0:0:
310,131,55375,1,0,3:0:0:0:
109,191,55500,101,12,0:1:0:0:
322,225,55625,1,0,3:0:0:0:
35,349,55750,5,12,0:1:0:0:
248,315,55875,1,0,3:0:0:0:
102,42,56000,69,8,3:2:0:0:
104,91,56062,1,8,0:2:0:0:
107,141,56125,1,8,0:2:0:0:
109,191,56187,1,8,0:2:0:0:
112,241,56250,1,8,3:2:0:0:
245,365,56375,5,8,0:2:0:0:
248,315,56438,1,8,0:2:0:0:
250,265,56500,1,8,3:2:0:0:
253,215,56563,1,8,0:2:0:0:
255,166,56625,1,8,0:2:0:0:
22,236,56750,101,8,3:2:0:0:
32,284,56812,1,8,0:2:0:0:
66,319,56875,2,0,P|87:330|112:332,1,50,8|8,0:2|0:2,0:0:0:0:
291,291,57000,85,12,0:3:0:0:
337,276,57062,1,0,3:0:0:0:
379,300,57125,1,8,0:1:0:0:
420,326,57187,1,0,3:0:0:0:
467,313,57250,1,12,0:1:0:0:
488,269,57312,1,0,3:0:0:0:
469,224,57375,1,8,0:1:0:0:
423,209,57438,1,0,3:0:0:0:
376,196,57500,1,12,0:1:0:0:
358,151,57563,1,0,3:0:0:0:
382,110,57625,1,8,0:1:0:0:
430,104,57688,1,0,3:0:0:0:
463,138,57750,1,12,0:1:0:0:
457,185,57813,1,0,3:0:0:0:
423,209,57875,1,8,0:1:0:0:
376,196,57937,1,0,3:0:0:0:
358,151,58000,5,12,0:1:0:0:
330,109,58062,1,0,3:0:0:0:
286,87,58125,1,8,0:1:0:0:
237,88,58187,1,0,3:0:0:0:
194,113,58250,1,12,0:1:0:0:
172,158,58312,1,0,3:0:0:0:
131,185,58374,1,8,0:1:0:0:
82,184,58437,1,0,3:0:0:0:
42,153,58500,2,0,P|29:133|25:108,3,50,12|0|8|0,0:1|3:0|0:1|3:0,0:0:0:0:
105,277,58750,2,0,P|100:301|87:322,3,50,12|0|8|0,0:1|3:0|0:1|3:0,0:0:0:0:
275,324,59000,101,12,0:3:0:0:
275,324,59062,1,0,3:0:0:0:
275,324,59125,1,8,0:1:0:0:
312,292,59187,1,0,3:0:0:0:
322,244,59250,1,12,0:1:0:0:
300,200,59312,1,0,3:0:0:0:
276,158,59375,1,8,0:1:0:0:
273,108,59438,1,0,3:0:0:0:
293,63,59500,1,12,0:1:0:0:
331,32,59563,1,0,3:0:0:0:
380,21,59625,1,8,0:1:0:0:
428,33,59688,1,0,3:0:0:0:
465,66,59750,1,12,0:1:0:0:
483,112,59813,1,0,3:0:0:0:
478,162,59875,1,8,0:1:0:0:
452,204,59938,1,0,3:0:0:0:
409,229,60000,21,4,3:2:0:0:
273,108,60125,1,8,0:1:0:0:
322,244,60250,1,0,3:0:0:0:
331,32,60375,1,8,0:1:0:0:
215,184,60500,5,0,3:0:0:0:
378,128,60625,1,8,0:1:0:0:
130,60,60750,2,0,L|133:116,1,50,0|8,3:0|0:1,0:0:0:0:
148,311,60875,1,8,0:1:0:0:
148,311,60937,1,8,0:1:0:0:
148,311,61000,69,12,0:3:0:0:
195,298,61062,1,0,3:0:0:0:
243,311,61125,1,8,0:1:0:0:
278,346,61187,1,0,3:0:0:0:
316,377,61250,1,12,0:1:0:0:
365,375,61313,1,0,3:0:0:0:
401,342,61375,1,8,0:1:0:0:
407,294,61438,1,0,3:0:0:0:
378,252,61500,1,12,0:1:0:0:
332,239,61562,1,0,3:0:0:0:
283,230,61624,1,8,0:1:0:0:
245,199,61687,1,0,3:0:0:0:
228,152,61749,1,12,0:1:0:0:
238,103,61812,1,0,3:0:0:0:
272,67,61874,1,8,0:1:0:0:
319,53,61937,1,0,3:0:0:0:
367,65,61999,5,12,0:1:0:0:
357,114,62062,1,0,3:0:0:0:
323,150,62124,1,8,0:1:0:0:
276,164,62187,1,0,3:0:0:0:
228,152,62250,2,0,P|200:143|166:147,3,50,12|0|8|0,0:1|3:0|0:1|3:0,0:0:0:0:
82,282,62500,2,0,P|108:268|142:266,3,50,12|0|8|0,0:1|3:0|0:1|3:0,0:0:0:0:
255,379,62750,2,0,P|231:360|198:353,3,50,12|0|8|0,0:1|3:0|0:1|3:0,0:0:0:0:
293,238,63000,101,12,0:2:0:0:
338,220,63062,1,0,3:0:0:0:
385,236,63125,1,8,0:1:0:0:
431,253,63187,1,0,3:0:0:0:
478,239,63250,1,12,0:2:0:0:
508,199,63312,1,0,3:0:0:0:
508,150,63375,1,8,0:1:0:0:
479,110,63437,1,0,3:0:0:0:
432,94,63500,1,12,0:2:0:0:
386,111,63562,1,0,3:0:0:0:
358,151,63625,1,8,0:1:0:0:
359,200,63687,1,0,3:0:0:0:
385,236,63750,1,12,0:2:0:0:
431,253,63812,1,0,3:0:0:0:
459,293,63874,1,8,0:1:0:0:
459,342,63937,1,0,3:0:0:0:
429,382,64000,21,8,3:2:0:0:
405,380,64062,1,8,0:2:0:0:
381,378,64125,1,8,0:2:0:0:
357,377,64187,1,8,0:2:0:0:
335,375,64250,1,8,0:2:0:0:
311,374,64312,1,8,0:2:0:0:
289,372,64375,2,0,L|229:367,1,50,8|8,0:2|0:2,0:0:0:0:
57,220,64500,5,8,3:2:0:0:
89,182,64562,1,8,0:2:0:0:
134,163,64625,1,8,0:2:0:0:
184,166,64687,1,8,0:2:0:0:
226,192,64750,101,8,3:2:0:0:
228,201,64812,1,8,0:2:0:0:
231,210,64875,1,8,0:2:0:0:
233,219,64937,1,8,0:2:0:0:
236,228,65000,6,0,L|252:113,1,100,4|8,3:0|0:2,0:0:0:0:
102,281,65250,2,0,L|86:166,1,100,0|8,3:0|0:2,0:0:0:0:
252,108,65500,1,0,3:0:0:0:
235,250,65625,1,8,0:2:0:0:
145,79,65750,1,0,3:0:0:0:
359,137,65875,1,8,0:2:0:0:
189,165,66000,101,0,3:0:0:0:
315,0,66125,1,8,0:2:0:0:
365,160,66250,1,0,3:0:0:0:
232,39,66375,1,8,0:2:0:0:
303,249,66500,1,4,3:0:0:0:
394,46,66625,1,8,0:2:0:0:
477,238,66750,1,0,3:0:0:0:
218,117,66875,1,8,0:2:0:0:
394,46,67000,6,0,B|415:64|415:64|517:46,1,100,4|8,3:0|0:2,0:0:0:0:
334,204,67250,2,0,B|313:222|313:222|211:204,1,100,0|8,3:0|0:2,0:0:0:0:
103,179,67500,1,0,3:0:0:0:
215,51,67625,1,8,0:2:0:0:
246,231,67750,1,0,3:0:0:0:
95,71,67875,1,8,0:2:0:0:
19,259,68000,102,0,P|68:253|111:279,1,100,0|8,3:0|0:2,0:0:0:0:
334,311,68250,2,0,P|286:322|255:360,1,100,0|8,3:0|0:2,0:0:0:0:
215,51,68500,2,0,L|227:182,1,100,0|8,3:0|0:2,0:0:0:0:
419,245,68750,2,0,L|428:145,1,100,0|8,3:0|0:2,0:0:0:0:
225,151,69000,85,4,3:0:0:0:
216,168,69062,1,0,3:0:0:0:
212,186,69125,1,0,3:0:0:0:
212,205,69187,1,0,3:0:0:0:
217,223,69250,1,4,3:1:0:0:
226,239,69312,1,0,3:0:0:0:
311,256,69375,5,0,3:0:0:0:
295,289,69437,1,0,3:0:0:0:
267,313,69500,1,12,3:1:0:0:
231,324,69562,1,0,3:0:0:0:
147,364,69625,101,0,3:0:0:0:
153,326,69687,1,0,3:0:0:0:
145,289,69750,1,4,3:1:0:0:
122,260,69812,1,0,3:0:0:0:
90,242,69875,1,0,3:0:0:0:
54,239,69937,1,0,3:0:0:0:
4,178,70000,5,12,3:1:0:0:
0,159,70062,1,0,3:0:0:0:
0,140,70125,1,0,3:0:0:0:
4,122,70187,1,0,3:0:0:0:
11,105,70250,1,4,3:1:0:0:
22,89,70312,1,0,3:0:0:0:
35,76,70375,1,0,3:0:0:0:
50,65,70437,1,0,3:0:0:0:
134,46,70500,2,0,P|143:24|141:0,3,50,12|0|0|0,3:1|3:0|3:0|3:0,0:0:0:0:
126,132,70750,2,0,P|107:146|82:151,3,50,4|0|0|0,3:1|3:0|3:0|3:0,0:0:0:0:
206,99,71000,101,12,3:3:0:0:
220,111,71062,1,0,3:0:0:0:
236,121,71125,1,0,3:0:0:0:
254,127,71187,1,0,3:0:0:0:
272,129,71250,1,4,3:1:0:0:
291,129,71312,1,0,3:0:0:0:
330,57,71375,5,0,3:0:0:0:
359,80,71437,1,0,3:0:0:0:
374,113,71500,1,12,3:1:0:0:
371,151,71562,1,0,3:0:0:0:
431,212,71625,101,0,3:0:0:0:
419,246,71687,1,0,3:0:0:0:
394,275,71750,1,4,3:1:0:0:
360,289,71812,1,0,3:0:0:0:
323,289,71875,1,0,3:0:0:0:
289,274,71937,1,0,3:0:0:0:
216,319,72000,5,12,3:1:0:0:
199,310,72062,1,0,3:0:0:0:
181,305,72125,1,0,3:0:0:0:
162,305,72187,1,0,3:0:0:0:
144,307,72250,1,4,3:1:0:0:
126,313,72312,1,0,3:0:0:0:
110,323,72375,1,0,3:0:0:0:
96,335,72437,1,0,3:0:0:0:
85,350,72500,37,10,3:1:0:0:
32,289,72562,1,0,3:1:0:0:
10,211,72625,1,2,3:1:0:0:
36,135,72687,1,0,3:1:0:0:
100,85,72750,1,2,3:1:0:0:
179,72,72812,1,0,3:1:0:0:
253,105,72875,1,2,3:1:0:0:
298,172,72937,1,0,3:1:0:0:
302,252,73000,21,4,3:0:0:0:
299,271,73250,1,4,0:1:0:0:
296,290,73500,1,4,0:1:0:0:
293,309,73750,1,4,0:1:0:0:
290,328,74000,53,4,0:1:0:0:
209,268,74125,1,0,0:0:0:0:
302,252,74250,1,4,0:1:0:0:
220,337,74375,1,0,0:0:0:0:
150,155,74500,1,4,0:1:0:0:
248,172,74625,1,0,0:0:0:0:
65,346,74750,1,4,0:2:0:0:
184,45,75000,5,4,3:3:0:0:
184,45,75062,1,0,0:0:0:0:
184,45,75125,1,8,0:2:0:0:
81,216,75250,1,4,3:1:0:0:
271,169,75375,1,8,0:2:0:0:
99,100,75500,2,0,L|-10:85,2,100,4|8|4,3:1|0:2|3:1,0:0:0:0:
285,186,75875,1,8,0:2:0:0:
99,266,76000,102,0,B|117:236|117:236|98:149,1,100,4|8,3:1|0:2,0:0:0:0:
177,36,76250,2,0,B|211:29|211:29|286:76,1,100,4|8,3:1|0:2,0:0:0:0:
406,186,76500,1,4,3:1:0:0:
206,179,76625,1,8,0:2:0:0:
413,104,76750,1,4,3:1:0:0:
185,186,76875,1,8,0:2:0:0:
428,195,77000,6,0,L|442:323,1,100,4|8,3:3|0:2,0:0:0:0:
210,363,77250,2,0,L|220:263,1,100,4|8,3:1|0:2,0:0:0:0:
239,77,77500,1,4,3:1:0:0:
308,217,77625,2,0,L|328:335,1,100,8|4,0:2|3:1,0:0:0:0:
386,106,77875,1,8,0:2:0:0:
181,169,78000,102,0,L|65:183,1,100,4|8,3:1|0:2,0:0:0:0:
75,384,78250,2,0,P|47:343|-1:331,1,100,4|8,3:1|0:2,0:0:0:0:
246,336,78500,2,0,B|283:342|283:342|299:336|299:336|346:346,2,100,4|8|4,3:1|0:2|3:1,0:0:0:0:
190,189,78875,1,8,0:2:0:0:
395,184,79000,6,0,B|376:233|376:233|385:283,1,100,4|8,3:1|0:2,0:0:0:0:
331,116,79250,2,0,P|374:92|423:95,1,100,4|8,3:1|0:2,0:0:0:0:
400,296,79500,1,4,3:1:0:0:
281,184,79625,2,0,B|253:143|253:143|253:92,1,100,8|4,0:2|3:1,0:0:0:0:
426,204,79875,1,8,0:2:0:0:
236,283,80000,102,0,P|187:276|153:241,1,100,4|8,3:1|0:2,0:0:0:0:
132,74,80250,1,4,3:1:0:0:
222,206,80375,1,8,0:2:0:0:
32,124,80500,1,4,3:1:0:0:
58,281,80625,1,8,0:2:0:0:
120,182,80750,1,4,3:1:0:0:
0,211,80875,1,8,0:2:0:0:
172,343,81000,6,0,B|190:320|190:320|276:317,1,100,4|8,3:3|0:2,0:0:0:0:
448,222,81250,2,0,P|422:263|432:311,1,100,4|8,3:1|0:2,0:0:0:0:
265,191,81500,1,4,3:1:0:0:
425,146,81625,2,0,P|473:145|512:175,1,100,8|4,0:2|3:1,0:0:0:0:
342,269,81875,1,8,0:2:0:0:
358,102,82000,102,0,P|394:70|444:68,1,100,4|8,3:1|0:2,0:0:0:0:
225,55,82250,1,4,3:1:0:0:
327,180,82375,1,8,0:2:0:0:
126,128,82500,1,4,3:1:0:0:
278,237,82625,1,8,0:2:0:0:
27,201,82750,1,4,3:1:0:0:
229,294,82875,1,8,0:2:0:0:
125,108,83000,6,0,B|100:88|100:88|24:101,1,100,4|8,3:1|0:2,0:0:0:0:
231,145,83250,2,0,B|243:115|243:115|211:45,1,100,4|8,3:1|0:2,0:0:0:0:
127,247,83500,1,4,3:1:0:0:
327,180,83625,2,0,L|376:67,1,100,8|4,0:2|3:1,0:0:0:0:
229,294,83875,1,8,0:2:0:0:
405,262,84000,102,0,L|472:159,1,100,4|8,3:1|0:2,0:0:0:0:
253,47,84250,2,0,L|231:145,1,100,4|8,3:1|0:2,0:0:0:0:
181,333,84500,1,4,3:1:0:0:
379,260,84625,1,8,0:2:0:0:
127,217,84750,1,4,3:1:0:0:
405,262,84875,1,8,0:2:0:0:
359,42,85000,6,0,L|368:153,1,100,4|8,3:3|0:2,0:0:0:0:
202,254,85250,2,0,L|210:154,1,100,4|8,3:1|0:2,0:0:0:0:
224,0,85500,1,4,3:1:0:0:
316,210,85625,2,0,P|365:226|420:211,1,100,8|4,0:2|3:1,0:0:0:0:
335,50,85875,1,8,0:2:0:0:
283,295,86000,102,0,L|380:337,1,100,4|8,3:1|0:2,0:0:0:0:
512,161,86250,1,4,3:1:0:0:
289,125,86375,1,8,0:2:0:0:
443,247,86500,53,4,3:1:0:0:
449,268,86625,1,8,0:2:0:0:
414,54,86750,53,4,3:1:0:0:
343,226,86875,1,8,0:2:0:0:
314,40,87000,6,0,P|266:40|221:69,1,100,4|8,3:1|0:2,0:0:0:0:
63,246,87250,2,0,L|52:125,1,100,4|8,3:1|0:2,0:0:0:0:
267,163,87500,1,4,3:1:0:0:
112,315,87625,2,0,B|62:326|62:326|12:314,1,100,8|4,0:2|3:1,0:0:0:0:
166,106,87875,1,8,0:2:0:0:
217,272,88000,101,4,3:1:0:0:
34,158,88125,1,8,0:2:0:0:
267,163,88250,1,4,3:1:0:0:
14,150,88375,1,8,0:2:0:0:
60,316,88500,5,4,3:1:0:0:
115,141,88625,1,8,0:2:0:0:
14,150,88750,1,4,3:1:0:0:
85,231,88875,1,8,0:2:0:0:
255,75,89000,6,0,L|392:90,1,100,12|0,0:3|3:0,0:0:0:0:
209,302,89250,2,0,L|308:291,1,100,12|0,0:1|3:0,0:0:0:0:
466,278,89500,5,12,0:1:0:0:
249,210,89625,1,0,3:0:0:0:
355,350,89750,101,12,0:1:0:0:
437,138,89875,1,0,3:0:0:0:
303,281,90000,5,12,0:1:0:0:
329,54,90125,1,0,3:0:0:0:
242,343,90250,101,12,0:1:0:0:
225,115,90375,1,0,3:0:0:0:
176,287,90500,5,12,0:1:0:0:
119,65,90625,1,0,3:0:0:0:
105,336,90750,101,12,0:1:0:0:
10,127,90875,1,0,3:0:0:0:
24,308,91000,5,12,0:1:0:0:
202,203,91125,1,0,3:0:0:0:
209,315,91250,101,12,0:1:0:0:
17,218,91375,1,0,3:0:0:0:
105,336,91500,5,12,0:1:0:0:
283,231,91625,1,0,3:0:0:0:
290,343,91750,101,12,0:1:0:0:
98,246,91875,1,0,3:0:0:0:
302,219,92000,6,0,B|311:112,1,100,12|0,0:1|3:0,0:0:0:0:
187,276,92250,2,0,B|177:169,1,100,12|0,0:1|3:0,0:0:0:0:
320,207,92500,102,0,B|329:100,1,100,12|0,0:1|3:0,0:0:0:0:
169,288,92750,2,0,B|159:181,1,100,12|0,0:1|3:0,0:0:0:0:
392,323,93000,6,0,B|420:318|440:336|440:336|449:262|364:245|338:312,1,200,12|0,0:3|3:0,0:0:0:0:
473,213,93250,2,0,P|505:175|512:127,1,100,12|0,0:1|3:0,0:0:0:0:
362,8,93500,102,0,L|262:0,1,100,12|0,0:1|3:0,0:0:0:0:
326,147,93750,2,0,L|426:139,1,100,12|0,0:1|3:0,0:0:0:0:
206,78,94000,6,0,B|189:126|189:126|198:174,1,100,12|0,0:1|3:0,0:0:0:0:
369,273,94250,2,0,B|385:224|385:224|376:176,1,100,12|0,0:1|3:0,0:0:0:0:
200,316,94500,101,12,0:1:0:0:
384,257,94625,1,0,3:0:0:0:
176,167,94750,5,12,0:1:0:0:
124,384,94875,1,0,3:0:0:0:
334,321,95000,101,12,0:1:0:0:
320,98,95125,1,0,3:0:0:0:
216,354,95250,5,12,0:1:0:0:
249,133,95375,1,0,3:0:0:0:
98,321,95500,101,12,0:1:0:0:
176,99,95625,1,0,3:0:0:0:
231,211,95750,5,12,0:1:0:0:
0,126,95875,1,0,3:0:0:0:
115,307,96000,70,0,L|119:257,1,50,4|0,3:2|0:0,0:0:0:0:
115,129,96125,2,0,L|119:178,1,50,8|8,0:2|0:2,0:0:0:0:
193,329,96250,6,0,L|197:279,1,50,0|0,3:0|0:0,0:0:0:0:
193,107,96375,2,0,L|197:156,1,50,8|8,0:2|0:2,0:0:0:0:
271,351,96500,102,0,L|275:301,1,50,0|0,3:0|0:0,0:0:0:0:
271,85,96625,2,0,L|275:134,1,50,8|8,0:2|0:2,0:0:0:0:
349,373,96750,6,0,L|353:323,1,50,0|0,3:0|0:0,0:0:0:0:
349,63,96875,2,0,L|353:112,1,50,0|0,3:0|3:0,0:0:0:0:
429,291,97000,69,12,0:3:0:0:
396,254,97062,1,0,3:0:0:0:
348,242,97125,1,8,0:2:0:0:
302,260,97187,1,0,3:0:0:0:
275,301,97250,6,0,L|271:351,1,50,10|0,0:3|3:0,0:0:0:0:
145,310,97375,2,0,L|141:260,3,50,8|0|10|0,0:2|3:0|0:3|3:0,0:0:0:0:
287,151,97625,2,0,L|283:201,1,50,8|0,0:2|3:0,0:0:0:0:
132,159,97750,2,0,L|128:109,3,50,10|0|8|0,0:3|3:0|0:2|3:0,0:0:0:0:
299,2,98000,102,0,L|295:52,1,50,10|0,0:3|3:0,0:0:0:0:
177,37,98125,2,0,P|153:24|128:22,3,50,8|0|10|0,0:2|3:0|0:3|3:0,0:0:0:0:
287,151,98375,2,0,P|311:138|336:136,1,50,8|0,0:2|3:0,0:0:0:0:
132,159,98500,2,0,L|128:109,3,50,10|0|8|0,0:3|3:0|0:2|3:0,0:0:0:0:
1,220,98750,2,0,L|5:170,3,50,10|0|8|0,0:3|3:0|0:2|3:0,0:0:0:0:
145,310,99000,5,12,0:2:0:0:
186,336,99062,1,0,3:0:0:0:
235,344,99125,1,8,0:2:0:0:
283,332,99187,1,0,3:0:0:0:
322,300,99250,2,0,P|337:281|346:254,1,50,12|0,0:2|3:0,0:0:0:0:
512,252,99375,2,0,P|497:231|492:203,3,50,8|0|12|0,0:2|3:0|0:2|3:0,0:0:0:0:
333,135,99625,2,0,P|310:124|285:122,1,50,8|0,0:2|3:0,0:0:0:0:
464,42,99750,2,0,P|487:33|512:33,3,50,12|0|8|0,0:2|3:0|0:2|3:0,0:0:0:0:
413,171,100000,21,4,3:0:0:0:
389,310,100125,2,0,B|341:288|300:319|300:319|287:313|287:313|244:348|202:325,1,200,8|8,0:2|0:2,0:0:0:0:
463,322,100500,2,0,P|438:367|382:385,1,100,0|8,3:0|0:2,0:0:0:0:
233,259,100750,2,0,L|228:209,1,50,0|8,3:0|0:2,0:0:0:0:
216,66,100875,1,8,0:2:0:0:
221,74,100937,1,8,0:2:0:0:
226,82,101000,69,12,0:3:0:0:
185,54,101062,1,0,3:0:0:0:
136,52,101125,1,8,0:2:0:0:
93,77,101187,1,0,3:0:0:0:
71,121,101250,2,0,L|67:171,1,50,10|0,0:3|3:0,0:0:0:0:
0,307,101375,2,0,P|21:294|46:294,3,50,8|0|10|0,0:2|3:0|0:3|3:0,0:0:0:0:
166,384,101625,2,0,L|171:334,1,50,8|0,0:2|3:0,0:0:0:0:
256,192,101750,2,0,P|234:179|209:179,3,50,10|0|8|0,0:3|3:0|0:2|3:0,0:0:0:0:
340,334,102000,6,0,L|346:384,1,50,10|0,0:3|3:0,0:0:0:0:
512,307,102125,2,0,P|490:294|465:294,3,50,8|0|10|0,0:2|3:0|0:3|3:0,0:0:0:0:
441,121,102375,2,0,L|445:171,1,50,8|0,0:2|3:0,0:0:0:0:
256,192,102500,2,0,P|277:179|302:179,3,50,10|0|8|0,0:3|3:0|0:2|3:0,0:0:0:0:
185,54,102750,2,0,P|197:32|218:19,3,50,10|0|8|0,0:3|3:0|0:2|3:0,0:0:0:0:
57,140,103000,101,10,0:3:0:0:
102,159,103062,1,0,3:0:0:0:
130,200,103125,1,8,0:2:0:0:
131,250,103187,1,0,3:0:0:0:
106,292,103250,2,0,P|89:312|65:321,1,50,10|0,0:3|3:0,0:0:0:0:
274,343,103375,2,0,P|254:329|230:325,3,50,8|0|10|0,0:2|3:0|0:3|3:0,0:0:0:0:
393,286,103625,2,0,P|413:271|437:267,1,50,8|0,0:2|3:0,0:0:0:0:
421,80,103750,2,0,L|415:129,3,50,10|0|8|0,0:3|3:0|0:2|3:0,0:0:0:0:
280,100,104000,5,4,3:0:0:0:
281,112,104062,1,0,3:0:0:0:
282,125,104125,1,8,0:2:0:0:
283,137,104187,1,8,0:2:0:0:
284,150,104250,1,8,0:2:0:0:
285,162,104312,1,8,0:2:0:0:
286,175,104375,1,0,3:0:0:0:
287,187,104437,1,8,0:2:0:0:
289,200,104500,37,4,3:0:0:0:
247,163,104562,1,8,0:2:0:0:
192,158,104625,1,8,0:2:0:0:
144,186,104687,1,8,0:2:0:0:
122,236,104750,1,0,3:0:0:0:
133,290,104812,1,8,0:2:0:0:
174,327,104875,1,8,0:2:0:0:
229,333,104937,1,8,0:2:0:0:
277,306,105000,22,0,B|327:273|385:306|385:306|442:338|490:305,2,225.000008583069,0|0|0,3:0|0:0|0:0,0:0:0:0:
455,66,106000,5,4,3:2:0:0:
449,125,106125,1,0,0:0:0:0:
443,185,106250,1,0,0:0:0:0:
437,245,106375,1,0,0:0:0:0:
233,267,106500,101,4,0:2:0:0:
182,237,106625,1,0,0:0:0:0:
123,241,106750,1,0,0:0:0:0:
76,277,106875,1,0,3:0:0:0:
75,289,106937,1,0,3:0:0:0:
73,300,107000,6,0,B|98:254|98:254|80:120,1,179.999994506836,12|0,0:2|3:0,0:0:0:0:
67,0,107500,1,4,0:2:0:0:
67,0,107750,1,0,3:0:0:0:
449,125,108000,101,4,3:2:0:0:
384,91,108125,1,0,0:0:0:0:
317,118,108250,1,0,0:0:0:0:
252,84,108375,1,0,3:0:0:0:
108,233,108500,5,4,0:2:0:0:
173,199,108625,1,0,0:0:0:0:
240,226,108750,1,0,3:0:0:0:
305,192,108875,1,0,0:0:0:0:
83,42,109000,101,12,0:2:0:0:
54,108,109125,1,0,0:0:0:0:
61,179,109250,1,0,0:0:0:0:
108,233,109375,1,0,0:0:0:0:
330,383,109500,5,4,0:2:0:0:
359,317,109625,1,0,0:0:0:0:
352,246,109750,1,0,3:0:0:0:
305,192,109875,1,0,0:0:0:0:
61,179,110000,101,4,3:2:0:0:
168,230,110125,1,0,0:0:0:0:
66,292,110250,1,0,0:0:0:0:
174,344,110375,1,0,0:0:0:0:
338,344,110500,5,4,0:2:0:0:
446,292,110625,1,0,0:0:0:0:
344,230,110750,1,0,0:0:0:0:
451,179,110875,1,0,3:0:0:0:
452,167,110937,1,0,3:0:0:0:
453,154,111000,102,0,L|458:67,1,59.9999981689454,12|0,0:2|0:0,0:0:0:0:
344,230,111250,2,0,L|334:171,1,59.9999981689454,0|0,0:0|3:0,0:0:0:0:
233,275,111500,2,0,L|233:214,1,59.9999981689454,4|0,0:2|0:0,0:0:0:0:
121,228,111750,2,0,L|132:168,1,59.9999981689454,0|0,3:0|0:0,0:0:0:0:
43,163,112000,5,4,0:2:0:0:
93,29,112125,1,0,0:0:0:0:
132,169,112250,1,0,0:0:0:0:
250,91,112375,1,0,3:0:0:0:
199,225,112500,1,4,0:2:0:0:
363,185,112625,1,0,0:0:0:0:
325,46,112750,1,0,3:0:0:0:
274,179,112875,1,0,3:0:0:0:
146,64,113000,37,4,3:2:0:0:
187,324,113125,1,8,0:2:0:0:
191,347,113250,1,8,0:2:0:0:
294,145,113375,5,0,3:0:0:0:
48,243,113500,1,8,0:2:0:0:
426,235,113625,101,0,3:0:0:0:
166,194,113750,1,8,0:2:0:0:
143,190,113875,1,8,0:2:0:0:
282,62,114000,5,4,3:3:0:0:
290,228,114125,1,8,0:2:0:0:
205,31,114250,1,4,3:1:0:0:
294,145,114375,1,8,0:2:0:0:
347,10,114500,101,4,3:1:0:0:
140,83,114625,1,8,0:2:0:0:
363,189,114750,1,4,3:1:0:0:
151,165,114875,1,8,0:2:0:0:
356,100,115000,5,4,3:1:0:0:
286,311,115125,1,8,0:2:0:0:
216,113,115250,1,4,3:1:0:0:
290,228,115375,1,8,0:2:0:0:
99,300,115500,101,4,3:1:0:0:
294,145,115625,1,8,0:2:0:0:
151,165,115750,1,4,3:1:0:0:
192,305,115875,1,8,0:2:0:0:
216,113,116000,5,4,3:1:0:0:
99,300,116125,1,8,0:2:0:0:
62,52,116250,1,4,3:1:0:0:
172,236,116375,1,8,0:2:0:0:
140,83,116500,101,4,3:1:0:0:
86,217,116625,1,8,0:2:0:0:
203,32,116750,1,4,3:1:0:0:
0,198,116875,1,8,0:2:0:0:
228,187,117000,5,4,3:1:0:0:
127,2,117125,1,8,0:2:0:0:
294,145,117250,1,4,3:1:0:0:
113,150,117375,1,8,0:2:0:0:
282,62,117500,1,4,3:1:0:0:
62,52,117625,1,8,0:2:0:0:
172,236,117750,1,4,3:1:0:0:
203,32,117875,1,8,0:2:0:0:
290,228,118000,38,0,L|407:238,1,110.000003356934,4|2,3:3|3:3,0:0:0:0:
292,365,118375,2,0,P|295:337|308:313,1,55.0000016784668,8|2,0:2|3:3,0:0:0:0:
207,227,118625,2,0,P|210:254|223:278,1,55.0000016784668,8|2,0:2|3:3,0:0:0:0:
375,364,118875,1,8,0:2:0:0:
98,384,119000,6,0,P|143:359|205:372,1,110.000003356934,2|2,3:3|3:3,0:0:0:0:
63,237,119375,1,8,0:2:0:0:
229,223,119500,2,0,L|223:277,1,55.0000016784668,2|8,3:3|0:2,0:0:0:0:
55,161,119750,2,0,L|60:215,1,55.0000016784668,2|8,3:3|0:2,0:0:0:0:
231,203,120000,102,0,B|263:224|263:224|354:208,1,110.000003356934,2|2,3:3|3:3,0:0:0:0:
512,122,120375,2,0,P|500:146|500:174,1,55.0000016784668,8|2,0:2|3:3,0:0:0:0:
322,77,120625,2,0,P|344:92|358:116,1,55.0000016784668,8|2,0:2|3:3,0:0:0:0:
457,27,120875,1,8,0:2:0:0:
270,0,121000,1,2,3:3:0:0:
287,147,121125,70,0,B|302:254|302:254|321:205,1,150,12|0,0:3|3:0,0:0:0:0:
403,94,121375,2,0,L|394:156,1,50,12|0,0:3|3:0,0:0:0:0:
370,322,121500,1,10,3:3:0:0:
333,343,121562,1,8,0:2:0:0:
290,347,121625,1,8,0:2:0:0:
250,333,121687,1,8,0:2:0:0:
214,310,121750,1,10,3:3:0:0:
174,296,121812,1,8,0:2:0:0:
131,300,121875,1,8,0:2:0:0:
97,324,121937,1,8,0:2:0:0:
81,364,122000,69,12,0:3:0:0:
125,344,122062,1,0,3:0:0:0:
150,301,122125,1,8,0:2:0:0:
144,252,122187,1,0,3:0:0:0:
110,216,122250,1,12,0:1:0:0:
76,180,122312,1,0,3:0:0:0:
69,131,122375,1,8,0:2:0:0:
93,88,122437,1,0,3:0:0:0:
138,68,122500,1,12,0:1:0:0:
186,75,122562,1,0,3:0:0:0:
220,111,122625,1,8,0:2:0:0:
227,160,122687,1,0,3:0:0:0:
251,203,122749,1,12,0:1:0:0:
296,223,122812,1,0,3:0:0:0:
344,216,122874,1,8,0:2:0:0:
378,180,122937,1,0,3:0:0:0:
385,131,123000,5,12,0:1:0:0:
337,138,123062,1,0,3:0:0:0:
303,174,123125,1,8,0:2:0:0:
296,223,123188,1,0,3:0:0:0:
320,266,123250,1,12,0:1:0:0:
365,286,123312,1,0,3:0:0:0:
414,274,123375,1,8,0:2:0:0:
462,281,123437,1,0,3:0:0:0:
496,317,123500,2,0,P|508:339|508:362,3,50,12|0|8|0,0:1|3:0|0:2|3:0,0:0:0:0:
370,210,123750,2,0,P|374:185|390:166,3,50,12|0|8|0,0:1|3:0|0:2|3:0,0:0:0:0:
340,372,124000,101,12,0:1:0:0:
340,372,124062,1,0,3:0:0:0:
340,372,124125,1,8,0:2:0:0:
299,341,124187,1,0,3:0:0:0:
250,347,124250,1,12,0:1:0:0:
207,369,124312,1,0,3:0:0:0:
157,364,124375,1,8,0:2:0:0:
118,336,124437,1,0,3:0:0:0:
99,289,124500,1,12,0:1:0:0:
107,241,124562,1,0,3:0:0:0:
141,204,124625,1,8,0:2:0:0:
188,189,124687,1,0,3:0:0:0:
236,198,124750,1,12,0:1:0:0:
283,213,124812,1,0,3:0:0:0:
329,190,124875,1,8,0:2:0:0:
343,141,124937,1,0,3:0:0:0:
322,96,125000,5,12,0:2:0:0:
371,100,125062,1,0,3:0:0:0:
412,126,125125,1,8,0:2:0:0:
437,169,125187,1,0,3:0:0:0:
438,219,125250,1,12,0:2:0:0:
416,263,125312,1,0,3:0:0:0:
376,292,125375,1,8,0:2:0:0:
327,299,125437,1,0,3:0:0:0:
280,282,125500,1,12,0:2:0:0:
247,245,125562,1,0,3:0:0:0:
235,197,125625,1,8,0:2:0:0:
202,160,125687,1,0,3:0:0:0:
155,143,125750,1,12,0:2:0:0:
106,150,125812,1,0,3:0:0:0:
66,179,125875,1,8,0:2:0:0:
44,223,125937,1,0,3:0:0:0:
45,273,126000,101,12,0:3:0:0:
90,254,126062,1,0,3:0:0:0:
113,211,126125,1,8,0:2:0:0:
104,162,126187,1,0,3:0:0:0:
104,112,126250,1,12,0:1:0:0:
143,81,126313,1,0,3:0:0:0:
192,92,126375,1,8,0:2:0:0:
213,137,126438,1,0,3:0:0:0:
192,183,126500,1,12,0:1:0:0:
143,194,126563,1,0,3:0:0:0:
104,162,126625,1,8,0:2:0:0:
104,112,126687,1,0,3:0:0:0:
143,81,126750,1,12,0:1:0:0:
192,92,126812,1,0,3:0:0:0:
232,122,126875,1,8,0:2:0:0:
281,119,126937,1,0,3:0:0:0:
322,90,127000,1,12,0:1:0:0:
363,61,127063,1,0,3:0:0:0:
412,58,127125,1,8,0:2:0:0:
452,88,127188,1,0,3:0:0:0:
469,135,127250,6,0,P|467:159|456:182,3,50,12|0|8|0,0:1|3:0|0:2|3:0,0:0:0:0:
378,317,127500,2,0,P|353:318|330:329,3,50,12|0|8|0,0:1|3:0|0:2|3:0,0:0:0:0:
297,168,127750,2,0,P|276:154|262:133,3,50,12|0|8|0,0:1|3:0|0:2|3:0,0:0:0:0:
195,340,128000,101,12,0:2:0:0:
154,312,128062,1,0,3:0:0:0:
106,321,128125,1,8,0:2:0:0:
61,338,128187,1,0,3:0:0:0:
16,318,128250,1,12,0:2:0:0:
0,272,128312,1,0,3:0:0:0:
18,228,128375,1,8,0:2:0:0:
63,209,128437,1,0,3:0:0:0:
108,190,128500,1,12,0:2:0:0:
127,146,128563,1,0,3:0:0:0:
110,100,128625,1,8,0:2:0:0:
65,80,128688,1,0,3:0:0:0:
20,98,128750,1,12,0:2:0:0:
1,143,128813,1,0,3:0:0:0:
18,189,128875,2,0,P|38:203|70:209,1,50,8|0,0:2|3:0,0:0:0:0:
263,201,129000,21,0,3:0:0:0:
286,199,129062,1,0,3:0:0:0:
310,197,129125,1,8,0:2:0:0:
335,196,129187,1,8,0:2:0:0:
357,194,129250,1,0,3:0:0:0:
381,193,129312,1,0,3:0:0:0:
403,191,129375,1,8,0:2:0:0:
427,190,129437,1,8,0:2:0:0:
466,171,129500,5,0,3:0:0:0:
465,176,129562,1,0,3:0:0:0:
465,182,129625,1,12,0:2:0:0:
464,187,129687,1,0,0:0:0:0:
437,216,129750,101,0,3:0:0:0:
437,222,129813,1,0,3:0:0:0:
438,227,129875,1,8,0:2:0:0:
438,233,129938,1,0,0:0:0:0:
465,262,130000,85,4,3:0:0:0:
466,242,130062,1,0,3:0:0:0:
468,222,130125,1,0,3:0:0:0:
470,202,130187,1,0,3:0:0:0:
471,182,130250,1,12,3:1:0:0:
473,162,130312,1,0,3:0:0:0:
475,142,130375,1,0,3:0:0:0:
477,122,130437,1,0,3:0:0:0:
444,91,130500,2,0,P|465:77|490:76,3,50,4|0|0|0,3:1|3:0|3:0|3:0,0:0:0:0:
359,133,130750,2,0,P|360:157|350:180,3,50,12|0|0|0,3:1|3:0|3:0|3:0,0:0:0:0:
365,37,131000,5,4,3:1:0:0:
349,27,131062,1,0,3:0:0:0:
330,18,131125,1,0,3:0:0:0:
311,13,131187,1,0,3:0:0:0:
291,10,131250,1,12,3:1:0:0:
271,10,131312,1,0,3:0:0:0:
252,13,131375,1,0,3:0:0:0:
233,20,131437,1,0,3:0:0:0:
193,1,131500,2,0,L|188:55,3,50,4|0|0|0,3:1|3:0|3:0|3:0,0:0:0:0:
100,91,131750,2,0,L|95:41,3,50,12|0|0|0,3:1|3:0|3:0|3:0,0:0:0:0:
180,144,132000,101,4,3:1:0:0:
185,163,132063,1,0,3:0:0:0:
185,183,132125,1,0,3:0:0:0:
180,202,132188,1,0,3:0:0:0:
172,220,132250,1,12,3:1:0:0:
163,238,132313,1,0,3:0:0:0:
158,257,132375,1,0,3:0:0:0:
157,277,132438,1,0,3:0:0:0:
179,313,132500,2,0,P|158:302|133:299,3,50,4|0|0|0,3:1|3:0|3:0|3:0,0:0:0:0:
267,273,132750,2,0,P|288:259|303:238,3,50,12|0|0|0,3:1|3:0|3:0|3:0,0:0:0:0:
260,367,133000,5,4,3:1:0:0:
279,374,133062,1,0,3:0:0:0:
298,377,133125,1,0,3:0:0:0:
318,377,133187,1,0,3:0:0:0:
338,374,133250,1,12,3:1:0:0:
357,369,133312,1,0,3:0:0:0:
376,360,133375,1,0,3:0:0:0:
392,350,133437,1,0,3:0:0:0:
406,308,133500,2,0,P|427:318|441:339,3,50,4|0|0|0,3:1|3:0|3:0|3:0,0:0:0:0:
325,254,133750,2,0,P|304:266|279:269,3,50,12|0|0|0,3:1|3:0|3:0|3:0,0:0:0:0:
414,214,134000,101,4,3:3:0:0:
430,204,134062,1,0,3:0:0:0:
443,191,134125,1,0,3:0:0:0:
452,175,134187,1,0,3:0:0:0:
457,157,134250,1,12,3:1:0:0:
457,138,134312,1,0,3:0:0:0:
447,52,134375,53,0,3:0:0:0:
411,63,134437,1,0,3:0:0:0:
385,89,134500,1,4,3:1:0:0:
374,125,134562,1,0,3:0:0:0:
292,99,134625,5,0,3:0:0:0:
262,76,134687,1,0,3:0:0:0:
225,68,134750,1,12,3:1:0:0:
189,76,134812,1,0,3:0:0:0:
159,98,134875,1,0,3:0:0:0:
141,130,134937,1,0,3:0:0:0:
128,215,135000,38,0,P|109:231|98:253,3,50,4|0|0|0,3:1|3:0|3:0|3:0,0:0:0:0:
64,157,135250,2,0,P|39:157|16:167,3,50,12|0|0|0,3:1|3:0|3:0|3:0,0:0:0:0:
18,253,135500,2,0,L|22:318,3,50,4|0|0|0,3:1|3:0|3:0|3:0,0:0:0:0:
100,333,135750,2,0,L|94:383,3,50,12|0|0|0,3:1|3:0|3:0|3:0,0:0:0:0:
121,244,136000,5,4,3:1:0:0:
138,237,136062,1,0,3:0:0:0:
157,235,136125,1,0,3:0:0:0:
175,237,136187,1,0,3:0:0:0:
193,243,136250,1,4,3:1:0:0:
209,252,136312,1,0,3:0:0:0:
272,309,136375,37,0,3:0:0:0:
301,333,136437,1,0,3:0:0:0:
337,341,136500,1,12,3:1:0:0:
372,330,136562,1,0,3:0:0:0:
332,253,136625,5,0,3:0:0:0:
320,216,136687,1,0,3:0:0:0:
325,179,136750,1,4,3:1:0:0:
345,148,136812,1,0,3:0:0:0:
376,127,136875,1,0,3:0:0:0:
412,121,136937,1,0,3:0:0:0:
471,59,137000,54,0,P|487:41|493:17,7,50,4|0|0|0|4|0|0|0,3:1|3:0|3:0|3:0|3:1|3:0|3:0|3:0,0:0:0:0:
386,43,137500,2,0,P|358:37|329:50,3,50,12|0|0|0,3:1|3:0|3:0|3:0,0:0:0:0:
294,116,137750,2,0,P|270:122|246:116,3,50,4|0|0|0,3:1|3:0|3:0|3:0,0:0:0:0:
183,57,138000,101,12,3:1:0:0:
172,71,138062,1,0,3:0:0:0:
164,88,138125,1,0,3:0:0:0:
160,106,138187,1,0,3:0:0:0:
160,125,138250,1,4,3:1:0:0:
164,143,138312,1,0,3:0:0:0:
198,162,138375,2,0,L|148:166,3,50,0|0|12|0,3:0|3:0|3:1|3:0,0:0:0:0:
114,245,138625,2,0,L|163:249,5,50,0|0|4|0|0|0,3:0|3:0|3:1|3:0|3:0|3:0,0:0:0:0:
248,260,139000,5,12,3:1:0:0:
266,261,139062,1,0,3:0:0:0:
284,263,139125,1,0,3:0:0:0:
303,264,139187,1,0,3:0:0:0:
321,266,139250,1,4,3:1:0:0:
340,268,139312,1,0,3:0:0:0:
373,288,139375,2,0,P|360:259|367:228,3,50,0|0|12|0,3:0|3:0|3:1|3:0,0:0:0:0:
324,164,139625,2,0,P|302:176|289:197,5,50,0|0|4|0|0|0,3:0|3:0|3:1|3:0|3:0|3:0,0:0:0:0:
409,170,140000,101,12,3:1:0:0:
408,150,140063,1,0,3:0:0:0:
403,131,140125,1,0,3:0:0:0:
394,113,140188,1,0,3:0:0:0:
386,95,140250,1,4,3:1:0:0:
381,76,140313,1,0,3:0:0:0:
408,49,140375,2,0,L|358:53,3,50,0|0|12|0,3:0|3:0|3:1|3:0,0:0:0:0:
293,109,140625,2,0,L|243:104,5,50,0|0|4|0|0|0,3:0|3:0|3:1|3:0|3:0|3:0,0:0:0:0:
262,188,141000,5,8,0:2:0:0:
260,204,141062,1,8,0:2:0:0:
259,221,141125,1,8,0:2:0:0:
257,237,141187,1,8,0:2:0:0:
256,254,141250,1,8,0:2:0:0:
254,271,141312,1,8,0:2:0:0:
253,287,141375,1,8,0:2:0:0:
251,304,141437,1,8,0:2:0:0:
250,322,141500,37,2,3:1:0:0:
175,352,141562,1,0,3:1:0:0:
94,345,141625,1,2,3:1:0:0:
32,295,141687,1,0,3:1:0:0:
6,218,141750,1,2,3:1:0:0:
21,139,141812,1,0,3:1:0:0:
78,81,141875,1,2,3:1:0:0:
156,62,141937,1,0,3:1:0:0:
232,85,142000,5,4,3:0:0:0:
256,192,142062,12,0,149937,0:0:0:0:
168,90,150000,5,4,3:3:0:0:
168,90,152000,5,4,3:3:0:0:
168,90,154000,101,4,3:3:0:0:
388,195,154375,5,4,3:3:0:0:
168,90,156000,101,4,3:3:0:0:
388,195,156375,53,0,3:0:0:0:
177,186,156500,1,8,0:2:0:0:
174,154,156562,1,8,0:2:0:0:
171,122,156625,1,0,3:0:0:0:
288,192,156750,1,8,0:2:0:0:
285,224,156813,1,8,0:2:0:0:
282,256,156875,1,0,3:0:0:0:
73,313,157000,5,4,3:0:0:0:
184,261,157125,1,8,0:2:0:0:
174,384,157250,1,4,3:1:0:0:
80,151,157375,101,8,0:2:0:0:
143,320,157500,1,8,0:2:0:0:
258,56,157625,5,0,3:0:0:0:
256,250,157750,1,8,0:2:0:0:
256,256,157812,1,8,0:2:0:0:
256,262,157875,1,8,0:2:0:0:
256,268,157937,1,8,0:2:0:0:
256,274,158000,102,0,L|239:168,1,100,12|0,0:3|3:0,0:0:0:0:
363,287,158250,1,12,0:1:0:0:
149,261,158375,1,0,3:0:0:0:
347,180,158500,2,0,L|364:73,1,100,12|0,0:1|3:0,0:0:0:0:
500,87,158750,1,12,0:1:0:0:
408,228,158875,6,0,P|368:256|315:251,1,100,0|12,3:0|0:1,0:0:0:0:
483,327,159125,1,0,3:0:0:0:
306,332,159250,2,0,P|261:311|239:263,1,100,12|0,0:1|3:0,0:0:0:0:
103,355,159500,2,0,L|120:253,1,100,12|0,0:1|3:0,0:0:0:0:
318,252,159750,2,0,L|301:150,1,100,12|0,0:1|3:0,0:0:0:0:
125,75,160000,102,0,B|82:70|82:70|74:61|74:61|30:56,2,100,12|0|12,0:1|3:0|0:1,0:0:0:0:
95,254,160375,2,0,B|52:259|52:259|44:268|44:268|0:273,1,100,0|12,3:0|0:1,0:0:0:0:
186,132,160625,1,0,3:0:0:0:
198,284,160750,2,0,L|123:352,1,100,12|0,0:1|3:0,0:0:0:0:
303,155,161000,6,0,P|268:121|261:72,1,100,12|0,0:1|3:0,0:0:0:0:
348,218,161250,2,0,P|300:231|254:213,1,100,12|0,0:1|3:0,0:0:0:0:
423,210,161500,2,0,P|410:257|372:288,1,100,12|0,0:1|3:0,0:0:0:0:
335,86,161750,1,12,0:1:0:0:
444,220,161875,1,0,3:0:0:0:
218,143,162000,101,12,0:1:0:0:
298,308,162125,2,0,B|271:328|271:328|192:318,1,100,0|12,3:0|0:1,0:0:0:0:
291,209,162375,1,0,3:0:0:0:
132,371,162500,2,0,B|112:344|112:344|121:265,2,100,12|0|12,0:1|3:0|0:1,0:0:0:0:
0,182,162875,2,0,L|8:281,1,100,0|12,3:0|0:1,0:0:0:0:
104,86,163125,5,0,3:0:0:0:
181,219,163250,2,0,P|238:237|281:218,1,100,12|0,0:1|3:0,0:0:0:0:
395,71,163500,2,0,B|417:117|417:117|403:164,1,100,12|0,0:1|3:0,0:0:0:0:
282,316,163750,2,0,B|259:269|259:269|273:222,1,100,12|0,0:1|3:0,0:0:0:0:
437,283,164000,101,12,0:1:0:0:
322,160,164125,2,0,P|265:142|222:161,1,100,0|12,3:0|0:1,0:0:0:0:
0,106,164375,2,0,P|53:133|70:177,1,100,0|12,3:0|0:1,0:0:0:0:
182,37,164625,1,0,3:0:0:0:
137,231,164750,2,0,L|108:356,1,100,12|0,0:1|3:0,0:0:0:0:
415,317,165000,6,0,L|315:308,1,100,12|0,0:1|3:0,0:0:0:0:
237,223,165250,2,0,L|336:214,1,100,12|0,0:1|3:0,0:0:0:0:
415,129,165500,2,0,L|315:120,1,100,12|0,0:1|3:0,0:0:0:0:
165,105,165750,1,12,0:1:0:0:
215,299,165875,1,0,3:0:0:0:
241,113,166000,102,0,B|246:68|246:68|258:63|258:63|264:15,2,100,12|0|12,0:3|3:0|0:1,0:0:0:0:
139,306,166375,1,0,3:0:0:0:
96,133,166500,2,0,B|91:88|91:88|79:83|79:83|73:35,2,100,12|0|12,0:1|3:0|0:1,0:0:0:0:
254,235,166875,1,0,3:0:0:0:
263,21,167000,5,12,0:1:0:0:
174,184,167125,1,0,3:0:0:0:
332,97,167250,2,0,L|357:-9,1,100,12|0,0:1|3:0,0:0:0:0:
298,191,167500,2,0,P|357:189|397:161,1,100,12|0,0:1|3:0,0:0:0:0:
207,233,167750,2,0,P|250:273|298:281,1,100,12|0,0:1|3:0,0:0:0:0:
112,198,168000,102,0,L|99:317,2,100,12|0|12,0:1|3:0|0:1,0:0:0:0:
10,384,168375,2,0,L|0:284,1,100,0|12,3:0|0:1,0:0:0:0:
154,384,168625,1,0,3:0:0:0:
112,198,168750,2,0,P|69:181|1:202,1,100,12|0,0:1|3:0,0:0:0:0:
256,96,169000,6,0,L|358:87,1,100,12|0,0:1|3:0,0:0:0:0:
288,192,169250,2,0,L|391:192,1,100,12|0,0:1|3:0,0:0:0:0:
256,288,169500,2,0,L|358:296,1,100,12|0,0:1|3:0,0:0:0:0:
512,311,169750,1,12,0:1:0:0:
457,136,169875,1,0,3:0:0:0:
417,365,170000,101,12,0:1:0:0:
371,147,170125,2,0,P|378:98|411:60,1,100,0|12,3:0|0:1,0:0:0:0:
442,264,170375,1,0,3:0:0:0:
286,201,170500,2,0,B|270:176|270:176|285:91,2,100,12|0|12,0:1|3:0|0:1,0:0:0:0:
149,98,170875,2,0,P|105:75|56:82,1,100,0|12,3:0|0:1,0:0:0:0:
241,0,171125,5,0,3:0:0:0:
91,161,171250,2,0,L|78:264,1,100,12|0,0:1|3:0,0:0:0:0:
216,350,171500,2,0,L|203:250,1,100,12|0,0:1|3:0,0:0:0:0:
65,359,171750,1,12,0:1:0:0:
199,231,171875,1,0,3:0:0:0:
51,264,172000,101,12,0:1:0:0:
223,371,172125,2,0,B|256:351|256:351|326:366,1,100,0|12,3:0|0:1,0:0:0:0:
408,217,172375,2,0,B|370:209|370:209|309:247,1,100,0|12,3:0|0:1,0:0:0:0:
426,367,172625,1,0,3:0:0:0:
491,207,172750,2,0,P|470:161|428:135,1,100,12|0,0:1|3:0,0:0:0:0:
192,137,173000,5,12,0:1:0:0:
408,217,173125,1,4,3:0:0:0:
214,235,173250,1,12,0:1:0:0:
204,236,173312,1,0,3:0:0:0:
193,237,173375,2,0,L|131:242,1,50,4|0,3:0|0:0,0:0:0:0:
294,129,173500,101,0,3:0:0:0:
275,82,173562,1,0,3:0:0:0:
238,50,173625,1,12,0:3:0:0:
190,38,173687,1,8,0:1:0:0:
142,50,173750,5,0,3:0:0:0:
139,62,173812,1,0,3:0:0:0:
137,74,173875,1,8,0:1:0:0:
134,86,173937,1,8,0:1:0:0:
132,98,174000,102,0,L|123:-1,2,100,4|8|4,3:3|0:2|3:1,0:0:0:0:
0,197,174375,2,0,L|8:97,1,100,8|4,0:2|3:1,0:0:0:0:
91,229,174625,1,8,0:2:0:0:
86,248,174750,2,0,P|51:283|4:297,1,100,4|8,3:1|0:2,0:0:0:0:
223,248,175000,5,4,3:1:0:0:
100,376,175125,2,0,L|0:384,1,100,8|4,0:2|3:1,0:0:0:0:
153,203,175375,1,8,0:2:0:0:
207,357,175500,2,0,L|306:365,1,100,4|8,3:1|0:2,0:0:0:0:
397,235,175750,2,0,L|297:243,1,100,4|8,3:1|0:2,0:0:0:0:
512,317,176000,102,0,P|468:339|448:384,2,100,4|8|4,3:1|0:2|3:1,0:0:0:0:
270,301,176375,2,0,P|318:291|361:314,1,100,8|4,0:2|3:1,0:0:0:0:
251,130,176625,1,8,0:2:0:0:
425,159,176750,2,0,L|431:291,1,100,4|8,3:1|0:2,0:0:0:0:
312,79,177000,6,0,P|270:52|221:56,1,100,4|8,3:1|0:2,0:0:0:0:
108,195,177250,2,0,P|149:168|198:172,1,100,4|8,3:1|0:2,0:0:0:0:
312,311,177500,2,0,P|270:284|221:288,1,100,4|8,3:1|0:2,0:0:0:0:
63,351,177750,1,4,3:1:0:0:
251,362,177875,1,8,0:2:0:0:
153,184,178000,101,4,3:1:0:0:
332,319,178125,2,0,P|363:272|354:205,1,100,8|4,0:2|3:1,0:0:0:0:
419,384,178375,1,8,0:2:0:0:
284,251,178500,2,0,B|278:208|278:208|265:200|265:200|259:159,2,100,4|8|4,3:1|0:2|3:1,0:0:0:0:
393,89,178875,2,0,B|415:73|415:73|508:87,1,100,8|4,0:2|3:1,0:0:0:0:
417,253,179125,5,8,0:2:0:0:
305,84,179250,2,0,P|249:72|203:91,1,100,4|8,3:1|0:2,0:0:0:0:
0,0,179500,2,0,L|21:125,1,100,4|8,3:1|0:2,0:0:0:0:
40,245,179750,1,4,3:1:0:0:
108,76,179875,1,8,0:2:0:0:
138,268,180000,102,0,B|171:245|171:245|196:255|196:255|243:245,2,100,4|8|4,3:1|0:2|3:1,0:0:0:0:
289,384,180375,2,0,L|370:309,1,100,8|4,0:2|3:1,0:0:0:0:
297,149,180625,1,8,0:2:0:0:
219,332,180750,2,0,L|121:354,1,100,4|8,3:1|0:2,0:0:0:0:
79,83,181000,5,4,3:3:0:0:
125,238,181125,1,8,0:2:0:0:
170,104,181250,1,8,0:2:0:0:
174,95,181312,1,8,0:2:0:0:
178,86,181375,1,0,3:0:0:0:
242,326,181500,101,8,0:2:0:0:
259,279,181562,1,8,0:2:0:0:
277,232,181625,1,8,0:2:0:0:
295,185,181687,1,8,0:2:0:0:
313,138,181750,5,8,0:2:0:0:
314,144,181812,1,8,0:2:0:0:
314,150,181875,1,8,0:2:0:0:
316,156,181937,1,8,0:2:0:0:
317,162,182000,69,4,3:3:0:0:
340,155,182062,1,0,3:0:0:0:
359,138,182125,1,0,3:0:0:0:
370,116,182187,1,0,3:0:0:0:
370,91,182250,1,12,3:1:0:0:
360,69,182312,1,0,3:0:0:0:
342,52,182375,2,0,P|319:42|293:43,1,50,0|0,3:0|3:0,0:0:0:0:
195,71,182500,5,4,3:1:0:0:
175,86,182562,1,0,3:0:0:0:
152,95,182625,1,0,3:0:0:0:
127,96,182687,1,0,3:0:0:0:
103,90,182749,1,12,3:1:0:0:
78,83,182812,1,0,3:0:0:0:
54,84,182874,1,0,3:0:0:0:
30,93,182937,1,0,3:0:0:0:
11,109,183000,102,0,L|17:169,1,50,4|0,3:1|3:0,0:0:0:0:
150,191,183125,2,0,P|128:176|83:176,1,50,0|0,3:0|3:0,0:0:0:0:
48,252,183250,5,12,3:1:0:0:
51,276,183312,1,0,3:0:0:0:
47,301,183375,1,0,3:0:0:0:
35,323,183437,1,0,3:0:0:0:
17,340,183500,101,4,3:1:0:0:
51,335,183562,1,0,3:0:0:0:
86,331,183625,1,0,3:0:0:0:
121,327,183687,1,0,3:0:0:0:
155,322,183750,5,12,3:1:0:0:
156,331,183812,1,0,3:0:0:0:
158,340,183875,1,0,3:0:0:0:
159,349,183937,1,0,3:0:0:0:
160,358,184000,102,0,L|219:349,1,50,4|0,3:1|3:0,0:0:0:0:
286,265,184125,2,0,L|227:256,1,50,0|0,3:0|3:0,0:0:0:0:
352,334,184250,5,12,3:1:0:0:
370,316,184312,1,0,3:0:0:0:
380,294,184375,2,0,P|388:264|385:235,1,50,0|0,3:0|3:0,0:0:0:0:
315,180,184500,101,4,3:1:0:0:
304,156,184562,1,0,3:0:0:0:
302,132,184625,2,0,P|304:101|317:75,1,50,0|0,3:0|3:0,0:0:0:0:
436,125,184750,6,0,L|382:129,1,50,12|0,3:1|3:0,0:0:0:0:
226,140,184875,1,0,3:0:0:0:
226,140,184937,1,0,3:0:0:0:
226,140,185000,102,0,L|226:76,1,50,4|0,3:1|3:0,0:0:0:0:
151,170,185125,1,0,3:0:0:0:
151,170,185187,1,0,3:0:0:0:
151,170,185250,6,0,L|139:106,1,50,12|0,3:1|3:0,0:0:0:0:
74,45,185375,1,0,3:0:0:0:
74,45,185437,1,0,3:0:0:0:
74,45,185500,102,0,L|62:108,1,50,4|0,3:1|3:0,0:0:0:0:
8,202,185625,1,0,3:0:0:0:
8,202,185687,1,0,3:0:0:0:
8,202,185750,6,0,L|-3:138,1,50,12|0,3:1|3:0,0:0:0:0:
84,247,185875,2,0,P|69:266|47:278,1,50,0|0,3:0|3:0,0:0:0:0:
171,164,186000,102,0,L|166:213,1,50,4|0,3:1|3:0,0:0:0:0:
260,280,186125,2,0,L|255:230,1,50,0|0,3:0|3:0,0:0:0:0:
325,159,186250,5,12,3:1:0:0:
337,137,186312,1,0,3:0:0:0:
343,113,186375,1,0,3:0:0:0:
342,88,186437,1,0,3:0:0:0:
333,65,186500,102,0,P|318:38|291:24,1,50,4|0,3:1|3:0,0:0:0:0:
424,69,186625,2,0,P|446:59|471:61,1,50,0|0,3:0|3:0,0:0:0:0:
423,158,186750,5,12,3:1:0:0:
425,182,186812,1,0,3:0:0:0:
427,207,186875,2,0,L|431:256,1,50,0|0,3:0|3:0,0:0:0:0:
323,285,187000,101,4,3:1:0:0:
323,285,187062,1,0,3:0:0:0:
323,285,187125,2,0,L|327:235,1,50,0|0,3:0|3:0,0:0:0:0:
384,341,187250,6,0,P|367:359|343:366,1,50,12|0,3:1|3:0,0:0:0:0:
207,316,187375,1,0,3:0:0:0:
207,316,187437,1,0,3:0:0:0:
207,316,187500,102,0,P|230:322|248:339,1,50,4|0,3:1|3:0,0:0:0:0:
242,226,187625,1,0,3:0:0:0:
237,201,187687,1,0,3:0:0:0:
222,180,187750,6,0,P|204:163|181:157,1,50,12|0,3:1|3:0,0:0:0:0:
108,241,187875,2,0,L|165:236,1,50,0|0,3:0|3:0,0:0:0:0:
84,161,188000,101,4,3:1:0:0:
86,136,188062,1,0,3:0:0:0:
95,112,188125,1,0,3:0:0:0:
108,92,188187,1,0,3:0:0:0:
128,76,188250,1,12,3:1:0:0:
150,65,188312,1,0,3:0:0:0:
175,61,188375,2,0,P|199:61|220:73,1,50,0|0,3:0|3:0,0:0:0:0:
302,154,188500,5,4,3:1:0:0:
302,154,188562,1,0,3:0:0:0:
302,154,188625,2,0,L|307:95,1,50,0|0,3:0|3:0,0:0:0:0:
363,32,188750,102,0,P|386:27|411:32,1,50,12|0,3:1|3:0,0:0:0:0:
459,107,188875,1,0,3:0:0:0:
461,131,188937,1,0,3:0:0:0:
463,156,189000,22,0,L|467:205,1,50,12|8,0:1|0:1,0:0:0:0:
483,312,189125,1,8,0:1:0:0:
483,312,189187,1,8,0:1:0:0:
483,312,189250,5,12,0:1:0:0:
433,307,189312,1,8,0:1:0:0:
383,303,189375,1,8,0:1:0:0:
333,298,189437,1,8,0:1:0:0:
283,294,189500,101,12,0:1:0:0:
289,293,189562,1,8,0:1:0:0:
295,292,189625,1,0,3:0:0:0:
301,292,189687,1,8,0:2:0:0:
307,291,189750,5,8,0:2:0:0:
308,288,189812,1,8,0:2:0:0:
308,285,189875,1,8,0:2:0:0:
308,282,189937,1,8,0:2:0:0:
309,279,190000,101,8,0:2:0:0:
385,69,190125,1,8,0:2:0:0:
267,220,190250,1,8,0:2:0:0:
306,77,190375,1,8,0:2:0:0:
388,271,190500,1,8,0:2:0:0:
342,8,190625,1,8,0:2:0:0:
346,212,190750,1,8,0:2:0:0:
183,341,191000,53,8,3:2:0:0:
182,328,191125,1,8,0:2:0:0:
181,316,191250,1,8,0:2:0:0:
181,303,191375,1,8,0:2:0:0:
235,253,191500,5,8,0:2:0:0:
235,240,191625,1,8,0:2:0:0:
236,228,191750,1,8,0:2:0:0:
236,215,191875,1,8,0:2:0:0:
108,153,192000,101,8,3:2:0:0:
101,137,192125,1,8,0:2:0:0:
88,128,192250,1,8,0:2:0:0:
71,126,192375,1,8,0:2:0:0:
127,237,192500,53,8,0:2:0:0:
89,44,192625,1,8,0:2:0:0:
45,205,192750,1,8,0:2:0:0:
42,218,192875,1,8,0:2:0:0:
218,121,193000,69,8,3:2:0:0:
231,120,193125,1,8,0:2:0:0:
243,119,193250,1,8,0:2:0:0:
256,119,193375,1,8,0:2:0:0:
306,173,193500,101,8,0:2:0:0:
319,173,193625,1,8,0:2:0:0:
331,174,193750,1,8,0:2:0:0:
344,174,193875,1,8,0:2:0:0:
379,72,194000,69,8,3:2:0:0:
331,252,194125,1,8,0:2:0:0:
273,130,194250,1,8,0:2:0:0:
467,180,194375,1,8,0:2:0:0:
262,245,194500,1,8,0:2:0:0:
423,126,194625,1,8,0:2:0:0:
401,259,194750,1,8,0:2:0:0:
43,341,195000,53,8,3:2:0:0:
30,329,195125,1,8,0:2:0:0:
16,321,195250,1,8,0:2:0:0:
0,317,195375,1,8,0:2:0:0:
108,252,195500,101,8,0:2:0:0:
124,245,195625,1,8,0:2:0:0:
140,242,195750,1,8,0:2:0:0:
156,244,195875,1,8,0:2:0:0:
325,358,196000,5,8,3:2:0:0:
323,341,196125,1,8,0:2:0:0:
322,324,196250,1,8,0:2:0:0:
320,308,196375,1,8,0:2:0:0:
275,234,196500,37,8,0:2:0:0:
410,287,196625,1,8,0:2:0:0:
239,315,196750,1,8,0:2:0:0:
228,318,196875,1,8,0:2:0:0:
389,167,197000,53,8,3:2:0:0:
387,183,197125,1,8,0:2:0:0:
386,200,197250,1,8,0:2:0:0:
384,216,197375,1,8,0:2:0:0:
291,117,197500,5,8,0:2:0:0:
276,108,197625,1,8,0:2:0:0:
260,103,197750,1,8,0:2:0:0:
244,100,197875,1,8,0:2:0:0:
224,183,198000,53,12,3:3:0:0:
334,46,198125,1,8,0:2:0:0:
179,96,198250,1,8,0:2:0:0:
348,148,198375,1,8,0:2:0:0:
162,89,198500,1,8,0:2:0:0:
345,34,198625,1,8,0:2:0:0:
215,197,198750,1,8,0:2:0:0:
0,0,199000,37,8,3:2:0:0:
0,16,199125,1,8,0:2:0:0:
1,33,199250,1,8,0:2:0:0:
2,49,199375,1,8,0:2:0:0:
60,116,199500,5,8,0:2:0:0:
59,132,199625,1,8,0:2:0:0:
58,149,199750,1,8,0:2:0:0:
57,165,199875,1,8,0:2:0:0:
172,307,200000,101,8,3:2:0:0:
158,297,200125,1,8,0:2:0:0:
142,293,200250,1,8,0:2:0:0:
125,294,200375,1,8,0:2:0:0:
125,180,200500,53,8,0:2:0:0:
130,364,200625,1,8,0:2:0:0:
194,240,200750,1,8,0:2:0:0:
200,229,200875,1,8,0:2:0:0:
402,354,201000,69,8,3:2:0:0:
412,341,201125,1,8,0:2:0:0:
427,334,201250,1,8,0:2:0:0:
443,333,201375,1,8,0:2:0:0:
429,209,201500,101,8,0:2:0:0:
431,193,201625,1,8,0:2:0:0:
432,176,201750,1,8,0:2:0:0:
434,160,201875,1,8,0:2:0:0:
292,74,202000,69,8,3:2:0:0:
209,218,202125,1,8,0:2:0:0:
227,98,202250,1,8,0:2:0:0:
262,261,202375,1,8,0:2:0:0:
281,142,202500,1,8,0:2:0:0:
198,285,202625,1,8,0:2:0:0:
163,122,202750,1,8,0:2:0:0:
12,366,203000,53,8,3:2:0:0:
14,349,203125,1,8,0:2:0:0:
17,333,203250,1,8,0:2:0:0:
19,316,203375,1,8,0:2:0:0:
99,248,203500,101,8,0:2:0:0:
96,231,203625,1,8,0:2:0:0:
93,215,203750,1,8,0:2:0:0:
91,198,203875,1,8,0:2:0:0:
174,112,204000,5,8,3:2:0:0:
189,105,204125,1,8,0:2:0:0:
205,107,204250,1,8,0:2:0:0:
220,114,204375,1,8,0:2:0:0:
124,28,204500,37,8,0:2:0:0:
279,183,204625,1,8,0:2:0:0:
243,35,204750,1,8,0:2:0:0:
239,22,204875,1,8,0:2:0:0:
142,272,205000,5,12,3:3:0:0:
366,44,205375,101,8,0:2:0:0:
371,181,205500,2,0,B|376:299|376:299|343:249,1,150,0|0,3:0|0:0,0:0:0:0:
322,361,205750,2,0,P|391:381|449:337,1,150,0|0,3:0|0:0,0:0:0:0:
475,250,206000,5,4,3:1:0:0:
220,233,206125,1,0,3:0:0:0:
376,311,206250,1,0,3:0:0:0:
325,127,206375,1,0,3:0:0:0:
383,331,206500,1,4,3:1:0:0:
196,232,206625,1,0,3:0:0:0:
500,260,206750,1,0,3:0:0:0:
84,78,207250,101,0,3:0:0:0:
159,314,207750,5,0,3:0:0:0:
242,94,208250,101,0,3:0:0:0:
59,238,208500,5,4,3:1:0:0:
298,218,208625,1,0,3:0:0:0:
159,314,208750,1,0,3:0:0:0:
265,60,210000,101,4,3:1:0:0:
301,255,210125,1,0,3:0:0:0:
395,45,210250,1,0,3:0:0:0:
397,245,210375,1,0,3:0:0:0:
253,45,210500,1,4,3:1:0:0:
296,274,210625,1,0,3:0:0:0:
402,27,210750,1,0,3:0:0:0:
411,264,211250,5,0,3:0:0:0:
107,167,211750,101,0,3:0:0:0:
270,365,212250,5,0,3:0:0:0:
232,154,212500,101,4,3:1:0:0:
76,63,212625,1,0,3:0:0:0:
139,271,212750,1,0,3:0:0:0:
351,245,214000,5,4,3:1:0:0:
468,106,214125,1,0,3:0:0:0:
270,178,214250,1,0,3:0:0:0:
450,210,214375,1,0,3:0:0:0:
289,75,214500,1,4,3:1:0:0:
351,245,214625,1,0,3:0:0:0:
387,39,214750,1,0,3:0:0:0:
99,166,215250,101,0,3:0:0:0:
369,142,215750,5,0,3:0:0:0:
132,325,216250,101,0,3:0:0:0:
267,355,216500,5,4,3:1:0:0:
92,147,216625,1,0,3:0:0:0:
132,325,216750,1,0,3:0:0:0:
412,43,218000,101,4,3:1:0:0:
339,223,218125,1,0,3:0:0:0:
330,45,218250,1,0,3:0:0:0:
382,294,218375,1,0,3:0:0:0:
373,116,218500,1,4,3:1:0:0:
300,296,218625,1,0,3:0:0:0:
291,118,218750,1,0,3:0:0:0:
0,0,219250,5,0,3:0:0:0:
256,192,219750,101,0,3:0:0:0:
512,0,220250,5,0,3:0:0:0:
128,256,220500,101,4,3:1:0:0:
256,96,220625,1,0,3:0:0:0:
384,256,220750,1,0,3:0:0:0:
85,175,222000,5,4,3:3:0:0:
231,82,222125,1,0,3:0:0:0:
135,250,222250,2,0,L|27:274,1,100,0|0,3:0|3:0,0:0:0:0:
260,148,222500,101,12,0:1:0:0:
353,294,222625,1,0,3:0:0:0:
185,198,222750,2,0,L|161:90,1,100,0|0,3:0|3:0,0:0:0:0:
348,142,223000,5,4,3:1:0:0:
228,297,223125,2,0,B|188:302|188:302|172:292|172:292|121:298,2,100,8|0|0,0:1|3:0|3:0,0:0:0:0:
403,346,223500,2,0,B|422:345|437:334|437:334|450:347|450:347|472:341|499:353,3,100,8|0|0|0,0:1|3:0|3:0|3:0,0:0:0:0:
281,173,224000,101,4,3:3:0:0:
363,314,224125,1,0,3:0:0:0:
407,134,224250,2,0,L|431:21,1,100,0|0,3:0|3:0,0:0:0:0:
329,99,224500,5,12,0:1:0:0:
188,181,224625,1,0,3:0:0:0:
368,225,224750,2,0,L|481:249,1,100,0|0,3:0|3:0,0:0:0:0:
214,80,225000,101,4,3:1:0:0:
256,271,225125,1,8,0:1:0:0:
291,128,225250,1,0,3:0:0:0:
68,127,225375,1,8,0:1:0:0:
134,82,225500,5,8,0:2:0:0:
139,161,225625,1,8,0:2:0:0:
114,237,225750,1,8,0:2:0:0:
46,279,225875,1,8,0:2:0:0:
299,366,226000,5,12,3:3:0:0:
259,84,226125,1,0,3:0:0:0:
340,141,226250,1,0,3:0:0:0:
114,237,226375,5,12,3:3:0:0:
423,141,226500,1,0,3:0:0:0:
380,231,226625,1,0,3:0:0:0:
161,77,226750,101,12,3:3:0:0:
204,166,226875,1,0,3:0:0:0:
0,0,227000,5,12,3:3:0:0:
114,237,227125,1,0,3:0:0:0:
32,183,227250,1,0,3:0:0:0:
58,86,227375,1,0,3:0:0:0:
0,384,227500,101,12,3:3:0:0:
32,183,227625,1,0,3:0:0:0:
114,237,227750,1,0,3:0:0:0:
26,281,227875,1,0,3:0:0:0:
241,52,228000,85,12,3:3:0:0:
279,288,228125,1,4,3:2:0:0:
185,131,228250,1,0,3:0:0:0:
282,140,228375,1,0,3:0:0:0:
109,270,228500,5,12,3:3:0:0:
345,235,228625,1,0,3:0:0:0:
188,327,228750,1,0,3:0:0:0:
197,230,228875,1,0,3:0:0:0:
402,384,229000,101,12,3:3:0:0:
512,338,229125,1,0,3:0:0:0:
318,149,229250,5,8,3:3:0:0:
428,195,229375,1,0,3:0:0:0:
208,299,229500,101,8,0:3:0:0:
207,289,229562,1,8,0:3:0:0:
205,279,229625,2,0,L|192:201,1,50,8|8,0:3|0:2,0:0:0:0:
175,72,229750,5,8,0:2:0:0:
184,64,229812,1,8,0:2:0:0:
194,69,229875,1,12,0:2:0:0:
194,80,229937,1,8,0:2:0:0:
183,85,230000,38,0,B|157:92|157:92|84:69,3,75.0000028610231,12|0|0|0,0:3|3:0|3:0|3:0,0:0:0:0:
333,56,230500,6,0,L|325:130,1,75.0000028610231,12|0,0:1|3:0,0:0:0:0:
450,182,230750,2,0,L|442:107,1,75.0000028610231,0|0,3:0|3:0,0:0:0:0:
324,47,231000,2,0,L|316:121,1,75.0000028610231,12|0,0:1|3:0,0:0:0:0:
459,191,231250,2,0,L|451:116,1,75.0000028610231,0|0,3:0|3:0,0:0:0:0:
315,38,231500,2,0,L|307:112,1,75.0000028610231,12|0,0:1|3:0,0:0:0:0:
468,200,231750,2,0,L|460:125,1,75.0000028610231,0|0,3:0|3:0,0:0:0:0:
244,156,232000,102,0,P|277:184|321:188,1,89.9999972534181,12|0,0:3|3:0,0:0:0:0:
76,276,232500,6,0,P|77:232|100:195,1,87.500000834465,12|0,0:1|3:0,0:0:0:0:
244,156,232750,2,0,P|243:199|220:236,1,87.500000834465,0|0,3:0|3:0,0:0:0:0:
67,285,233000,2,0,P|67:241|90:204,1,87.500000834465,12|0,0:1|3:0,0:0:0:0:
253,147,233250,2,0,P|252:190|229:227,1,87.500000834465,0|0,3:0|3:0,0:0:0:0:
57,294,233500,2,0,P|57:250|80:213,1,87.500000834465,12|0,0:1|3:0,0:0:0:0:
262,138,233750,2,0,P|261:181|238:218,1,87.500000834465,0|0,3:0|3:0,0:0:0:0:
121,77,234000,102,0,P|64:41|0:51,1,134.999995880127,12|0,0:3|3:0,0:0:0:0:
122,176,234500,53,12,0:2:0:0:
136,292,234625,1,0,3:0:0:0:
188,155,234750,5,12,0:2:0:0:
205,283,234875,1,0,3:0:0:0:
257,148,235000,101,12,0:2:0:0:
274,288,235125,1,0,3:0:0:0:
324,161,235250,5,12,0:2:0:0:
338,313,235375,1,0,3:0:0:0:
411,98,235500,101,12,0:2:0:0:
331,237,235625,1,0,3:0:0:0:
295,54,235750,5,12,0:2:0:0:
273,202,235875,1,0,3:0:0:0:
155,28,236000,101,4,3:0:0:0:
147,76,236062,1,8,0:2:0:0:
141,127,236125,1,8,0:2:0:0:
135,176,236187,1,8,0:2:0:0:
128,226,236250,5,0,3:0:0:0:
131,222,236312,1,0,3:0:0:0:
134,218,236375,101,8,0:2:0:0:
177,193,236437,1,8,0:2:0:0:
226,184,236500,1,8,0:2:0:0:
274,193,236562,1,8,0:2:0:0:
317,219,236625,5,0,3:0:0:0:
315,209,236687,1,0,3:0:0:0:
314,199,236750,1,8,0:2:0:0:
312,189,236812,1,8,0:2:0:0:
311,179,236875,1,8,0:2:0:0:
310,169,236937,1,8,0:2:0:0:
309,159,237000,102,0,L|303:109,1,50,0|0,3:0|3:0,0:0:0:0:
432,53,237125,1,8,0:2:0:0:
425,102,237187,1,8,0:2:0:0:
418,152,237250,5,8,0:2:0:0:
416,142,237312,1,8,0:2:0:0:
415,132,237375,1,0,3:0:0:0:
413,122,237437,1,0,3:0:0:0:
412,112,237500,101,12,0:3:0:0:
105,310,238000,53,4,3:0:0:0:
84,304,238250,1,4,0:1:0:0:
67,314,238500,1,4,0:1:0:0:
62,335,238750,1,4,0:1:0:0:
73,352,239000,1,4,0:1:0:0:
94,356,239250,1,4,0:1:0:0:
110,343,239500,1,4,0:1:0:0:
113,323,239750,1,4,0:1:0:0:
208,208,240000,53,0,3:0:0:0:
220,200,240062,1,0,3:0:0:0:
233,195,240125,1,0,3:0:0:0:
247,192,240187,1,0,3:0:0:0:
261,192,240250,6,0,P|287:200|313:229,1,50,12|0,0:2|3:0,0:0:0:0:
264,347,240375,1,0,3:0:0:0:
263,337,240437,1,0,3:0:0:0:
262,326,240500,102,0,L|254:268,1,50,12|0,0:2|3:0,0:0:0:0:
385,206,240625,2,0,L|378:255,1,50,0|0,3:0|3:0,0:0:0:0:
335,134,240750,5,0,3:0:0:0:
341,126,240812,1,0,3:0:0:0:
349,120,240875,2,0,P|371:109|401:110,1,50,12|0,0:2|3:0,0:0:0:0:
231,110,241000,102,0,P|222:82|228:48,1,50,0|0,3:0|3:0,0:0:0:0:
163,207,241125,2,0,P|134:200|107:178,1,50,12|0,0:2|3:0,0:0:0:0:
47,57,241250,2,0,L|42:106,1,50,0|0,3:0|3:0,0:0:0:0:
0,260,241375,2,0,P|21:247|46:243,1,50,0|0,3:0|3:0,0:0:0:0:
131,331,241500,5,8,0:1:0:0:
122,339,241562,1,8,0:2:0:0:
112,334,241625,1,8,0:2:0:0:
112,323,241687,1,0,3:0:0:0:
123,318,241750,2,0,B|154:333|154:333|243:305,1,100,12|0,0:3|0:0,0:0:0:0:
381,368,242000,69,12,0:3:0:0:
346,333,242062,1,0,3:0:0:0:
345,285,242125,1,8,0:1:0:0:
356,237,242187,1,0,3:0:0:0:
333,194,242250,1,12,0:1:0:0:
287,177,242312,1,0,3:0:0:0:
241,193,242375,1,8,0:1:0:0:
195,211,242437,1,0,3:0:0:0:
148,199,242500,1,12,0:1:0:0:
115,162,242562,1,0,3:0:0:0:
110,113,242625,1,8,0:1:0:0:
133,70,242687,1,0,3:0:0:0:
177,48,242750,1,12,0:1:0:0:
226,55,242812,1,0,3:0:0:0:
271,77,242875,1,8,0:1:0:0:
320,81,242937,1,0,3:0:0:0:
365,59,242999,5,12,0:1:0:0:
373,107,243061,1,0,3:0:0:0:
350,151,243124,1,8,0:1:0:0:
306,172,243187,1,0,3:0:0:0:
258,183,243249,1,12,0:1:0:0:
226,220,243312,1,0,3:0:0:0:
220,269,243374,1,8,0:1:0:0:
243,312,243437,1,0,3:0:0:0:
288,334,243500,2,0,P|311:335|335:326,3,50,12|0|8|0,0:1|3:0|0:1|3:0,0:0:0:0:
143,339,243750,2,0,P|129:359|126:384,3,50,12|0|8|0,0:1|3:0|0:1|3:0,0:0:0:0:
56,196,244000,101,12,0:3:0:0:
105,193,244062,1,0,3:0:0:0:
145,164,244125,1,8,0:1:0:0:
164,119,244187,1,0,3:0:0:0:
171,69,244249,1,12,0:1:0:0:
213,42,244312,1,0,3:0:0:0:
260,59,244374,1,8,0:1:0:0:
277,106,244437,1,0,3:0:0:0:
250,148,244499,1,12,0:1:0:0:
200,155,244562,1,0,3:0:0:0:
164,119,244625,1,8,0:1:0:0:
171,69,244687,1,0,3:0:0:0:
213,42,244750,1,12,0:1:0:0:
260,59,244812,1,0,3:0:0:0:
308,71,244875,1,8,0:1:0:0:
357,63,244937,1,0,3:0:0:0:
393,28,245000,21,4,3:2:0:0:
383,253,245125,1,8,0:1:0:0:
340,112,245250,1,0,3:0:0:0:
485,265,245375,1,8,0:1:0:0:
281,241,245500,5,0,3:0:0:0:
480,150,245625,1,8,0:1:0:0:
385,340,245750,2,0,P|362:352|338:353,1,50,0|8,3:0|0:1,0:0:0:0:
124,352,245875,1,8,0:1:0:0:
124,352,245937,1,8,0:1:0:0:
124,352,246000,85,12,0:3:0:0:
82,326,246062,1,0,3:0:0:0:
68,279,246125,1,8,0:1:0:0:
89,234,246187,1,0,3:0:0:0:
134,215,246250,1,12,0:1:0:0:
184,220,246312,1,0,3:0:0:0:
229,201,246375,1,8,0:1:0:0:
261,163,246437,1,0,3:0:0:0:
273,115,246500,1,12,0:1:0:0:
261,67,246562,1,0,3:0:0:0:
230,29,246625,1,8,0:1:0:0:
184,10,246687,1,0,3:0:0:0:
135,12,246750,1,12,0:1:0:0:
92,37,246812,1,0,3:0:0:0:
65,79,246875,1,8,0:1:0:0:
59,128,246937,1,0,3:0:0:0:
77,174,247000,101,12,0:1:0:0:
102,131,247062,1,0,3:0:0:0:
144,105,247125,1,8,0:1:0:0:
194,101,247187,1,0,3:0:0:0:
242,117,247250,2,0,P|261:128|277:153,3,50,12|0|8|0,0:1|3:0|0:1|3:0,0:0:0:0:
165,277,247500,2,0,P|146:259|123:252,3,50,12|0|8|0,0:1|3:0|0:1|3:0,0:0:0:0:
306,355,247750,2,0,P|328:345|353:346,3,50,12|0|8|0,0:1|3:0|0:1|3:0,0:0:0:0:
318,221,248000,5,12,0:2:0:0:
358,192,248062,1,0,3:0:0:0:
407,192,248125,1,8,0:1:0:0:
455,198,248187,1,0,3:0:0:0:
495,170,248250,1,12,0:2:0:0:
505,122,248312,1,0,3:0:0:0:
479,80,248375,1,8,0:1:0:0:
433,67,248437,1,0,3:0:0:0:
389,89,248500,1,12,0:2:0:0:
340,88,248562,1,0,3:0:0:0:
302,54,248625,1,8,0:1:0:0:
262,24,248687,1,0,3:0:0:0:
213,22,248750,1,12,0:2:0:0:
173,50,248812,1,0,3:0:0:0:
156,96,248875,1,8,0:1:0:0:
170,144,248937,1,0,3:0:0:0:
209,173,249000,5,8,3:2:0:0:
190,174,249062,1,8,0:2:0:0:
172,175,249125,1,8,0:2:0:0:
154,177,249187,1,8,0:2:0:0:
136,178,249250,1,8,0:2:0:0:
118,180,249312,1,8,0:2:0:0:
100,181,249375,2,0,L|21:187,1,50,8|8,0:2|0:2,0:0:0:0:
0,340,249500,5,8,3:2:0:0:
42,365,249562,1,8,0:2:0:0:
92,367,249625,1,8,0:2:0:0:
137,347,249687,1,8,0:2:0:0:
167,308,249750,101,8,3:2:0:0:
169,317,249812,1,8,0:2:0:0:
171,326,249875,1,8,0:2:0:0:
173,335,249937,1,8,0:2:0:0:
175,344,250000,6,0,L|188:237,1,100,4|8,3:0|0:2,0:0:0:0:
56,149,250250,2,0,L|68:248,1,100,0|8,3:0|0:2,0:0:0:0:
193,144,250500,1,0,3:0:0:0:
92,24,250625,1,8,0:2:0:0:
315,130,250750,1,0,3:0:0:0:
241,6,250875,1,8,0:2:0:0:
267,243,251000,101,0,3:0:0:0:
327,38,251125,1,8,0:2:0:0:
179,160,251250,1,0,3:0:0:0:
413,70,251375,1,8,0:2:0:0:
355,326,251500,5,4,3:0:0:0:
283,136,251625,1,8,0:2:0:0:
491,212,251750,1,0,3:0:0:0:
243,250,251875,1,8,0:2:0:0:
430,153,252000,102,0,B|408:165|408:165|325:142,1,100,4|8,3:0|0:2,0:0:0:0:
231,332,252250,2,0,B|256:331|256:331|316:269,1,100,0|8,3:0|0:2,0:0:0:0:
388,90,252500,1,0,3:0:0:0:
228,244,252625,1,8,0:2:0:0:
249,47,252750,1,0,3:0:0:0:
319,296,252875,1,8,0:2:0:0:
404,80,253000,6,0,P|452:59|497:66,1,100,0|8,3:0|0:2,0:0:0:0:
310,215,253250,2,0,P|281:174|235:156,1,100,0|8,3:0|0:2,0:0:0:0:
454,246,253500,2,0,L|462:147,1,100,0|8,3:0|0:2,0:0:0:0:
227,243,253750,2,0,L|235:343,1,100,0|8,3:0|0:2,0:0:0:0:
323,136,254000,38,0,B|334:97|334:97|318:80|318:80|314:32,1,110.000003356934,4|2,3:3|3:3,0:0:0:0:
117,132,254375,2,0,P|102:151|98:189,1,55.0000016784668,8|2,0:2|3:3,0:0:0:0:
217,98,254625,2,0,P|220:73|205:38,1,55.0000016784668,8|2,0:2|3:3,0:0:0:0:
192,215,254875,1,8,0:2:0:0:
113,45,255000,6,0,P|57:35|6:58,1,110.000003356934,2|2,3:3|3:3,0:0:0:0:
25,267,255375,1,8,0:2:0:0:
135,167,255500,2,0,L|139:112,1,55.0000016784668,2|8,3:3|0:2,0:0:0:0:
20,193,255750,2,0,L|24:247,1,55.0000016784668,2|8,3:3|0:2,0:0:0:0:
201,310,256000,102,0,L|335:320,1,110.000003356934,2|2,3:3|3:3,0:0:0:0:
457,226,256375,2,0,P|431:234|413:255,1,55.0000016784668,8|2,0:2|3:3,0:0:0:0:
278,152,256625,2,0,P|305:151|329:164,1,55.0000016784668,8|2,0:2|3:3,0:0:0:0:
446,107,256875,1,8,0:2:0:0:
268,38,257000,54,0,P|231:71|182:74,1,100,2|4,3:3|0:3,0:0:0:0:
48,16,257250,2,0,L|52:65,1,50,0|0,3:0|3:0,0:0:0:0:
82,285,257375,1,12,0:3:0:0:
106,301,257437,1,0,3:0:0:0:
135,309,257500,1,10,3:3:0:0:
165,307,257562,1,8,0:2:0:0:
193,298,257625,1,8,0:2:0:0:
220,284,257687,1,8,0:2:0:0:
246,270,257750,1,10,3:3:0:0:
274,260,257812,1,8,0:2:0:0:
304,257,257875,1,8,0:2:0:0:
334,262,257937,1,8,0:2:0:0:
361,273,258000,85,12,0:3:0:0:
321,302,258062,1,0,3:0:0:0:
272,304,258125,1,8,0:2:0:0:
231,278,258187,1,0,3:0:0:0:
212,232,258250,1,12,0:1:0:0:
222,184,258312,1,0,3:0:0:0:
258,151,258375,1,8,0:2:0:0:
307,144,258437,1,0,3:0:0:0:
351,166,258500,1,12,0:1:0:0:
398,158,258562,1,0,3:0:0:0:
435,124,258625,1,8,0:2:0:0:
445,76,258687,1,0,3:0:0:0:
426,31,258750,1,12,0:1:0:0:
385,5,258812,1,0,3:0:0:0:
336,6,258875,1,8,0:2:0:0:
297,37,258937,1,0,3:0:0:0:
290,87,259000,5,12,0:1:0:0:
241,73,259062,1,0,3:0:0:0:
194,90,259125,1,8,0:2:0:0:
165,128,259187,1,0,3:0:0:0:
136,169,259249,1,12,0:1:0:0:
89,185,259312,1,0,3:0:0:0:
43,172,259374,1,8,0:2:0:0:
13,130,259437,1,0,3:0:0:0:
23,79,259500,2,0,P|35:58|56:44,3,50,12|0|8|0,0:1|3:0|0:2|3:0,0:0:0:0:
188,141,259750,2,0,P|211:132|236:133,3,50,12|0|8|0,0:1|3:0|0:2|3:0,0:0:0:0:
52,252,260000,101,12,0:1:0:0:
52,252,260062,1,0,3:0:0:0:
52,252,260125,1,8,0:2:0:0:
69,298,260187,1,0,3:0:0:0:
106,331,260250,1,12,0:1:0:0:
154,344,260312,1,0,3:0:0:0:
202,334,260375,1,8,0:2:0:0:
241,304,260437,1,0,3:0:0:0:
262,258,260500,1,12,0:1:0:0:
283,213,260562,1,0,3:0:0:0:
321,182,260625,1,8,0:2:0:0:
370,172,260687,1,0,3:0:0:0:
418,185,260750,1,12,0:1:0:0:
454,218,260812,1,0,3:0:0:0:
472,265,260875,1,8,0:2:0:0:
466,312,260937,1,0,3:0:0:0:
439,352,260999,5,12,0:2:0:0:
391,337,261061,1,0,3:0:0:0:
360,299,261124,1,8,0:2:0:0:
355,250,261186,1,0,3:0:0:0:
378,206,261249,1,12,0:2:0:0:
401,160,261312,1,0,3:0:0:0:
386,113,261374,1,8,0:2:0:0:
340,90,261437,1,0,3:0:0:0:
293,105,261499,1,12,0:2:0:0:
270,149,261562,1,0,3:0:0:0:
285,197,261624,1,8,0:2:0:0:
329,220,261687,1,0,3:0:0:0:
378,206,261749,1,12,0:2:0:0:
401,160,261812,1,0,3:0:0:0:
386,113,261875,1,8,0:2:0:0:
409,68,261938,1,0,3:0:0:0:
451,49,262000,101,12,0:3:0:0:
407,27,262062,1,0,3:0:0:0:
358,16,262125,1,8,0:2:0:0:
308,19,262187,1,0,3:0:0:0:
261,34,262250,1,12,0:1:0:0:
216,56,262312,1,0,3:0:0:0:
167,68,262375,1,8,0:2:0:0:
118,61,262437,1,0,3:0:0:0:
76,35,262500,5,12,0:1:0:0:
124,30,262562,1,0,3:0:0:0:
163,59,262625,1,8,0:2:0:0:
172,107,262687,1,0,3:0:0:0:
145,148,262750,1,12,0:1:0:0:
98,160,262812,1,0,3:0:0:0:
71,201,262875,1,8,0:2:0:0:
80,249,262937,1,0,3:0:0:0:
119,278,263000,101,12,0:1:0:0:
152,241,263062,1,0,3:0:0:0:
199,228,263125,1,8,0:2:0:0:
246,244,263187,1,0,3:0:0:0:
277,282,263250,2,0,P|295:298|319:305,3,50,12|0|8|0,0:1|3:0|0:2|3:0,0:0:0:0:
298,131,263500,2,0,P|305:154|323:172,3,50,12|0|8|0,0:1|3:0|0:2|3:0,0:0:0:0:
398,36,263750,2,0,P|392:60|399:84,3,50,12|0|8|0,0:1|3:0|0:2|3:0,0:0:0:0:
445,283,264000,5,12,0:2:0:0:
410,249,264062,1,0,3:0:0:0:
362,236,264125,1,8,0:2:0:0:
314,248,264187,1,0,3:0:0:0:
277,282,264250,1,12,0:2:0:0:
240,315,264312,1,0,3:0:0:0:
192,327,264375,1,8,0:2:0:0:
143,316,264437,1,0,3:0:0:0:
106,284,264500,1,12,0:2:0:0:
87,238,264562,1,0,3:0:0:0:
91,189,264625,1,8,0:2:0:0:
117,147,264687,1,0,3:0:0:0:
160,122,264750,1,12,0:2:0:0:
209,119,264812,1,0,3:0:0:0:
254,140,264875,2,0,P|278:146|303:142,1,50,8|0,0:2|3:0,0:0:0:0:
155,51,265000,5,0,3:0:0:0:
157,73,265062,1,0,3:0:0:0:
159,97,265125,1,8,0:2:0:0:
160,122,265187,1,8,0:2:0:0:
162,144,265250,1,0,3:0:0:0:
163,168,265312,1,0,3:0:0:0:
165,190,265375,1,8,0:2:0:0:
166,214,265437,1,8,0:2:0:0:
201,231,265500,5,0,3:0:0:0:
200,236,265562,1,0,3:0:0:0:
200,242,265625,1,12,0:2:0:0:
199,247,265687,1,0,0:0:0:0:
172,276,265750,101,0,3:0:0:0:
172,282,265813,1,0,3:0:0:0:
173,287,265875,1,8,0:2:0:0:
173,293,265938,1,0,0:0:0:0:
248,338,266000,85,4,3:0:0:0:
267,345,266062,1,0,3:0:0:0:
286,348,266125,1,0,3:0:0:0:
306,348,266187,1,0,3:0:0:0:
326,345,266250,1,12,3:1:0:0:
345,340,266312,1,0,3:0:0:0:
364,331,266375,1,0,3:0:0:0:
380,321,266437,1,0,3:0:0:0:
411,289,266500,2,0,L|406:338,3,50,4|0|0|0,3:1|3:0|3:0|3:0,0:0:0:0:
320,258,266750,2,0,L|315:208,3,50,12|0|0|0,3:1|3:0|3:0|3:0,0:0:0:0:
409,193,267000,5,4,3:1:0:0:
410,173,267063,1,0,3:0:0:0:
415,154,267125,1,0,3:0:0:0:
424,136,267188,1,0,3:0:0:0:
432,118,267250,1,12,3:1:0:0:
437,99,267313,1,0,3:0:0:0:
437,79,267375,1,0,3:0:0:0:
432,60,267438,1,0,3:0:0:0:
408,22,267500,2,0,P|428:37|453:42,3,50,4|0|0|0,3:1|3:0|3:0|3:0,0:0:0:0:
298,105,267750,2,0,P|320:94|345:93,3,50,12|0|0|0,3:1|3:0|3:0|3:0,0:0:0:0:
216,54,268000,101,4,3:1:0:0:
196,53,268062,1,0,3:0:0:0:
176,51,268125,1,0,3:0:0:0:
156,49,268187,1,0,3:0:0:0:
136,48,268250,1,12,3:1:0:0:
115,46,268312,1,0,3:0:0:0:
96,44,268375,1,0,3:0:0:0:
76,42,268437,1,0,3:0:0:0:
40,16,268500,2,0,L|44:65,3,50,4|0|0|0,3:1|3:0|3:0|3:0,0:0:0:0:
96,145,268750,2,0,P|118:134|142:131,3,50,12|0|0|0,3:1|3:0|3:0|3:0,0:0:0:0:
10,188,269000,5,4,3:1:0:0:
3,207,269062,1,0,3:0:0:0:
0,226,269125,1,0,3:0:0:0:
0,246,269187,1,0,3:0:0:0:
3,266,269250,1,12,3:1:0:0:
8,285,269312,1,0,3:0:0:0:
17,304,269375,1,0,3:0:0:0:
26,320,269437,1,0,3:0:0:0:
14,362,269500,2,0,P|39:346|69:347,3,50,4|0|0|0,3:1|3:0|3:0|3:0,0:0:0:0:
126,277,269750,2,0,P|108:261|84:254,3,50,12|0|0|0,3:1|3:0|3:0|3:0,0:0:0:0:
180,344,270000,101,4,3:3:0:0:
198,345,270062,1,0,3:0:0:0:
217,343,270125,1,0,3:0:0:0:
233,336,270187,1,0,3:0:0:0:
248,325,270250,1,12,3:1:0:0:
260,310,270312,1,0,3:0:0:0:
269,224,270375,53,0,3:0:0:0:
304,212,270437,1,0,3:0:0:0:
340,220,270500,1,4,3:1:0:0:
369,245,270562,1,0,3:0:0:0:
387,328,270625,5,0,3:0:0:0:
420,310,270687,1,0,3:0:0:0:
442,279,270750,1,12,3:1:0:0:
451,243,270812,1,0,3:0:0:0:
443,207,270875,1,0,3:0:0:0:
421,178,270937,1,0,3:0:0:0:
354,124,271000,38,0,P|349:100|354:76,3,50,4|0|0|0,3:1|3:0|3:0|3:0,0:0:0:0:
282,170,271250,2,0,P|265:151|256:125,3,50,12|0|0|0,3:1|3:0|3:0|3:0,0:0:0:0:
234,45,271500,2,0,L|184:40,3,50,4|0|0|0,3:1|3:0|3:0|3:0,0:0:0:0:
144,116,271750,2,0,L|94:120,3,50,12|0|0|0,3:1|3:0|3:0|3:0,0:0:0:0:
0,41,272000,5,4,3:1:0:0:
1,59,272062,1,0,3:0:0:0:
2,77,272125,1,0,3:0:0:0:
3,96,272187,1,0,3:0:0:0:
5,114,272250,1,4,3:1:0:0:
6,133,272312,1,0,3:0:0:0:
19,217,272375,37,0,3:0:0:0:
46,240,272437,1,0,3:0:0:0:
82,247,272500,1,12,3:1:0:0:
119,234,272562,1,0,3:0:0:0:
171,166,272625,5,0,3:0:0:0:
208,165,272687,1,0,3:0:0:0:
243,180,272750,1,4,3:1:0:0:
268,207,272812,1,0,3:0:0:0:
279,242,272875,1,0,3:0:0:0:
275,278,272937,1,0,3:0:0:0:
245,358,273000,38,0,L|195:362,7,50,4|0|0|0|4|0|0|0,3:1|3:0|3:0|3:0|3:1|3:0|3:0|3:0,0:0:0:0:
329,354,273500,2,0,P|353:362|370:379,3,50,12|0|0|0,3:1|3:0|3:0|3:0,0:0:0:0:
433,320,273750,2,0,P|449:339|455:363,3,50,4|0|0|0,3:1|3:0|3:0|3:0,0:0:0:0:
359,276,274000,5,12,3:1:0:0:
348,260,274062,1,0,3:0:0:0:
340,243,274125,1,0,3:0:0:0:
336,225,274187,1,0,3:0:0:0:
335,207,274250,1,4,3:1:0:0:
338,189,274312,1,0,3:0:0:0:
317,157,274375,2,0,L|375:162,3,50,0|0|12|0,3:0|3:0|3:1|3:0,0:0:0:0:
404,84,274625,2,0,L|345:89,5,50,0|0|4|0|0|0,3:0|3:0|3:1|3:0|3:0|3:0,0:0:0:0:
271,67,275000,101,12,3:1:0:0:
251,66,275063,1,0,3:0:0:0:
232,61,275125,1,0,3:0:0:0:
214,52,275188,1,0,3:0:0:0:
196,44,275250,1,4,3:1:0:0:
177,39,275313,1,0,3:0:0:0:
144,57,275375,2,0,P|154:35|155:10,3,50,0|0|12|0,3:0|3:0|3:1|3:0,0:0:0:0:
88,122,275625,2,0,P|71:105|61:82,5,50,0|0|4|0|0|0,3:0|3:0|3:1|3:0|3:0|3:0,0:0:0:0:
173,139,276000,5,12,3:1:0:0:
172,157,276062,1,0,3:0:0:0:
170,176,276125,1,0,3:0:0:0:
169,194,276187,1,0,3:0:0:0:
168,213,276250,1,4,3:1:0:0:
166,231,276312,1,0,3:0:0:0:
196,256,276375,2,0,P|169:252|129:268,3,50,0|0|12|0,3:0|3:0|3:1|3:0,0:0:0:0:
86,316,276625,2,0,P|80:292|63:274,5,50,0|0|4|0|0|0,3:0|3:0|3:1|3:0|3:0|3:0,0:0:0:0:
162,354,277000,101,8,0:2:0:0:
180,348,277062,1,8,0:2:0:0:
198,344,277125,1,8,0:2:0:0:
216,341,277187,1,8,0:2:0:0:
235,340,277250,1,8,0:2:0:0:
253,341,277312,1,8,0:2:0:0:
271,344,277375,1,8,0:2:0:0:
289,348,277437,1,8,0:2:0:0:
307,354,277500,53,2,3:1:0:0:
360,293,277562,1,0,3:1:0:0:
381,215,277625,1,2,3:1:0:0:
356,139,277687,1,0,3:1:0:0:
292,89,277750,1,2,3:1:0:0:
213,76,277812,1,0,3:1:0:0:
139,109,277875,1,2,3:1:0:0:
94,176,277937,1,0,3:1:0:0:
90,256,278000,53,8,0:2:0:0:
91,265,278062,1,8,0:2:0:0:
92,274,278125,2,0,L|99:336,1,50,0|0,3:0|0:0,0:0:0:0:
216,255,278250,5,8,0:2:0:0:
245,249,278312,1,8,0:2:0:0:
274,254,278375,2,0,P|296:264|311:283,1,50,0|0,3:0|0:0,0:0:0:0:
340,153,278500,101,8,0:2:0:0:
344,103,278562,1,8,0:2:0:0:
348,53,278625,2,0,L|355:-23,1,50,0|0,3:0|0:0,0:0:0:0:
244,86,278750,5,8,0:2:0:0:
202,113,278812,1,8,0:2:0:0:
153,121,278875,1,8,0:2:0:0:
106,107,278937,1,8,0:2:0:0:
69,73,279000,101,4,3:3:0:0:
67,87,279062,1,8,0:2:0:0:
67,102,279125,2,0,L|62:151,1,50,8|0,0:2|0:0,0:0:0:0:
60,346,279250,5,8,0:2:0:0:
103,323,279312,1,8,0:2:0:0:
153,323,279375,1,8,0:2:0:0:
166,328,279437,1,8,0:2:0:0:
178,336,279500,101,8,0:2:0:0:
211,299,279562,1,8,0:2:0:0:
220,251,279625,1,8,0:2:0:0:
203,205,279687,1,8,0:2:0:0:
164,175,279750,1,8,0:2:0:0:
121,141,279812,1,8,0:2:0:0:
104,82,279875,1,8,0:2:0:0:
129,22,279937,1,8,0:2:0:0:
197,4,280000,22,0,B|221:22|221:22|298:12,1,100,4|8,3:3|0:2,0:0:0:0:
164,175,280250,2,0,B|175:147|175:147|247:117,1,100,4|8,3:1|0:2,0:0:0:0:
48,44,280500,1,4,3:1:0:0:
92,216,280625,2,0,P|127:250|177:256,1,100,8|4,0:2|3:1,0:0:0:0:
13,144,280875,1,8,0:2:0:0:
0,337,281000,6,0,P|47:323|96:334,1,100,4|8,3:1|0:2,0:0:0:0:
232,384,281250,1,4,3:1:0:0:
164,238,281375,1,8,0:2:0:0:
330,323,281500,2,0,B|369:326|369:326|384:317|384:317|427:319,2,100,4|8|4,3:1|0:2|3:1,0:0:0:0:
301,121,281875,1,8,0:2:0:0:
231,294,282000,102,0,P|189:320|139:321,1,100,4|8,3:1|0:2,0:0:0:0:
222,140,282250,2,0,P|246:182|292:201,1,100,4|8,3:1|0:2,0:0:0:0:
412,60,282500,1,4,3:1:0:0:
423,209,282625,2,0,L|431:317,1,100,8|4,0:2|3:1,0:0:0:0:
316,105,282875,1,8,0:2:0:0:
295,293,283000,5,4,3:1:0:0:
162,151,283125,2,0,B|145:134|145:134|46:149,1,100,12|0,0:3|0:0,0:0:0:0:
17,197,283312,1,0,3:0:0:0:
20,187,283375,2,0,L|31:135,1,50,12|0,0:3|0:0,0:0:0:0:
53,33,283500,101,0,3:0:0:0:
74,45,283562,1,8,0:2:0:0:
98,51,283625,1,8,0:2:0:0:
123,49,283687,1,8,0:2:0:0:
146,40,283750,5,8,0:2:0:0:
192,21,283812,1,8,0:2:0:0:
247,25,283875,1,8,0:2:0:0:
298,54,283937,1,8,0:2:0:0:
322,114,284000,102,0,B|344:9,1,100,4|8,3:3|0:2,0:0:0:0:
215,236,284250,2,0,L|215:137,1,100,4|8,3:1|0:2,0:0:0:0:
354,260,284500,1,4,3:1:0:0:
171,324,284625,2,0,B|148:312|148:312|114:221,1,100,8|4,0:2|3:1,0:0:0:0:
305,356,284875,1,8,0:2:0:0:
361,182,285000,6,0,P|408:164|457:171,1,100,4|8,3:1|0:2,0:0:0:0:
253,71,285250,1,4,3:1:0:0:
307,261,285375,1,8,0:2:0:0:
114,167,285500,2,0,B|71:165|71:165|61:156|61:156|12:153,2,100,4|8|4,3:1|0:2|3:1,0:0:0:0:
134,314,285875,1,8,0:2:0:0:
221,94,286000,102,0,B|198:103|198:103|119:49,1,100,4|8,3:1|0:2,0:0:0:0:
274,219,286250,2,0,B|258:238|258:238|163:231,1,100,4|8,3:1|0:2,0:0:0:0:
352,91,286500,1,4,3:1:0:0:
382,300,286625,1,8,0:2:0:0:
450,110,286750,2,0,L|485:0,1,100,4|8,3:1|0:2,0:0:0:0:
462,300,287000,6,0,B|451:255|368:245|337:302|337:302|398:298,1,200,4|0,3:1|0:0,0:0:0:0:
331,214,287312,1,0,3:0:0:0:
322,209,287375,2,0,P|298:202|273:205,1,50,12|0,0:3|0:0,0:0:0:0:
181,291,287500,101,0,3:0:0:0:
151,268,287562,1,8,0:2:0:0:
114,261,287625,1,8,0:2:0:0:
78,271,287687,1,8,0:2:0:0:
51,295,287750,5,8,0:2:0:0:
71,249,287812,1,8,0:2:0:0:
74,200,287875,1,8,0:2:0:0:
59,152,287937,1,8,0:2:0:0:
28,113,288000,102,0,L|128:104,1,100,4|8,3:3|0:2,0:0:0:0:
303,8,288250,2,0,L|203:0,1,100,4|8,3:1|0:2,0:0:0:0:
227,207,288500,1,4,3:1:0:0:
341,108,288625,2,0,P|346:58|324:14,1,100,8|4,0:2|3:1,0:0:0:0:
411,227,288875,1,8,0:2:0:0:
266,74,289000,6,0,B|240:86|240:86|158:75,1,100,4|8,3:1|0:2,0:0:0:0:
44,196,289250,2,0,B|70:208|70:208|152:197,1,100,4|8,3:1|0:2,0:0:0:0:
276,314,289500,2,0,B|235:311|235:311|225:299|225:299|181:295,2,100,4|8|4,3:1|0:2|3:1,0:0:0:0:
226,150,289875,1,8,0:2:0:0:
98,367,290000,102,0,L|-5:385,1,100,4|8,3:1|0:2,0:0:0:0:
153,182,290250,2,0,L|72:249,1,100,4|8,3:1|0:2,0:0:0:0:
277,293,290500,1,4,3:1:0:0:
201,111,290625,2,0,P|143:98|96:120,1,100,8|4,0:2|3:1,0:0:0:0:
184,316,290875,1,8,0:2:0:0:
296,141,291000,6,0,B|320:12|320:12|339:106,1,200,4|0,3:1|0:0,0:0:0:0:
355,187,291312,1,0,3:0:0:0:
358,197,291375,2,0,L|368:245,1,50,12|0,0:3|0:0,0:0:0:0:
441,339,291500,101,0,3:0:0:0:
418,327,291562,1,8,0:2:0:0:
394,324,291625,1,8,0:2:0:0:
370,331,291687,1,8,0:2:0:0:
350,345,291750,5,8,0:2:0:0:
310,375,291812,1,8,0:2:0:0:
263,388,291875,1,8,0:2:0:0:
213,382,291937,1,8,0:2:0:0:
170,357,292000,102,0,L|157:222,1,100,4|8,3:3|0:2,0:0:0:0:
276,121,292250,2,0,L|266:220,1,100,4|8,3:1|0:2,0:0:0:0:
191,63,292500,1,4,3:1:0:0:
341,246,292625,2,0,P|304:291|251:298,1,100,8|4,0:2|3:1,0:0:0:0:
320,49,292875,1,8,0:2:0:0:
418,199,293000,6,0,L|427:298,1,100,4|8,3:1|0:2,0:0:0:0:
293,137,293250,1,4,3:1:0:0:
512,192,293375,1,8,0:2:0:0:
286,291,293500,37,4,3:1:0:0:
265,299,293625,1,8,0:2:0:0:
383,112,293750,69,4,3:1:0:0:
363,347,293875,1,8,0:2:0:0:
232,184,294000,102,0,B|225:143|225:143|213:135|213:135|205:88,1,100,4|8,3:1|0:2,0:0:0:0:
89,255,294250,2,0,P|45:277|0:263,1,100,4|8,3:1|0:2,0:0:0:0:
122,131,294500,1,4,3:1:0:0:
177,315,294625,2,0,L|104:384,1,100,8|4,0:2|3:1,0:0:0:0:
196,200,294875,2,0,P|225:193|257:200,1,50,8|0,0:2|0:0,0:0:0:0:
379,238,295000,5,8,0:2:0:0:
372,287,295062,1,8,0:2:0:0:
365,337,295125,1,8,0:2:0:0:
362,318,295187,1,8,0:2:0:0:
360,299,295250,1,8,0:2:0:0:
358,281,295312,1,8,0:2:0:0:
356,262,295375,2,0,L|349:206,1,50,0|0,3:0|3:0,0:0:0:0:
338,74,295500,101,8,0:2:0:0:
318,62,295562,1,8,0:2:0:0:
297,56,295625,1,8,0:2:0:0:
276,58,295687,1,8,0:2:0:0:
256,65,295750,5,0,3:0:0:0:
259,70,295812,1,0,3:0:0:0:
263,75,295875,1,8,0:2:0:0:
214,86,295937,1,8,0:2:0:0:
165,70,296000,6,0,P|53:139|189:117,1,350,4|0,3:3|0:0,0:0:0:0:
120,122,296500,6,0,B|73:170|114:243|124:221|168:293|121:347,1,239.999992675781,4|0,3:3|0:0,0:0:0:0:
256,192,296812,12,0,301000,0:0:0:0:
