osu file format v14

[General]
AudioFilename: audio.mp3
AudioLeadIn: 0
PreviewTime: 121875
Countdown: 0
SampleSet: Soft
StackLeniency: 0.3
Mode: 0
LetterboxInBreaks: 0
WidescreenStoryboard: 1

[Editor]
Bookmarks: 19250,25000,41000,47375,57000,73000,89000,106000,122000,122750,142000,174000,190000,206000,222000,242000,258000,280000
DistanceSpacing: 0.4
BeatDivisor: 4
GridSize: 4
TimelineZoom: 2.3

[Metadata]
Title:Jashin no Konrei, Giha Ai to Shiru
TitleUnicode:邪神の婚礼、儀は愛と知る。
Artist:Imperial Circus Dead Decadence
ArtistUnicode:Imperial Circus Dead Decadence
Creator:Keroshka
Version:Aratanaru Yoake, Gekiretsuna Kioku
Source:osu!
Tags:icdd cthulhu wedding riby uhki melodic death metal 2011 Kurooshiku Saita Seisan na Mukuro wa Kanaderu, Itooshiku Saita Shoujo wa Seisen no Kotoba wo Utau japan streams banger
BeatmapID:3287664
BeatmapSetID:970840

[Difficulty]
HPDrainRate:5.5
CircleSize:4
OverallDifficulty:9.5
ApproachRate:10
SliderMultiplier:1.7
SliderTickRate:1

[Events]
//Background and Video events
0,0,"stretched-1920-1080-915071.png",0,0
//Break Periods
//Storyboard Layer 0 (Background)
//Storyboard Layer 1 (Fail)
//Storyboard Layer 2 (Pass)
//Storyboard Layer 3 (Foreground)
//Storyboard Layer 4 (Overlay)
//Storyboard Sound Samples

[TimingPoints]
334,333.333333333333,4,2,0,100,1,0
334,-250,4,2,0,20,0,0
8000,250,4,2,0,70,1,0
8000,-80,4,2,0,70,0,0
9000,-74.0740740740741,4,2,0,70,0,0
17000,-68.9655172413793,4,2,0,70,0,0
25000,-66.6666666666667,4,2,0,70,0,0
33000,-74.0740740740741,4,2,0,70,0,0
41000,-68.9655172413793,4,2,0,70,0,0
49000,-66.6666666666667,4,2,0,70,0,0
57000,-64.5161290322581,4,2,0,70,0,1
60000,-64.5161290322581,4,2,0,70,0,0
61000,-64.5161290322581,4,2,0,70,0,1
65000,-64.5161290322581,4,2,0,70,0,0
122000,-80,4,2,0,70,0,0

[Colours]
Combo1 : 255,128,128
Combo2 : 128,128,128
Combo3 : 192,192,192
Combo4 : 255,0,0

[HitObjects]
370,304,334,6,0,P|407:309|439:287,1,68
395,160,1000,2,0,L|389:230,1,68
432,89,1667,2,0,P|402:74|370:80,1,68
181,146,2333,6,0,P|247:160|298:109,2,136
227,85,4000,1,0,0:0:0:0:
256,192,6583,12,0,7833,0:0:0:0:
187,53,8000,5,0,0:0:0:0:
348,134,8125,1,0,0:0:0:0:
344,160,8187,1,0,0:0:0:0:
339,186,8250,2,0,L|328:255,1,53.125
309,347,8375,5,0,0:0:0:0:
31,306,8500,1,0,0:0:0:0:
59,263,8562,1,0,0:0:0:0:
109,268,8625,1,0,0:0:0:0:
130,314,8687,1,0,0:0:0:0:
100,354,8750,6,0,P|81:302|127:262,1,106.25
348,134,9000,5,0,0:0:0:0:
145,80,9125,1,0,0:0:0:0:
208,230,9250,2,0,B|256:246|256:246|323:223,1,114.750000437737
472,143,9500,1,0,0:0:0:0:
310,331,9625,2,0,P|296:268|334:208,1,114.750000437737
424,70,9875,1,0,0:0:0:0:
395,284,10000,5,0,0:0:0:0:
208,230,10125,1,0,0:0:0:0:
437,214,10250,5,0,0:0:0:0:
204,318,10375,1,0,0:0:0:0:
408,384,10500,2,0,P|423:333|382:274,1,114.750000437737
208,142,10750,1,0,0:0:0:0:
497,148,10875,6,0,P|448:119|394:134,1,114.750000437737
287,281,11125,1,0,0:0:0:0:
205,31,11250,2,0,B|191:68|191:68|208:144,1,114.750000437737
381,244,11500,1,0,0:0:0:0:
190,307,11625,2,0,B|164:314|164:314|74:298,1,114.750000437737
359,336,11875,1,0,0:0:0:0:
223,186,12000,5,0,0:0:0:0:
203,384,12125,1,0,0:0:0:0:
147,212,12250,5,0,0:0:0:0:
279,358,12375,1,0,0:0:0:0:
299,160,12500,5,0,0:0:0:0:
71,238,12625,1,0,0:0:0:0:
355,332,12750,5,0,0:0:0:0:
270,64,12875,1,0,0:0:0:0:
132,293,13000,5,0,0:0:0:0:
387,210,13125,1,0,0:0:0:0:
147,212,13250,2,0,B|183:218|183:218|272:191,1,114.750000437737
456,134,13500,1,0,0:0:0:0:
294,381,13625,2,0,P|276:325|310:268,1,114.750000437737
483,234,13875,1,0,0:0:0:0:
303,119,14000,5,0,0:0:0:0:
355,332,14125,1,0,0:0:0:0:
226,168,14250,5,0,0:0:0:0:
421,287,14375,1,0,0:0:0:0:
365,55,14500,2,0,P|315:29|257:42,1,114.750000437737
69,182,14750,5,0,0:0:0:0:
213,277,14875,2,0,B|203:247|203:247|231:145,1,114.750000437737
259,40,15125,1,0,0:0:0:0:
495,221,15250,2,0,P|449:188|365:207,1,114.750000437737
213,277,15500,1,0,0:0:0:0:
438,384,15625,2,0,B|447:354|447:354|419:252,1,114.750000437737
373,69,15875,1,0,0:0:0:0:
174,208,16000,5,0,0:0:0:0:
130,271,16062,1,0,0:0:0:0:
160,342,16125,1,0,0:0:0:0:
236,356,16187,1,0,0:0:0:0:
289,301,16250,5,0,0:0:0:0:
279,274,16312,1,0,0:0:0:0:
256,259,16375,1,0,0:0:0:0:
228,261,16437,1,0,0:0:0:0:
213,277,16500,6,0,L|235:355,3,57.3750002188683
116,188,16750,2,0,L|100:132,3,57.3750002188683
140,53,17000,5,0,0:0:0:0:
213,277,17125,1,0,0:0:0:0:
406,228,17250,2,0,B|384:202|384:202|274:177,1,123.250003761292
220,384,17500,2,0,P|240:335|192:262,1,123.250003761292
0,208,17750,2,0,B|32:218|32:218|138:181,1,123.250003761292
310,251,18000,5,0,0:0:0:0:
116,188,18125,1,0,0:0:0:0:
289,151,18250,5,0,0:0:0:0:
139,284,18375,1,0,0:0:0:0:
323,370,18500,6,0,B|332:331|332:331|308:247,1,123.250003761292
4,204,18750,2,0,P|66:216|120:182,1,123.250003761292
240,43,19000,5,0,0:0:0:0:
301,246,19125,1,0,0:0:0:0:
115,187,19250,2,0,B|103:140|103:140|128:57,1,123.250003761292
419,255,19500,2,0,B|372:267|372:267|289:242,1,123.250003761292
124,68,19750,2,0,B|171:56|171:56|242:77,1,123.250003761292
300,245,20000,5,0,0:0:0:0:
115,187,20125,1,0,0:0:0:0:
427,135,20250,5,0,0:0:0:0:
242,77,20375,1,0,0:0:0:0:
300,245,20500,5,0,0:0:0:0:
358,60,20625,1,0,0:0:0:0:
173,2,20750,1,0,0:0:0:0:
115,187,20875,1,0,0:0:0:0:
359,303,21000,6,0,P|386:249|359:185,1,123.250003761292
31,211,21250,2,0,P|64:261|133:270,1,123.250003761292
358,60,21500,2,0,P|297:63|255:119,1,123.250003761292
261,384,21750,2,0,B|273:341|273:341|246:266,1,123.250003761292
172,91,22000,5,0,0:0:0:0:
246,267,22125,1,0,0:0:0:0:
263,58,22250,5,0,0:0:0:0:
159,294,22375,1,0,0:0:0:0:
81,124,22500,6,0,P|82:55|136:5,1,123.250003761292
354,25,22750,5,0,0:0:0:0:
172,91,22875,1,0,0:0:0:0:
370,171,23000,6,0,B|392:214|392:214|373:318,1,123.250003761292
167,384,23250,2,0,B|153:310|153:310|175:267,1,123.250003761292
428,119,23500,5,0,0:0:0:0:
360,95,23562,1,0,0:0:0:0:
302,136,23625,1,0,0:0:0:0:
302,207,23687,1,0,0:0:0:0:
360,249,23750,5,0,0:0:0:0:
373,208,23812,1,0,0:0:0:0:
362,168,23875,1,0,0:0:0:0:
329,141,23937,1,0,0:0:0:0:
286,139,24000,5,0,0:0:0:0:
418,44,24125,1,0,0:0:0:0:
255,0,24250,1,0,0:0:0:0:
360,249,24375,1,0,0:0:0:0:
367,265,24437,1,0,0:0:0:0:
374,282,24500,5,0,0:0:0:0:
381,245,24562,1,0,0:0:0:0:
388,209,24625,1,0,0:0:0:0:
396,173,24687,1,0,0:0:0:0:
403,137,24750,5,0,0:0:0:0:
354,368,24875,1,0,0:0:0:0:
8,271,25000,6,0,B|47:255|47:255|145:273,1,127.500004863739
284,308,25250,1,0,0:0:0:0:
204,56,25375,2,0,P|169:107|187:186,1,127.500004863739
512,257,25625,2,0,P|461:222|382:240,1,127.500004863739
208,347,25875,1,0,0:0:0:0:
441,307,26000,5,0,0:0:0:0:
255,128,26125,1,0,0:0:0:0:
351,384,26250,5,0,0:0:0:0:
439,144,26375,1,0,0:0:0:0:
201,220,26500,5,0,0:0:0:0:
441,307,26625,1,0,0:0:0:0:
111,297,26750,5,0,0:0:0:0:
351,384,26875,1,0,0:0:0:0:
271,162,27000,6,0,P|215:130|142:151,1,127.500004863739
289,378,27250,2,0,P|350:388|404:357,1,127.500004863739
409,136,27500,5,0,0:0:0:0:
201,220,27625,1,0,0:0:0:0:
479,246,27750,5,0,0:0:0:0:
271,162,27875,1,0,0:0:0:0:
512,24,28000,6,0,L|493:163,1,127.500004863739
288,288,28250,2,0,L|270:161,1,127.500004863739
256,48,28500,5,0,0:0:0:0:
482,241,28625,1,0,0:0:0:0:
288,288,28750,5,0,0:0:0:0:
494,150,28875,1,0,0:0:0:0:
150,179,29000,6,0,B|191:191|191:191|274:159,1,127.500004863739
429,72,29250,1,0,0:0:0:0:
388,384,29375,6,0,B|400:343|400:343|368:260,1,127.500004863739
288,40,29625,2,0,B|300:81|300:81|268:164,1,127.500004863739
78,256,29875,1,0,0:0:0:0:
461,337,30000,6,0,P|421:300|335:310,1,127.500004863739
49,372,30250,2,0,P|111:375|158:335,1,127.500004863739
210,117,30500,5,0,0:0:0:0:
432,219,30625,1,0,0:0:0:0:
218,244,30750,5,0,0:0:0:0:
440,142,30875,1,0,0:0:0:0:
214,2,31000,6,0,P|188:59|225:130,1,127.500004863739
471,273,31250,2,0,P|434:221|354:218,1,127.500004863739
91,261,31500,2,0,L|237:241,1,127.500004863739
488,66,31750,2,0,L|342:46,1,127.500004863739
217,243,32000,5,0,0:0:0:0:
268,191,32062,1,0,0:0:0:0:
250,120,32125,1,0,0:0:0:0:
180,98,32187,1,0,0:0:0:0:
126,147,32250,1,0,0:0:0:0:
375,190,32375,5,0,0:0:0:0:
330,185,32437,1,0,0:0:0:0:
286,181,32500,1,0,0:0:0:0:
241,177,32562,1,0,0:0:0:0:
197,173,32625,1,0,0:0:0:0:
334,330,32750,5,0,0:0:0:0:
379,325,32812,1,0,0:0:0:0:
423,321,32875,1,0,0:0:0:0:
468,317,32937,1,0,0:0:0:0:
512,313,33000,5,0,0:0:0:0:
331,255,33125,1,0,0:0:0:0:
505,182,33250,2,0,B|517:139|517:139|496:54,1,114.750000437737
311,18,33500,1,0,0:0:0:0:
270,248,33625,2,0,P|324:256|381:213,1,114.750000437737
500,70,33875,1,0,0:0:0:0:
300,157,34000,5,0,0:0:0:0:
505,182,34125,1,0,0:0:0:0:
270,248,34250,5,0,0:0:0:0:
330,60,34375,1,0,0:0:0:0:
96,182,34500,2,0,B|143:197|143:197|237:172,1,114.750000437737
412,128,34750,1,0,0:0:0:0:
258,352,34875,6,0,P|244:299|279:239,1,114.750000437737
412,128,35125,1,0,0:0:0:0:
453,305,35250,2,0,B|412:323|412:323|325:304,1,114.750000437737
156,260,35500,1,0,0:0:0:0:
300,58,35625,2,0,B|318:99|318:99|299:186,1,114.750000437737
182,332,35875,1,0,0:0:0:0:
124,182,36000,5,0,0:0:0:0:
289,258,36125,1,0,0:0:0:0:
71,247,36250,5,0,0:0:0:0:
303,167,36375,1,0,0:0:0:0:
53,131,36500,5,0,0:0:0:0:
89,363,36625,1,0,0:0:0:0:
316,88,36750,5,0,0:0:0:0:
278,332,36875,1,0,0:0:0:0:
71,247,37000,5,0,0:0:0:0:
303,167,37125,1,0,0:0:0:0:
76,26,37250,2,0,P|46:78|65:151,1,114.750000437737
289,258,37500,1,0,0:0:0:0:
71,247,37625,2,0,B|108:258|108:258|194:224,1,114.750000437737
384,143,37875,1,0,0:0:0:0:
328,341,38000,5,0,0:0:0:0:
250,175,38125,1,0,0:0:0:0:
253,384,38250,5,0,0:0:0:0:
331,218,38375,1,0,0:0:0:0:
89,322,38500,2,0,B|125:335|125:335|207:316,1,114.750000437737
409,263,38750,1,0,0:0:0:0:
185,132,38875,1,0,0:0:0:0:
453,58,39000,1,0,0:0:0:0:
409,263,39125,5,0,0:0:0:0:
404,285,39187,1,0,0:0:0:0:
399,307,39250,1,0,0:0:0:0:
195,176,39375,5,0,0:0:0:0:
190,154,39438,1,0,0:0:0:0:
185,132,39500,1,0,0:0:0:0:
366,137,39625,5,0,0:0:0:0:
361,159,39687,1,0,0:0:0:0:
356,181,39750,1,0,0:0:0:0:
257,284,39875,5,0,0:0:0:0:
252,262,39938,1,0,0:0:0:0:
247,240,40000,5,0,0:0:0:0:
247,240,40250,1,0,0:0:0:0:
247,240,40500,1,0,0:0:0:0:
247,240,40750,5,0,0:0:0:0:
103,146,40875,1,0,0:0:0:0:
306,32,41000,6,0,B|318:75|318:75|291:172,1,123.250003761292
41,275,41250,2,0,P|88:236|154:239,1,123.250003761292
310,324,41500,1,0,0:0:0:0:
156,355,41625,2,0,B|168:312|168:312|141:215,1,123.250003761292
101,55,41875,1,0,0:0:0:0:
371,202,42000,6,0,L|216:185,1,123.250003761292
0,98,42250,2,0,P|41:54|113:62,1,123.250003761292
251,307,42500,2,0,B|235:270|235:270|249:179,1,123.250003761292
469,15,42750,2,0,B|485:52|485:52|471:143,1,123.250003761292
247,188,43000,5,0,0:0:0:0:
442,306,43125,1,0,0:0:0:0:
193,366,43250,2,0,P|172:301|207:242,1,123.250003761292
382,191,43500,1,0,0:0:0:0:
36,163,43625,2,0,B|88:148|88:148|168:183,1,123.250003761292
272,309,43875,1,0,0:0:0:0:
361,107,44000,5,0,0:0:0:0:
151,175,44125,1,0,0:0:0:0:
382,191,44250,5,0,0:0:0:0:
189,88,44375,1,0,0:0:0:0:
340,23,44500,5,0,0:0:0:0:
403,275,44625,1,0,0:0:0:0:
113,262,44750,5,0,0:0:0:0:
227,1,44875,1,0,0:0:0:0:
462,337,45000,6,0,P|403:363|334:325,1,123.250003761292
53,196,45250,2,0,P|112:170|181:208,1,123.250003761292
277,384,45500,2,0,B|267:335|267:335|293:255,1,123.250003761292
40,77,45750,2,0,B|30:126|30:126|56:206,1,123.250003761292
317,178,46000,5,0,0:0:0:0:
83,282,46125,1,0,0:0:0:0:
289,265,46250,5,0,0:0:0:0:
52,195,46375,1,0,0:0:0:0:
345,91,46500,6,0,B|371:81|371:81|472:105,1,123.250003761292
186,348,46750,2,0,B|176:322|176:322|200:221,1,123.250003761292
497,258,47000,2,0,B|471:268|471:268|370:244,1,123.250003761292
38,110,47250,2,0,B|130:87|130:87|156:97,1,123.250003761292
280,384,47500,6,0,P|258:319|287:267,1,123.250003761292
512,146,47750,2,0,B|466:161|466:161|368:134,1,123.250003761292
0,29,48000,5,0,0:0:0:0:
224,60,48125,1,0,0:0:0:0:
48,123,48250,5,0,0:0:0:0:
272,154,48375,1,0,0:0:0:0:
99,332,48500,5,0,0:0:0:0:
130,108,48625,1,0,0:0:0:0:
193,284,48750,5,0,0:0:0:0:
224,60,48875,1,0,0:0:0:0:
482,202,49000,6,0,B|436:212|436:212|337:181,1,127.500004863739
396,31,49250,1,0,0:0:0:0:
345,310,49375,2,0,B|335:264|335:264|366:165,1,127.500004863739
213,14,49625,2,0,B|223:60|223:60|192:159,1,127.500004863739
134,315,49875,1,0,0:0:0:0:
0,192,50000,5,0,0:0:0:0:
198,136,50125,1,0,0:0:0:0:
18,84,50250,5,0,0:0:0:0:
216,140,50375,1,0,0:0:0:0:
70,266,50500,5,0,0:0:0:0:
268,210,50625,1,0,0:0:0:0:
88,158,50750,5,0,0:0:0:0:
286,214,50875,1,0,0:0:0:0:
55,374,51000,6,0,P|36:311|81:260,1,127.500004863739
387,172,51250,2,0,P|341:219|275:206,1,127.500004863739
39,14,51500,2,0,P|103:29|124:93,1,127.500004863739
119,327,51750,1,0,0:0:0:0:
285,213,51875,1,0,0:0:0:0:
47,88,52000,5,0,0:0:0:0:
83,207,52125,1,0,0:0:0:0:
51,105,52250,5,0,0:0:0:0:
87,224,52375,1,0,0:0:0:0:
400,168,52500,5,0,0:0:0:0:
231,117,52625,1,0,0:0:0:0:
376,162,52750,5,0,0:0:0:0:
207,111,52875,1,0,0:0:0:0:
269,384,53000,6,0,B|286:343|286:343|261:248,1,127.500004863739
205,23,53250,1,0,0:0:0:0:
488,193,53375,2,0,P|432:155|355:176,1,127.500004863739
152,293,53625,2,0,P|214:298|264:262,1,127.500004863739
315,54,53875,1,0,0:0:0:0:
411,359,54000,6,0,B|396:311|396:311|419:223,1,127.500004863739
302,5,54250,2,0,B|317:53|317:53|294:141,1,127.500004863739
152,293,54500,2,0,P|80:307|36:277,1,127.500004863739
297,127,54750,2,0,P|369:113|413:143,1,127.500004863739
105,225,55000,5,0,0:0:0:0:
347,189,55125,1,0,0:0:0:0:
115,125,55250,5,0,0:0:0:0:
336,288,55375,1,0,0:0:0:0:
203,55,55500,5,0,0:0:0:0:
248,358,55625,1,0,0:0:0:0:
329,66,55750,5,0,0:0:0:0:
122,347,55875,1,0,0:0:0:0:
12,167,56000,5,0,0:0:0:0:
9,141,56062,1,0,0:0:0:0:
6,115,56125,1,0,0:0:0:0:
4,89,56187,1,0,0:0:0:0:
2,63,56250,1,0,0:0:0:0:
223,2,56375,5,0,0:0:0:0:
221,26,56438,1,0,0:0:0:0:
219,52,56500,1,0,0:0:0:0:
216,78,56563,1,0,0:0:0:0:
213,104,56625,1,0,0:0:0:0:
181,371,56750,5,0,0:0:0:0:
181,371,56812,1,0,0:0:0:0:
181,371,56875,2,0,B|177:351|177:351|190:300,1,63.7500024318696
303,54,57000,5,0,0:0:0:0:
350,11,57062,1,0,0:0:0:0:
414,16,57125,1,0,0:0:0:0:
455,66,57187,1,0,0:0:0:0:
447,129,57250,1,0,0:0:0:0:
396,168,57312,1,0,0:0:0:0:
332,157,57375,1,0,0:0:0:0:
268,146,57437,1,0,0:0:0:0:
217,184,57499,1,0,0:0:0:0:
209,248,57562,1,0,0:0:0:0:
250,297,57624,1,0,0:0:0:0:
313,303,57687,1,0,0:0:0:0:
361,260,57750,1,0,0:0:0:0:
401,240,57812,1,0,0:0:0:0:
441,259,57875,1,0,0:0:0:0:
454,302,57937,1,0,0:0:0:0:
429,338,58000,5,0,0:0:0:0:
397,314,58062,1,0,0:0:0:0:
366,290,58125,1,0,0:0:0:0:
335,266,58187,1,0,0:0:0:0:
304,242,58250,5,0,0:0:0:0:
346,224,58312,1,0,0:0:0:0:
389,207,58375,1,0,0:0:0:0:
432,189,58437,1,0,0:0:0:0:
474,172,58500,5,0,0:0:0:0:
471,194,58562,1,0,0:0:0:0:
467,217,58625,1,0,0:0:0:0:
464,240,58687,1,0,0:0:0:0:
461,263,58750,5,0,0:0:0:0:
411,241,58812,1,0,0:0:0:0:
361,221,58875,1,0,0:0:0:0:
310,200,58937,1,0,0:0:0:0:
261,180,59000,5,0,0:0:0:0:
228,125,59062,1,0,0:0:0:0:
254,67,59125,1,0,0:0:0:0:
316,54,59187,1,0,0:0:0:0:
362,98,59250,5,0,0:0:0:0:
400,121,59312,1,0,0:0:0:0:
442,106,59375,1,0,0:0:0:0:
455,63,59437,1,0,0:0:0:0:
429,27,59500,5,0,0:0:0:0:
419,59,59562,1,0,0:0:0:0:
410,90,59625,1,0,0:0:0:0:
400,121,59687,1,0,0:0:0:0:
390,153,59750,2,0,L|402:236,3,65.8750005025864
296,382,60000,6,0,P|285:318|337:264,1,131.750001005173
486,173,60250,1,0,0:0:0:0:
324,269,60375,6,0,P|260:280|206:228,1,131.750001005173
167,57,60625,1,0,0:0:0:0:
289,189,60750,1,0,0:0:0:0:
276,32,60875,5,0,0:0:0:0:
276,32,60937,1,0,0:0:0:0:
276,32,61000,5,0,0:0:0:0:
220,0,61062,1,0,0:0:0:0:
155,9,61125,1,0,0:0:0:0:
109,53,61187,1,0,0:0:0:0:
97,117,61250,1,0,0:0:0:0:
126,175,61312,1,0,0:0:0:0:
183,205,61375,1,0,0:0:0:0:
247,196,61437,1,0,0:0:0:0:
293,150,61500,1,0,0:0:0:0:
339,104,61562,1,0,0:0:0:0:
403,95,61624,1,0,0:0:0:0:
460,125,61687,1,0,0:0:0:0:
489,183,61749,1,0,0:0:0:0:
478,246,61812,1,0,0:0:0:0:
431,291,61874,1,0,0:0:0:0:
367,300,61937,1,0,0:0:0:0:
310,268,62000,5,0,0:0:0:0:
271,247,62062,1,0,0:0:0:0:
232,266,62125,1,0,0:0:0:0:
224,310,62187,1,0,0:0:0:0:
256,341,62250,5,0,0:0:0:0:
307,285,62312,1,0,0:0:0:0:
289,211,62375,1,0,0:0:0:0:
217,187,62437,1,0,0:0:0:0:
157,233,62500,5,0,0:0:0:0:
227,260,62562,1,0,0:0:0:0:
287,214,62625,1,0,0:0:0:0:
278,139,62687,1,0,0:0:0:0:
209,109,62750,5,0,0:0:0:0:
176,79,62812,1,0,0:0:0:0:
175,34,62875,1,0,0:0:0:0:
207,2,62937,1,0,0:0:0:0:
251,4,63000,5,0,0:0:0:0:
251,36,63062,1,0,0:0:0:0:
228,59,63125,1,0,0:0:0:0:
196,58,63187,1,0,0:0:0:0:
175,34,63250,5,0,0:0:0:0:
244,40,63312,1,0,0:0:0:0:
282,99,63375,1,0,0:0:0:0:
258,164,63437,1,0,0:0:0:0:
191,185,63500,1,0,0:0:0:0:
124,205,63562,1,0,0:0:0:0:
100,271,63624,1,0,0:0:0:0:
137,330,63687,1,0,0:0:0:0:
207,336,63750,5,0,0:0:0:0:
197,291,63812,1,0,0:0:0:0:
163,262,63875,1,0,0:0:0:0:
117,261,63937,1,0,0:0:0:0:
81,289,64000,5,0,0:0:0:0:
205,109,64125,1,0,0:0:0:0:
299,305,64250,5,0,0:0:0:0:
299,305,64312,1,0,0:0:0:0:
299,305,64375,2,0,B|331:322|331:322|441:295,1,131.750001005173
512,127,64625,5,0,0:0:0:0:
512,127,64687,1,0,0:0:0:0:
512,127,64750,2,0,B|480:110|480:110|370:137,1,131.750001005173
143,250,65000,6,0,B|110:258|110:258|5:225,1,131.750001005173
176,51,65250,2,0,B|209:43|209:43|314:76,1,131.750001005173
484,232,65500,2,0,P|420:242|361:199,1,131.750001005173
395,48,65750,2,0,P|459:38|518:81,1,131.750001005173
399,338,66000,5,0,0:0:0:0:
441,131,66125,1,0,0:0:0:0:
284,359,66250,5,0,0:0:0:0:
326,152,66375,1,0,0:0:0:0:
87,241,66500,6,0,B|123:252|123:252|222:223,1,131.750001005173
381,77,66750,2,0,P|314:58|251:101,1,131.750001005173
228,351,67000,6,0,B|239:315|239:315|210:216,1,131.750001005173
0,26,67250,2,0,B|-11:62|-11:62|18:161,1,131.750001005173
66,312,67500,1,0,0:0:0:0:
328,253,67625,2,0,P|269:214|195:236,1,131.750001005173
143,384,67875,1,0,0:0:0:0:
417,294,68000,6,0,P|425:230|387:177,1,131.750001005173
123,198,68250,2,0,P|174:237|238:230,1,131.750001005173
358,0,68500,2,0,P|298:24|272:83,1,131.750001005173
353,382,68750,2,0,B|365:352|365:352|337:242,1,131.750001005173
194,199,69000,5,0,0:0:0:0:
164,172,69062,1,0,0:0:0:0:
127,161,69125,1,0,0:0:0:0:
88,166,69187,1,0,0:0:0:0:
55,188,69250,1,0,0:0:0:0:
35,221,69312,1,0,0:0:0:0:
31,260,69375,1,0,0:0:0:0:
43,297,69437,1,0,0:0:0:0:
70,325,69500,5,0,0:0:0:0:
73,299,69562,1,0,0:0:0:0:
76,273,69625,1,0,0:0:0:0:
79,247,69687,1,0,0:0:0:0:
82,221,69750,1,0,0:0:0:0:
85,194,69812,1,0,0:0:0:0:
88,168,69875,1,0,0:0:0:0:
91,142,69937,1,0,0:0:0:0:
94,116,70000,5,0,0:0:0:0:
116,92,70062,1,0,0:0:0:0:
147,82,70125,1,0,0:0:0:0:
179,88,70187,1,0,0:0:0:0:
205,109,70250,1,0,0:0:0:0:
217,139,70312,1,0,0:0:0:0:
214,171,70375,1,0,0:0:0:0:
196,199,70437,1,0,0:0:0:0:
167,214,70500,5,0,0:0:0:0:
145,199,70562,1,0,0:0:0:0:
136,175,70625,1,0,0:0:0:0:
142,150,70687,1,0,0:0:0:0:
162,133,70750,1,0,0:0:0:0:
188,131,70812,1,0,0:0:0:0:
210,144,70875,1,0,0:0:0:0:
221,167,70937,1,0,0:0:0:0:
215,193,71000,5,0,0:0:0:0:
189,187,71062,1,0,0:0:0:0:
163,182,71125,1,0,0:0:0:0:
137,176,71187,1,0,0:0:0:0:
111,171,71250,1,0,0:0:0:0:
86,165,71312,1,0,0:0:0:0:
60,160,71375,1,0,0:0:0:0:
34,155,71437,1,0,0:0:0:0:
8,149,71500,5,0,0:0:0:0:
47,139,71562,1,0,0:0:0:0:
86,131,71625,1,0,0:0:0:0:
125,123,71687,1,0,0:0:0:0:
166,115,71750,1,0,0:0:0:0:
204,105,71812,1,0,0:0:0:0:
243,97,71875,1,0,0:0:0:0:
283,90,71937,1,0,0:0:0:0:
324,81,72000,6,0,L|311:160,3,65.8750005025864
414,152,72250,2,0,L|401:231,3,65.8750005025864
355,361,72500,5,0,0:0:0:0:
290,365,72562,1,0,0:0:0:0:
236,328,72625,1,0,0:0:0:0:
215,266,72687,1,0,0:0:0:0:
236,206,72750,1,0,0:0:0:0:
291,170,72812,1,0,0:0:0:0:
355,174,72875,1,0,0:0:0:0:
403,217,72937,1,0,0:0:0:0:
415,281,73000,1,0,0:0:0:0:
317,262,73250,5,0,0:0:0:0:
317,262,73500,1,0,0:0:0:0:
317,262,73750,1,0,0:0:0:0:
314,277,74000,5,0,0:0:0:0:
232,187,74250,5,0,0:0:0:0:
421,110,74500,5,0,0:0:0:0:
98,19,74750,5,0,0:0:0:0:
260,65,74875,1,0,0:0:0:0:
17,149,75000,5,0,0:0:0:0:
