osu file format v14

[General]
AudioFilename: audio.mp3
AudioLeadIn: 0
PreviewTime: 121753
Countdown: 0
SampleSet: Soft
StackLeniency: 0.7
Mode: 2
LetterboxInBreaks: 0
WidescreenStoryboard: 1

[Editor]
DistanceSpacing: 1
BeatDivisor: 6
GridSize: 8
TimelineZoom: 4.299998

[Metadata]
Title:Jashin no Konrei, Gi wa Ai to Shiru.
TitleUnicode:邪神の婚礼、儀は愛と知る。
Artist:Imperial Circus Dead Decadence
ArtistUnicode:Imperial Circus Dead Decadence
Creator:Daletto
Version:Enkiri
Source:osu!
Tags:featured artist fa mappers guild cthulhu wedding rock symphonic melodic death black dojin metal melodeath icdd japanese KIMI BRIDEAR リブユウキ Rib:y(uhki) Hull 狂おしく咲いた凄惨な骸は奏で、愛おしく裂いた少女は聖餐の詞を謳う。[-crissaegrim-] Crissa
BeatmapID:2275872
BeatmapSetID:1088438

[Difficulty]
HPDrainRate:6
CircleSize:4.3
OverallDifficulty:9.7
ApproachRate:9.7
SliderMultiplier:2
SliderTickRate:2

[Events]
//Background and Video events
0,0,"bg.png",0,0
//Break Periods
//Storyboard Layer 0 (Background)
//Storyboard Layer 1 (Fail)
//Storyboard Layer 2 (Pass)
//Storyboard Layer 3 (Foreground)
//Storyboard Layer 4 (Overlay)
//Storyboard Sound Samples

[TimingPoints]
421,666.666666666667,3,2,15,20,1,0
2921,-100,3,2,15,5,0,0
3087,-100,3,2,15,20,0,0
3587,-100,3,2,15,5,0,0
3754,-100,3,2,15,20,0,0
4629,666.666666666667,3,2,15,20,1,0
6629,250,3,2,15,20,1,0
6629,-400,6,2,15,20,0,0
7941,-400,6,2,15,5,0,0
8066,250,4,3,15,60,1,0
8066,-83.3333333333333,4,3,15,60,0,0
9066,-66.6666666666667,4,3,15,70,0,0
25066,-66.6666666666667,4,3,15,60,0,0
25316,-66.6666666666667,4,3,17,60,0,0
29066,-100,4,3,15,60,0,0
29316,-66.6666666666667,4,3,17,60,0,0
32066,-66.6666666666667,4,3,15,60,0,0
33066,-66.6666666666667,4,3,15,70,0,0
40066,-111.111111111111,4,3,16,60,0,0
41066,-66.6666666666667,4,3,15,70,0,0
49066,-66.6666666666667,4,3,15,60,0,0
49316,-66.6666666666667,4,3,17,60,0,0
53066,-100,4,3,15,60,0,0
53316,-66.6666666666667,4,3,17,60,0,0
56066,-66.6666666666667,4,3,15,60,0,0
57066,-58.8235294117647,4,3,17,80,0,1
64066,-58.8235294117647,4,3,15,80,0,1
64816,-58.8235294117647,4,3,15,80,0,0
65003,-58.8235294117647,4,3,15,5,0,0
65066,-66.6666666666667,4,3,15,80,0,1
69066,-66.6666666666667,4,3,15,70,0,0
72566,-90.9090909090909,4,3,15,70,0,0
73066,-111.111111111111,4,3,15,70,0,0
75066,-66.6666666666667,4,3,15,70,0,0
89066,-66.6666666666667,4,3,15,60,0,0
89316,-66.6666666666667,4,3,17,60,0,0
93066,-100,4,3,15,60,0,0
93316,-66.6666666666667,4,3,17,60,0,0
97066,-66.6666666666667,4,3,15,70,0,1
100066,-66.6666666666667,4,3,15,60,0,0
101066,-66.6666666666667,4,3,15,70,0,1
104066,-66.6666666666667,4,3,15,60,0,0
105941,-71.4285714285714,4,3,15,5,0,0
106066,-80,4,3,15,70,0,1
106316,-80,4,3,17,70,0,1
113316,-76.9230769230769,4,3,15,70,0,1
114066,-66.6666666666667,4,3,15,80,0,1
118066,-66.6666666666667,4,3,15,70,0,0
121753,-66.6666666666667,4,3,15,5,0,0
121816,-66.6666666666667,4,3,15,50,0,0
121878,-66.6666666666667,4,3,15,55,0,0
121941,-66.6666666666667,4,3,15,60,0,0
122003,-66.6666666666667,4,3,15,65,0,0
122066,-58.8235294117647,4,3,17,80,0,1
129066,-58.8235294117647,4,3,17,80,0,0
130066,-58.8235294117647,4,3,17,80,0,1
134066,-55.5555555555556,4,3,15,70,0,0
141566,-47.6190476190476,4,3,15,70,0,0
142128,-25,4,3,15,70,0,0
144066,-100,4,3,15,50,0,0
150066,-95.2380952380952,4,3,15,60,0,0
156066,-95.2380952380952,4,3,15,60,0,0
157191,-76.9230769230769,4,3,15,60,0,0
158066,-66.6666666666667,4,3,15,70,0,0
173191,-66.6666666666667,4,3,15,70,0,0
174066,-66.6666666666667,4,3,15,70,0,0
182066,-66.6666666666667,4,3,17,80,0,1
190066,-100,4,3,15,70,0,0
205066,-100,4,3,15,50,0,0
205378,-100,4,3,15,5,0,0
205441,-100,4,3,15,50,0,0
205566,-90.9090909090909,4,3,15,70,0,0
207066,-90.9090909090909,4,3,15,50,0,0
222066,-76.9230769230769,4,3,15,70,0,0
230566,-76.9230769230769,4,3,17,70,0,0
232066,-76.9230769230769,4,3,15,70,0,0
232566,-76.9230769230769,4,3,17,70,0,0
234066,-62.5,4,3,15,70,0,0
234566,-62.5,4,3,17,70,0,0
236066,-66.6666666666667,4,3,15,70,0,0
238003,-66.6666666666667,4,3,15,5,0,0
238066,-76.9230769230769,4,2,15,60,0,0
240066,-76.9230769230769,4,3,15,70,0,0
242003,-76.9230769230769,4,3,15,5,0,0
242066,-66.6666666666667,4,3,17,80,0,1
249066,-58.8235294117647,4,3,15,80,0,1
250066,-66.6666666666667,4,3,15,80,0,1
254066,-66.6666666666667,4,3,15,70,0,0
257191,-58.8235294117647,4,3,15,70,0,0
258066,-58.8235294117647,4,3,17,80,0,1
265066,-58.8235294117647,4,3,15,70,0,0
266066,-58.8235294117647,4,3,15,80,0,1
270066,-58.8235294117647,4,3,15,70,0,0
273066,-66.6666666666667,4,3,15,70,0,0
274066,-58.8235294117647,4,3,17,70,0,0
278066,-66.6666666666667,4,3,18,70,0,0
280066,-66.6666666666667,4,3,15,70,0,0
296066,-100,4,3,15,70,0,0
296503,-66.6666666666667,4,3,15,5,0,0
296566,-66.6666666666667,4,3,15,80,0,0
296691,-66.6666666666667,4,3,15,25,0,0
298066,-66.6666666666667,4,3,15,20,0,0
299066,-66.6666666666667,4,3,15,15,0,0
300066,-66.6666666666667,4,3,15,10,0,0
301066,-66.6666666666667,4,3,15,5,0,0

[Colours]
Combo1 : 234,0,0
Combo2 : 95,95,95
Combo3 : 149,0,0
Combo4 : 191,191,191
Combo5 : 128,64,64
Combo6 : 126,126,192

[HitObjects]
376,184,421,5,2,0:0:0:0:
232,184,754,1,0,0:0:0:0:
384,184,1087,2,0,L|384:80,1,100,0|0,0:0|0:0,0:0:0:0:
248,184,1754,2,0,L|176:112,1,100,0|0,0:0|0:0,0:0:0:0:
432,264,2421,6,0,P|472:224|416:168,1,150,2|0,0:0|0:0,0:0:0:0:
312,256,3087,2,0,P|272:216|328:160,1,150
432,264,3754,2,0,L|432:160,1,100,0|0,0:0|0:0,0:0:0:0:
264,200,4532,1,0,0:0:0:0:
256,192,4629,1,2,0:0:0:0:
328,288,6629,6,0,P|384:288|384:128,1,262.5,0|0,0:0|0:0,0:0:0:0:
168,176,8066,6,0,L|88:96,1,59.9999981689454,8|0,0:0|0:0,0:0:0:0:
248,104,8191,1,0,0:0:0:0:
280,72,8253,1,0,0:0:0:0:
248,104,8316,1,0,0:0:0:0:
192,104,8378,1,0,0:0:0:0:
328,176,8441,6,0,L|408:96,1,59.9999981689454,10|0,0:0|0:0,0:0:0:0:
248,128,8566,1,0,0:0:0:0:
216,96,8628,1,0,0:0:0:0:
248,128,8691,1,0,0:0:0:0:
304,128,8753,1,0,0:0:0:0:
144,208,8816,2,0,P|80:208|80:112,1,179.999994506836,8|0,0:0|0:0,0:0:0:0:
320,192,9066,6,0,L|432:80,1,150.000005722046,6|8,0:0|0:0,0:0:0:0:
216,192,9316,2,0,L|216:40,1,150.000005722046,4|8,0:0|0:0,0:0:0:0:
408,192,9566,1,4,0:0:0:0:
216,192,9691,1,8,0:0:0:0:
344,192,9816,1,4,0:0:0:0:
152,192,9941,1,8,0:0:0:0:
432,152,10066,5,4,0:0:0:0:
328,152,10191,1,8,0:0:0:0:
432,152,10316,1,4,0:0:0:0:
192,168,10441,2,0,L|80:56,1,150.000005722046,8|4,0:0|0:0,0:0:0:0:
120,64,10628,1,0,0:0:0:0:
184,64,10691,1,8,0:0:0:0:
304,64,10816,1,4,0:0:0:0:
184,64,10941,1,8,0:0:0:0:
368,192,11066,5,4,0:0:0:0:
392,168,11128,1,0,0:0:0:0:
368,192,11191,1,8,0:0:0:0:
184,192,11316,2,0,L|72:80,1,150.000005722046,4|8,0:0|0:0,0:0:0:0:
344,240,11566,1,4,0:0:0:0:
152,272,11691,2,0,L|152:112,1,150.000005722046,8|4,0:0|0:0,0:0:0:0:
344,240,11941,1,8,0:0:0:0:
72,264,12066,5,4,0:0:0:0:
184,264,12191,1,8,0:0:0:0:
160,264,12316,1,4,0:0:0:0:
48,264,12441,1,8,0:0:0:0:
288,192,12566,1,4,0:0:0:0:
160,192,12691,1,8,0:0:0:0:
352,192,12816,1,4,0:0:0:0:
96,192,12941,1,8,0:0:0:0:
384,288,13066,5,6,0:0:0:0:
408,264,13128,1,0,0:0:0:0:
384,288,13191,1,8,0:0:0:0:
176,168,13316,1,4,0:0:0:0:
304,168,13441,1,8,0:0:0:0:
120,216,13566,1,4,0:0:0:0:
312,248,13691,2,0,L|312:88,1,150.000005722046,8|4,0:0|0:0,0:0:0:0:
120,216,13941,1,8,0:0:0:0:
312,272,14066,5,4,0:0:0:0:
200,272,14191,1,8,0:0:0:0:
88,272,14316,1,4,0:0:0:0:
312,192,14441,1,8,0:0:0:0:
200,192,14566,1,4,0:0:0:0:
200,168,14628,1,0,0:0:0:0:
256,192,14691,1,8,0:0:0:0:
368,192,14816,1,4,0:0:0:0:
256,192,14941,1,8,0:0:0:0:
440,120,15066,5,4,0:0:0:0:
464,96,15128,1,0,0:0:0:0:
440,120,15191,1,8,0:0:0:0:
240,160,15316,2,0,L|128:48,1,150.000005722046,4|8,0:0|0:0,0:0:0:0:
336,240,15566,1,4,0:0:0:0:
144,240,15691,2,0,L|272:112,1,150.000005722046,8|4,0:0|0:0,0:0:0:0:
56,240,15941,1,8,0:0:0:0:
416,184,16066,6,0,L|416:104,1,75.0000028610231,8|8,0:0|0:0,0:0:0:0:
288,184,16191,2,0,L|232:128,1,75.0000028610231,8|8,0:0|0:0,0:0:0:0:
112,184,16316,1,8,0:1:0:0:
64,144,16378,1,0,0:0:0:0:
48,96,16441,1,8,0:1:0:0:
64,144,16503,1,8,0:1:0:0:
200,128,16566,5,8,0:1:0:0:
256,128,16628,1,0,0:0:0:0:
200,128,16691,1,8,0:1:0:0:
144,128,16753,1,8,0:1:0:0:
288,264,16816,1,8,0:1:0:0:
336,224,16878,1,0,0:0:0:0:
352,176,16941,1,8,0:1:0:0:
336,224,17003,1,8,0:1:0:0:
152,240,17066,6,0,L|40:128,1,150.000005722046,6|8,0:0|0:0,0:0:0:0:
280,208,17316,2,0,L|280:56,1,150.000005722046,4|8,0:0|0:0,0:0:0:0:
144,208,17566,2,0,L|144:48,1,150.000005722046,4|8,0:0|0:0,0:0:0:0:
352,208,17816,2,0,L|464:96,1,150.000005722046,4|8,0:0|0:0,0:0:0:0:
208,288,18066,6,0,L|208:128,1,150.000005722046,4|8,0:0|0:0,0:0:0:0:
336,288,18316,2,0,L|224:176,1,150.000005722046,4|8,0:0|0:0,0:0:0:0:
448,264,18566,1,4,0:0:0:0:
472,264,18628,1,0,0:0:0:0:
448,264,18691,1,8,0:0:0:0:
344,288,18816,2,0,L|456:176,1,150.000005722046,4|8,0:0|0:0,0:0:0:0:
184,176,19066,5,4,0:0:0:0:
160,152,19128,1,0,0:0:0:0:
184,176,19191,1,8,0:0:0:0:
368,256,19316,2,0,L|368:96,1,150.000005722046,4|8,0:0|0:0,0:0:0:0:
248,256,19566,1,4,0:0:0:0:
368,256,19691,1,8,0:0:0:0:
128,264,19816,2,0,L|128:104,1,150.000005722046,4|8,0:0|0:0,0:0:0:0:
360,184,20066,5,4,0:0:0:0:
240,184,20191,1,8,0:0:0:0:
360,136,20316,2,0,L|360:296,1,150.000005722046,4|8,0:0|0:0,0:0:0:0:
176,136,20566,2,0,L|64:248,1,150.000005722046,4|8,0:0|0:0,0:0:0:0:
288,136,20816,1,4,0:0:0:0:
72,136,20941,1,8,0:0:0:0:
376,240,21066,5,4,0:0:0:0:
432,240,21128,1,0,0:0:0:0:
432,240,21191,1,8,0:0:0:0:
320,240,21316,2,0,L|208:128,1,150.000005722046,4|8,0:0|0:0,0:0:0:0:
440,240,21566,2,0,L|440:88,1,150.000005722046,4|8,0:0|0:0,0:0:0:0:
320,240,21816,1,4,0:0:0:0:
440,240,21941,1,8,0:0:0:0:
232,232,22066,6,0,L|120:120,1,150.000005722046,4|8,0:0|0:0,0:0:0:0:
344,232,22316,2,0,L|352:80,1,150.000005722046,4|8,0:0|0:0,0:0:0:0:
136,224,22566,1,4,0:0:0:0:
232,168,22691,1,8,0:0:0:0:
224,168,22816,1,4,0:0:0:0:
128,224,22941,1,8,0:0:0:0:
328,216,23066,6,0,L|328:64,1,150.000005722046,4|8,0:0|0:0,0:0:0:0:
200,216,23316,2,0,L|88:104,1,150.000005722046,4|8,0:0|0:0,0:0:0:0:
280,96,23566,2,0,L|344:32,1,75.0000028610231,8|0,0:0|0:0,0:0:0:0:
464,80,23691,2,0,L|464:168,1,75.0000028610231,8|0,0:0|0:0,0:0:0:0:
320,136,23816,2,0,L|248:64,1,75.0000028610231,8|0,0:0|0:0,0:0:0:0:
120,128,23941,2,0,L|120:48,1,75.0000028610231,8|0,0:0|0:0,0:0:0:0:
352,248,24066,6,0,L|472:128,1,150.000005722046,8|0,0:1|0:0,0:0:0:0:
328,240,24253,1,0,0:0:0:0:
200,248,24316,2,0,L|80:128,1,150.000005722046,8|0,0:1|0:0,0:0:0:0:
224,240,24503,1,0,0:0:0:0:
408,160,24566,6,0,L|408:80,1,75.0000028610231,8|0,0:1|0:0,0:0:0:0:
264,160,24691,2,0,L|200:96,1,75.0000028610231,0|0,0:0|0:0,0:0:0:0:
392,232,24816,1,8,0:1:0:0:
440,200,24878,1,0,0:0:0:0:
456,152,24941,1,8,0:1:0:0:
440,200,25003,1,0,0:0:0:0:
192,160,25066,5,6,0:0:0:0:
80,160,25191,1,0,0:0:0:0:
80,160,25316,1,6,0:0:0:0:
264,184,25441,1,0,0:0:0:0:
152,184,25566,1,6,0:0:0:0:
344,160,25691,2,0,L|344:336,1,150.000005722046,0|6,0:0|0:0,0:0:0:0:
144,184,25941,1,0,0:0:0:0:
400,184,26066,6,0,L|440:40,1,150.000005722046,6|0,0:0|0:0,0:0:0:0:
312,136,26316,1,6,0:0:0:0:
432,128,26441,1,0,0:0:0:0:
216,280,26566,2,0,L|104:168,1,150.000005722046,6|0,0:0|0:0,0:0:0:0:
296,280,26816,2,0,L|408:168,1,150.000005722046,6|0,0:0|0:0,0:0:0:0:
88,224,27066,6,0,L|80:72,1,150.000005722046,6|0,0:0|0:0,0:0:0:0:
208,224,27316,2,0,L|208:64,1,150.000005722046,6|0,0:0|0:0,0:0:0:0:
336,224,27566,2,0,L|344:72,1,150.000005722046,6|0,0:0|0:0,0:0:0:0:
472,224,27816,1,6,0:0:0:0:
344,224,27941,1,0,0:0:0:0:
96,184,28066,6,0,L|96:32,1,150.000005722046,6|0,0:0|0:0,0:0:0:0:
320,192,28316,1,6,0:0:0:0:
200,192,28441,1,0,0:0:0:0:
424,192,28566,2,0,L|424:40,1,150.000005722046,6|0,0:0|0:0,0:0:0:0:
200,192,28816,1,6,0:0:0:0:
320,192,28941,1,0,0:0:0:0:
112,272,29066,6,0,P|40:200|96:144,1,200,6|6,0:0|0:0,0:0:0:0:
216,136,29441,1,0,0:0:0:0:
400,112,29566,1,6,0:0:0:0:
280,112,29691,1,0,0:0:0:0:
464,144,29816,2,0,L|464:312,1,150.000005722046,6|0,0:0|0:0,0:0:0:0:
248,264,30066,6,0,L|136:152,1,150.000005722046,6|0,0:0|0:0,0:0:0:0:
264,264,30316,2,0,L|376:152,1,150.000005722046,6|0,0:0|0:0,0:0:0:0:
144,272,30566,2,0,L|32:160,1,150.000005722046,6|0,0:0|0:0,0:0:0:0:
160,272,30816,2,0,L|272:160,1,150.000005722046,6|0,0:0|0:0,0:0:0:0:
456,208,31066,6,0,L|456:56,1,150.000005722046,6|0,0:0|0:0,0:0:0:0:
336,208,31316,1,6,0:0:0:0:
456,208,31441,1,0,0:0:0:0:
216,280,31566,2,0,L|104:168,1,150.000005722046,6|0,0:0|0:0,0:0:0:0:
296,280,31816,2,0,L|408:168,1,150.000005722046,6|0,0:0|0:0,0:0:0:0:
184,200,32066,5,8,0:0:0:0:
128,160,32128,1,0,0:0:0:0:
104,112,32191,1,8,0:1:0:0:
104,112,32253,1,0,0:0:0:0:
128,160,32316,1,8,0:1:0:0:
184,200,32378,1,0,0:0:0:0:
336,152,32441,5,8,0:0:0:0:
392,152,32503,1,0,0:0:0:0:
336,152,32566,1,8,0:1:0:0:
280,152,32628,1,0,0:0:0:0:
336,152,32691,1,8,0:1:0:0:
392,152,32753,1,0,0:0:0:0:
240,144,32816,6,0,L|176:80,1,75.0000028610231,8|8,0:0|0:0,0:0:0:0:
48,152,32941,2,0,L|48:64,1,75.0000028610231,8|8,0:0|0:0,0:0:0:0:
320,200,33066,6,0,L|432:88,1,150.000005722046,6|8,0:0|0:0,0:0:0:0:
240,160,33316,2,0,L|128:48,1,150.000005722046,4|8,0:0|0:0,0:0:0:0:
432,200,33566,1,4,0:0:0:0:
240,232,33691,2,0,L|240:72,1,150.000005722046,8|4,0:0|0:0,0:0:0:0:
432,200,33941,1,8,0:0:0:0:
240,200,34066,5,4,0:0:0:0:
128,200,34191,1,8,0:0:0:0:
128,200,34316,1,4,0:0:0:0:
312,272,34441,2,0,L|424:160,1,150.000005722046,8|4,0:0|0:0,0:0:0:0:
384,168,34628,1,0,0:0:0:0:
320,168,34691,1,8,0:0:0:0:
200,168,34816,1,4,0:0:0:0:
200,168,34941,1,8,0:0:0:0:
440,248,35066,5,4,0:0:0:0:
464,224,35128,1,0,0:0:0:0:
440,248,35191,1,8,0:0:0:0:
224,256,35316,2,0,L|344:136,1,150.000005722046,4|8,0:0|0:0,0:0:0:0:
104,272,35566,1,4,0:0:0:0:
296,272,35691,1,8,0:0:0:0:
168,272,35816,1,4,0:0:0:0:
360,272,35941,1,8,0:0:0:0:
88,176,36066,5,4,0:0:0:0:
48,112,36191,1,8,0:0:0:0:
88,176,36316,1,4,0:0:0:0:
192,176,36441,1,8,0:0:0:0:
376,176,36566,1,4,0:0:0:0:
248,176,36691,1,8,0:0:0:0:
440,176,36816,1,4,0:0:0:0:
184,176,36941,1,8,0:0:0:0:
456,256,37066,5,6,0:0:0:0:
456,256,37128,1,0,0:0:0:0:
392,256,37191,1,8,0:0:0:0:
208,256,37316,2,0,L|336:128,1,150.000005722046,4|8,0:0|0:0,0:0:0:0:
104,232,37566,1,4,0:0:0:0:
296,264,37691,2,0,L|296:104,1,150.000005722046,8|4,0:0|0:0,0:0:0:0:
104,232,37941,1,8,0:0:0:0:
344,192,38066,5,4,0:0:0:0:
240,192,38191,1,8,0:0:0:0:
136,192,38316,1,4,0:0:0:0:
320,192,38441,2,0,L|320:40,1,150.000005722046,8|4,0:0|0:0,0:0:0:0:
272,192,38628,1,0,0:0:0:0:
224,192,38691,1,8,0:0:0:0:
344,192,38816,1,4,0:0:0:0:
216,192,38941,1,8,0:0:0:0:
416,152,39066,6,0,L|472:96,1,75.0000028610231,8|8,0:0|0:0,0:0:0:0:
264,144,39191,2,0,L|200:80,1,75.0000028610231,8|8,0:0|0:0,0:0:0:0:
400,272,39316,1,8,0:1:0:0:
432,240,39378,1,0,0:0:0:0:
400,272,39441,1,0,0:0:0:0:
344,272,39503,1,0,0:0:0:0:
192,208,39566,5,8,0:1:0:0:
144,208,39628,1,0,0:0:0:0:
192,208,39691,1,0,0:0:0:0:
248,208,39753,1,0,0:0:0:0:
96,144,39816,1,8,0:1:0:0:
64,112,39878,1,0,0:0:0:0:
96,144,39941,1,0,0:0:0:0:
152,144,40003,1,0,0:0:0:0:
328,224,40066,6,0,P|376:224|464:136,3,179.999994506836,12|12|12|12,0:0|0:0|0:0|0:0,0:0:0:0:
152,200,41066,6,0,L|40:88,1,150.000005722046,6|8,0:0|0:0,0:0:0:0:
248,192,41316,2,0,L|376:64,1,150.000005722046,4|8,0:0|0:0,0:0:0:0:
112,192,41566,1,4,0:0:0:0:
304,192,41691,2,0,L|176:64,1,150.000005722046,8|4,0:0|0:0,0:0:0:0:
392,192,41941,1,8,0:0:0:0:
192,208,42066,6,0,L|80:96,1,150.000005722046,4|8,0:0|0:0,0:0:0:0:
304,208,42316,2,0,L|304:48,1,150.000005722046,4|8,0:0|0:0,0:0:0:0:
104,152,42566,1,4,0:0:0:0:
80,128,42628,1,0,0:0:0:0:
104,152,42691,1,8,0:0:0:0:
232,152,42816,1,4,0:0:0:0:
360,152,42941,1,8,0:0:0:0:
112,264,43066,5,4,0:0:0:0:
56,264,43128,1,0,0:0:0:0:
56,264,43191,1,8,0:0:0:0:
240,224,43316,2,0,L|128:112,1,150.000005722046,4|8,0:0|0:0,0:0:0:0:
328,208,43566,1,4,0:0:0:0:
136,208,43691,2,0,L|264:80,1,150.000005722046,8|4,0:0|0:0,0:0:0:0:
48,208,43941,1,8,0:0:0:0:
272,304,44066,5,4,0:0:0:0:
384,304,44191,1,8,0:0:0:0:
272,304,44316,1,4,0:0:0:0:
160,304,44441,1,8,0:0:0:0:
416,240,44566,2,0,L|416:88,1,150.000005722046,4|8,0:0|0:0,0:0:0:0:
208,240,44816,1,4,0:0:0:0:
416,240,44941,1,8,0:0:0:0:
184,208,45066,5,6,0:0:0:0:
160,208,45128,1,0,0:0:0:0:
184,208,45191,1,8,0:0:0:0:
312,208,45316,2,0,L|312:40,1,150.000005722046,4|8,0:0|0:0,0:0:0:0:
80,288,45566,1,4,0:0:0:0:
192,288,45691,1,8,0:0:0:0:
304,288,45816,1,4,0:0:0:0:
192,288,45941,1,8,0:0:0:0:
456,200,46066,6,0,L|456:32,1,150.000005722046,4|8,0:0|0:0,0:0:0:0:
320,200,46316,2,0,L|432:88,1,150.000005722046,4|8,0:0|0:0,0:0:0:0:
224,144,46566,1,4,0:0:0:0:
200,120,46628,1,0,0:0:0:0:
224,144,46691,1,8,0:0:0:0:
360,144,46816,1,4,0:0:0:0:
224,144,46941,1,8,0:0:0:0:
440,208,47066,5,4,0:0:0:0:
464,184,47128,1,0,0:0:0:0:
440,208,47191,1,8,0:0:0:0:
312,208,47316,1,4,0:0:0:0:
184,208,47441,1,8,0:0:0:0:
400,272,47566,2,0,L|400:112,1,150.000005722046,4|8,0:0|0:0,0:0:0:0:
272,272,47816,2,0,L|392:152,1,150.000005722046,4|8,0:0|0:0,0:0:0:0:
184,176,48066,6,0,L|72:64,1,150.000005722046,4|8,0:0|0:0,0:0:0:0:
208,176,48316,2,0,L|320:64,1,150.000005722046,4|8,0:0|0:0,0:0:0:0:
64,272,48566,2,0,L|64:96,1,150.000005722046,4|8,0:0|0:0,0:0:0:0:
280,272,48816,2,0,L|160:152,1,150.000005722046,4|8,0:0|0:0,0:0:0:0:
360,208,49066,5,6,0:0:0:0:
472,208,49191,1,0,0:0:0:0:
472,208,49316,1,6,0:0:0:0:
240,184,49441,2,0,L|240:24,1,150.000005722046,0|6,0:0|0:0,0:0:0:0:
448,184,49691,1,0,0:0:0:0:
256,184,49816,2,0,L|384:56,1,150.000005722046,6|0,0:0|0:0,0:0:0:0:
160,184,50066,6,0,L|160:336,1,150.000005722046,6|0,0:0|0:0,0:0:0:0:
352,184,50316,2,0,L|352:336,1,150.000005722046,6|0,0:0|0:0,0:0:0:0:
152,128,50566,1,6,0:0:0:0:
272,128,50691,1,0,0:0:0:0:
152,128,50816,1,6,0:0:0:0:
272,128,50941,1,0,0:0:0:0:
64,192,51066,6,0,L|64:40,1,150.000005722046,6|0,0:0|0:0,0:0:0:0:
184,192,51316,2,0,L|296:80,1,150.000005722046,6|0,0:0|0:0,0:0:0:0:
408,192,51566,2,0,L|408:40,1,150.000005722046,6|0,0:0|0:0,0:0:0:0:
288,192,51816,2,0,L|168:72,1,150.000005722046,6|0,0:0|0:0,0:0:0:0:
368,264,52066,6,0,L|480:152,1,150.000005722046,6|0,0:0|0:0,0:0:0:0:
288,264,52316,2,0,L|160:136,1,150.000005722046,6|0,0:0|0:0,0:0:0:0:
376,256,52566,2,0,L|376:96,1,150.000005722046,6|0,0:0|0:0,0:0:0:0:
160,256,52816,1,6,0:0:0:0:
376,256,52941,1,0,0:0:0:0:
104,224,53066,6,0,P|64:184|152:96,1,200,6|6,0:0|0:0,0:0:0:0:
264,96,53441,1,0,0:0:0:0:
80,200,53566,2,0,L|80:48,1,150.000005722046,6|0,0:0|0:0,0:0:0:0:
272,192,53816,2,0,L|152:72,1,150.000005722046,6|0,0:0|0:0,0:0:0:0:
368,224,54066,6,0,L|480:112,1,150.000005722046,6|0,0:0|0:0,0:0:0:0:
360,224,54316,2,0,L|240:104,1,150.000005722046,6|0,0:0|0:0,0:0:0:0:
48,208,54566,2,0,L|160:96,1,150.000005722046,6|0,0:0|0:0,0:0:0:0:
264,200,54816,2,0,L|144:80,1,150.000005722046,6|0,0:0|0:0,0:0:0:0:
456,240,55066,6,0,L|456:88,1,150.000005722046,6|0,0:0|0:0,0:0:0:0:
272,240,55316,2,0,L|272:80,1,150.000005722046,6|0,0:0|0:0,0:0:0:0:
456,240,55566,1,6,0:0:0:0:
272,240,55691,1,0,0:0:0:0:
272,240,55816,1,6,0:0:0:0:
392,240,55941,1,0,0:0:0:0:
136,248,56066,5,8,0:0:0:0:
88,208,56128,1,8,0:0:0:0:
64,160,56191,1,8,0:0:0:0:
88,208,56253,1,8,0:0:0:0:
224,208,56316,2,0,L|280:152,1,75.0000028610231,8|0,0:1|0:0,0:0:0:0:
408,248,56441,5,8,0:0:0:0:
456,208,56503,1,8,0:0:0:0:
480,160,56566,1,8,0:0:0:0:
456,208,56628,1,8,0:0:0:0:
320,208,56691,2,0,L|264:152,1,75.0000028610231,8|0,0:1|0:0,0:0:0:0:
120,200,56816,6,0,L|120:104,1,75.0000028610231,8|8,0:0|0:0,0:0:0:0:
264,208,56941,2,0,L|328:144,1,75.0000028610231,8|8,0:0|0:0,0:0:0:0:
128,304,57066,5,6,0:0:0:0:
72,304,57128,1,0,0:0:0:0:
128,304,57191,1,6,0:0:0:0:
176,272,57253,1,0,0:0:0:0:
208,232,57316,1,6,0:0:0:0:
224,176,57378,1,0,0:0:0:0:
208,232,57441,1,6,0:0:0:0:
176,272,57503,1,0,0:0:0:0:
40,192,57566,6,0,L|40:104,1,85.0000016212464,6|0,0:0|0:0,0:0:0:0:
96,192,57691,1,6,0:0:0:0:
152,192,57753,1,0,0:0:0:0:
312,152,57816,2,0,L|312:64,1,85.0000016212464,6|0,0:0|0:0,0:0:0:0:
256,152,57941,1,6,0:0:0:0:
200,152,58003,1,0,0:0:0:0:
56,152,58066,6,0,L|56:64,1,85.0000016212464,6|0,0:0|0:0,0:0:0:0:
208,200,58191,2,0,L|280:128,1,85.0000016212464,6|0,0:0|0:0,0:0:0:0:
408,216,58316,1,6,0:0:0:0:
456,176,58378,1,0,0:0:0:0:
472,128,58441,1,6,0:0:0:0:
456,176,58503,1,0,0:0:0:0:
272,112,58566,6,0,L|208:48,1,85.0000016212464,6|0,0:0|0:0,0:0:0:0:
384,112,58691,2,0,L|448:48,1,85.0000016212464,6|0,0:0|0:0,0:0:0:0:
256,216,58816,1,6,0:0:0:0:
208,176,58878,1,0,0:0:0:0:
192,128,58941,1,6,0:0:0:0:
208,176,59003,1,0,0:0:0:0:
384,312,59066,5,6,0:0:0:0:
408,272,59128,1,0,0:0:0:0:
384,312,59191,1,6,0:0:0:0:
336,312,59253,1,0,0:0:0:0:
280,312,59316,1,6,0:0:0:0:
216,312,59378,1,0,0:0:0:0:
384,216,59441,2,0,L|448:152,1,85.0000016212464,6|0,0:0|0:0,0:0:0:0:
288,208,59566,5,6,0:0:0:0:
240,208,59628,1,0,0:0:0:0:
288,208,59691,1,6,0:0:0:0:
344,176,59753,1,0,0:0:0:0:
384,128,59816,1,6,0:0:0:0:
408,88,59878,1,0,0:0:0:0:
416,40,59941,1,6,0:0:0:0:
408,88,60003,1,0,0:0:0:0:
200,224,60066,5,6,0:0:0:0:
160,160,60191,1,8,0:0:0:0:
200,224,60316,1,0,0:0:0:0:
304,224,60441,1,8,0:0:0:0:
56,256,60566,2,0,L|56:80,1,170.000003242493,0|8,0:0|0:0,0:0:0:0:
240,256,60816,1,8,0:0:0:0:
40,256,60941,1,8,0:0:0:0:
224,272,61066,5,6,0:0:0:0:
280,272,61128,1,0,0:0:0:0:
224,272,61191,1,6,0:0:0:0:
184,240,61253,1,0,0:0:0:0:
168,192,61316,1,6,0:0:0:0:
184,240,61378,1,0,0:0:0:0:
224,272,61441,1,6,0:0:0:0:
280,272,61503,1,0,0:0:0:0:
432,192,61566,5,6,0:0:0:0:
488,192,61628,1,0,0:0:0:0:
488,192,61691,1,6,0:0:0:0:
432,192,61753,1,0,0:0:0:0:
256,144,61816,2,0,L|256:48,1,85.0000016212464,6|0,0:0|0:0,0:0:0:0:
416,144,61941,2,0,L|480:80,1,85.0000016212464,6|0,0:0|0:0,0:0:0:0:
232,192,62066,5,6,0:0:0:0:
176,160,62128,1,0,0:0:0:0:
144,120,62191,1,6,0:0:0:0:
136,80,62253,1,0,0:0:0:0:
296,192,62316,1,6,0:0:0:0:
352,160,62378,1,0,0:0:0:0:
384,120,62441,1,6,0:0:0:0:
392,80,62503,1,0,0:0:0:0:
88,192,62566,6,0,L|88:96,1,85.0000016212464,6|0,0:0|0:0,0:0:0:0:
240,192,62691,2,0,L|312:120,1,85.0000016212464,6|0,0:0|0:0,0:0:0:0:
448,192,62816,2,0,L|448:96,1,85.0000016212464,6|0,0:0|0:0,0:0:0:0:
296,192,62941,2,0,L|224:120,1,85.0000016212464,6|0,0:0|0:0,0:0:0:0:
408,288,63066,5,6,0:0:0:0:
456,248,63128,1,0,0:0:0:0:
472,200,63191,1,6,0:0:0:0:
456,248,63253,1,0,0:0:0:0:
264,120,63316,1,6,0:0:0:0:
216,120,63378,1,0,0:0:0:0:
264,120,63441,1,6,0:0:0:0:
312,120,63503,1,0,0:0:0:0:
128,288,63566,5,6,0:0:0:0:
80,248,63628,1,0,0:0:0:0:
64,200,63691,1,6,0:0:0:0:
80,248,63753,1,0,0:0:0:0:
272,272,63816,2,0,L|360:184,1,85.0000016212464,6|0,0:0|0:0,0:0:0:0:
128,280,63941,2,0,L|56:208,1,85.0000016212464,6|0,0:0|0:0,0:0:0:0:
360,200,64066,5,8,0:0:0:0:
416,200,64128,1,8,0:0:0:0:
440,200,64191,1,8,0:0:0:0:
440,200,64253,1,8,0:0:0:0:
416,200,64316,1,8,0:1:0:0:
360,200,64378,1,8,0:1:0:0:
224,224,64441,1,8,0:1:0:0:
168,224,64503,1,8,0:1:0:0:
224,224,64566,6,0,L|352:96,1,170.000003242493,0|8,0:0|0:0,0:0:0:0:
288,104,64753,1,0,0:0:0:0:
232,216,64816,2,0,B|144:216|144:216|144:128|144:128|224:128,1,255.000004863739
424,232,65066,5,6,0:0:0:0:
328,232,65191,1,8,0:0:0:0:
336,232,65316,1,4,0:0:0:0:
432,232,65441,1,8,0:0:0:0:
232,152,65566,2,0,L|120:40,1,150.000005722046,4|8,0:0|0:0,0:0:0:0:
248,152,65816,2,0,L|360:40,1,150.000005722046,4|8,0:0|0:0,0:0:0:0:
160,208,66066,6,0,L|48:96,1,150.000005722046,4|8,0:0|0:0,0:0:0:0:
176,208,66316,2,0,L|288:96,1,150.000005722046,4|8,0:0|0:0,0:0:0:0:
64,280,66566,2,0,L|64:112,1,150.000005722046,4|8,0:0|0:0,0:0:0:0:
184,280,66816,1,4,0:0:0:0:
64,280,66941,1,8,0:0:0:0:
368,256,67066,6,0,L|496:128,1,150.000005722046,4|8,0:0|0:0,0:0:0:0:
352,256,67316,2,0,L|240:144,1,150.000005722046,4|8,0:0|0:0,0:0:0:0:
56,192,67566,1,4,0:0:0:0:
168,192,67691,1,8,0:0:0:0:
56,192,67816,1,4,0:0:0:0:
296,192,67941,1,8,0:0:0:0:
72,280,68066,6,0,L|72:120,1,150.000005722046,4|8,0:0|0:0,0:0:0:0:
192,272,68316,2,0,L|80:160,1,150.000005722046,4|8,0:0|0:0,0:0:0:0:
360,280,68566,2,0,L|360:120,1,150.000005722046,4|8,0:0|0:0,0:0:0:0:
240,272,68816,2,0,L|352:160,1,150.000005722046,4|8,0:0|0:0,0:0:0:0:
152,192,69066,5,6,0:0:0:0:
96,168,69128,1,0,0:0:0:0:
80,120,69191,1,0,0:0:0:0:
96,168,69253,1,0,0:0:0:0:
152,192,69316,1,0,0:0:0:0:
216,192,69378,1,0,0:0:0:0:
96,240,69441,2,0,L|40:184,1,75.0000028610231,0|0,0:0|0:0,0:0:0:0:
272,128,69566,5,12,0:0:0:0:
328,128,69628,1,0,0:0:0:0:
328,128,69691,1,0,0:0:0:0:
160,128,69753,1,0,0:0:0:0:
104,128,69815,1,0,0:0:0:0:
104,128,69878,1,0,0:0:0:0:
280,136,69941,2,0,L|344:72,1,75.0000028610231,0|0,0:0|0:0,0:0:0:0:
168,280,70066,5,4,0:0:0:0:
112,248,70128,1,0,0:0:0:0:
88,192,70191,1,0,0:0:0:0:
112,248,70253,1,0,0:0:0:0:
168,248,70316,1,0,0:0:0:0:
224,248,70378,1,0,0:0:0:0:
168,248,70441,1,0,0:0:0:0:
112,248,70503,1,0,0:0:0:0:
288,248,70566,5,12,0:0:0:0:
336,216,70628,1,0,0:0:0:0:
360,168,70691,1,0,0:0:0:0:
336,216,70753,1,0,0:0:0:0:
288,248,70816,1,0,0:0:0:0:
240,216,70878,1,0,0:0:0:0:
216,168,70941,1,0,0:0:0:0:
240,216,71003,1,0,0:0:0:0:
408,152,71066,5,4,0:0:0:0:
464,152,71128,1,0,0:0:0:0:
464,152,71191,1,0,0:0:0:0:
408,152,71253,1,0,0:0:0:0:
240,240,71316,1,0,0:0:0:0:
184,208,71378,1,0,0:0:0:0:
152,168,71441,1,0,0:0:0:0:
144,128,71503,1,0,0:0:0:0:
216,128,71566,6,0,L|224:48,1,75.0000028610231,12|0,0:0|0:0,0:0:0:0:
152,128,71691,2,0,L|144:48,1,75.0000028610231
272,240,71816,1,0,0:0:0:0:
328,208,71878,1,0,0:0:0:0:
352,168,71941,1,0,0:0:0:0:
328,208,72003,1,0,0:0:0:0:
208,128,72066,6,0,L|208:32,1,75.0000028610231,4|0,0:0|0:0,0:0:0:0:
272,128,72191,1,0,0:0:0:0:
336,128,72253,1,0,0:0:0:0:
472,192,72316,2,0,L|472:112,1,75.0000028610231,0|0,0:0|0:0,0:0:0:0:
296,192,72441,2,0,L|232:128,1,75.0000028610231,0|0,0:0|0:0,0:0:0:0:
112,288,72566,5,12,0:0:0:0:
64,256,72628,1,0,0:0:0:0:
48,208,72691,1,0,0:0:0:0:
64,256,72753,1,0,0:0:0:0:
192,216,72816,1,0,0:0:0:0:
320,216,72878,1,0,0:0:0:0:
448,216,72941,2,0,L|448:136,1,55.0000016784668,0|0,0:0|0:0,0:0:0:0:
176,224,73066,6,0,P|128:224|40:136,3,179.999994506836,4|0|0|0,0:0|0:0|0:0|0:0,0:0:0:0:
376,192,74066,2,0,L|160:192,2,179.999994506836,0|0|0,0:0|0:0|0:0,0:0:0:0:
40,192,74816,1,2,0:0:0:0:
360,192,75066,6,0,L|472:80,1,150.000005722046,6|8,0:0|0:0,0:0:0:0:
256,184,75316,2,0,L|128:56,1,150.000005722046,4|8,0:0|0:0,0:0:0:0:
368,192,75566,1,4,0:0:0:0:
176,224,75691,2,0,L|176:64,1,150.000005722046,8|4,0:0|0:0,0:0:0:0:
368,192,75941,1,8,0:0:0:0:
152,320,76066,5,4,0:0:0:0:
40,320,76191,1,8,0:0:0:0:
64,320,76316,1,4,0:0:0:0:
176,320,76441,1,8,0:0:0:0:
360,192,76566,1,4,0:0:0:0:
232,192,76691,1,8,0:0:0:0:
424,192,76816,1,4,0:0:0:0:
168,192,76941,1,8,0:0:0:0:
368,192,77066,5,6,0:0:0:0:
424,192,77128,1,0,0:0:0:0:
424,192,77191,1,8,0:0:0:0:
208,192,77316,2,0,L|208:40,1,150.000005722046,4|8,0:0|0:0,0:0:0:0:
440,192,77566,1,4,0:0:0:0:
248,192,77691,2,0,L|376:64,1,150.000005722046,8|4,0:0|0:0,0:0:0:0:
160,192,77941,1,8,0:0:0:0:
416,168,78066,5,4,0:0:0:0:
304,168,78191,1,8,0:0:0:0:
416,168,78316,1,4,0:0:0:0:
176,256,78441,2,0,L|64:144,1,150.000005722046,8|4,0:0|0:0,0:0:0:0:
48,112,78628,1,0,0:0:0:0:
72,136,78691,1,8,0:0:0:0:
192,136,78816,1,4,0:0:0:0:
72,136,78941,1,8,0:0:0:0:
344,136,79066,5,4,0:0:0:0:
368,112,79128,1,0,0:0:0:0:
344,136,79191,1,8,0:0:0:0:
144,192,79316,2,0,L|144:24,1,150.000005722046,4|8,0:0|0:0,0:0:0:0:
360,184,79566,1,4,0:0:0:0:
168,184,79691,2,0,L|296:56,1,150.000005722046,8|4,0:0|0:0,0:0:0:0:
80,184,79941,1,8,0:0:0:0:
304,192,80066,6,0,L|416:80,1,150.000005722046,4|8,0:0|0:0,0:0:0:0:
224,192,80316,2,0,L|96:64,1,150.000005722046,4|8,0:0|0:0,0:0:0:0:
312,144,80566,1,4,0:0:0:0:
192,144,80691,1,8,0:0:0:0:
304,144,80816,1,4,0:0:0:0:
200,144,80941,1,8,0:0:0:0:
432,192,81066,6,0,L|456:8,1,150.000005722046,6|8,0:0|0:0,0:0:0:0:
256,128,81316,1,4,0:0:0:0:
136,128,81441,1,8,0:0:0:0:
256,128,81566,1,4,0:0:0:0:
376,128,81691,1,8,0:0:0:0:
160,200,81816,2,0,L|136:16,1,150.000005722046,4|8,0:0|0:0,0:0:0:0:
360,192,82066,5,4,0:0:0:0:
248,192,82191,1,8,0:0:0:0:
360,192,82316,2,0,L|360:40,1,150.000005722046,4|8,0:0|0:0,0:0:0:0:
176,192,82566,2,0,L|56:72,1,150.000005722046,4|8,0:0|0:0,0:0:0:0:
304,192,82816,1,4,0:0:0:0:
192,192,82941,1,8,0:0:0:0:
296,192,83066,1,4,0:0:0:0:
184,192,83191,1,8,0:0:0:0:
392,192,83316,6,0,L|392:24,1,150.000005722046,4|8,0:0|0:0,0:0:0:0:
280,192,83566,2,0,L|392:80,1,150.000005722046,4|8,0:0|0:0,0:0:0:0:
184,192,83816,2,0,L|72:80,1,150.000005722046,4|8,0:0|0:0,0:0:0:0:
304,248,84066,5,4,0:0:0:0:
184,248,84191,1,8,0:0:0:0:
64,248,84316,1,4,0:0:0:0:
184,248,84441,1,8,0:0:0:0:
368,256,84566,1,4,0:0:0:0:
416,256,84628,1,0,0:0:0:0:
464,256,84691,1,8,0:0:0:0:
280,176,84816,1,4,0:0:0:0:
464,224,84941,1,8,0:0:0:0:
248,168,85066,5,6,0:0:0:0:
224,144,85128,1,0,0:0:0:0:
248,168,85191,1,8,0:0:0:0:
360,168,85316,1,4,0:0:0:0:
472,168,85441,1,8,0:0:0:0:
288,280,85566,1,4,0:0:0:0:
176,280,85691,1,8,0:0:0:0:
200,280,85816,1,4,0:0:0:0:
312,280,85941,1,8,0:0:0:0:
128,192,86066,6,0,L|120:40,1,150.000005722046,4|8,0:0|0:0,0:0:0:0:
256,192,86316,2,0,L|264:40,1,150.000005722046,4|8,0:0|0:0,0:0:0:0:
56,192,86566,1,4,0:0:0:0:
32,168,86628,1,0,0:0:0:0:
56,192,86691,1,8,0:0:0:0:
176,192,86816,1,4,0:0:0:0:
56,192,86941,1,8,0:0:0:0:
304,240,87066,5,4,0:0:0:0:
360,240,87128,1,0,0:0:0:0:
360,240,87191,1,8,0:0:0:0:
248,240,87316,2,0,L|360:128,1,150.000005722046,4|8,0:0|0:0,0:0:0:0:
136,240,87566,2,0,L|136:72,1,150.000005722046,4|8,0:0|0:0,0:0:0:0:
248,240,87816,2,0,L|136:128,1,150.000005722046,4|8,0:0|0:0,0:0:0:0:
360,200,88066,6,0,L|360:48,1,150.000005722046,4|8,0:0|0:0,0:0:0:0:
168,176,88316,2,0,L|56:64,1,150.000005722046,4|8,0:0|0:0,0:0:0:0:
264,264,88566,1,4,0:0:0:0:
368,264,88691,1,8,0:0:0:0:
272,264,88816,1,4,0:0:0:0:
376,264,88941,1,8,0:0:0:0:
160,192,89066,5,6,0:0:0:0:
48,192,89191,1,0,0:0:0:0:
160,192,89316,1,6,0:0:0:0:
344,192,89441,2,0,L|344:32,1,150.000005722046,0|6,0:0|0:0,0:0:0:0:
160,192,89691,2,0,L|160:32,1,150.000005722046,0|6,0:0|0:0,0:0:0:0:
344,192,89941,1,0,0:0:0:0:
120,200,90066,5,6,0:0:0:0:
224,200,90191,1,0,0:0:0:0:
200,200,90316,1,6,0:0:0:0:
96,200,90441,1,0,0:0:0:0:
280,192,90566,2,0,L|320:48,1,150.000005722046,6|0,0:0|0:0,0:0:0:0:
200,192,90816,2,0,L|160:48,1,150.000005722046,6|0,0:0|0:0,0:0:0:0:
424,224,91066,6,0,L|432:72,1,150.000005722046,6|0,0:0|0:0,0:0:0:0:
304,224,91316,2,0,L|304:72,1,150.000005722046,6|0,0:0|0:0,0:0:0:0:
176,224,91566,2,0,L|168:72,1,150.000005722046,6|0,0:0|0:0,0:0:0:0:
40,224,91816,1,6,0:0:0:0:
160,224,91941,1,0,0:0:0:0:
416,136,92066,5,6,0:0:0:0:
304,136,92191,1,0,0:0:0:0:
192,136,92316,1,6,0:0:0:0:
304,136,92441,1,0,0:0:0:0:
96,192,92566,2,0,L|88:344,1,150.000005722046,6|0,0:0|0:0,0:0:0:0:
216,192,92816,1,6,0:0:0:0:
96,192,92941,1,0,0:0:0:0:
328,296,93066,6,0,P|400:224|344:168,1,200,6|6,0:0|0:0,0:0:0:0:
232,184,93441,1,0,0:0:0:0:
416,200,93566,2,0,L|416:48,1,150.000005722046,6|0,0:0|0:0,0:0:0:0:
232,184,93816,1,6,0:0:0:0:
344,168,93941,1,0,0:0:0:0:
152,288,94066,5,6,0:0:0:0:
264,288,94191,1,0,0:0:0:0:
240,288,94316,1,6,0:0:0:0:
128,288,94441,1,0,0:0:0:0:
320,256,94566,2,0,L|360:112,1,150.000005722046,6|0,0:0|0:0,0:0:0:0:
240,208,94816,1,6,0:0:0:0:
360,200,94941,1,0,0:0:0:0:
128,176,95066,5,6,0:0:0:0:
240,176,95191,1,0,0:0:0:0:
128,176,95316,1,6,0:0:0:0:
312,232,95441,1,0,0:0:0:0:
200,232,95566,1,6,0:0:0:0:
88,232,95691,1,0,0:0:0:0:
280,224,95816,2,0,L|320:80,1,150.000005722046,6|0,0:0|0:0,0:0:0:0:
120,128,96066,5,4,0:0:0:0:
232,128,96191,1,0,0:0:0:0:
288,128,96253,1,0,0:0:0:0:
288,128,96316,1,4,0:0:0:0:
176,120,96441,1,0,0:0:0:0:
120,120,96503,1,0,0:0:0:0:
120,120,96566,1,4,0:0:0:0:
240,200,96691,1,0,0:0:0:0:
264,224,96753,1,0,0:0:0:0:
240,200,96816,2,0,L|128:88,1,150.000005722046,4|0,0:0|0:0,0:0:0:0:
336,240,97066,5,14,0:0:0:0:
384,200,97128,1,0,0:0:0:0:
416,144,97191,1,8,0:0:0:0:
424,88,97253,1,0,0:0:0:0:
288,176,97316,2,0,L|288:96,1,75.0000028610231,8|0,0:0|0:0,0:0:0:0:
424,88,97441,5,8,0:0:0:0:
416,144,97503,1,0,0:0:0:0:
384,200,97566,1,8,0:0:0:0:
336,240,97628,1,0,0:0:0:0:
472,176,97691,2,0,L|472:288,1,75.0000028610231,8|0,0:0|0:0,0:0:0:0:
336,192,97816,5,8,0:0:0:0:
280,192,97878,1,0,0:0:0:0:
336,192,97941,1,8,0:0:0:0:
392,192,98003,1,0,0:0:0:0:
256,144,98066,2,0,L|200:88,1,75.0000028610231,8|0,0:0|0:0,0:0:0:0:
360,128,98191,5,8,0:0:0:0:
408,96,98253,1,0,0:0:0:0:
432,48,98316,1,8,0:0:0:0:
408,96,98378,1,0,0:0:0:0:
280,56,98441,2,0,L|224:112,1,75.0000028610231,8|0,0:0|0:0,0:0:0:0:
104,136,98566,5,8,0:0:0:0:
56,104,98628,1,0,0:0:0:0:
32,56,98691,1,8,0:0:0:0:
56,104,98753,1,0,0:0:0:0:
216,128,98816,2,0,L|216:232,1,75.0000028610231,8|0,0:0|0:0,0:0:0:0:
152,128,98941,2,0,L|224:200,1,75.0000028610231,8|0,0:0|0:0,0:0:0:0:
416,192,99066,6,0,L|488:120,1,75.0000028610231,12|0,0:0|0:0,0:0:0:0:
328,168,99191,2,0,L|264:104,1,75.0000028610231,12|0,0:0|0:0,0:0:0:0:
136,176,99316,2,0,L|80:120,1,75.0000028610231,12|0,0:0|0:0,0:0:0:0:
240,176,99441,2,0,L|296:120,1,75.0000028610231,12|0,0:0|0:0,0:0:0:0:
440,192,99566,6,0,L|440:96,1,75.0000028610231,12|0,0:0|0:0,0:0:0:0:
312,168,99691,2,0,L|248:104,1,75.0000028610231,12|0,0:0|0:0,0:0:0:0:
128,192,99816,2,0,L|128:96,1,75.0000028610231,12|0,0:0|0:0,0:0:0:0:
256,168,99941,2,0,L|320:104,1,75.0000028610231,12|0,0:0|0:0,0:0:0:0:
144,200,100066,5,4,0:0:0:0:
40,200,100191,1,8,0:0:0:0:
144,200,100316,1,4,0:0:0:0:
192,168,100378,1,0,0:0:0:0:
208,112,100441,1,8,0:0:0:0:
192,168,100503,1,0,0:0:0:0:
144,200,100566,1,4,0:0:0:0:
336,208,100691,2,0,L|456:88,1,150.000005722046,8|4,0:0|0:0,0:0:0:0:
400,248,100878,1,0,0:0:0:0:
240,128,100941,1,8,0:0:0:0:
192,128,101003,1,0,0:0:0:0:
360,216,101066,5,14,0:0:0:0:
384,192,101128,1,0,0:0:0:0:
360,168,101191,1,8,0:0:0:0:
304,168,101253,1,0,0:0:0:0:
424,144,101316,2,0,L|488:80,1,75.0000028610231,8|0,0:0|0:0,0:0:0:0:
336,288,101441,5,8,0:0:0:0:
312,264,101503,1,0,0:0:0:0:
336,240,101566,1,8,0:0:0:0:
392,240,101628,1,0,0:0:0:0:
272,216,101691,2,0,L|208:152,1,75.0000028610231,8|0,0:0|0:0,0:0:0:0:
384,240,101816,5,8,0:0:0:0:
432,208,101878,1,0,0:0:0:0:
456,160,101941,1,8,0:0:0:0:
432,208,102003,1,0,0:0:0:0:
296,128,102066,2,0,L|240:72,1,75.0000028610231,8|0,0:0|0:0,0:0:0:0:
376,208,102191,5,8,0:0:0:0:
400,160,102253,1,0,0:0:0:0:
376,208,102316,1,8,0:0:0:0:
328,240,102378,1,0,0:0:0:0:
192,136,102441,2,0,L|136:80,1,75.0000028610231,8|0,0:0|0:0,0:0:0:0:
296,224,102566,5,8,0:0:0:0:
352,192,102628,1,0,0:0:0:0:
384,144,102691,1,8,0:0:0:0:
392,88,102753,1,0,0:0:0:0:
256,224,102816,1,8,0:0:0:0:
200,192,102878,1,0,0:0:0:0:
168,144,102941,1,8,0:0:0:0:
160,88,103003,1,0,0:0:0:0:
344,280,103066,6,0,L|344:200,1,75.0000028610231,12|0,0:0|0:0,0:0:0:0:
192,256,103191,2,0,L|128:192,1,75.0000028610231,12|0,0:0|0:0,0:0:0:0:
296,264,103316,2,0,L|352:208,1,75.0000028610231,12|0,0:0|0:0,0:0:0:0:
192,280,103441,2,0,L|192:192,1,75.0000028610231,12|0,0:0|0:0,0:0:0:0:
384,192,103566,6,0,L|456:120,1,75.0000028610231,12|0,0:0|0:0,0:0:0:0:
288,168,103691,2,0,L|224:104,1,75.0000028610231,12|0,0:0|0:0,0:0:0:0:
88,176,103816,2,0,L|32:120,1,75.0000028610231,12|0,0:0|0:0,0:0:0:0:
184,176,103941,2,0,L|240:120,1,75.0000028610231,12|0,0:0|0:0,0:0:0:0:
400,192,104066,5,4,0:0:0:0:
448,152,104128,1,0,0:0:0:0:
464,104,104191,1,0,0:0:0:0:
448,152,104253,1,0,0:0:0:0:
280,112,104316,1,4,0:0:0:0:
224,112,104378,1,0,0:0:0:0:
280,112,104441,1,0,0:0:0:0:
336,112,104503,1,0,0:0:0:0:
168,256,104566,5,4,0:0:0:0:
120,216,104628,1,0,0:0:0:0:
104,168,104691,1,0,0:0:0:0:
120,216,104753,1,0,0:0:0:0:
304,176,104816,2,0,L|360:120,1,75.0000028610231,4|0,0:0|0:0,0:0:0:0:
168,176,104941,2,0,L|104:112,1,75.0000028610231,0|0,0:0|0:0,0:0:0:0:
416,192,105066,5,4,0:0:0:0:
224,352,106066,6,0,P|40:168|176:32,1,500,6|2,0:0|0:0,0:0:0:0:
336,288,106941,1,0,0:0:0:0:
296,288,107003,1,0,0:0:0:0:
256,288,107066,2,0,P|304:240|136:72,2,375,10|4|4,0:0|0:0|0:0,0:0:0:0:
64,256,108066,6,0,P|136:256|336:56,2,375,2|4|4,0:0|0:0|0:0,0:0:0:0:
432,256,109066,1,10,0:0:0:0:
432,256,109816,1,4,0:0:0:0:
112,352,110066,6,0,P|64:304|288:80,1,500,6|2,0:0|0:0,0:0:0:0:
464,264,110941,1,0,0:0:0:0:
464,264,111003,1,0,0:0:0:0:
416,272,111066,2,0,B|232:272|232:272|232:80,2,375,10|4|4,0:0|0:0|0:0,0:0:0:0:
208,320,112316,1,0,0:0:0:0:
208,320,112441,6,0,L|480:48,1,375,4|4,0:0|0:0,0:0:0:0:
368,72,112941,1,0,0:0:0:0:
264,72,113066,1,6,0:0:0:0:
464,72,113191,1,8,0:0:0:0:
192,224,113316,6,0,L|192:88,1,129.999994049073,10|0,0:0|0:0,0:0:0:0:
312,224,113566,2,0,L|312:88,1,129.999994049073,8|0,0:0|0:0,0:0:0:0:
192,224,113816,1,8,0:0:0:0:
312,224,113941,1,8,0:0:0:0:
104,256,114066,6,0,L|64:112,1,150.000005722046,4|8,0:0|0:0,0:0:0:0:
184,208,114316,1,4,0:0:0:0:
64,200,114441,1,8,0:0:0:0:
288,208,114566,1,4,0:0:0:0:
408,200,114691,1,8,0:0:0:0:
280,200,114816,1,4,0:0:0:0:
400,192,114941,1,8,0:0:0:0:
200,136,115066,5,4,0:0:0:0:
88,136,115191,1,8,0:0:0:0:
200,136,115316,1,4,0:0:0:0:
312,136,115441,1,8,0:0:0:0:
104,256,115566,2,0,L|64:112,1,150.000005722046,4|8,0:0|0:0,0:0:0:0:
312,256,115816,2,0,L|352:112,1,150.000005722046,4|8,0:0|0:0,0:0:0:0:
120,176,116066,5,4,0:0:0:0:
232,176,116191,1,8,0:0:0:0:
208,176,116316,1,4,0:0:0:0:
96,176,116441,1,8,0:0:0:0:
320,256,116566,2,0,L|360:112,1,150.000005722046,4|8,0:0|0:0,0:0:0:0:
240,208,116816,1,4,0:0:0:0:
360,200,116941,1,8,0:0:0:0:
160,152,117066,6,0,L|48:40,1,150.000005722046,4|8,0:0|0:0,0:0:0:0:
240,152,117316,2,0,L|352:40,1,150.000005722046,4|8,0:0|0:0,0:0:0:0:
128,280,117566,1,4,0:0:0:0:
248,272,117691,1,8,0:0:0:0:
120,272,117816,1,4,0:0:0:0:
240,264,117941,1,8,0:0:0:0:
40,176,118066,5,6,0:0:0:0:
144,176,118191,1,8,0:0:0:0:
40,176,118316,1,4,0:0:0:0:
256,208,118441,2,0,L|296:64,1,150.000005722046,8|4,0:0|0:0,0:0:0:0:
80,176,118691,1,8,0:0:0:0:
184,176,118816,1,4,0:0:0:0:
80,176,118941,1,8,0:0:0:0:
264,192,119066,5,4,0:0:0:0:
368,192,119191,1,8,0:0:0:0:
368,192,119316,1,4,0:0:0:0:
152,144,119441,1,8,0:0:0:0:
256,144,119566,1,4,0:0:0:0:
360,144,119691,1,8,0:0:0:0:
144,208,119816,1,4,0:0:0:0:
144,208,119941,1,8,0:0:0:0:
248,208,120066,1,4,0:0:0:0:
464,232,120191,5,8,0:0:0:0:
360,232,120316,1,4,0:0:0:0:
464,232,120441,1,8,0:0:0:0:
240,272,120566,1,4,0:0:0:0:
240,272,120691,1,8,0:0:0:0:
344,272,120816,1,4,0:0:0:0:
136,272,120941,1,8,0:0:0:0:
344,328,121066,6,0,L|344:176,1,150.000005722046,4|10,0:0|0:0,0:0:0:0:
152,208,121316,1,4,0:0:0:0:
128,184,121378,1,0,0:0:0:0:
152,208,121441,1,10,0:0:0:0:
352,248,121566,6,0,P|432:248|432:128,1,225.000008583069,2|0,0:0|0:0,0:0:0:0:
304,144,121816,2,0,L|304:64,1,75.0000028610231,8|8,0:0|0:0,0:0:0:0:
424,144,121941,2,0,L|424:64,1,75.0000028610231,8|8,0:0|0:0,0:0:0:0:
256,104,122066,6,0,L|184:32,1,85.0000016212464,6|0,0:0|0:0,0:0:0:0:
48,88,122191,2,0,L|48:184,1,85.0000016212464,6|0,0:0|0:0,0:0:0:0:
200,152,122316,2,0,L|280:232,1,85.0000016212464,6|0,0:0|0:0,0:0:0:0:
408,192,122441,2,0,L|408:104,1,85.0000016212464,6|0,0:0|0:0,0:0:0:0:
224,256,122566,5,6,0:0:0:0:
168,224,122628,1,0,0:0:0:0:
136,176,122691,1,6,0:0:0:0:
128,128,122753,1,0,0:0:0:0:
264,288,122816,1,6,0:0:0:0:
320,256,122878,1,0,0:0:0:0:
352,208,122941,1,6,0:0:0:0:
360,160,123003,1,0,0:0:0:0:
240,96,123066,6,0,L|168:24,1,85.0000016212464,6|0,0:0|0:0,0:0:0:0:
48,80,123191,2,0,L|48:176,1,85.0000016212464,6|0,0:0|0:0,0:0:0:0:
184,144,123316,2,0,L|264:224,1,85.0000016212464,6|0,0:0|0:0,0:0:0:0:
376,184,123441,2,0,L|456:104,1,85.0000016212464,6|0,0:0|0:0,0:0:0:0:
216,272,123566,2,0,L|216:176,1,85.0000016212464,6|0,0:0|0:0,0:0:0:0:
360,272,123691,2,0,L|360:176,1,85.0000016212464,6|0,0:0|0:0,0:0:0:0:
208,280,123816,5,6,0:0:0:0:
156,247,123878,1,0,0:0:0:0:
128,200,123941,1,6,0:0:0:0:
156,247,124003,1,0,0:0:0:0:
324,207,124066,5,6,0:0:0:0:
380,207,124128,1,0,0:0:0:0:
324,207,124191,1,6,0:0:0:0:
268,207,124253,1,0,0:0:0:0:
268,207,124316,1,6,0:0:0:0:
324,207,124378,1,0,0:0:0:0:
136,128,124441,6,0,L|136:40,1,85.0000016212464,6|0,0:0|0:0,0:0:0:0:
192,128,124566,2,0,L|192:224,1,85.0000016212464,6|0,0:0|0:0,0:0:0:0:
136,128,124691,2,0,L|232:224,1,85.0000016212464,6|0,0:0|0:0,0:0:0:0:
336,280,124816,5,6,0:0:0:0:
388,247,124878,1,0,0:0:0:0:
416,200,124941,1,6,0:0:0:0:
388,247,125003,1,0,0:0:0:0:
112,192,125066,6,0,L|112:104,1,85.0000016212464,6|0,0:0|0:0,0:0:0:0:
248,192,125191,2,0,L|320:120,1,85.0000016212464,6|0,0:0|0:0,0:0:0:0:
448,184,125316,2,0,L|448:96,1,85.0000016212464,6|0,0:0|0:0,0:0:0:0:
104,200,125441,6,0,L|104:112,1,85.0000016212464,6|0,0:0|0:0,0:0:0:0:
240,200,125566,2,0,L|312:128,1,85.0000016212464,6|0,0:0|0:0,0:0:0:0:
440,192,125691,2,0,L|440:104,1,85.0000016212464,6|0,0:0|0:0,0:0:0:0:
248,296,125816,5,6,0:0:0:0:
192,296,125878,1,0,0:0:0:0:
248,296,125941,1,6,0:0:0:0:
304,296,126003,1,0,0:0:0:0:
128,248,126066,5,6,0:0:0:0:
72,248,126128,1,0,0:0:0:0:
128,248,126191,1,6,0:0:0:0:
176,216,126253,1,0,0:0:0:0:
208,168,126316,1,6,0:0:0:0:
224,112,126378,1,0,0:0:0:0:
224,112,126441,1,6,0:0:0:0:
208,168,126503,1,0,0:0:0:0:
72,144,126566,6,0,L|72:48,1,85.0000016212464,6|0,0:0|0:0,0:0:0:0:
216,64,126691,2,0,L|296:144,1,85.0000016212464,6|0,0:0|0:0,0:0:0:0:
416,80,126816,2,0,L|416:176,1,85.0000016212464,6|0,0:0|0:0,0:0:0:0:
264,176,126941,2,0,L|192:104,1,85.0000016212464,6|0,0:0|0:0,0:0:0:0:
352,264,127066,5,6,0:0:0:0:
408,232,127128,1,0,0:0:0:0:
432,184,127191,1,6,0:0:0:0:
408,232,127253,1,0,0:0:0:0:
264,144,127316,2,0,L|264:56,1,85.0000016212464,6|0,0:0|0:0,0:0:0:0:
416,144,127441,2,0,L|488:72,1,85.0000016212464,6|0,0:0|0:0,0:0:0:0:
304,144,127566,5,6,0:0:0:0:
248,144,127628,1,0,0:0:0:0:
304,144,127691,1,6,0:0:0:0:
360,144,127753,1,0,0:0:0:0:
208,264,127816,1,6,0:0:0:0:
152,232,127878,1,0,0:0:0:0:
128,184,127941,1,6,0:0:0:0:
152,232,128003,1,0,0:0:0:0:
336,224,128066,6,0,L|416:144,1,85.0000016212464,6|0,0:0|0:0,0:0:0:0:
248,224,128191,2,0,L|176:152,1,85.0000016212464,6|0,0:0|0:0,0:0:0:0:
48,216,128316,2,0,L|48:128,1,85.0000016212464,6|0,0:0|0:0,0:0:0:0:
344,232,128441,6,0,L|416:160,1,85.0000016212464,6|0,0:0|0:0,0:0:0:0:
256,232,128566,2,0,L|184:160,1,85.0000016212464,6|0,0:0|0:0,0:0:0:0:
56,224,128691,2,0,L|56:136,1,85.0000016212464,6|0,0:0|0:0,0:0:0:0:
344,288,128816,5,6,0:0:0:0:
400,256,128878,1,0,0:0:0:0:
424,208,128941,1,6,0:0:0:0:
400,256,129003,1,0,0:0:0:0:
256,192,129066,5,4,0:0:0:0:
200,160,129128,1,0,0:0:0:0:
168,120,129191,1,0,0:0:0:0:
152,80,129253,1,0,0:0:0:0:
288,176,129316,1,4,0:0:0:0:
272,136,129378,1,0,0:0:0:0:
240,96,129441,1,0,0:0:0:0:
184,64,129503,1,0,0:0:0:0:
56,200,129566,6,0,L|56:104,1,85.0000016212464,4|0,0:0|0:0,0:0:0:0:
224,208,129691,1,10,0:0:0:0:
144,200,129816,2,0,L|144:104,1,85.0000016212464,0|0,0:0|0:0,0:0:0:0:
320,208,129941,1,10,0:0:0:0:
112,264,130066,6,0,P|48:200|192:200,1,340.000006484985,0|8,0:0|0:0,0:0:0:0:
248,200,130378,1,0,0:0:0:0:
304,200,130441,1,0,0:0:0:0:
248,200,130503,1,0,0:0:0:0:
112,184,130566,5,4,0:0:0:0:
56,152,130628,1,0,0:0:0:0:
40,96,130691,1,0,0:0:0:0:
56,152,130753,1,0,0:0:0:0:
240,144,130816,2,0,L|240:56,1,85.0000016212464,8|0,0:0|0:0,0:0:0:0:
176,144,130941,2,0,L|176:48,1,85.0000016212464,0|0,0:0|0:0,0:0:0:0:
336,272,131066,5,4,0:0:0:0:
400,272,131128,1,0,0:0:0:0:
336,272,131191,1,0,0:0:0:0:
272,272,131253,1,0,0:0:0:0:
336,272,131316,1,8,0:0:0:0:
384,232,131378,1,0,0:0:0:0:
416,184,131441,1,0,0:0:0:0:
432,128,131503,1,0,0:0:0:0:
432,128,131566,5,4,0:0:0:0:
416,184,131628,1,0,0:0:0:0:
384,232,131690,1,0,0:0:0:0:
336,272,131753,1,0,0:0:0:0:
176,168,131816,2,0,L|176:80,1,85.0000016212464,8|0,0:0|0:0,0:0:0:0:
240,168,131941,2,0,L|240:80,1,85.0000016212464,0|0,0:0|0:0,0:0:0:0:
120,312,132066,5,4,0:0:0:0:
64,312,132128,1,0,0:0:0:0:
120,312,132191,1,0,0:0:0:0:
176,312,132253,1,0,0:0:0:0:
120,312,132316,2,0,L|120:208,1,85.0000016212464,8|0,0:0|0:0,0:0:0:0:
280,272,132441,5,0,0:0:0:0:
336,272,132503,1,0,0:0:0:0:
280,272,132566,1,4,0:0:0:0:
224,272,132628,1,0,0:0:0:0:
280,272,132691,2,0,L|280:184,1,85.0000016212464,0|0,0:0|0:0,0:0:0:0:
144,176,132816,5,8,0:0:0:0:
88,176,132878,1,0,0:0:0:0:
88,176,132941,1,0,0:0:0:0:
144,176,133003,1,0,0:0:0:0:
352,192,133066,5,4,0:0:0:0:
304,160,133128,1,0,0:0:0:0:
272,112,133191,1,0,0:0:0:0:
272,112,133253,1,0,0:0:0:0:
304,160,133316,1,8,0:0:0:0:
352,192,133378,1,0,0:0:0:0:
208,256,133441,6,0,L|208:160,1,85.0000016212464,0|0,0:0|0:0,0:0:0:0:
264,256,133566,1,4,0:0:0:0:
320,256,133628,1,0,0:0:0:0:
376,256,133691,2,0,L|376:168,1,85.0000016212464,0|0,0:0|0:0,0:0:0:0:
176,112,133816,6,0,L|112:48,1,85.0000016212464,8|0,0:0|0:0,0:0:0:0:
336,112,133941,2,0,L|400:48,1,85.0000016212464,0|0,0:0|0:0,0:0:0:0:
168,288,134066,5,6,0:0:0:0:
120,248,134128,1,0,0:0:0:0:
104,192,134191,1,0,0:0:0:0:
120,248,134253,1,0,0:0:0:0:
352,256,134316,2,0,L|352:160,1,89.9999972534181,8|0,0:0|0:0,0:0:0:0:
288,256,134441,2,0,L|288:152,1,89.9999972534181,0|0,0:0|0:0,0:0:0:0:
352,256,134566,5,4,0:0:0:0:
400,216,134628,1,0,0:0:0:0:
416,160,134691,1,0,0:0:0:0:
400,216,134753,1,0,0:0:0:0:
280,128,134816,1,8,0:0:0:0:
224,128,134878,1,0,0:0:0:0:
280,128,134941,1,0,0:0:0:0:
336,128,135003,1,0,0:0:0:0:
144,248,135066,5,4,0:0:0:0:
88,216,135128,1,0,0:0:0:0:
56,168,135191,1,0,0:0:0:0:
48,112,135253,1,0,0:0:0:0:
176,152,135316,2,0,L|240:88,1,89.9999972534181,8|0,0:0|0:0,0:0:0:0:
368,280,135441,5,0,0:0:0:0:
424,248,135503,1,0,0:0:0:0:
456,200,135566,1,4,0:0:0:0:
464,144,135628,1,0,0:0:0:0:
456,200,135691,1,0,0:0:0:0:
424,248,135753,1,0,0:0:0:0:
368,248,135816,1,8,0:0:0:0:
312,248,135878,1,0,0:0:0:0:
368,248,135941,1,0,0:0:0:0:
424,248,136003,1,0,0:0:0:0:
264,176,136066,6,0,L|264:80,1,89.9999972534181,12|8,0:1|0:1,0:0:0:0:
328,176,136191,2,0,L|328:80,1,89.9999972534181,8|8,0:1|0:1,0:0:0:0:
184,216,136316,1,8,0:1:0:0:
136,176,136378,1,8,0:1:0:0:
120,120,136441,1,8,0:1:0:0:
136,176,136503,1,8,0:1:0:0:
280,168,136566,5,8,0:0:0:0:
336,168,136628,1,8,0:1:0:0:
280,168,136691,1,8,0:1:0:0:
224,168,136753,1,8,0:1:0:0:
368,216,136816,1,8,0:1:0:0:
416,176,136878,1,8,0:1:0:0:
432,120,136941,1,8,0:1:0:0:
416,176,137003,1,8,0:1:0:0:
208,288,137066,5,4,0:0:0:0:
152,256,137128,1,8,0:1:0:0:
120,208,137191,1,8,0:1:0:0:
112,160,137253,1,8,0:1:0:0:
304,288,137316,1,8,0:1:0:0:
360,256,137378,1,8,0:1:0:0:
392,208,137441,1,8,0:1:0:0:
400,160,137503,1,8,0:1:0:0:
224,248,137566,5,8,0:0:0:0:
184,208,137628,1,8,0:1:0:0:
168,152,137691,1,8,0:1:0:0:
184,208,137753,1,8,0:1:0:0:
224,248,137816,1,8,0:1:0:0:
280,248,137878,1,8,0:1:0:0:
336,248,137941,1,8,0:1:0:0:
392,248,138003,1,8,0:1:0:0:
184,88,138066,5,12,0:0:0:0:
128,88,138128,1,0,0:0:0:0:
184,88,138191,1,0,0:0:0:0:
240,88,138253,1,0,0:0:0:0:
184,88,138316,1,4,0:0:0:0:
144,128,138378,1,0,0:0:0:0:
128,168,138441,1,0,0:0:0:0:
144,128,138503,1,0,0:0:0:0:
352,208,138566,5,12,0:0:0:0:
392,168,138628,1,0,0:0:0:0:
408,128,138691,1,0,0:0:0:0:
392,168,138753,1,0,0:0:0:0:
352,208,138816,1,4,0:0:0:0:
296,208,138878,1,0,0:0:0:0:
352,208,138941,1,0,0:0:0:0:
408,208,139003,1,0,0:0:0:0:
192,272,139066,5,12,0:0:0:0:
136,240,139128,1,0,0:0:0:0:
104,192,139191,1,0,0:0:0:0:
96,144,139253,1,0,0:0:0:0:
160,144,139316,2,0,L|160:48,1,89.9999972534181,4|0,0:0|0:0,0:0:0:0:
96,144,139441,2,0,L|96:248,1,89.9999972534181,0|0,0:0|0:0,0:0:0:0:
248,256,139566,5,12,0:0:0:0:
304,256,139628,1,0,0:0:0:0:
248,256,139691,1,0,0:0:0:0:
216,208,139753,1,0,0:0:0:0:
208,160,139816,1,4,0:0:0:0:
224,208,139878,1,0,0:0:0:0:
264,256,139941,1,0,0:0:0:0:
328,256,140003,1,0,0:0:0:0:
144,176,140066,5,12,0:0:0:0:
112,176,140128,1,0,0:0:0:0:
144,176,140191,1,0,0:0:0:0:
192,176,140253,1,0,0:0:0:0:
248,176,140316,1,4,0:0:0:0:
304,176,140378,1,0,0:0:0:0:
360,176,140441,1,0,0:0:0:0:
304,176,140503,1,0,0:0:0:0:
152,288,140566,5,12,0:0:0:0:
104,288,140628,1,0,0:0:0:0:
152,288,140691,1,0,0:0:0:0:
208,288,140753,1,0,0:0:0:0:
208,288,140816,1,4,0:0:0:0:
152,288,140878,1,0,0:0:0:0:
104,288,140941,1,0,0:0:0:0:
152,288,141003,1,0,0:0:0:0:
296,200,141066,6,0,L|296:88,1,89.9999972534181,12|0,0:0|0:0,0:0:0:0:
240,200,141191,1,4,0:0:0:0:
184,200,141253,1,0,0:0:0:0:
336,192,141316,2,0,L|336:88,1,89.9999972534181,4|0,0:0|0:0,0:0:0:0:
176,160,141441,2,0,L|96:80,1,89.9999972534181,4|0,0:0|0:0,0:0:0:0:
400,288,141566,5,4,0:0:0:0:
448,256,141628,1,0,0:0:0:0:
464,208,141691,1,0,0:0:0:0:
448,256,141753,1,0,0:0:0:0:
320,216,141816,1,4,0:0:0:0:
192,216,141878,1,0,0:0:0:0:
64,216,141941,2,0,L|64:104,1,104.999996795654,0|0,0:0|0:0,0:0:0:0:
432,208,142066,5,6,0:0:0:0:
256,192,142191,12,6,150066,3:3:0:0:
256,192,152066,5,6,3:3:0:0:
96,192,154066,6,0,L|416:192,1,314.999990386963,6|6,3:3|3:3,0:0:0:0:
184,264,156066,6,0,P|72:152|160:64,1,314.999990386963,6|0,0:0|0:0,0:0:0:0:
264,136,156566,2,4,L|304:96,2,52.4999983978272
160,128,156816,2,4,L|120:88,2,52.4999983978272
440,184,157066,5,4,0:0:0:0:
328,184,157191,2,0,L|328:320,1,129.999994049073,8|0,0:0|0:0,0:0:0:0:
440,184,157441,1,4,0:0:0:0:
240,192,157566,2,0,L|344:88,1,129.999994049073,8|0,0:0|0:0,0:0:0:0:
152,240,157816,1,8,0:0:0:0:
96,200,157878,1,8,0:0:0:0:
80,152,157941,1,8,0:0:0:0:
96,200,158003,1,8,0:0:0:0:
432,176,158066,6,0,L|304:48,2,150.000005722046,6|0|8,0:0|0:0|0:0,0:0:0:0:
200,184,158441,2,0,L|312:72,2,150.000005722046,0|8|0,0:0|0:0|0:0,0:0:0:0:
408,192,158816,2,0,L|416:112,2,75.0000028610231,8|0|0,0:0|0:0|0:0,0:0:0:0:
296,80,159066,1,8,0:0:0:0:
104,256,159191,5,0,0:0:0:0:
216,256,159316,1,8,0:0:0:0:
328,256,159441,1,0,0:0:0:0:
80,184,159566,2,0,L|80:32,1,150.000005722046,8|0,0:0|0:0,0:0:0:0:
304,192,159816,2,0,L|304:32,1,150.000005722046,8|0,0:0|0:0,0:0:0:0:
64,184,160066,5,8,0:0:0:0:
120,184,160128,1,0,0:0:0:0:
176,184,160191,1,0,0:0:0:0:
72,184,160316,1,8,0:0:0:0:
288,184,160441,2,0,L|176:72,1,150.000005722046,0|8,0:0|0:0,0:0:0:0:
384,184,160691,1,0,0:0:0:0:
184,200,160816,2,0,L|184:48,1,150.000005722046,8|0,0:0|0:0,0:0:0:0:
368,200,161066,6,0,L|480:88,1,150.000005722046,8|0,0:0|0:0,0:0:0:0:
288,192,161316,2,0,L|400:80,1,150.000005722046,8|0,0:0|0:0,0:0:0:0:
208,184,161566,2,0,L|336:56,1,150.000005722046,8|0,0:0|0:0,0:0:0:0:
128,176,161816,1,8,0:0:0:0:
104,152,161878,1,0,0:0:0:0:
128,176,161941,1,0,0:0:0:0:
344,184,162066,6,0,L|232:72,2,150.000005722046,8|0|8,0:0|0:0|0:0,0:0:0:0:
72,184,162441,1,0,0:0:0:0:
288,304,162566,2,0,P|440:304|440:184,1,300.000011444092,8|8,0:0|0:0,0:0:0:0:
336,264,162941,1,0,0:0:0:0:
440,264,163066,1,8,0:0:0:0:
200,240,163191,5,0,0:0:0:0:
392,200,163316,2,0,L|392:48,1,150.000005722046,8|0,0:0|0:0,0:0:0:0:
200,240,163566,2,0,L|344:96,1,150.000005722046,8|0,0:0|0:0,0:0:0:0:
112,160,163816,1,8,0:0:0:0:
304,128,163941,1,0,0:0:0:0:
64,288,164066,6,0,L|64:208,1,75.0000028610231,8|0,0:0|0:0,0:0:0:0:
128,288,164191,2,0,L|128:200,1,75.0000028610231
64,288,164316,1,8,0:0:0:0:
320,256,164441,2,0,L|208:144,1,150.000005722046,0|8,0:0|0:0,0:0:0:0:
424,192,164691,1,0,0:0:0:0:
216,176,164816,2,0,L|344:48,1,150.000005722046,8|0,0:0|0:0,0:0:0:0:
104,208,165066,6,0,L|104:56,1,150.000005722046,8|0,0:0|0:0,0:0:0:0:
304,200,165316,2,0,L|192:88,1,150.000005722046,8|0,0:0|0:0,0:0:0:0:
400,208,165566,2,0,L|400:32,1,150.000005722046,8|0,0:0|0:0,0:0:0:0:
128,208,165816,1,8,0:0:0:0:
104,184,165878,1,0,0:0:0:0:
128,208,165941,1,0,0:0:0:0:
368,184,166066,6,0,L|480:72,2,150.000005722046,10|0|8,0:0|0:0|0:0,0:0:0:0:
160,184,166441,2,0,L|272:72,2,150.000005722046,0|8|0,0:0|0:0|0:0,0:0:0:0:
464,216,166816,1,8,0:0:0:0:
480,200,166878,1,0,0:0:0:0:
464,216,166941,1,0,0:0:0:0:
352,104,167066,1,8,0:0:0:0:
160,304,167191,6,0,L|160:152,1,150.000005722046,0|8,0:0|0:0,0:0:0:0:
272,192,167441,1,0,0:0:0:0:
32,184,167566,2,0,L|152:64,1,150.000005722046,8|0,0:0|0:0,0:0:0:0:
328,184,167816,2,0,L|216:72,1,150.000005722046,8|0,0:0|0:0,0:0:0:0:
456,184,168066,5,8,0:0:0:0:
400,184,168128,1,0,0:0:0:0:
344,184,168191,1,0,0:0:0:0:
448,184,168316,1,8,0:0:0:0:
224,184,168441,2,0,L|224:24,1,150.000005722046,0|8,0:0|0:0,0:0:0:0:
408,160,168691,1,0,0:0:0:0:
224,184,168816,2,0,L|336:72,1,150.000005722046,8|0,0:0|0:0,0:0:0:0:
72,192,169066,6,0,L|72:32,1,150.000005722046,8|0,0:0|0:0,0:0:0:0:
256,192,169316,2,0,L|256:32,1,150.000005722046,8|0,0:0|0:0,0:0:0:0:
440,192,169566,2,0,L|440:32,1,150.000005722046,8|0,0:0|0:0,0:0:0:0:
248,192,169816,1,8,0:0:0:0:
192,192,169878,1,0,0:0:0:0:
192,192,169941,1,0,0:0:0:0:
384,296,170066,6,8,L|384:144,1,150.000005722046,8|0,0:0|0:0,0:0:0:0:
272,184,170316,1,8,0:0:0:0:
464,296,170441,1,0,0:0:0:0:
224,304,170566,2,0,P|72:304|72:184,1,300.000011444092,8|8,0:0|0:0,0:0:0:0:
176,264,170941,1,0,0:0:0:0:
72,264,171066,1,8,0:0:0:0:
368,200,171191,5,0,0:0:0:0:
176,192,171316,2,0,L|312:56,1,150.000005722046,8|0,0:0|0:0,0:0:0:0:
72,192,171566,2,0,L|72:40,1,150.000005722046,8|0,0:0|0:0,0:0:0:0:
304,192,171816,1,8,0:0:0:0:
120,192,171941,1,0,0:0:0:0:
352,288,172066,6,0,L|352:208,1,75.0000028610231,8|0,0:0|0:0,0:0:0:0:
288,288,172191,2,0,L|288:200,1,75.0000028610231
352,288,172316,1,8,0:0:0:0:
160,192,172441,2,0,L|48:80,1,150.000005722046,0|8,0:0|0:0,0:0:0:0:
248,168,172691,1,0,0:0:0:0:
56,240,172816,2,0,L|176:120,1,150.000005722046,8|0,0:0|0:0,0:0:0:0:
472,192,173066,5,4,0:0:0:0:
288,272,173191,2,0,L|288:112,1,150.000005722046,10|0,0:0|0:0,0:0:0:0:
336,128,173378,1,0,0:0:0:0:
384,128,173441,1,2,0:0:0:0:
152,248,173566,5,8,0:1:0:0:
104,216,173628,1,8,0:1:0:0:
88,168,173691,1,8,0:1:0:0:
104,216,173753,1,8,0:1:0:0:
296,208,173816,2,0,L|360:144,1,75.0000028610231,8|8,0:0|0:0,0:0:0:0:
152,219,173941,2,0,L|88:155,1,75.0000028610231,8|8,0:0|0:0,0:0:0:0:
352,224,174066,6,0,L|464:112,2,150.000005722046,6|8|4,0:0|0:0|0:0,0:0:0:0:
168,176,174441,1,8,0:0:0:0:
264,176,174566,1,4,0:0:0:0:
264,176,174691,1,8,0:0:0:0:
72,192,174816,1,4,0:0:0:0:
56,176,174878,1,0,0:0:0:0:
72,192,174941,1,8,0:0:0:0:
184,80,175066,1,4,0:0:0:0:
432,192,175191,6,0,L|320:80,2,150.000005722046,8|4|8,0:0|0:0|0:0,0:0:0:0:
232,200,175566,2,0,L|344:88,1,150.000005722046,4|8,0:0|0:0,0:0:0:0:
152,200,175816,2,0,L|40:88,1,150.000005722046,4|8,0:0|0:0,0:0:0:0:
240,160,176066,5,4,0:0:0:0:
296,160,176128,1,0,0:0:0:0:
296,160,176191,1,8,0:0:0:0:
168,160,176316,1,4,0:0:0:0:
376,184,176441,2,0,L|264:72,1,150.000005722046,8|4,0:0|0:0,0:0:0:0:
456,152,176691,1,8,0:0:0:0:
264,232,176816,2,0,L|376:120,1,150.000005722046,4|8,0:0|0:0,0:0:0:0:
72,192,177066,6,4,L|72:40,1,150.000005722046,4|8,0:0|0:0,0:0:0:0:
256,192,177316,2,0,L|256:344,1,150.000005722046,4|8,0:0|0:0,0:0:0:0:
440,192,177566,2,0,L|440:40,1,150.000005722046,4|8,0:0|0:0,0:0:0:0:
256,192,177816,1,4,0:0:0:0:
304,192,177878,1,0,0:0:0:0:
352,192,177941,1,8,0:0:0:0:
136,192,178066,6,0,L|248:80,2,150.000005722046,4|8|4,0:0|0:0|0:0,0:0:0:0:
360,224,178441,1,8,0:0:0:0:
135,255,178566,2,0,P|79:199|208:72,1,300.000011444092,4|4,0:0|0:0,0:0:0:0:
312,72,178941,1,8,0:0:0:0:
200,56,179066,1,4,0:0:0:0:
440,184,179191,5,8,0:0:0:0:
256,208,179316,2,0,L|256:56,1,150.000005722046,4|8,0:0|0:0,0:0:0:0:
440,224,179566,2,0,L|320:104,1,150.000005722046,4|8,0:0|0:0,0:0:0:0:
136,208,179816,1,4,0:0:0:0:
328,208,179941,1,8,0:0:0:0:
128,288,180066,5,4,0:0:0:0:
80,264,180128,1,0,0:0:0:0:
64,232,180191,1,8,0:0:0:0:
80,264,180253,1,0,0:0:0:0:
128,288,180316,1,4,0:0:0:0:
312,200,180441,2,0,L|192:80,1,150.000005722046,8|4,0:0|0:0,0:0:0:0:
400,184,180691,1,8,0:0:0:0:
80,184,180816,2,0,L|80:24,1,150.000005722046,4|8,0:0|0:0,0:0:0:0:
304,256,181066,5,6,0:0:0:0:
360,256,181128,1,0,0:0:0:0:
360,256,181191,1,8,0:0:0:0:
240,256,181316,1,8,0:0:0:0:
184,256,181378,1,8,0:0:0:0:
184,256,181441,1,8,0:0:0:0:
400,248,181566,5,8,0:0:0:0:
448,216,181628,1,8,0:0:0:0:
464,168,181691,1,8,0:0:0:0:
448,216,181753,1,8,0:0:0:0:
256,200,181816,2,0,L|200:144,1,75.0000028610231,8|8,0:0|0:0,0:0:0:0:
400,216,181941,2,0,L|464:152,1,75.0000028610231,8|8,0:0|0:0,0:0:0:0:
176,184,182066,5,6,0:0:0:0:
128,184,182128,1,0,0:0:0:0:
176,184,182191,1,0,0:0:0:0:
216,152,182253,1,0,0:0:0:0:
232,112,182316,1,10,0:0:0:0:
224,72,182378,1,0,0:0:0:0:
96,96,182441,2,0,L|152:40,1,75.0000028610231,0|0,0:0|0:0,0:0:0:0:
304,184,182566,6,0,L|304:104,1,75.0000028610231,6|0,0:0|0:0,0:0:0:0:
240,184,182691,2,0,L|240:96,1,75.0000028610231,0|0,0:0|0:0,0:0:0:0:
408,184,182816,2,0,L|472:120,1,75.0000028610231,10|0,0:0|0:0,0:0:0:0:
312,272,182941,2,0,L|312:192,1,75.0000028610231
368,272,183066,1,6,0:0:0:0:
424,272,183128,1,0,0:0:0:0:
280,136,183191,2,0,L|216:72,1,75.0000028610231,0|0,0:0|0:0,0:0:0:0:
104,224,183316,5,10,0:0:0:0:
56,184,183378,1,0,0:0:0:0:
40,128,183441,1,0,0:0:0:0:
56,184,183503,1,0,0:0:0:0:
232,200,183566,1,6,0:0:0:0:
288,200,183628,1,0,0:0:0:0:
344,200,183691,1,0,0:0:0:0:
288,200,183753,1,0,0:0:0:0:
152,144,183816,1,10,0:0:0:0:
96,144,183878,1,0,0:0:0:0:
40,144,183941,1,0,0:0:0:0:
96,144,184003,1,0,0:0:0:0:
400,240,184066,5,6,0:0:0:0:
448,216,184128,1,0,0:0:0:0:
472,168,184191,1,0,0:0:0:0:
448,216,184253,1,0,0:0:0:0:
328,160,184316,2,0,L|272:104,1,75.0000028610231,10|0,0:0|0:0,0:0:0:0:
152,240,184441,5,0,0:0:0:0:
96,240,184503,1,0,0:0:0:0:
152,240,184566,1,6,0:0:0:0:
208,240,184628,1,0,0:0:0:0:
64,160,184691,2,0,L|40:80,1,75.0000028610231,0|0,0:0|0:0,0:0:0:0:
168,176,184816,1,10,0:0:0:0:
224,176,184878,1,0,0:0:0:0:
168,176,184941,1,0,0:0:0:0:
112,176,185003,1,0,0:0:0:0:
296,240,185066,5,6,0:0:0:0:
352,216,185128,1,0,0:0:0:0:
384,176,185191,1,0,0:0:0:0:
392,128,185253,1,0,0:0:0:0:
248,120,185316,1,10,0:0:0:0:
192,120,185378,1,0,0:0:0:0:
248,120,185441,1,0,0:0:0:0:
304,120,185503,1,0,0:0:0:0:
160,320,185566,5,6,0:0:0:0:
104,296,185628,1,0,0:0:0:0:
72,256,185691,1,0,0:0:0:0:
64,208,185753,1,0,0:0:0:0:
208,200,185816,2,0,L|208:112,1,75.0000028610231,10|0,0:0|0:0,0:0:0:0:
152,200,185941,2,0,L|152:96,1,75.0000028610231,0|0,0:0|0:0,0:0:0:0:
328,240,186066,6,0,L|384:184,1,75.0000028610231,6|0,0:0|0:0,0:0:0:0:
216,240,186191,2,0,L|160:184,1,75.0000028610231,0|0,0:0|0:0,0:0:0:0:
304,280,186316,1,10,0:0:0:0:
328,232,186378,1,0,0:0:0:0:
304,192,186441,1,0,0:0:0:0:
232,200,186503,1,0,0:0:0:0:
400,184,186566,6,0,L|456:128,1,75.0000028610231,6|0,0:0|0:0,0:0:0:0:
384,176,186691,2,0,L|320:112,1,75.0000028610231,0|0,0:0|0:0,0:0:0:0:
400,184,186816,1,10,0:0:0:0:
456,184,186878,1,0,0:0:0:0:
456,184,186941,1,0,0:0:0:0:
400,184,187003,1,0,0:0:0:0:
280,160,187066,2,0,L|216:96,1,75.0000028610231,6|0,0:0|0:0,0:0:0:0:
104,248,187191,6,0,L|96:168,1,75.0000028610231
160,248,187316,2,0,L|168:168,1,75.0000028610231,10|0,0:0|0:0,0:0:0:0:
104,248,187441,2,0,L|176:176,1,75.0000028610231
328,208,187566,5,6,0:0:0:0:
280,208,187628,1,0,0:0:0:0:
232,208,187691,1,0,0:0:0:0:
184,208,187753,1,0,0:0:0:0:
352,184,187816,2,0,L|408:128,1,75.0000028610231,10|0,0:0|0:0,0:0:0:0:
232,152,187941,2,0,L|232:72,1,75.0000028610231,0|0,0:0|0:0,0:0:0:0:
384,280,188066,5,6,0:0:0:0:
432,280,188128,1,0,0:0:0:0:
384,280,188191,2,0,L|384:200,1,75.0000028610231
432,280,188316,1,10,0:0:0:0:
384,280,188378,1,0,0:0:0:0:
224,168,188441,5,0,0:0:0:0:
168,168,188503,1,0,0:0:0:0:
160,168,188566,1,6,0:0:0:0:
216,168,188628,1,0,0:0:0:0:
344,168,188691,2,0,L|344:80,1,75.0000028610231
136,232,188816,1,10,0:0:0:0:
80,200,188878,1,0,0:0:0:0:
56,160,188941,1,0,0:0:0:0:
80,200,189003,1,0,0:0:0:0:
240,256,189066,5,6,0:0:0:0:
296,256,189128,1,0,0:0:0:0:
304,256,189191,1,0,0:0:0:0:
248,256,189253,1,0,0:0:0:0:
88,192,189316,2,0,L|80:112,1,75.0000028610231,10|8,0:0|0:0,0:0:0:0:
232,192,189441,2,0,L|296:128,1,75.0000028610231,8|8,0:0|0:0,0:0:0:0:
440,192,189566,2,0,L|448:112,1,75.0000028610231,10|8,0:0|0:0,0:0:0:0:
296,192,189691,2,0,L|232:128,1,75.0000028610231,8|8,0:0|0:0,0:0:0:0:
88,192,189816,2,0,L|48:48,1,150.000005722046,10|4,0:0|0:0,0:0:0:0:
120,192,190003,1,4,0:0:0:0:
320,168,190066,5,6,0:0:0:0:
432,168,190191,1,4,0:0:0:0:
320,168,190316,1,4,0:0:0:0:
208,168,190441,1,4,0:0:0:0:
320,168,190566,1,4,0:0:0:0:
432,168,190691,1,4,0:0:0:0:
320,168,190816,1,4,0:0:0:0:
208,168,190941,1,0,0:0:0:0:
440,216,191066,6,0,L|440:104,1,100,4|0,0:0|0:0,0:0:0:0:
256,256,191316,1,8,0:0:0:0:
168,256,191441,1,0,0:0:0:0:
256,256,191566,1,0,0:0:0:0:
344,256,191691,1,0,0:0:0:0:
152,144,191816,5,8,0:0:0:0:
64,144,191941,1,0,0:0:0:0:
64,144,192066,1,4,0:0:0:0:
152,144,192191,1,0,0:0:0:0:
352,144,192316,6,0,L|352:248,1,100,8|0,0:0|0:0,0:0:0:0:
136,184,192566,1,8,0:0:0:0:
248,184,192691,1,8,0:0:0:0:
136,184,192816,2,0,L|136:296,1,100,8|0,0:0|0:0,0:0:0:0:
384,192,193066,6,0,L|424:96,7,100,4|0|0|0|0|0|0|0,0:0|0:0|0:0|0:0|0:0|0:0|0:0|0:0,0:0:0:0:
208,168,194066,5,12,0:0:0:0:
320,168,194191,1,8,0:0:0:0:
208,160,194316,1,8,0:0:0:0:
320,160,194441,1,8,0:0:0:0:
208,152,194566,1,8,0:0:0:0:
320,152,194691,1,8,0:0:0:0:
208,144,194816,1,8,0:0:0:0:
320,144,194941,1,0,0:0:0:0:
96,192,195066,6,0,L|96:80,1,100,4|0,0:0|0:0,0:0:0:0:
280,208,195316,1,8,0:0:0:0:
344,160,195441,1,0,0:0:0:0:
376,80,195566,1,0,0:0:0:0:
344,160,195691,1,0,0:0:0:0:
144,208,195816,5,8,0:0:0:0:
80,160,195941,1,0,0:0:0:0:
48,80,196066,1,4,0:0:0:0:
80,160,196191,1,0,0:0:0:0:
296,192,196316,6,0,L|296:80,1,100,8|0,0:0|0:0,0:0:0:0:
104,184,196566,1,8,0:0:0:0:
216,184,196691,1,8,0:0:0:0:
104,184,196816,2,0,L|104:296,1,100,8|0,0:0|0:0,0:0:0:0:
288,200,197066,6,0,L|328:104,7,100,4|0|0|0|0|0|0|0,0:0|0:0|0:0|0:0|0:0|0:0|0:0|0:0,0:0:0:0:
64,184,198066,5,14,0:0:0:0:
176,184,198191,1,8,0:0:0:0:
64,184,198316,1,8,0:0:0:0:
64,184,198441,1,8,0:0:0:0:
176,184,198566,1,8,0:0:0:0:
64,184,198691,1,8,0:0:0:0:
176,184,198816,1,8,0:0:0:0:
288,184,198941,1,0,0:0:0:0:
64,264,199066,6,0,L|64:160,1,100,4|0,0:0|0:0,0:0:0:0:
288,256,199316,1,8,0:0:0:0:
200,256,199441,1,0,0:0:0:0:
200,256,199566,1,0,0:0:0:0:
288,256,199691,1,0,0:0:0:0:
48,256,199816,5,8,0:0:0:0:
136,256,199941,1,0,0:0:0:0:
136,256,200066,1,4,0:0:0:0:
48,256,200191,1,0,0:0:0:0:
272,232,200316,6,0,L|272:104,1,100,8|0,0:0|0:0,0:0:0:0:
56,168,200566,1,8,0:0:0:0:
168,168,200691,1,8,0:0:0:0:
56,168,200816,2,0,L|56:280,1,100,8|0,0:0|0:0,0:0:0:0:
336,248,201066,6,0,L|376:152,7,100,4|0|0|0|0|0|0|0,0:0|0:0|0:0|0:0|0:0|0:0|0:0|0:0,0:0:0:0:
152,184,202066,5,12,0:0:0:0:
40,184,202191,1,8,0:0:0:0:
152,184,202316,1,8,0:0:0:0:
264,184,202441,1,8,0:0:0:0:
152,184,202566,1,8,0:0:0:0:
152,184,202691,1,8,0:0:0:0:
264,184,202816,1,8,0:0:0:0:
152,184,202941,1,0,0:0:0:0:
424,208,203066,6,0,L|424:96,1,100,4|0,0:0|0:0,0:0:0:0:
232,256,203316,1,8,0:0:0:0:
152,208,203441,1,0,0:0:0:0:
128,128,203566,1,0,0:0:0:0:
152,208,203691,1,0,0:0:0:0:
336,192,203816,5,8,0:0:0:0:
432,192,203941,1,0,0:0:0:0:
336,192,204066,1,4,0:0:0:0:
240,192,204191,1,0,0:0:0:0:
448,192,204316,6,0,L|448:88,1,100,8|0,0:0|0:0,0:0:0:0:
224,224,204566,1,8,0:0:0:0:
336,224,204691,1,8,0:0:0:0:
224,224,204816,2,0,L|224:336,1,100,8|0,0:0|0:0,0:0:0:0:
432,232,205066,6,0,P|472:192|360:80,1,250,2|0,0:0|0:0,0:0:0:0:
328,96,205441,1,8,0:0:0:0:
432,184,205566,1,4,0:0:0:0:
456,160,205628,1,0,0:0:0:0:
432,184,205691,1,0,0:0:0:0:
328,144,205816,1,4,0:0:0:0:
368,144,205878,1,0,0:0:0:0:
408,144,205941,1,0,0:0:0:0:
144,192,206066,6,0,L|256:192,6,110.000003356934,6|4|4|4|6|4|4,0:0|0:0|0:0|0:0|0:0|0:0|0:0,0:0:0:0:
392,272,207316,6,0,P|392:216|112:216,2,440.000013427735,4|4|4,0:0|0:0|0:0,0:0:0:0:
144,192,208566,6,0,L|256:192,2,110.000003356934,6|4|4,0:0|0:0|0:0,0:0:0:0:
464,352,209066,2,0,B|464:80|464:80|464:248,1,440.000013427735,10|2,0:0|0:0,0:0:0:0:
256,192,210066,5,6,0:0:0:0:
144,192,210191,1,4,0:0:0:0:
256,192,210316,1,4,0:0:0:0:
368,192,210441,1,4,0:0:0:0:
256,192,210566,1,6,0:0:0:0:
144,192,210691,1,4,0:0:0:0:
256,192,210816,1,4,0:0:0:0:
408,304,211316,6,0,P|448:264|248:64,2,440.000013427735,4|4|4,0:0|0:0|0:0,0:0:0:0:
184,192,212566,1,6,0:0:0:0:
296,192,212691,1,4,0:0:0:0:
408,192,212816,1,4,0:0:0:0:
56,0,213066,2,0,B|56:384|56:384|56:320,1,440.000013427735,10|2,0:0|0:0,0:0:0:0:
368,192,214066,6,0,L|256:192,6,110.000003356934,6|4|4|4|6|4|4,0:0|0:0|0:0|0:0|0:0|0:0|0:0,0:0:0:0:
120,272,215316,6,0,P|120:216|400:216,2,440.000013427735,4|4|4,0:0|0:0|0:0,0:0:0:0:
368,192,216566,6,0,L|248:192,2,110.000003356934,6|4|4,0:0|0:0|0:0,0:0:0:0:
56,192,217066,2,0,B|56:80|56:80|56:304|56:304|56:200,1,440.000013427735,10|2,0:0|0:0,0:0:0:0:
256,192,218066,5,6,0:0:0:0:
368,192,218191,1,4,0:0:0:0:
256,192,218316,1,4,0:0:0:0:
144,192,218441,1,4,0:0:0:0:
256,192,218566,1,6,0:0:0:0:
368,192,218691,1,4,0:0:0:0:
256,192,218816,1,4,0:0:0:0:
104,304,219316,6,0,P|64:264|264:64,2,440.000013427735,4|4|4,0:0|0:0|0:0,0:0:0:0:
328,192,220566,1,6,0:0:0:0:
216,192,220691,1,4,0:0:0:0:
104,192,220816,1,4,0:0:0:0:
456,192,221066,2,0,B|456:24|456:24|456:296,1,440.000013427735,10|2,0:0|0:0,0:0:0:0:
184,280,222066,5,6,0:0:0:0:
88,232,222191,1,4,0:0:0:0:
48,120,222316,1,4,0:0:0:0:
88,232,222441,1,4,0:0:0:0:
280,216,222566,2,0,L|304:80,1,129.999994049073,8|4,0:0|0:0,0:0:0:0:
208,216,222816,2,0,L|184:80,1,129.999994049073,4|4,0:0|0:0,0:0:0:0:
416,216,223066,5,4,0:0:0:0:
232,192,223191,2,0,L|344:80,1,129.999994049073,8|4,0:0|0:0,0:0:0:0:
144,240,223441,1,4,0:0:0:0:
328,216,223566,1,8,0:0:0:0:
424,168,223691,1,4,0:0:0:0:
464,56,223816,1,4,0:0:0:0:
424,168,223941,1,4,0:0:0:0:
240,112,224066,5,6,0:0:0:0:
136,112,224191,1,4,0:0:0:0:
240,112,224316,1,4,0:0:0:0:
344,112,224441,1,4,0:0:0:0:
152,256,224566,2,0,L|128:120,1,129.999994049073,8|4,0:0|0:0,0:0:0:0:
224,256,224816,2,0,L|248:120,1,129.999994049073,4|4,0:0|0:0,0:0:0:0:
56,160,225066,5,4,0:0:0:0:
240,160,225191,2,0,L|240:312,1,129.999994049073,8|4,0:0|0:0,0:0:0:0:
56,160,225441,1,8,0:0:0:0:
288,152,225566,1,4,0:0:0:0:
168,152,225691,1,4,0:0:0:0:
272,152,225816,1,4,0:0:0:0:
184,152,225941,1,4,0:0:0:0:
432,224,226066,6,0,L|312:104,2,129.999994049073,10|4|4,0:0|0:0|0:0,0:0:0:0:
224,192,226441,1,8,0:0:0:0:
312,192,226566,1,4,0:0:0:0:
400,192,226691,1,4,0:0:0:0:
192,224,226816,2,0,L|312:104,1,129.999994049073,8|4,0:0|0:0,0:0:0:0:
80,176,227066,5,8,0:0:0:0:
176,176,227191,1,4,0:0:0:0:
168,176,227316,1,4,0:0:0:0:
72,176,227441,1,4,0:0:0:0:
352,232,227566,1,8,0:0:0:0:
256,232,227691,1,4,0:0:0:0:
264,232,227816,1,4,0:0:0:0:
360,232,227941,1,4,0:0:0:0:
128,160,228066,6,0,L|224:64,1,129.999994049073,10|4,0:0|0:0,0:0:0:0:
120,160,228316,2,0,L|96:24,1,129.999994049073,4|4,0:0|0:0,0:0:0:0:
304,208,228566,2,0,L|208:112,1,129.999994049073,8|4,0:0|0:0,0:0:0:0:
312,208,228816,2,0,L|336:72,1,129.999994049073,4|4,0:0|0:0,0:0:0:0:
152,160,229066,6,0,L|56:64,1,129.999994049073,8|4,0:0|0:0,0:0:0:0:
264,160,229316,2,0,L|360:64,1,129.999994049073,8|4,0:0|0:0,0:0:0:0:
152,192,229566,2,0,L|96:136,1,64.9999970245363,8|8,0:0|0:0,0:0:0:0:
256,192,229691,2,0,L|312:136,1,64.9999970245363,8|8,0:0|0:0,0:0:0:0:
448,192,229816,1,8,0:1:0:0:
432,144,229878,1,8,0:1:0:0:
392,104,229941,1,8,0:1:0:0:
336,88,230003,1,8,0:1:0:0:
168,208,230066,6,0,L|144:72,1,129.999994049073,10|0,0:0|0:0,0:0:0:0:
256,208,230316,2,0,L|280:72,1,129.999994049073,4|0,0:0|0:0,0:0:0:0:
56,272,230566,1,10,0:0:0:0:
168,272,230691,1,0,0:0:0:0:
56,272,230816,1,4,0:0:0:0:
168,272,230941,1,0,0:0:0:0:
392,184,231066,5,10,0:0:0:0:
280,184,231191,1,0,0:0:0:0:
392,184,231316,1,4,0:0:0:0:
280,184,231441,1,0,0:0:0:0:
56,272,231566,1,10,0:0:0:0:
56,272,231691,1,0,0:0:0:0:
168,272,231816,1,4,0:0:0:0:
56,272,231941,1,0,0:0:0:0:
272,224,232066,6,0,L|320:104,1,129.999994049073,10|0,0:0|0:0,0:0:0:0:
208,224,232316,2,0,L|160:104,1,129.999994049073,4|0,0:0|0:0,0:0:0:0:
360,152,232566,1,10,0:0:0:0:
256,152,232691,1,0,0:0:0:0:
360,152,232816,1,4,0:0:0:0:
464,152,232941,1,0,0:0:0:0:
192,200,233066,5,10,0:0:0:0:
304,200,233191,1,0,0:0:0:0:
192,200,233316,1,4,0:0:0:0:
304,200,233441,1,0,0:0:0:0:
72,152,233566,1,10,0:0:0:0:
176,152,233691,1,0,0:0:0:0:
176,152,233816,1,4,0:0:0:0:
72,152,233941,1,0,0:0:0:0:
312,296,234066,5,10,0:0:0:0:
272,200,234191,1,0,0:0:0:0:
184,136,234316,1,10,0:0:0:0:
64,120,234441,1,0,0:0:0:0:
320,176,234566,1,10,0:0:0:0:
432,176,234691,1,0,0:0:0:0:
224,176,234816,1,10,0:0:0:0:
336,176,234941,1,0,0:0:0:0:
152,176,235066,5,10,0:0:0:0:
40,176,235191,1,0,0:0:0:0:
248,176,235316,1,10,0:0:0:0:
136,176,235441,1,0,0:0:0:0:
328,176,235566,1,10,0:0:0:0:
440,176,235691,1,0,0:0:0:0:
184,176,235816,1,10,0:0:0:0:
72,176,235941,1,0,0:0:0:0:
400,256,236066,6,0,L|456:200,1,75.0000028610231,10|0,0:0|0:0,0:0:0:0:
296,184,236191,2,0,L|296:96,1,75.0000028610231,10|0,0:0|0:0,0:0:0:0:
344,184,236316,1,0,0:0:0:0:
392,184,236378,1,0,0:0:0:0:
216,296,236441,6,0,L|160:240,1,75.0000028610231,10|0,0:0|0:0,0:0:0:0:
320,224,236566,2,0,L|320:136,1,75.0000028610231,10|0,0:0|0:0,0:0:0:0:
272,224,236691,1,0,0:0:0:0:
224,224,236753,1,0,0:0:0:0:
376,296,236816,5,8,0:0:0:0:
424,296,236878,1,8,0:1:0:0:
376,296,236941,1,8,0:1:0:0:
328,296,237003,1,8,0:1:0:0:
376,296,237066,1,8,0:1:0:0:
424,296,237128,1,0,0:0:0:0:
232,200,237191,6,0,L|168:136,1,75.0000028610231,8|8,0:0|0:1,0:0:0:0:
384,208,237316,1,8,0:1:0:0:
440,208,237378,1,0,0:0:0:0:
448,208,237441,1,8,0:1:0:0:
392,208,237503,1,0,0:0:0:0:
184,336,237566,2,0,B|72:224|72:224|216:224|216:224|144:224|144:32,1,525.000020027161,10|0,0:0|0:0,0:0:0:0:
384,304,238066,5,2,0:0:0:0:
288,264,238316,1,0,0:0:0:0:
232,168,238566,1,0,0:0:0:0:
208,64,238816,1,0,0:0:0:0:
208,64,239066,1,0,0:0:0:0:
232,168,239316,1,0,0:0:0:0:
288,264,239566,1,0,0:0:0:0:
384,304,239816,1,0,0:0:0:0:
248,144,240066,6,0,L|240:80,1,64.9999970245363,8|8,0:1|0:1,0:0:0:0:
304,144,240191,2,0,L|312:80,1,64.9999970245363,8|8,0:1|0:1,0:0:0:0:
176,232,240316,1,8,0:0:0:0:
120,200,240378,1,0,0:0:0:0:
88,160,240441,1,8,0:1:0:0:
80,112,240503,1,8,0:1:0:0:
232,232,240566,5,8,0:0:0:0:
288,200,240628,1,0,0:0:0:0:
320,160,240691,1,8,0:1:0:0:
328,112,240753,1,8,0:1:0:0:
264,112,240816,2,0,L|264:48,1,64.9999970245363,8|0,0:1|0:0,0:0:0:0:
408,200,240941,5,8,0:0:0:0:
464,200,241003,1,0,0:0:0:0:
472,200,241066,1,8,0:1:0:0:
416,200,241128,1,0,0:0:0:0:
248,256,241191,2,0,L|224:168,1,64.9999970245363,8|8,0:0|0:1,0:0:0:0:
304,256,241316,2,0,L|328:168,1,64.9999970245363,8|0,0:1|0:0,0:0:0:0:
392,256,241441,2,0,L|448:200,1,64.9999970245363,8|0,0:1|0:0,0:0:0:0:
184,184,241566,6,0,L|128:128,1,64.9999970245363,8|8,0:0|0:1,0:0:0:0:
304,176,241691,2,0,L|360:120,1,64.9999970245363,8|8,0:1|0:1,0:0:0:0:
176,192,241816,2,0,P|112:192|112:80,1,194.999991073609,8|0,0:0|0:0,0:0:0:0:
272,104,242066,6,0,L|336:40,1,75.0000028610231,6|0,0:0|0:0,0:0:0:0:
464,88,242191,2,0,L|464:176,1,75.0000028610231,6|0,0:0|0:0,0:0:0:0:
328,152,242316,2,0,L|256:224,1,75.0000028610231,6|0,0:0|0:0,0:0:0:0:
136,192,242441,2,0,L|64:120,1,75.0000028610231,6|0,0:0|0:0,0:0:0:0:
240,232,242566,6,0,L|240:152,1,75.0000028610231,6|0,0:0|0:0,0:0:0:0:
184,232,242691,2,0,L|184:144,1,75.0000028610231,6|0,0:0|0:0,0:0:0:0:
312,232,242816,1,6,0:0:0:0:
368,232,242878,1,0,0:0:0:0:
312,232,242941,1,6,0:0:0:0:
256,232,243003,1,0,0:0:0:0:
376,192,243066,5,6,0:0:0:0:
432,192,243128,1,0,0:0:0:0:
376,192,243191,1,6,0:0:0:0:
336,160,243253,1,0,0:0:0:0:
320,112,243316,1,6,0:0:0:0:
336,160,243378,1,0,0:0:0:0:
376,192,243441,1,6,0:0:0:0:
432,192,243503,1,0,0:0:0:0:
272,160,243566,6,0,L|272:80,1,75.0000028610231,6|0,0:0|0:0,0:0:0:0:
328,160,243691,1,6,0:0:0:0:
384,160,243753,1,0,0:0:0:0:
232,240,243816,2,0,L|176:184,1,75.0000028610231,6|0,0:0|0:0,0:0:0:0:
360,240,243941,2,0,L|416:184,1,75.0000028610231,6|0,0:0|0:0,0:0:0:0:
112,280,244066,5,6,0:0:0:0:
56,280,244128,1,0,0:0:0:0:
48,280,244191,1,6,0:0:0:0:
104,280,244253,1,0,0:0:0:0:
240,280,244316,2,0,L|296:224,1,75.0000028610231,6|0,0:0|0:0,0:0:0:0:
232,280,244441,2,0,L|232:192,1,75.0000028610231,6|0,0:0|0:0,0:0:0:0:
416,200,244566,6,0,L|488:128,1,75.0000028610231,6|0,0:0|0:0,0:0:0:0:
328,192,244691,2,0,L|256:128,1,75.0000028610231,6|0,0:0|0:0,0:0:0:0:
120,184,244816,2,0,L|56:120,1,75.0000028610231,6|0,0:0|0:0,0:0:0:0:
208,184,244941,2,0,L|264:128,1,75.0000028610231,6|0,0:0|0:0,0:0:0:0:
64,200,245066,6,0,L|64:32,1,150.000005722046,6|8,0:0|0:0,0:0:0:0:
96,200,245253,2,0,L|152:144,1,75.0000028610231,8|2,0:0|0:0,0:0:0:0:
360,192,245441,2,0,L|248:72,2,150.000005722046,8|2|8,0:0|0:0|0:0,0:0:0:0:
128,288,245816,2,0,L|248:168,1,150.000005722046,2|8,0:0|0:0,0:0:0:0:
184,168,246003,1,0,0:0:0:0:
48,88,246066,6,0,L|48:176,1,75.0000028610231,6|0,0:0|0:0,0:0:0:0:
184,152,246191,2,0,L|256:224,1,75.0000028610231,6|0,0:0|0:0,0:0:0:0:
376,192,246316,2,0,L|448:120,1,75.0000028610231,6|0,0:0|0:0,0:0:0:0:
240,104,246441,2,0,L|176:40,1,75.0000028610231,6|0,0:0|0:0,0:0:0:0:
352,280,246566,5,6,0:0:0:0:
400,248,246628,1,0,0:0:0:0:
416,200,246691,1,6,0:0:0:0:
400,248,246753,1,0,0:0:0:0:
256,184,246816,2,0,L|200:128,1,75.0000028610231,6|0,0:0|0:0,0:0:0:0:
352,184,246941,2,0,L|408:128,1,75.0000028610231,6|0,0:0|0:0,0:0:0:0:
248,256,247066,6,0,L|224:168,1,75.0000028610231,6|0,0:0|0:0,0:0:0:0:
304,256,247191,2,0,L|328:168,1,75.0000028610231,6|0,0:0|0:0,0:0:0:0:
400,256,247316,1,6,0:0:0:0:
456,256,247378,1,0,0:0:0:0:
464,256,247441,1,6,0:0:0:0:
408,256,247503,1,0,0:0:0:0:
256,192,247566,6,0,L|256:104,1,75.0000028610231,6|0,0:0|0:0,0:0:0:0:
312,192,247691,1,6,0:0:0:0:
368,192,247753,1,0,0:0:0:0:
208,208,247816,2,0,L|208:128,1,75.0000028610231,6|0,0:0|0:0,0:0:0:0:
360,200,247941,2,0,L|416:144,1,75.0000028610231,6|0,0:0|0:0,0:0:0:0:
224,160,248066,6,0,L|216:80,1,75.0000028610231,6|0,0:0|0:0,0:0:0:0:
272,160,248191,2,0,L|280:80,1,75.0000028610231,6|0,0:0|0:0,0:0:0:0:
152,200,248316,1,6,0:0:0:0:
96,200,248378,1,0,0:0:0:0:
104,200,248441,1,6,0:0:0:0:
160,200,248503,1,0,0:0:0:0:
320,304,248566,5,6,0:0:0:0:
368,272,248628,1,0,0:0:0:0:
384,224,248691,1,6,0:0:0:0:
368,272,248753,1,0,0:0:0:0:
296,264,248816,2,0,L|288:184,1,75.0000028610231,6|0,0:0|0:0,0:0:0:0:
360,264,248941,2,0,L|384:184,1,75.0000028610231,6|0,0:0|0:0,0:0:0:0:
216,152,249066,6,0,L|152:88,1,85.0000016212464,8|0,0:1|0:0,0:0:0:0:
104,88,249191,2,0,L|104:176,1,85.0000016212464,8|8,0:1|0:1,0:0:0:0:
155,91,249316,2,0,L|216:152,1,85.0000016212464,8|8,0:1|0:1,0:0:0:0:
368,200,249441,6,0,L|392:112,1,85.0000016212464,8|0,0:1|0:0,0:0:0:0:
328,200,249566,2,0,L|304:112,1,85.0000016212464,8|8,0:1|0:1,0:0:0:0:
368,200,249691,2,0,L|280:112,1,85.0000016212464,8|8,0:1|0:1,0:0:0:0:
152,184,249816,2,0,L|152:80,1,85.0000016212464,10|0,0:1|0:0,0:0:0:0:
208,184,249941,1,0,0:0:0:0:
264,184,250003,1,0,0:0:0:0:
64,256,250066,6,0,L|64:96,1,150.000005722046,6|8,0:0|0:0,0:0:0:0:
168,256,250316,2,0,L|48:136,1,150.000005722046,4|8,0:0|0:0,0:0:0:0:
256,264,250566,1,4,0:0:0:0:
360,264,250691,1,8,0:0:0:0:
352,264,250816,1,4,0:0:0:0:
248,264,250941,1,8,0:0:0:0:
448,192,251066,5,4,0:0:0:0:
336,192,251191,1,8,0:0:0:0:
224,192,251316,1,4,0:0:0:0:
336,192,251441,1,8,0:0:0:0:
152,208,251566,2,0,L|96:64,1,150.000005722046,4|8,0:0|0:0,0:0:0:0:
280,208,251816,2,0,L|336:64,1,150.000005722046,4|8,0:0|0:0,0:0:0:0:
144,272,252066,5,4,0:0:0:0:
248,272,252191,1,8,0:0:0:0:
240,272,252316,1,4,0:0:0:0:
136,272,252441,1,8,0:0:0:0:
352,256,252566,2,0,L|392:112,1,150.000005722046,4|8,0:0|0:0,0:0:0:0:
272,208,252816,1,4,0:0:0:0:
392,200,252941,1,8,0:0:0:0:
208,128,253066,5,4,0:0:0:0:
96,128,253191,1,8,0:0:0:0:
208,128,253316,1,4,0:0:0:0:
320,128,253441,1,8,0:0:0:0:
128,216,253566,2,0,L|72:72,1,150.000005722046,4|8,0:0|0:0,0:0:0:0:
264,176,253816,1,4,0:0:0:0:
72,176,253941,1,8,0:0:0:0:
296,232,254066,6,0,L|352:88,1,150.000005722046,6|8,0:0|0:0,0:0:0:0:
232,232,254316,2,0,L|176:88,1,150.000005722046,4|8,0:0|0:0,0:0:0:0:
312,232,254566,1,4,0:0:0:0:
392,184,254691,1,8,0:0:0:0:
432,88,254816,1,4,0:0:0:0:
392,184,254941,1,8,0:0:0:0:
184,208,255066,6,0,L|144:56,1,150.000005722046,4|8,0:0|0:0,0:0:0:0:
272,128,255316,1,4,0:0:0:0:
152,128,255441,1,8,0:0:0:0:
272,128,255566,1,4,0:0:0:0:
336,56,255691,1,8,0:0:0:0:
272,128,255816,1,4,0:0:0:0:
152,128,255941,1,8,0:0:0:0:
272,128,256066,5,4,0:0:0:0:
336,56,256191,1,8,0:0:0:0:
152,184,256316,2,0,L|112:32,1,150.000005722046,4|8,0:0|0:0,0:0:0:0:
304,184,256566,2,0,L|344:32,1,150.000005722046,4|8,0:0|0:0,0:0:0:0:
88,192,256816,2,0,L|200:80,2,150.000005722046,4|8|4,0:0|0:0|0:0,0:0:0:0:
280,208,257191,6,0,L|416:72,1,170.000003242493,10|0,0:0|0:0,0:0:0:0:
352,96,257378,1,0,0:0:0:0:
304,96,257441,1,10,0:0:0:0:
184,152,257566,2,0,L|160:64,1,85.0000016212464,8|8,0:0|0:0,0:0:0:0:
304,152,257691,2,0,L|384:72,1,85.0000016212464,8|8,0:0|0:0,0:0:0:0:
168,208,257816,1,8,0:1:0:0:
120,176,257878,1,8,0:1:0:0:
104,128,257941,1,8,0:1:0:0:
120,176,258003,1,8,0:1:0:0:
264,192,258066,6,0,L|336:120,1,85.0000016212464,6|0,0:0|0:0,0:0:0:0:
464,192,258191,2,0,L|464:80,1,85.0000016212464,6|0,0:0|0:0,0:0:0:0:
320,192,258316,2,0,L|248:120,1,85.0000016212464,6|0,0:0|0:0,0:0:0:0:
120,184,258441,2,0,L|120:88,1,85.0000016212464,6|0,0:0|0:0,0:0:0:0:
288,272,258566,5,6,0:0:0:0:
336,240,258628,1,0,0:0:0:0:
360,192,258691,1,6,0:0:0:0:
336,240,258753,1,0,0:0:0:0:
192,144,258816,1,6,0:0:0:0:
136,144,258878,1,0,0:0:0:0:
192,144,258941,1,6,0:0:0:0:
248,144,259003,1,0,0:0:0:0:
96,256,259066,6,0,L|96:168,1,85.0000016212464,6|0,0:0|0:0,0:0:0:0:
224,256,259191,2,0,L|296:184,1,85.0000016212464,6|0,0:0|0:0,0:0:0:0:
408,256,259316,1,6,0:0:0:0:
456,224,259378,1,0,0:0:0:0:
472,176,259441,1,6,0:0:0:0:
456,224,259503,1,0,0:0:0:0:
304,136,259566,6,0,L|240:72,1,85.0000016212464,6|0,0:0|0:0,0:0:0:0:
408,136,259691,2,0,L|472:72,1,85.0000016212464,6|0,0:0|0:0,0:0:0:0:
272,176,259816,2,0,L|184:88,1,85.0000016212464,6|0,0:0|0:0,0:0:0:0:
280,176,259941,2,0,L|280:88,1,85.0000016212464,6|0,0:0|0:0,0:0:0:0:
104,208,260066,5,6,0:0:0:0:
48,208,260128,1,0,0:0:0:0:
104,208,260191,1,6,0:0:0:0:
160,208,260253,1,0,0:0:0:0:
104,208,260316,1,6,0:0:0:0:
48,208,260378,1,0,0:0:0:0:
200,296,260441,5,6,0:0:0:0:
256,296,260503,1,0,0:0:0:0:
200,296,260566,1,6,0:0:0:0:
144,296,260628,1,0,0:0:0:0:
144,296,260691,1,6,0:0:0:0:
200,296,260753,1,0,0:0:0:0:
352,200,260816,2,0,L|352:112,1,85.0000016212464,6|0,0:0|0:0,0:0:0:0:
296,200,260941,1,6,0:0:0:0:
240,200,261003,1,0,0:0:0:0:
400,264,261066,6,0,L|480:184,1,85.0000016212464,6|0,0:0|0:0,0:0:0:0:
296,264,261191,2,0,L|224:192,1,85.0000016212464,6|0,0:0|0:0,0:0:0:0:
88,256,261316,2,0,L|168:176,1,85.0000016212464,6|0,0:0|0:0,0:0:0:0:
408,272,261441,6,0,L|480:200,1,85.0000016212464,6|0,0:0|0:0,0:0:0:0:
304,272,261566,2,0,L|232:200,1,85.0000016212464,6|0,0:0|0:0,0:0:0:0:
96,264,261691,2,0,L|176:184,1,85.0000016212464,6|0,0:0|0:0,0:0:0:0:
320,184,261816,6,0,L|320:88,1,85.0000016212464,6|0,0:0|0:0,0:0:0:0:
264,184,261941,2,0,L|264:96,1,85.0000016212464,6|0,0:0|0:0,0:0:0:0:
400,240,262066,5,6,0:0:0:0:
456,240,262128,1,0,0:0:0:0:
400,240,262191,1,6,0:0:0:0:
352,200,262253,1,0,0:0:0:0:
336,144,262316,1,6,0:0:0:0:
352,200,262378,1,0,0:0:0:0:
400,240,262441,1,6,0:0:0:0:
456,240,262503,1,0,0:0:0:0:
304,176,262566,6,0,L|224:96,1,85.0000016212464,6|0,0:0|0:0,0:0:0:0:
96,176,262691,2,0,L|96:88,1,85.0000016212464,6|0,0:0|0:0,0:0:0:0:
248,184,262816,2,0,L|328:104,1,85.0000016212464,6|0,0:0|0:0,0:0:0:0:
456,192,262941,2,0,L|456:104,1,85.0000016212464,6|0,0:0|0:0,0:0:0:0:
232,240,263066,5,6,0:0:0:0:
176,240,263128,1,0,0:0:0:0:
160,240,263191,1,6,0:0:0:0:
216,240,263253,1,0,0:0:0:0:
376,192,263316,2,0,L|384:104,1,85.0000016212464,6|0,0:0|0:0,0:0:0:0:
232,184,263441,2,0,L|224:96,1,85.0000016212464,6|0,0:0|0:0,0:0:0:0:
384,248,263566,5,6,0:0:0:0:
440,248,263628,1,0,0:0:0:0:
456,248,263691,1,6,0:0:0:0:
400,248,263753,1,0,0:0:0:0:
224,136,263816,2,0,L|224:40,1,85.0000016212464,6|0,0:0|0:0,0:0:0:0:
280,136,263941,1,6,0:0:0:0:
336,136,264003,1,0,0:0:0:0:
160,240,264066,6,0,L|88:168,1,85.0000016212464,6|0,0:0|0:0,0:0:0:0:
248,240,264191,2,0,L|328:160,1,85.0000016212464,6|0,0:0|0:0,0:0:0:0:
160,240,264316,2,0,L|160:152,1,85.0000016212464,6|0,0:0|0:0,0:0:0:0:
352,240,264441,6,0,L|424:168,1,85.0000016212464,6|0,0:0|0:0,0:0:0:0:
264,240,264566,2,0,L|184:160,1,85.0000016212464,6|0,0:0|0:0,0:0:0:0:
352,240,264691,2,0,L|352:152,1,85.0000016212464,6|0,0:0|0:0,0:0:0:0:
160,192,264816,5,6,0:0:0:0:
104,160,264878,1,0,0:0:0:0:
72,112,264941,1,6,0:0:0:0:
64,64,265003,1,0,0:0:0:0:
312,200,265066,5,0,0:0:0:0:
368,200,265128,1,0,0:0:0:0:
360,200,265191,1,4,0:0:0:0:
304,200,265253,1,4,0:0:0:0:
160,136,265316,2,0,L|160:48,1,85.0000016212464,4|0,0:0|0:0,0:0:0:0:
216,136,265441,1,4,0:0:0:0:
272,136,265503,1,4,0:0:0:0:
416,200,265566,6,0,L|416:104,1,85.0000016212464,4|0,0:0|0:0,0:0:0:0:
248,208,265691,1,8,0:0:0:0:
328,200,265816,2,0,L|328:104,1,85.0000016212464,4|0,0:0|0:0,0:0:0:0:
152,208,265941,1,8,0:0:0:0:
360,264,266066,6,0,P|424:200|280:200,1,340.000006484985,4|10,0:0|0:0,0:0:0:0:
232,200,266378,2,0,L|176:120,2,85.0000016212464
384,232,266566,5,4,0:0:0:0:
432,208,266628,1,0,0:0:0:0:
464,168,266691,1,0,0:0:0:0:
472,128,266753,1,0,0:0:0:0:
256,184,266816,1,10,0:0:0:0:
208,160,266878,1,0,0:0:0:0:
176,120,266941,1,0,0:0:0:0:
168,80,267003,1,0,0:0:0:0:
376,136,267066,6,0,L|376:48,1,85.0000016212464,4|0,0:0|0:0,0:0:0:0:
312,136,267191,2,0,L|312:48,1,85.0000016212464,0|0,0:0|0:0,0:0:0:0:
376,136,267316,1,10,0:0:0:0:
400,96,267378,1,0,0:0:0:0:
376,136,267441,1,0,0:0:0:0:
328,136,267503,1,0,0:0:0:0:
280,136,267566,5,4,0:0:0:0:
224,136,267628,1,0,0:0:0:0:
160,136,267691,1,0,0:0:0:0:
224,136,267753,1,0,0:0:0:0:
352,240,267816,2,0,L|352:152,1,85.0000016212464,10|0,0:0|0:0,0:0:0:0:
296,240,267941,2,0,L|296:136,1,85.0000016212464,0|0,0:0|0:0,0:0:0:0:
448,272,268066,5,4,0:0:0:0:
400,240,268128,1,0,0:0:0:0:
376,192,268191,1,0,0:0:0:0:
376,192,268253,1,0,0:0:0:0:
400,240,268316,1,10,0:0:0:0:
448,272,268378,1,0,0:0:0:0:
288,160,268441,6,0,L|288:64,1,85.0000016212464,0|0,0:0|0:0,0:0:0:0:
344,160,268566,2,0,L|344:72,1,85.0000016212464,4|0,0:0|0:0,0:0:0:0:
288,160,268691,1,0,0:0:0:0:
232,160,268753,1,0,0:0:0:0:
400,165,268816,2,0,L|472:93,1,85.0000016212464,10|0,0:0|0:0,0:0:0:0:
296,189,268941,2,0,L|232:125,1,85.0000016212464,0|0,0:0|0:0,0:0:0:0:
392,240,269066,6,0,L|392:152,1,85.0000016212464,4|0,0:0|0:0,0:0:0:0:
336,240,269191,2,0,L|336:152,1,85.0000016212464
392,240,269316,2,0,L|320:168,1,85.0000016212464,10|0,0:0|0:0,0:0:0:0:
208,264,269441,6,0,L|216:96,1,85.0000016212464,0|0,0:0|0:0,0:0:0:0:
280,264,269566,2,0,L|288:96,1,85.0000016212464,4|0,0:0|0:0,0:0:0:0:
352,264,269691,2,0,L|360:96,1,85.0000016212464,0|0,0:0|0:0,0:0:0:0:
168,192,269816,5,10,0:0:0:0:
112,160,269878,1,0,0:0:0:0:
80,112,269941,1,0,0:0:0:0:
72,64,270003,1,0,0:0:0:0:
336,128,270066,5,6,0:0:0:0:
392,128,270128,1,0,0:0:0:0:
392,128,270191,1,0,0:0:0:0:
336,128,270253,1,0,0:0:0:0:
280,128,270316,1,8,0:0:0:0:
224,128,270378,1,0,0:0:0:0:
280,128,270441,1,0,0:0:0:0:
336,128,270503,1,0,0:0:0:0:
392,128,270566,6,0,L|392:40,1,85.0000016212464,4|0,0:0|0:0,0:0:0:0:
336,128,270691,2,0,L|336:40,1,85.0000016212464,0|0,0:0|0:0,0:0:0:0:
392,128,270816,1,8,0:0:0:0:
448,128,270878,1,0,0:0:0:0:
448,128,270941,1,0,0:0:0:0:
392,128,271003,1,0,0:0:0:0:
264,200,271066,5,4,0:0:0:0:
208,200,271128,1,0,0:0:0:0:
152,200,271191,1,0,0:0:0:0:
208,200,271253,1,0,0:0:0:0:
264,200,271316,1,8,0:0:0:0:
320,200,271378,1,0,0:0:0:0:
320,200,271441,1,0,0:0:0:0:
264,200,271503,1,0,0:0:0:0:
80,144,271566,6,0,L|80:56,1,85.0000016212464,4|0,0:0|0:0,0:0:0:0:
136,144,271691,1,0,0:0:0:0:
192,144,271753,2,0,L|192:264,1,85.0000016212464,0|8,0:0|0:0,0:0:0:0:
136,144,271878,1,0,0:0:0:0:
80,144,271941,1,0,0:0:0:0:
136,144,272003,1,0,0:0:0:0:
280,328,272066,5,8,0:1:0:0:
336,296,272128,1,8,0:1:0:0:
352,240,272191,1,8,0:1:0:0:
336,296,272253,1,8,0:1:0:0:
280,328,272316,1,8,0:1:0:0:
224,296,272378,1,8,0:1:0:0:
208,240,272441,1,8,0:1:0:0:
224,296,272503,1,8,0:1:0:0:
280,296,272566,5,8,0:0:0:0:
336,296,272628,1,8,0:1:0:0:
280,296,272691,1,8,0:1:0:0:
224,296,272753,1,8,0:1:0:0:
176,256,272816,1,8,0:1:0:0:
160,208,272879,1,8,0:1:0:0:
176,256,272941,1,8,0:1:0:0:
224,296,273003,1,8,0:1:0:0:
352,264,273066,5,8,0:1:0:0:
400,224,273128,1,0,0:0:0:0:
416,168,273191,1,0,0:0:0:0:
360,168,273253,1,0,0:0:0:0:
304,168,273316,1,4,0:0:0:0:
360,168,273378,1,0,0:0:0:0:
416,168,273441,1,0,0:0:0:0:
360,168,273503,1,0,0:0:0:0:
160,144,273566,5,12,0:0:0:0:
104,144,273628,1,8,0:1:0:0:
160,144,273691,1,8,0:1:0:0:
208,104,273753,1,8,0:1:0:0:
224,56,273816,1,8,0:1:0:0:
208,104,273878,1,8,0:1:0:0:
160,144,273941,1,8,0:1:0:0:
104,144,274003,1,8,0:1:0:0:
304,280,274066,5,4,0:0:0:0:
360,280,274128,1,0,0:0:0:0:
304,280,274191,1,0,0:0:0:0:
248,280,274253,1,0,0:0:0:0:
304,280,274316,1,2,0:0:0:0:
360,280,274378,1,0,0:0:0:0:
304,280,274441,1,0,0:0:0:0:
248,280,274503,1,0,0:0:0:0:
392,192,274566,5,8,0:0:0:0:
440,160,274628,1,0,0:0:0:0:
464,112,274691,1,0,0:0:0:0:
440,160,274753,1,0,0:0:0:0:
256,120,274816,2,0,L|256:24,1,85.0000016212464,2|0,0:0|0:0,0:0:0:0:
312,120,274941,2,0,L|312:216,1,85.0000016212464,0|0,0:0|0:0,0:0:0:0:
128,208,275066,5,4,0:0:0:0:
80,176,275128,1,0,0:0:0:0:
56,128,275191,1,0,0:0:0:0:
80,176,275253,1,0,0:0:0:0:
144,208,275316,2,0,L|144:112,1,85.0000016212464,2|0,0:0|0:0,0:0:0:0:
80,208,275441,2,0,L|160:128,1,85.0000016212464,0|0,0:0|0:0,0:0:0:0:
288,280,275566,5,8,0:0:0:0:
336,280,275628,1,0,0:0:0:0:
384,280,275691,1,0,0:0:0:0:
336,280,275753,1,0,0:0:0:0:
288,280,275816,1,2,0:0:0:0:
248,232,275878,1,0,0:0:0:0:
240,184,275941,1,0,0:0:0:0:
248,232,276003,1,0,0:0:0:0:
416,168,276066,6,0,L|480:104,1,85.0000016212464,4|0,0:0|0:0,0:0:0:0:
416,168,276191,2,0,L|352:104,1,85.0000016212464,0|0,0:0|0:0,0:0:0:0:
416,168,276316,1,2,0:0:0:0:
472,168,276378,1,0,0:0:0:0:
472,168,276441,1,0,0:0:0:0:
416,168,276503,1,0,0:0:0:0:
200,160,276566,6,0,L|200:64,1,85.0000016212464,8|0,0:0|0:0,0:0:0:0:
256,160,276691,1,0,0:0:0:0:
312,160,276753,1,0,0:0:0:0:
352,120,276816,1,2,0:0:0:0:
368,64,276878,1,0,0:0:0:0:
352,120,276941,1,0,0:0:0:0:
312,160,277003,1,0,0:0:0:0:
168,208,277066,5,4,0:0:0:0:
112,208,277128,1,0,0:0:0:0:
168,208,277191,1,4,0:0:0:0:
208,176,277253,1,0,0:0:0:0:
216,152,277316,1,4,0:0:0:0:
208,176,277378,1,0,0:0:0:0:
168,208,277441,1,4,0:0:0:0:
112,208,277503,1,0,0:0:0:0:
376,288,277566,5,4,0:0:0:0:
424,256,277628,1,0,0:0:0:0:
440,208,277691,1,0,0:0:0:0:
424,256,277753,1,0,0:0:0:0:
296,216,277816,1,4,0:0:0:0:
168,216,277878,1,0,0:0:0:0:
40,216,277941,2,0,L|40:112,1,85.0000016212464
408,208,278066,5,8,0:0:0:0:
432,184,278128,1,8,0:0:0:0:
408,208,278191,2,0,L|296:96,1,150.000005722046,4|8,0:0|0:0,0:0:0:0:
256,88,278378,1,8,0:0:0:0:
304,88,278441,1,4,0:0:0:0:
352,88,278503,1,0,0:0:0:0:
144,128,278566,5,8,0:0:0:0:
88,128,278628,1,8,0:0:0:0:
80,128,278691,1,4,0:0:0:0:
136,128,278753,1,0,0:0:0:0:
304,208,278816,2,0,L|304:120,1,75.0000028610231,8|8,0:0|0:0,0:0:0:0:
168,208,278941,2,0,L|104:144,1,75.0000028610231,8|8,0:0|0:0,0:0:0:0:
336,272,279066,5,10,0:0:0:0:
392,272,279128,1,0,0:0:0:0:
392,272,279191,2,0,L|280:160,1,150.000005722046,6|8,0:0|0:0,0:0:0:0:
232,160,279378,1,8,0:0:0:0:
192,160,279441,1,4,0:0:0:0:
232,160,279503,1,0,0:0:0:0:
392,176,279566,5,8,0:0:0:0:
440,144,279628,1,8,0:0:0:0:
464,96,279691,1,8,0:0:0:0:
440,144,279753,1,8,0:0:0:0:
256,96,279816,2,0,L|200:40,1,75.0000028610231,8|8,0:0|0:0,0:0:0:0:
384,96,279941,2,0,L|448:32,1,75.0000028610231,8|8,0:0|0:0,0:0:0:0:
176,224,280066,6,0,L|64:112,1,150.000005722046,6|8,0:0|0:0,0:0:0:0:
256,224,280316,2,0,L|368:112,1,150.000005722046,4|8,0:0|0:0,0:0:0:0:
168,128,280566,1,4,0:0:0:0:
352,128,280691,2,0,L|352:288,1,150.000005722046,8|4,0:0|0:0,0:0:0:0:
168,128,280941,1,8,0:0:0:0:
352,192,281066,5,4,0:0:0:0:
240,192,281191,1,8,0:0:0:0:
352,192,281316,1,4,0:0:0:0:
240,192,281441,1,8,0:0:0:0:
448,216,281566,5,4,0:0:0:0:
472,192,281628,1,0,0:0:0:0:
448,216,281691,1,8,0:0:0:0:
336,192,281816,1,4,0:0:0:0:
448,160,281941,1,8,0:0:0:0:
176,240,282066,5,4,0:0:0:0:
120,240,282128,1,0,0:0:0:0:
120,240,282191,1,8,0:0:0:0:
320,224,282316,2,0,L|320:72,1,150.000005722046,4|8,0:0|0:0,0:0:0:0:
120,168,282566,1,4,0:0:0:0:
312,168,282691,2,0,L|184:40,1,150.000005722046,8|4,0:0|0:0,0:0:0:0:
400,168,282941,1,8,0:0:0:0:
152,184,283066,6,0,L|40:72,1,150.000005722046,4|10,0:0|0:0,0:0:0:0:
272,176,283316,2,0,L|152:56,1,150.000005722046,4|10,0:0|0:0,0:0:0:0:
392,192,283566,1,4,0:0:0:0:
432,152,283628,1,0,0:0:0:0:
448,104,283691,1,8,0:0:0:0:
432,152,283753,1,0,0:0:0:0:
256,144,283816,2,0,L|256:64,1,75.0000028610231,8|8,0:0|0:0,0:0:0:0:
392,144,283941,2,0,L|456:80,1,75.0000028610231,8|8,0:0|0:0,0:0:0:0:
192,120,284066,5,6,0:0:0:0:
136,120,284128,1,0,0:0:0:0:
136,120,284191,1,8,0:0:0:0:
320,176,284316,2,0,L|208:64,1,150.000005722046,4|8,0:0|0:0,0:0:0:0:
416,160,284566,1,4,0:0:0:0:
232,160,284691,2,0,L|232:320,1,150.000005722046,8|4,0:0|0:0,0:0:0:0:
416,160,284941,1,8,0:0:0:0:
168,224,285066,5,4,0:0:0:0:
272,224,285191,1,8,0:0:0:0:
168,224,285316,1,4,0:0:0:0:
64,224,285441,1,8,0:0:0:0:
280,160,285566,1,4,0:0:0:0:
304,136,285628,1,0,0:0:0:0:
280,160,285691,1,8,0:0:0:0:
176,160,285816,1,4,0:0:0:0:
72,160,285941,1,8,0:0:0:0:
312,264,286066,5,4,0:0:0:0:
368,264,286128,1,0,0:0:0:0:
368,264,286191,1,8,0:0:0:0:
144,264,286316,2,0,L|144:112,1,150.000005722046,4|8,0:0|0:0,0:0:0:0:
336,192,286566,1,4,0:0:0:0:
144,192,286691,2,0,L|272:64,1,150.000005722046,8|4,0:0|0:0,0:0:0:0:
56,192,286941,1,8,0:0:0:0:
264,248,287066,5,4,0:0:0:0:
312,224,287128,1,0,0:0:0:0:
336,176,287191,1,10,0:0:0:0:
312,224,287253,1,0,0:0:0:0:
152,232,287316,1,4,0:0:0:0:
104,208,287378,1,0,0:0:0:0:
80,160,287441,1,10,0:0:0:0:
104,208,287503,1,0,0:0:0:0:
312,168,287566,6,0,L|312:80,1,75.0000028610231,4|0,0:0|0:0,0:0:0:0:
256,168,287691,1,8,0:0:0:0:
200,168,287753,1,0,0:0:0:0:
64,168,287816,2,0,L|64:80,1,75.0000028610231,8|8,0:0|0:0,0:0:0:0:
224,168,287941,2,0,L|288:104,1,75.0000028610231,8|8,0:0|0:0,0:0:0:0:
440,192,288066,6,0,L|440:32,1,150.000005722046,6|8,0:0|0:0,0:0:0:0:
224,256,288316,2,0,L|184:104,1,150.000005722046,4|8,0:0|0:0,0:0:0:0:
296,256,288566,2,0,L|336:104,1,150.000005722046,4|8,0:0|0:0,0:0:0:0:
72,192,288816,2,0,L|72:32,1,150.000005722046,4|8,0:0|0:0,0:0:0:0:
272,184,289066,6,0,L|160:72,1,150.000005722046,4|8,0:0|0:0,0:0:0:0:
288,184,289316,2,0,L|176:72,1,150.000005722046,4|8,0:0|0:0,0:0:0:0:
384,200,289566,1,4,0:0:0:0:
440,200,289628,1,0,0:0:0:0:
440,200,289691,1,8,0:0:0:0:
328,120,289816,1,4,0:0:0:0:
440,120,289941,1,8,0:0:0:0:
160,144,290066,5,4,0:0:0:0:
136,120,290128,1,0,0:0:0:0:
160,144,290191,1,8,0:0:0:0:
352,200,290316,2,0,L|464:88,1,150.000005722046,4|8,0:0|0:0,0:0:0:0:
192,192,290566,2,0,L|168:40,1,150.000005722046,4|8,0:0|0:0,0:0:0:0:
280,136,290816,2,0,L|168:24,1,150.000005722046,4|8,0:0|0:0,0:0:0:0:
368,240,291066,6,0,L|480:128,1,150.000005722046,4|10,0:0|0:0,0:0:0:0:
208,104,291316,1,4,0:0:0:0:
152,104,291378,1,0,0:0:0:0:
152,104,291441,1,10,0:0:0:0:
336,264,291566,5,8,0:0:0:0:
384,232,291628,1,8,0:0:0:0:
408,184,291691,1,8,0:0:0:0:
384,232,291753,1,8,0:0:0:0:
248,152,291816,2,0,L|192:96,1,75.0000028610231,8|8,0:0|0:0,0:0:0:0:
56,144,291941,2,0,L|56:64,1,75.0000028610231,8|8,0:0|0:0,0:0:0:0:
240,232,292066,6,0,L|352:120,1,150.000005722046,6|8,0:0|0:0,0:0:0:0:
232,232,292316,2,0,L|232:80,1,150.000005722046,4|8,0:0|0:0,0:0:0:0:
416,232,292566,2,0,L|304:120,1,150.000005722046,4|8,0:0|0:0,0:0:0:0:
424,232,292816,2,0,L|424:80,1,150.000005722046,4|8,0:0|0:0,0:0:0:0:
152,160,293066,5,4,0:0:0:0:
264,160,293191,1,8,0:0:0:0:
264,160,293316,1,4,0:0:0:0:
152,160,293441,1,8,0:0:0:0:
336,224,293566,1,4,0:0:0:0:
360,200,293628,1,0,0:0:0:0:
336,224,293691,1,8,0:0:0:0:
224,224,293816,1,4,0:0:0:0:
112,224,293941,1,8,0:0:0:0:
344,120,294066,5,4,0:0:0:0:
304,120,294128,1,0,0:0:0:0:
264,120,294191,1,8,0:0:0:0:
448,112,294316,2,0,L|448:272,1,150.000005722046,4|8,0:0|0:0,0:0:0:0:
200,216,294566,2,0,L|320:96,1,150.000005722046,4|8,0:0|0:0,0:0:0:0:
64,112,294816,2,0,L|64:272,1,150.000005722046,4|8,0:0|0:0,0:0:0:0:
248,176,295066,6,0,L|312:112,1,75.0000028610231,8|8,0:0|0:0,0:0:0:0:
112,176,295191,2,0,L|56:120,1,75.0000028610231,8|8,0:0|0:0,0:0:0:0:
256,176,295316,1,8,0:1:0:0:
304,144,295378,1,8,0:1:0:0:
328,96,295441,1,8,0:1:0:0:
304,144,295503,1,8,0:1:0:0:
136,176,295566,6,0,L|72:112,1,75.0000028610231,8|8,0:1|0:1,0:0:0:0:
272,176,295691,2,0,L|328:120,1,75.0000028610231,8|8,0:1|0:1,0:0:0:0:
128,176,295816,1,8,0:1:0:0:
80,144,295878,1,0,0:0:0:0:
56,96,295941,1,8,0:1:0:0:
80,144,296003,1,0,0:0:0:0:
288,256,296066,6,0,P|328:216|176:64,1,350,6|0,0:0|0:0,0:0:0:0:
472,192,296566,1,2,0:0:0:0:
256,192,296691,12,0,301066,2:2:0:0:
