osu file format v14

[General]
AudioFilename: audio.mp3
AudioLeadIn: 0
PreviewTime: 241473
Countdown: 0
SampleSet: Soft
StackLeniency: 0.3
Mode: 0
LetterboxInBreaks: 0
WidescreenStoryboard: 0

[Editor]
Bookmarks: 9036,57036,73036,106036,122036,142036,190036,242036,280036
DistanceSpacing: 0.7
BeatDivisor: 4
GridSize: 4
TimelineZoom: 3.399999

[Metadata]
Title:Jashin no Konrei, Gi Wa Ai to Shiru.
TitleUnicode:邪神の婚礼、儀は愛と知る。
Artist:Imperial Circus Dead Decadence
ArtistUnicode:Imperial Circus Dead Decadence
Creator:mithew
Version:Cthulhu and the Third Bride
Source:
Tags:symphonic death black metal jmetal evening rsi icdd streams deathstream
BeatmapID:1439403
BeatmapSetID:636116

[Difficulty]
HPDrainRate:6
CircleSize:4.2
OverallDifficulty:9.3
ApproachRate:10
SliderMultiplier:1.79999995708466
SliderTickRate:1

[Events]
//Background and Video events
0,0,"bg1200.jpg",0,0
//Break Periods
//Storyboard Layer 0 (Background)
//Storyboard Layer 1 (Fail)
//Storyboard Layer 2 (Pass)
//Storyboard Layer 3 (Foreground)
//Storyboard Sound Samples

[TimingPoints]
370,666.666666666667,3,2,1,40,1,0
370,-256.410256410256,3,2,1,40,0,0
2370,-175.438596491228,3,2,1,40,0,0
4481,-100,3,2,1,40,0,0
7703,-100,3,2,1,5,0,0
8036,250,4,1,1,60,1,0
8036,-90.9090909090909,4,1,1,60,0,0
9161,-90.9090909090909,4,1,1,60,0,0
10036,-80,4,1,1,60,0,0
10286,-90.9090909090909,4,1,1,60,0,0
25036,-90.9090909090909,4,1,2,60,0,0
25786,-133.333333333333,4,1,2,60,0,0
26161,-90.9090909090909,4,1,2,60,0,0
27786,-133.333333333333,4,1,2,60,0,0
28536,-90.9090909090909,4,1,2,60,0,0
29786,-133.333333333333,4,1,2,60,0,0
30161,-90.9090909090909,4,1,2,60,0,0
33036,-90.9090909090909,4,1,1,60,0,0
49036,-90.9090909090909,4,1,2,60,0,0
49786,-133.333333333333,4,1,2,60,0,0
50161,-90.9090909090909,4,1,2,60,0,0
51786,-133.333333333333,4,1,2,60,0,0
52536,-90.9090909090909,4,1,2,60,0,0
53786,-133.333333333333,4,1,2,60,0,0
54161,-90.9090909090909,4,1,2,60,0,0
56036,-133.333333333333,4,1,1,60,0,0
57036,-80,4,1,1,60,0,1
58036,-111.111111111111,4,1,1,60,0,1
58536,-80,4,1,1,60,0,1
59036,-111.111111111111,4,1,1,60,0,1
60036,-80,4,1,1,60,0,0
61036,-105.263157894737,4,1,1,60,0,1
62036,-100,4,1,1,60,0,1
62536,-80,4,1,1,60,0,1
63036,-95.2380952380952,4,1,1,60,0,1
63286,-80,4,1,1,60,0,1
64036,-100,4,1,1,60,0,0
65036,-80,4,1,1,60,0,1
67473,-80,4,1,1,5,0,1
67536,-80,4,1,1,60,0,1
69036,-100,4,1,2,60,0,0
75036,-100,4,1,1,60,0,0
81223,-100,4,1,1,5,0,0
81286,-100,4,1,1,60,0,0
88036,-80,4,1,1,60,0,0
89036,-90.9090909090909,4,1,2,60,0,0
89786,-133.333333333333,4,1,2,60,0,0
90161,-90.9090909090909,4,1,2,60,0,0
91786,-133.333333333333,4,1,2,60,0,0
92536,-90.9090909090909,4,1,2,60,0,0
93786,-133.333333333333,4,1,2,60,0,0
94161,-90.9090909090909,4,1,2,60,0,0
96161,-80,4,1,1,60,0,0
97036,-100,4,1,1,60,0,0
104536,-90.9090909090909,4,1,1,60,0,0
105036,-125,4,1,1,60,0,0
106036,-200,4,1,2,60,0,0
114036,-90.9090909090909,4,1,2,60,0,0
114223,-90.9090909090909,4,1,2,5,0,0
114286,-90.9090909090909,4,1,2,60,0,0
116473,-90.9090909090909,4,1,2,5,0,0
116536,-90.9090909090909,4,1,2,60,0,0
122036,-80,4,1,1,60,0,1
124036,-105.263157894737,4,1,1,60,0,1
124786,-79.9999999999999,4,1,1,60,0,1
126036,-100,4,1,1,60,0,1
127536,-80,4,1,1,60,0,1
128036,-90.9090909090909,4,1,1,60,0,1
129036,-90.9090909090909,4,1,1,60,0,0
130036,-90.9090909090909,4,1,1,60,0,1
132036,-90.9090909090909,4,1,1,60,0,1
133036,-133.333333333333,4,1,1,60,0,1
134036,-100,4,1,1,60,0,0
138036,-100,4,1,2,60,0,0
149973,-100,4,1,1,5,0,0
150036,-100,4,1,2,60,0,0
156036,-133.333333333333,4,1,1,60,0,0
158036,-100,4,1,1,60,0,0
164223,-100,4,1,1,5,0,0
164286,-100,4,1,1,60,0,0
172223,-100,4,1,1,5,0,0
172286,-100,4,1,1,60,0,0
176598,-100,4,1,1,5,0,0
176661,-100,4,1,1,60,0,0
180223,-100,4,1,1,5,0,0
180286,-100,4,1,1,60,0,0
182036,-100,4,1,2,60,0,0
190036,-100,4,3,3,60,0,0
190786,-133.333333333333,4,3,3,60,0,0
191036,-200,4,3,3,45,0,0
205536,-133.333333333333,4,1,2,60,0,0
209036,-200,4,1,2,60,0,0
222036,-133.333333333333,4,1,2,60,0,0
230036,-200,4,1,1,60,0,0
230536,-133.333333333333,4,1,2,60,0,0
232036,-200,4,1,2,60,0,0
232536,-133.333333333333,4,1,2,60,0,0
236286,-100,4,1,1,60,0,0
239786,-100,4,1,1,5,0,0
240036,-100,4,1,1,60,0,0
242036,-80,4,1,1,60,0,1
245036,-80,4,1,1,60,0,0
246036,-80,4,1,1,60,0,1
249036,-100,4,1,1,60,0,0
250036,-80,4,1,1,60,0,1
252473,-80,4,1,1,5,0,1
252536,-80,4,1,1,60,0,1
254036,-80,4,1,1,60,0,0
258036,-79.9999999999999,4,1,1,60,0,1
265036,-79.9999999999999,4,1,1,60,0,0
266036,-90.9090909090909,4,1,2,60,0,1
269036,-133.333333333333,4,1,2,60,0,1
270036,-100,4,1,2,60,0,0
279411,-100,4,1,2,30,0,0
279536,-200,4,1,1,60,0,0
280036,-90.9090909090909,4,1,1,60,0,0
288036,-100,4,1,1,60,0,0
293036,-83.3333333333333,4,1,1,60,0,0
294036,-100,4,1,1,60,0,0
295036,-133.333333333333,4,1,1,60,0,0
300036,-133.333333333333,4,2,1,5,0,0

[Colours]
Combo1 : 53,122,179
Combo2 : 0,70,140
Combo3 : 22,123,129
Combo4 : 87,114,119

[HitObjects]
93,239,370,5,2,0:0:0:0:
6,211,703,1,2,0:0:0:0:
179,272,1036,2,0,L|183:310,1,35.1000003414346,2|2,0:0|0:0,0:0:0:0:
330,228,1703,2,0,L|334:186,1,35.1000003414346,2|2,0:0|0:0,0:0:0:0:
122,209,2370,6,0,P|168:187|230:205,2,102.599996301384,2|2|2,0:0|0:0|0:0,0:0:0:0:
179,272,4036,1,2,0:0:0:0:
375,63,4481,6,0,L|388:48,2,14.9999996423722,2|2|2,0:0|0:0|0:0,0:0:0:0:
256,192,6592,12,0,7814,0:0:0:0:
345,272,8036,6,0,P|336:205|392:146,1,148.500000991345,12|0,0:0|3:0,0:0:0:0:
462,157,8286,2,0,L|511:162,1,49.5000003304483,0|0,3:0|3:0,0:0:0:0:
287,136,8411,6,0,L|113:117,1,148.500000991345,12|0,0:0|3:0,0:0:0:0:
129,197,8661,2,0,L|123:246,1,49.5000003304483,0|0,3:0|3:0,0:0:0:0:
149,43,8786,2,0,P|101:51|64:137,1,148.500000991345,12|0,0:0|2:0,0:0:0:0:
123,246,9036,5,4,3:1:0:0:
243,216,9161,1,8,0:0:0:0:
141,323,9286,2,0,P|93:322|56:291,1,99.0000006608966,0|8,3:0|0:0,0:0:0:0:
243,216,9536,2,0,P|291:217|328:248,1,99.0000006608966,0|8,3:0|0:0,0:0:0:0:
263,292,9786,1,0,3:0:0:0:
63,135,9911,1,8,0:0:0:0:
63,135,9973,1,8,0:0:0:0:
63,135,10036,6,0,L|71:10,1,112.499997317791,0|8,3:0|0:0,0:0:0:0:
120,202,10286,2,0,P|76:224|27:216,1,99.0000006608966,0|8,3:0|0:0,0:0:0:0:
150,120,10536,1,0,3:0:0:0:
150,120,10661,1,8,0:0:0:0:
293,172,10786,1,0,3:0:0:0:
177,268,10911,1,8,0:0:0:0:
332,169,11036,5,0,3:0:0:0:
206,186,11161,1,8,0:0:0:0:
368,98,11286,2,0,P|410:146|404:201,1,99.0000006608966,0|8,3:0|0:0,0:0:0:0:
250,266,11536,2,0,P|214:233|206:185,1,99.0000006608966,0|8,3:0|0:0,0:0:0:0:
330,275,11786,1,0,3:0:0:0:
377,55,11911,1,8,0:0:0:0:
377,55,11973,1,8,0:0:0:0:
377,55,12036,6,0,L|500:30,1,99.0000006608966,0|8,3:0|0:0,0:0:0:0:
261,31,12286,1,0,3:0:0:0:
298,143,12410,1,8,0:0:0:0:
377,55,12536,1,0,3:0:0:0:
227,103,12661,1,8,0:0:0:0:
403,142,12787,1,0,3:0:0:0:
181,37,12911,1,8,0:0:0:0:
420,62,13036,6,0,P|481:133|432:217,1,198.000001321793,4|0,3:1|3:0,0:0:0:0:
381,270,13411,1,8,0:0:0:0:
194,285,13536,2,0,L|202:187,1,99.0000006608966,0|8,3:0|0:0,0:0:0:0:
187,362,13786,1,0,3:0:0:0:
129,149,13911,1,8,0:0:0:0:
129,149,13973,1,8,0:0:0:0:
129,149,14036,6,0,P|178:107|244:118,1,99.0000006608966,0|8,3:0|0:0,0:0:0:0:
36,197,14286,2,0,L|43:98,1,99.0000006608966,0|8,3:0|0:0,0:0:0:0:
125,254,14536,1,0,3:0:0:0:
125,254,14661,1,8,0:0:0:0:
210,104,14786,1,0,3:0:0:0:
297,252,14911,1,8,0:0:0:0:
129,149,15036,5,0,3:0:0:0:
271,167,15161,1,8,0:0:0:0:
72,94,15286,2,0,P|101:74|175:84,1,99.0000006608966,0|8,3:0|0:0,0:0:0:0:
361,149,15536,2,0,P|332:169|258:159,1,99.0000006608966,0|8,3:0|0:0,0:0:0:0:
304,94,15786,1,0,3:0:0:0:
406,217,15911,1,8,0:0:0:0:
210,104,16036,5,8,3:0:0:0:
185,127,16098,1,8,0:0:0:0:
174,158,16161,1,8,0:0:0:0:
176,191,16223,1,8,0:0:0:0:
196,222,16286,2,0,L|192:273,3,49.5000003304483,0|8|8|8,3:3|0:3|0:3|0:3,0:0:0:0:
325,220,16536,5,0,3:0:0:0:
325,220,16598,1,4,0:3:0:0:
325,220,16661,2,0,L|388:211,1,49.5000003304483,4|4,0:3|0:3,0:3:0:0:
341,331,16786,1,0,3:0:0:0:
341,331,16848,1,0,3:0:0:0:
341,331,16911,2,4,L|278:340,1,49.5000003304483,4|4,3:0|3:0,3:0:0:0:
210,352,17036,5,4,3:1:0:0:
63,262,17161,2,0,P|53:290|59:319,1,49.5000003304483,8|0,0:0|2:0,0:0:0:0:
35,184,17286,2,0,B|105:165|105:165|147:176,1,99.0000006608966,0|8,3:0|0:0,0:0:0:0:
283,268,17536,1,0,3:0:0:0:
236,49,17661,1,8,0:0:0:0:
366,209,17786,2,0,B|372:318,1,99.0000006608966,0|8,3:0|0:0,0:0:0:0:
158,350,18036,6,0,B|164:241,1,99.0000006608966,0|8,3:0|0:0,0:0:0:0:
364,170,18286,1,0,3:0:0:0:
260,364,18411,1,8,0:0:0:0:
196,105,18536,2,0,B|152:126|152:126|128:175,1,99.0000006608966,0|8,3:0|0:0,0:0:0:0:
260,364,18786,1,0,3:0:0:0:
269,177,18911,1,8,0:0:0:0:
476,271,19036,5,0,3:0:0:0:
389,123,19161,2,0,P|378:146|382:183,1,49.5000003304483,8|0,0:0|2:0,0:0:0:0:
429,53,19286,2,0,B|360:49|360:49|326:24,1,99.0000006608966,0|8,3:0|0:0,0:0:0:0:
174,80,19536,1,0,3:0:0:0:
377,170,19661,1,8,0:0:0:0:
97,106,19786,2,0,B|93:70|93:70|102:40|134:2,1,99.0000006608966,0|8,3:0|0:0,0:0:0:0:
335,31,20036,6,0,P|339:67|290:133,1,99.0000006608966,0|8,3:0|0:0,0:0:0:0:
120,208,20286,1,0,3:0:0:0:
249,218,20411,1,8,0:0:0:0:
175,324,20536,1,0,3:0:0:0:
190,155,20661,1,8,0:0:0:0:
328,252,20786,1,0,3:0:0:0:
81,197,20911,1,8,0:0:0:0:
337,171,21036,6,0,B|386:191|386:191|409:243,1,99.0000006608966,4|8,3:1|0:0,0:0:0:0:
190,155,21286,2,0,B|141:135|141:135|118:83,1,99.0000006608966,0|8,3:0|0:0,0:0:0:0:
312,53,21536,1,0,3:0:0:0:
328,252,21661,1,8,0:0:0:0:
190,155,21786,1,0,3:0:0:0:
415,115,21911,1,8,0:0:0:0:
190,155,22036,6,0,P|162:200|171:251,1,99.0000006608966,0|8,3:0|0:0,0:0:0:0:
350,340,22286,2,0,P|354:291|327:251,1,99.0000006608966,0|8,3:0|0:0,0:0:0:0:
86,283,22536,2,0,P|159:334|253:270,1,198.000001321793,0|0,3:0|3:0,0:0:0:0:
82,177,22911,1,8,0:0:0:0:
270,136,23036,5,0,3:0:0:0:
141,73,23161,2,0,P|133:108|137:131,1,49.5000003304483,8|0,0:0|2:0,0:0:0:0:
206,29,23286,2,0,B|274:33|274:33|318:64,1,99.0000006608966,0|8,3:0|0:0,0:0:0:0:
435,211,23536,6,0,L|487:195,1,49.5000003304483,8|0,0:0|3:0,0:0:0:0:
411,287,23661,2,0,L|459:312,1,49.5000003304483,0|0,0:0|3:0,0:0:0:0:
340,323,23786,2,0,L|356:375,1,49.5000003304483,8|0,0:0|3:0,0:0:0:0:
264,298,23911,2,0,L|238:346,1,49.5000003304483,0|0,0:0|3:0,0:0:0:0:
316,216,24036,5,8,3:1:0:0:
316,207,24098,1,0,3:0:0:0:
316,199,24161,1,8,3:0:0:0:
316,190,24223,1,0,3:0:0:0:
317,182,24286,1,8,3:1:0:0:
317,173,24348,1,0,3:0:0:0:
317,165,24411,1,8,3:0:0:0:
317,156,24473,1,0,3:0:0:0:
318,148,24536,6,8,L|320:85,3,49.5000003304483,8|8|0|8,0:0|0:0|0:0|0:0,0:0:0:0:
172,268,24786,1,8,0:3:0:0:
17,166,24911,1,4,0:3:0:0:
223,120,25036,5,10,0:0:0:0:
223,120,25161,2,0,L|341:95,1,99.0000006608966,0|10,3:0|0:0,0:0:0:0:
268,288,25411,1,0,3:0:0:0:
268,288,25536,2,0,L|150:263,1,99.0000006608966,10|0,0:0|3:0,0:0:0:0:
350,194,25786,6,0,L|359:135,1,33.7500004827977,10|0,0:0|2:0,0:0:0:0:
389,313,25911,2,0,L|426:358,1,33.7500004827977,0|0,3:0|2:0,0:0:0:0:
268,288,26036,2,0,L|223:325,1,33.7500004827977,10|0,0:0|2:0,0:0:0:0:
426,235,26161,5,0,3:0:0:0:
315,359,26286,1,10,0:0:0:0:
264,202,26411,1,0,3:0:0:0:
508,219,26536,6,0,P|506:268|475:306,1,99.0000006608966,10|0,0:0|3:0,0:0:0:0:
182,218,26786,2,0,P|184:170|215:132,1,99.0000006608966,10|0,0:0|3:0,0:0:0:0:
456,71,27036,5,10,0:0:0:0:
456,71,27161,2,0,L|338:46,1,99.0000006608966,0|10,3:0|0:0,0:0:0:0:
411,239,27411,1,0,3:0:0:0:
411,239,27536,2,0,L|529:214,1,99.0000006608966,10|0,0:0|3:0,0:0:0:0:
290,249,27786,6,0,L|294:191,1,33.7500004827977,10|0,0:0|2:0,0:0:0:0:
239,325,27911,2,0,L|241:358,1,33.7500004827977,0|0,3:0|2:0,0:0:0:0:
275,242,28036,2,0,L|259:186,1,33.7500004827977,10|0,0:0|2:0,2:0:0:0:
253,331,28161,2,0,L|266:361,1,33.7500004827977,0|0,3:0|2:0,2:0:0:0:
259,241,28286,2,0,L|225:194,1,33.7500004827977,10|0,0:0|2:0,2:0:0:0:
269,332,28411,2,0,L|292:356,1,33.7500004827977,0|0,3:0|2:0,2:0:0:0:
286,126,28536,5,10,0:0:0:0:
286,126,28598,1,0,0:0:0:0:
286,126,28661,1,0,3:0:0:0:
154,296,28786,1,10,0:0:0:0:
154,296,28848,1,0,0:0:0:0:
154,296,28911,1,0,3:0:0:0:
71,96,29036,6,0,P|139:31|234:62,1,198.000001321793,12|10,0:0|0:0,0:0:0:0:
350,220,29411,1,0,3:0:0:0:
350,220,29536,2,0,P|304:245|233:225,1,99.0000006608966,10|0,0:0|3:0,0:0:0:0:
162,121,29786,6,0,L|152:66,1,33.7500004827977,10|0,0:0|2:0,0:0:0:0:
106,263,29911,2,0,L|69:308,1,33.7500004827977,0|0,3:0|2:0,0:0:0:0:
258,240,30036,2,0,L|303:277,1,33.7500004827977,10|0,0:0|2:0,0:0:0:0:
93,175,30161,5,0,3:0:0:0:
244,152,30286,1,10,0:0:0:0:
188,295,30411,1,0,3:0:0:0:
12,198,30536,6,0,L|19:93,1,99.0000006608966,10|0,0:0|3:0,0:0:0:0:
250,53,30786,2,0,L|243:158,1,99.0000006608966,10|0,0:0|3:0,0:0:0:0:
63,345,31036,5,10,0:0:0:0:
63,345,31161,2,0,L|181:370,1,99.0000006608966,0|10,3:0|0:0,0:0:0:0:
108,177,31411,1,0,3:0:0:0:
108,177,31536,2,0,L|-10:202,1,99.0000006608966,10|0,0:0|3:0,0:0:0:0:
188,295,31786,1,10,0:0:0:0:
243,152,31911,1,0,3:0:0:0:
36,77,32036,5,0,3:0:0:0:
12,101,32098,1,8,0:0:0:0:
0,132,32161,1,8,0:0:0:0:
0,166,32223,1,8,0:0:0:0:
11,197,32286,1,0,3:0:0:0:
188,295,32411,1,8,0:0:0:0:
187,261,32473,1,8,0:0:0:0:
174,230,32536,1,8,0:0:0:0:
150,206,32598,1,8,0:0:0:0:
120,192,32661,1,0,3:0:0:0:
0,329,32786,1,8,0:0:0:0:
24,352,32848,1,8,0:0:0:0:
55,365,32911,1,8,0:0:0:0:
89,365,32973,1,8,0:0:0:0:
120,353,33036,6,0,P|185:326|267:379,1,148.500000991345,4|0,3:1|2:0,0:0:0:0:
303,358,33286,2,0,L|307:249,1,99.0000006608966,0|8,3:0|0:0,0:0:0:0:
472,141,33536,2,0,L|476:250,1,99.0000006608966,0|8,3:0|0:0,0:0:0:0:
479,318,33786,1,0,3:0:0:0:
387,100,33911,1,8,0:0:0:0:
387,100,33973,1,8,0:0:0:0:
387,100,34036,6,0,P|433:57|495:48,1,99.0000006608966,0|8,3:0|0:0,0:0:0:0:
290,135,34286,2,0,L|294:26,1,99.0000006608966,0|8,3:0|0:0,0:0:0:0:
369,202,34536,1,0,3:0:0:0:
369,202,34661,1,8,0:0:0:0:
210,190,34786,1,0,3:0:0:0:
331,310,34911,1,8,0:0:0:0:
133,224,35036,5,0,3:0:0:0:
250,182,35161,1,8,0:0:0:0:
57,177,35286,2,0,L|51:294,1,99.0000006608966,0|8,3:0|0:0,0:0:0:0:
250,182,35536,2,0,L|255:83,1,99.0000006608966,0|8,3:0|0:0,0:0:0:0:
260,7,35786,1,0,3:0:0:0:
400,230,35911,1,8,0:0:0:0:
400,230,35973,1,8,0:0:0:0:
400,230,36036,6,0,L|523:255,1,99.0000006608966,0|8,3:0|0:0,0:0:0:0:
284,254,36286,1,0,3:0:0:0:
321,142,36410,1,8,0:0:0:0:
400,230,36536,1,0,3:0:0:0:
250,182,36661,1,8,0:0:0:0:
426,143,36787,1,0,3:0:0:0:
204,248,36911,1,8,0:0:0:0:
383,75,37036,6,0,P|477:82|500:171,1,198.000001321793,4|0,3:1|3:0,0:0:0:0:
505,326,37411,1,8,0:0:0:0:
284,254,37536,2,0,L|283:150,1,99.0000006608966,0|8,3:0|0:0,0:0:0:0:
284,76,37786,1,0,3:0:0:0:
218,330,37911,1,8,0:0:0:0:
218,330,37973,1,8,0:0:0:0:
218,330,38036,6,0,L|331:341,1,99.0000006608966,0|8,3:0|0:0,0:0:0:0:
119,209,38286,2,0,L|6:220,1,99.0000006608966,0|8,3:0|0:0,0:0:0:0:
143,291,38536,1,0,3:0:0:0:
143,291,38661,1,8,0:0:0:0:
231,144,38786,1,0,3:0:0:0:
60,142,38911,1,8,0:0:0:0:
279,72,39036,5,8,3:1:0:0:
302,96,39098,1,8,0:0:0:0:
315,127,39161,1,8,0:0:0:0:
315,160,39223,1,8,0:0:0:0:
302,191,39286,6,0,P|296:218|300:263,3,49.5000003304483,8|8|8|8,3:3|0:3|0:3|0:3,0:0:0:0:
218,330,39536,2,0,P|217:305|211:281,3,49.5000003304483,4|4|4|4,3:3|0:3|0:3|0:3,0:0:0:0:
134,191,39786,6,0,P|128:218|132:263,1,49.5000003304483,0|0,3:0|0:0,0:0:0:0:
50,330,39911,2,0,P|49:305|43:281,1,49.5000003304483,0|0,3:3|3:0,0:0:0:0:
21,37,40036,5,8,0:0:0:0:
17,58,40286,5,8,0:0:0:0:
13,79,40536,5,8,0:0:0:0:
9,100,40786,5,8,0:0:0:0:
5,121,41036,6,0,P|70:71|170:119,1,198.000001321793,4|0,3:1|3:0,0:0:0:0:
127,239,41411,1,8,0:0:0:0:
274,176,41536,1,0,3:0:0:0:
88,162,41661,1,8,0:0:0:0:
280,82,41786,2,0,B|312:123|312:123|309:181,1,99.0000006608966,0|8,3:0|0:0,0:0:0:0:
156,326,41973,1,8,0:0:0:0:
156,326,42036,6,0,B|124:285|124:285|126:238,1,99.0000006608966,0|8,3:0|0:0,0:0:0:0:
197,52,42286,1,0,3:0:0:0:
311,248,42411,1,8,0:0:0:0:
48,214,42536,2,0,P|91:164|151:165,1,99.0000006608966,0|8,3:0|0:0,0:0:0:0:
383,192,42786,2,0,P|340:242|280:241,1,99.0000006608966,0|8,3:0|0:0,0:0:0:0:
402,35,43036,6,0,P|494:48|512:139,1,198.000001321793,0|0,3:0|3:0,0:0:0:0:
383,192,43411,1,8,0:0:0:0:
497,316,43536,2,0,L|504:195,1,99.0000006608966,0|8,3:0|0:0,0:0:0:0:
512,139,43786,1,0,3:0:0:0:
313,336,43911,1,8,0:0:0:0:
313,336,43973,1,8,0:0:0:0:
313,336,44036,6,0,B|384:330|384:330|410:357,1,99.0000006608966,0|8,3:0|0:0,0:0:0:0:
191,368,44286,1,0,3:0:0:0:
225,256,44411,1,8,0:0:0:0:
313,336,44536,1,0,3:0:0:0:
140,295,44661,1,8,0:0:0:0:
307,249,44786,1,0,3:0:0:0:
75,212,44911,1,8,0:0:0:0:
307,249,45036,6,0,B|321:184|321:184|311:152,1,99.0000006608966,4|8,3:1|0:0,0:0:0:0:
79,115,45286,2,0,B|65:180|65:180|75:212,1,99.0000006608966,0|8,3:0|0:0,0:0:0:0:
201,315,45536,1,0,3:0:0:0:
10,345,45661,1,8,0:0:0:0:
231,328,45786,2,0,B|278:346|278:346|329:341,1,99.0000006608966,0|8,3:0|0:0,0:0:0:0:
128,275,46036,6,0,L|116:390,1,99.0000006608966,0|8,3:0|0:0,0:0:0:0:
326,341,46286,2,0,L|314:226,1,99.0000006608966,0|8,3:0|0:0,0:0:0:0:
38,185,46536,2,0,L|26:300,1,99.0000006608966,0|8,3:0|0:0,0:0:0:0:
236,251,46786,2,0,L|224:136,1,99.0000006608966,0|8,3:0|0:0,0:0:0:0:
326,341,47036,6,0,B|378:331|378:331|452:357,1,99.0000006608966,0|8,3:0|0:0,0:0:0:0:
236,251,47286,2,0,B|184:261|184:261|110:235,1,99.0000006608966,0|8,3:0|0:0,0:0:0:0:
215,75,47536,1,0,3:0:0:0:
41,90,47661,1,8,0:0:0:0:
265,13,47786,2,0,P|296:54|281:121,1,99.0000006608966,0|8,3:0|0:0,0:0:0:0:
140,245,48036,5,0,3:0:0:0:
331,212,48161,1,8,0:0:0:0:
168,149,48286,1,0,3:0:0:0:
234,313,48411,1,8,0:0:0:0:
341,169,48536,1,0,3:0:0:0:
178,236,48661,1,8,0:0:0:0:
345,297,48786,1,0,3:0:0:0:
245,181,48911,1,8,0:0:0:0:
492,241,49036,5,10,0:0:0:0:
492,241,49161,2,0,L|517:123,1,99.0000006608966,0|10,3:0|0:0,0:0:0:0:
324,200,49411,1,0,3:0:0:0:
324,200,49536,2,0,L|349:318,1,99.0000006608966,10|0,0:0|3:0,0:0:0:0:
358,112,49786,2,0,L|417:99,1,33.7500004827977,10|0,0:0|2:0,0:0:0:0:
249,145,49911,2,0,L|215:151,1,33.7500004827977,0|0,3:0|2:0,0:0:0:0:
365,123,50036,2,0,L|424:110,1,33.7500004827977,10|0,0:0|2:0,0:0:0:0:
227,65,50161,5,0,3:0:0:0:
141,168,50286,1,10,0:0:0:0:
324,200,50411,1,0,3:0:0:0:
40,168,50536,2,0,B|73:170|98:142|98:142|142:168|142:168|176:133|216:152,1,198.000001321793,10|10,0:0|0:0,0:0:0:0:
81,254,50911,1,0,3:0:0:0:
324,200,51036,5,10,0:0:0:0:
324,200,51161,2,0,L|349:318,1,99.0000006608966,0|10,3:0|0:0,0:0:0:0:
235,54,51411,1,0,3:0:0:0:
235,54,51536,2,0,L|210:172,1,99.0000006608966,10|0,0:0|3:0,0:0:0:0:
30,178,51786,6,0,L|26:120,1,33.7500004827977,10|0,0:0|2:0,0:0:0:0:
81,254,51911,2,0,L|79:287,1,33.7500004827977,0|0,3:0|2:0,0:0:0:0:
45,171,52036,2,0,L|61:115,1,33.7500004827977,10|0,0:0|2:0,2:0:0:0:
67,260,52161,2,0,L|54:290,1,33.7500004827977,0|0,3:0|2:0,0:0:0:0:
61,170,52286,2,0,L|95:123,1,33.7500004827977,10|0,0:0|2:0,2:0:0:0:
51,261,52411,2,0,L|28:285,1,33.7500004827977,0|0,3:0|2:0,2:0:0:0:
200,255,52536,1,10,0:0:0:0:
200,255,52598,1,0,0:0:0:0:
200,255,52661,1,0,3:0:0:0:
90,63,52786,1,10,0:0:0:0:
90,63,52848,1,0,0:0:0:0:
90,63,52911,1,0,3:0:0:0:
311,63,53036,6,0,P|368:101|329:230,1,198.000001321793,10|10,0:0|0:0,0:0:0:0:
512,360,53411,1,0,3:0:0:0:
512,360,53536,2,0,L|513:222,1,99.0000006608966,10|0,0:0|3:0,0:0:0:0:
304,329,53786,2,0,L|253:320,1,33.7500004827977,10|0,0:0|2:0,0:0:0:0:
370,244,53911,2,0,L|340:201,1,33.7500004827977,0|0,3:0|2:0,0:0:0:0:
476,230,54036,2,0,L|484:179,1,33.7500004827977,10|0,0:0|2:0,0:0:0:0:
255,235,54161,1,0,3:0:0:0:
412,309,54286,1,10,0:0:0:0:
270,323,54411,1,0,3:0:0:0:
481,196,54536,6,0,L|468:86,1,99.0000006608966,10|0,0:0|3:0,0:0:0:0:
258,224,54786,2,0,L|271:334,1,99.0000006608966,10|0,0:0|3:0,0:0:0:0:
202,76,55036,5,10,0:0:0:0:
202,76,55161,2,0,L|84:51,1,99.0000006608966,0|10,3:0|0:0,0:0:0:0:
161,244,55411,1,0,3:0:0:0:
161,244,55536,2,0,L|279:219,1,99.0000006608966,10|0,0:0|3:0,0:0:0:0:
94,171,55786,1,10,0:0:0:0:
80,328,55911,1,0,3:0:0:0:
267,145,56036,5,8,0:0:0:0:
298,157,56098,1,8,0:0:0:0:
321,181,56161,1,8,0:0:0:0:
332,212,56223,1,8,0:0:0:0:
330,245,56286,1,0,3:0:0:0:
135,361,56411,1,8,0:0:0:0:
121,330,56473,1,8,0:0:0:0:
121,296,56536,1,8,0:0:0:0:
136,266,56598,1,8,0:0:0:0:
161,244,56661,1,0,3:0:0:0:
445,351,56786,1,8,0:0:0:0:
411,346,56848,1,8,0:0:0:0:
378,342,56911,1,8,0:0:0:0:
344,337,56973,1,8,0:0:0:0:
311,333,57036,6,0,B|166:313,1,112.499997317791,8|8,0:0|0:0,0:0:0:0:
24,209,57286,2,0,B|16:239|16:239|17:265,3,56.2499986588956,10|0|8|0,0:0|3:0|0:0|3:0,0:0:0:0:
51,106,57536,2,0,B|20:113|20:113|-2:127,3,56.2499986588956,10|0|8|0,0:0|3:0|0:0|3:0,0:0:0:0:
153,76,57786,2,0,B|131:53|131:53|108:41,3,56.2499986588956,10|0|8|0,0:0|3:0|0:0|3:0,0:0:0:0:
247,111,58036,5,10,0:0:0:0:
276,136,58098,1,0,3:0:0:0:
316,141,58161,1,8,0:0:0:0:
350,122,58223,1,0,3:1:0:0:
368,86,58286,1,10,0:0:0:0:
386,51,58348,1,0,3:0:0:0:
420,32,58410,1,10,0:0:0:0:
460,36,58473,1,0,3:0:0:0:
490,63,58536,6,0,P|508:98|506:124,3,56.2499986588956,10|0|8|0,0:0|3:0|0:0|3:0,0:0:0:0:
416,238,58786,2,0,P|411:210|420:183,3,56.2499986588956,10|0|8|0,0:0|3:0|0:0|3:0,0:0:0:0:
512,369,59036,5,8,0:0:0:0:
512,369,59098,1,0,3:0:0:0:
512,369,59161,1,10,0:0:0:0:
490,335,59223,1,0,3:0:0:0:
456,314,59286,1,10,0:0:0:0:
416,309,59348,1,0,3:0:0:0:
378,323,59411,1,10,0:0:0:0:
349,351,59473,1,0,3:0:0:0:
312,364,59535,1,10,0:0:0:0:
272,360,59598,1,0,3:0:0:0:
238,338,59660,1,10,0:0:0:0:
217,304,59723,1,0,3:0:0:0:
213,264,59785,1,10,0:0:0:0:
227,226,59848,1,0,3:0:0:0:
257,198,59910,1,10,0:0:0:0:
295,186,59973,1,0,3:0:0:0:
335,193,60036,6,0,L|323:61,1,112.499997317791,2|8,3:0|0:0,0:0:0:0:
303,278,60286,1,2,3:0:0:0:
303,278,60411,1,8,0:0:0:0:
257,44,60536,2,0,P|299:7|355:7,1,112.499997317791,2|8,3:0|0:0,0:0:0:0:
42,47,60786,1,2,3:0:0:0:
41,55,60848,1,8,0:1:0:0:
40,63,60911,1,8,0:1:0:0:
39,71,60973,1,8,0:1:0:0:
37,78,61036,5,8,0:0:0:0:
73,56,61098,1,0,3:0:0:0:
115,57,61161,1,10,0:0:0:0:
151,80,61223,1,0,3:0:0:0:
169,118,61286,1,10,0:0:0:0:
165,160,61348,1,0,3:0:0:0:
139,194,61411,1,10,0:0:0:0:
119,231,61473,1,0,3:0:0:0:
119,273,61536,1,10,0:0:0:0:
139,310,61598,1,0,3:0:0:0:
174,333,61661,1,10,0:0:0:0:
216,336,61723,1,0,3:0:0:0:
255,318,61786,1,10,0:0:0:0:
280,284,61848,1,0,3:0:0:0:
285,242,61911,1,10,0:0:0:0:
270,203,61973,1,0,3:0:0:0:
238,176,62036,5,10,0:0:0:0:
281,165,62098,1,0,3:0:0:0:
313,135,62161,1,8,0:0:0:0:
327,92,62223,1,0,3:0:0:0:
318,49,62286,1,10,0:0:0:0:
289,15,62348,1,0,3:0:0:0:
247,0,62411,1,8,0:0:0:0:
203,8,62473,1,0,3:0:0:0:
168,36,62536,2,0,P|152:62|151:109,3,56.2499986588956,10|0|8|0,0:0|3:0|0:0|3:0,0:0:0:0:
55,125,62786,2,0,P|69:151|109:176,3,56.2499986588956,10|0|8|0,0:0|3:0|0:0|3:0,0:0:0:0:
64,308,63036,5,10,0:0:0:0:
98,339,63098,1,0,3:0:0:0:
143,351,63161,1,8,0:0:0:0:
188,338,63223,1,0,3:0:0:0:
221,305,63286,2,0,L|237:236,3,56.2499986588956,10|0|8|0,0:0|3:0|0:0|3:0,0:0:0:0:
333,150,63536,2,0,L|349:219,3,56.2499986588956,10|0|8|0,0:0|3:0|0:0|3:0,0:0:0:0:
456,310,63786,2,0,L|472:241,3,56.2499986588956,10|0|8|0,0:0|3:0|0:0|3:0,0:0:0:0:
404,108,64036,5,2,3:0:0:0:
371,78,64098,1,8,0:0:0:0:
329,64,64161,1,8,0:0:0:0:
285,70,64223,1,8,0:0:0:0:
248,95,64286,2,0,P|228:124|222:163,1,44.9999989271165,10|8,0:3|0:3,0:0:0:0:
233,250,64411,5,8,3:0:0:0:
233,261,64473,1,8,0:0:0:0:
233,272,64536,1,4,0:3:0:0:
234,283,64598,1,4,0:3:0:0:
234,294,64661,2,0,L|239:359,1,44.9999989271165,4|4,3:0|0:3,0:0:0:0:
124,236,64786,1,0,3:0:0:0:
124,236,64848,1,0,3:0:0:0:
124,236,64911,1,0,3:0:0:0:
124,236,64973,1,0,3:0:0:0:
124,236,65036,6,0,P|72:175|161:87,1,224.999994635582,4|0,3:1|3:0,0:0:0:0:
234,294,65411,1,8,0:0:0:0:
25,259,65536,1,0,3:0:0:0:
153,163,65661,1,8,0:0:0:0:
6,101,65786,1,0,3:0:0:0:
25,259,65911,1,8,0:0:0:0:
155,86,66036,6,0,P|211:104|230:168,1,112.499997317791,0|8,3:0|0:0,0:0:0:0:
310,357,66286,2,0,P|254:339|235:275,1,112.499997317791,0|8,3:0|0:0,0:0:0:0:
451,108,66536,2,0,B|435:160|435:160|451:241,1,112.499997317791,0|8,3:0|0:0,0:0:0:0:
233,293,66786,2,0,B|249:241|249:241|233:160,1,112.499997317791,0|8,3:0|0:0,0:0:0:0:
155,86,67036,5,0,3:0:0:0:
348,139,67161,1,8,0:0:0:0:
88,24,67286,2,0,B|76:79|76:79|53:110|53:110|77:142|66:191,1,168.749995976687,0|0,3:0|0:0,0:0:0:0:
30,244,67536,2,0,P|75:225|149:289,1,112.499997317791,0|8,3:0|0:0,0:0:0:0:
310,357,67786,2,0,P|265:376|191:312,1,112.499997317791,0|8,3:0|0:0,0:0:0:0:
413,145,68036,5,0,3:0:0:0:
485,384,68161,1,8,0:0:0:0:
263,274,68286,1,0,3:0:0:0:
500,263,68411,1,8,0:0:0:0:
263,274,68536,6,0,L|270:148,1,112.499997317791,0|8,3:0|0:0,0:0:0:0:
512,70,68786,2,0,L|505:182,1,112.499997317791,0|8,3:0|0:0,0:0:0:0:
273,75,69036,5,10,3:1:0:0:
241,77,69098,1,0,3:0:0:0:
212,93,69161,1,0,3:0:0:0:
191,120,69223,1,0,3:0:0:0:
183,152,69286,1,2,3:1:0:0:
191,184,69348,1,0,3:0:0:0:
186,217,69411,1,0,3:0:0:0:
168,245,69473,1,0,3:0:0:0:
140,264,69536,1,10,3:1:0:0:
107,270,69598,1,0,3:0:0:0:
74,263,69661,1,0,3:0:0:0:
47,243,69723,1,0,3:0:0:0:
30,214,69786,1,2,3:1:0:0:
26,181,69848,1,0,3:0:0:0:
36,149,69911,1,0,3:0:0:0:
58,123,69973,1,0,3:0:0:0:
88,108,70036,5,10,3:1:0:0:
104,137,70098,1,0,3:0:0:0:
130,158,70161,1,0,3:0:0:0:
162,168,70223,1,0,3:0:0:0:
196,167,70286,1,2,3:1:0:0:
227,154,70348,1,0,3:0:0:0:
251,131,70411,1,0,3:0:0:0:
266,101,70473,1,0,3:0:0:0:
269,68,70536,2,0,L|263:10,7,44.9999989271165,10|0|0|0|2|0|0|0,3:1|3:0|3:0|3:0|3:1|3:0|3:0|3:0,3:0:0:0:
401,109,71036,5,10,3:1:0:0:
401,120,71098,1,0,3:0:0:0:
401,131,71161,1,0,3:0:0:0:
401,142,71223,1,0,3:0:0:0:
401,153,71286,1,2,3:1:0:0:
402,165,71348,1,0,3:0:0:0:
402,176,71411,1,0,3:0:0:0:
402,187,71473,1,0,3:0:0:0:
402,198,71536,2,0,L|404:255,7,44.9999989271165,10|0|0|0|2|0|0|0,3:1|3:0|3:0|3:0|3:1|3:0|3:0|3:0,3:0:0:0:
339,338,72036,5,8,3:0:0:0:
339,338,72098,1,8,3:0:0:0:
339,338,72161,2,0,L|413:357,1,44.9999989271165,0|0,3:0|3:0,3:0:0:0:
199,280,72286,1,4,3:0:0:0:
199,280,72348,1,4,3:0:0:0:
199,280,72411,2,4,L|273:261,1,44.9999989271165,4|4,3:0|3:0,3:0:0:0:
46,336,72536,6,0,B|50:307|31:279|31:279|61:278|87:260|87:260|66:246|53:221|53:221|72:198|72:198|47:168|68:136,1,269.999993562699,6|0,0:1|3:0,0:0:0:0:
199,280,73036,5,4,2:1:0:0:
197,292,73286,5,0,2:0:0:0:
195,305,73536,5,0,2:0:0:0:
193,318,73786,5,0,2:0:0:0:
261,384,74036,5,2,2:0:0:0:
199,280,74286,1,2,2:0:0:0:
382,349,74536,1,2,2:0:0:0:
140,383,74786,1,4,2:0:0:0:
458,331,75036,6,0,P|435:292|314:304,1,179.999995708466,4|0,3:2|3:0,0:0:0:0:
261,384,75411,1,8,0:0:0:0:
135,224,75536,2,0,P|158:262|199:280,1,89.999997854233,0|8,3:0|0:0,0:0:0:0:
239,173,75786,1,0,3:0:0:0:
422,172,75911,1,8,0:0:0:0:
422,172,75973,1,0,0:0:0:0:
422,172,76036,6,0,L|418:77,1,89.999997854233,0|8,3:0|0:0,0:0:0:0:
369,273,76286,1,0,3:0:0:0:
486,233,76411,1,8,0:0:0:0:
331,186,76536,1,0,3:0:0:0:
512,219,76661,1,8,0:0:0:0:
418,82,76786,1,0,3:0:0:0:
421,332,76911,1,8,0:0:0:0:
498,65,77036,6,0,L|300:51,1,179.999995708466,4|0,3:1|3:0,0:0:0:0:
331,186,77411,1,8,0:0:0:0:
124,122,77536,2,0,L|222:129,1,89.999997854233,0|8,3:0|0:0,0:0:0:0:
168,226,77786,1,0,3:0:0:0:
80,54,77911,1,8,0:0:0:0:
80,54,77973,1,0,0:0:0:0:
80,54,78036,6,0,P|49:94|59:162,1,89.999997854233,0|8,3:0|0:0,0:0:0:0:
284,84,78286,2,0,P|244:53|176:63,1,89.999997854233,0|8,3:0|0:0,0:0:0:0:
289,175,78536,1,0,3:0:0:0:
289,175,78661,1,8,0:0:0:0:
161,292,78786,1,0,3:0:0:0:
124,122,78911,1,8,0:0:0:0:
258,270,79036,5,0,3:0:0:0:
127,301,79161,1,8,0:0:0:0:
332,320,79286,2,0,L|340:198,1,89.999997854233,0|8,3:0|0:0,0:0:0:0:
132,211,79536,2,0,L|124:333,1,89.999997854233,0|8,3:0|0:0,0:0:0:0:
122,384,79786,1,0,3:0:0:0:
201,167,79911,1,8,0:0:0:0:
201,167,79973,1,0,0:0:0:0:
201,167,80036,6,0,P|162:134|96:138,1,89.999997854233,0|8,3:0|0:0,0:0:0:0:
289,96,80286,1,0,3:0:0:0:
174,45,80411,1,8,0:0:0:0:
201,167,80536,1,0,3:0:0:0:
279,52,80661,1,8,0:0:0:0:
317,186,80786,1,0,3:0:0:0:
394,69,80911,1,8,0:0:0:0:
455,211,81036,6,0,L|460:361,1,134.999996781349,4|0,3:1|0:0,0:0:0:0:
420,357,81286,2,0,B|365:357|365:357|316:333,1,89.999997854233,0|8,3:0|0:0,0:0:0:0:
317,186,81536,1,0,3:0:0:0:
221,372,81661,1,8,0:0:0:0:
239,168,81786,2,0,P|260:126|327:111,1,89.999997854233,0|8,3:0|0:0,0:0:0:0:
512,151,81973,1,0,0:0:0:0:
512,151,82036,6,0,P|491:193|424:208,1,89.999997854233,0|8,3:0|0:0,0:0:0:0:
297,108,82286,1,0,3:0:0:0:
430,136,82411,1,8,0:0:0:0:
225,48,82536,2,0,L|103:55,1,89.999997854233,0|8,3:0|0:0,0:0:0:0:
363,215,82786,2,0,L|485:208,1,89.999997854233,0|8,3:0|0:0,0:0:0:0:
325,363,83036,5,0,3:0:0:0:
221,203,83161,2,0,L|231:147,1,44.9999989271165,8|0,0:0|2:0,0:0:0:0:
187,279,83286,2,0,B|140:277|140:277|85:295,1,89.999997854233,0|8,3:0|0:0,0:0:0:0:
0,384,83536,1,0,3:0:0:0:
25,193,83661,1,8,0:0:0:0:
246,328,83786,2,0,P|265:274|237:217,1,89.999997854233,0|8,3:0|0:0,0:0:0:0:
36,108,83973,1,0,0:0:0:0:
36,108,84036,6,0,P|17:162|45:219,1,89.999997854233,0|8,3:0|0:0,0:0:0:0:
172,73,84286,1,0,3:0:0:0:
51,29,84411,1,8,0:0:0:0:
203,0,84536,1,0,3:0:0:0:
20,35,84661,1,8,0:0:0:0:
252,67,84786,1,0,3:0:0:0:
24,192,84911,1,8,0:0:0:0:
280,187,85036,6,0,L|286:70,1,89.999997854233,4|8,3:1|0:0,0:0:0:0:
448,191,85286,2,0,L|454:308,1,89.999997854233,0|8,3:0|0:0,0:0:0:0:
231,39,85536,2,0,P|285:19|344:45,1,89.999997854233,0|8,3:0|0:0,0:0:0:0:
448,191,85786,2,0,P|394:211|335:185,1,89.999997854233,0|8,3:0|0:0,0:0:0:0:
141,165,86036,6,0,P|195:145|254:171,1,89.999997854233,0|8,3:0|0:0,0:0:0:0:
317,337,86286,2,0,P|264:312|241:252,1,89.999997854233,0|8,3:0|0:0,0:0:0:0:
346,120,86536,1,0,3:0:0:0:
191,221,86661,1,8,0:0:0:0:
346,120,86786,1,0,3:0:0:0:
191,221,86911,1,8,0:0:0:0:
406,299,87036,6,0,L|405:195,1,89.999997854233,0|8,3:0|0:0,0:0:0:0:
191,131,87286,2,0,L|190:235,1,89.999997854233,0|8,3:0|0:0,0:0:0:0:
512,232,87536,2,0,L|511:128,1,89.999997854233,0|8,3:0|0:0,0:0:0:0:
297,64,87786,2,0,L|296:168,1,89.999997854233,0|8,3:0|0:0,0:0:0:0:
457,332,88036,6,0,B|424:330|406:312|406:312|317:325,1,112.499997317791,0|8,3:0|0:0,0:0:0:0:
83,209,88286,2,0,B|116:211|134:229|134:229|223:216,1,112.499997317791,0|8,3:0|0:0,0:0:0:0:
134,111,88536,1,0,3:0:0:0:
130,308,88661,1,8,0:0:0:0:
267,216,88786,1,0,3:0:0:0:
103,135,88911,1,8,0:0:0:0:
309,227,89036,5,10,0:0:0:0:
309,227,89161,2,0,L|427:252,1,99.0000006608966,0|10,3:0|0:0,0:0:0:0:
354,59,89411,1,0,3:0:0:0:
354,59,89536,2,0,L|236:84,1,99.0000006608966,10|0,0:0|3:0,0:0:0:0:
465,174,89786,6,0,L|469:126,1,33.7500004827977,10|0,0:0|2:0,0:0:0:0:
405,247,89911,2,0,L|409:295,1,33.7500004827977,0|0,3:0|2:0,0:0:0:0:
480,166,90036,2,0,L|484:118,1,33.7500004827977,10|0,0:0|2:0,0:0:0:0:
309,227,90161,5,0,3:0:0:0:
482,253,90286,1,10,0:0:0:0:
297,240,90411,1,0,3:0:0:0:
476,351,90536,2,0,L|482:236,1,99.0000006608966,10|0,0:0|3:0,0:0:0:0:
215,174,90786,2,0,L|221:289,1,99.0000006608966,10|0,0:0|3:0,0:0:0:0:
75,52,91036,5,10,0:0:0:0:
75,52,91161,2,0,L|193:27,1,99.0000006608966,0|10,3:0|0:0,0:0:0:0:
120,220,91411,1,0,3:0:0:0:
120,220,91536,2,0,L|2:195,1,99.0000006608966,10|0,0:0|3:0,0:0:0:0:
215,174,91786,6,0,L|268:176,1,33.7500004827977,10|0,0:0|2:0,0:0:0:0:
205,32,91911,2,0,L|152:30,1,33.7500004827977,0|0,3:0|2:0,0:0:0:0:
226,182,92036,2,0,L|279:184,1,33.7500004827977,10|0,0:0|2:0,0:0:0:0:
216,40,92161,2,0,L|163:38,1,33.7500004827977,0|0,3:0|2:0,0:0:0:0:
237,190,92286,2,0,L|290:192,1,33.7500004827977,10|0,0:0|2:0,0:0:0:0:
227,48,92411,2,0,L|174:46,1,33.7500004827977,0|0,3:0|2:0,0:0:0:0:
310,257,92536,6,0,P|347:175|265:109,1,198.000001321793,10|10,0:0|0:0,0:0:0:0:
313,300,92911,1,0,3:0:0:0:
461,41,93036,5,14,0:0:0:0:
461,41,93161,2,0,L|343:16,1,99.0000006608966,0|10,3:0|0:0,0:0:0:0:
416,209,93411,1,0,3:0:0:0:
416,209,93536,2,0,L|534:184,1,99.0000006608966,10|0,0:0|3:0,0:0:0:0:
333,158,93786,6,0,L|288:148,1,33.7500004827977,10|0,0:0|2:0,0:0:0:0:
348,276,93911,2,0,L|309:300,1,33.7500004827977,0|0,3:0|2:0,0:0:0:0:
336,150,94036,2,0,L|291:140,1,33.7500004827977,10|0,0:0|2:0,0:0:0:0:
378,351,94161,5,0,3:0:0:0:
416,209,94286,1,10,0:0:0:0:
275,248,94411,1,0,3:0:0:0:
497,261,94536,2,0,L|498:372,1,99.0000006608966,10|0,0:0|3:0,0:0:0:0:
275,248,94786,2,0,L|275:149,1,99.0000006608966,10|0,0:0|3:0,0:0:0:0:
51,350,95036,5,10,0:0:0:0:
51,350,95161,2,0,L|169:375,1,99.0000006608966,0|10,3:0|0:0,0:0:0:0:
96,182,95411,1,0,3:0:0:0:
96,182,95536,2,0,L|-22:207,1,99.0000006608966,10|0,0:0|3:0,0:0:0:0:
193,301,95786,1,10,0:0:0:0:
96,182,95911,1,0,3:0:0:0:
259,122,96036,5,8,0:3:0:0:
259,122,96161,2,8,L|276:62,2,56.2499986588956,8|8|8,3:3|0:3|0:3,0:3:0:0:
193,301,96411,2,4,L|199:369,2,56.2499986588956,4|4|4,3:3|0:3|0:3,0:3:0:0:
0,202,96661,1,0,3:3:0:0:
0,202,96723,1,0,3:3:0:0:
0,202,96786,2,0,P|1:149|51:106,1,112.499997317791,0|0,3:3|0:0,0:3:0:0:
275,68,97036,5,12,0:0:0:0:
312,84,97098,1,0,3:0:0:0:
336,121,97161,1,8,0:0:0:0:
337,166,97223,1,0,3:0:0:0:
316,205,97286,2,0,L|280:253,1,44.9999989271165,8|0,0:0|3:0,0:0:0:0:
434,81,97411,6,0,L|432:126,3,44.9999989271165,10|0|8|0,0:0|3:0|0:0|3:0,0:0:0:0:
504,162,97661,2,0,L|511:206,1,44.9999989271165,8|0,0:0|3:0,0:0:0:0:
400,242,97786,2,0,L|397:286,3,44.9999989271165,10|0|8|0,0:0|3:0|0:0|3:0,0:0:0:0:
469,322,98036,2,0,L|476:366,1,44.9999989271165,8|0,0:0|3:0,0:0:0:0:
336,121,98161,6,0,L|291:118,3,44.9999989271165,10|0|8|0,0:0|3:0|0:0|3:0,0:0:0:0:
256,190,98411,2,0,L|211:197,1,44.9999989271165,8|0,0:0|3:0,0:0:0:0:
195,54,98536,2,0,L|150:51,3,44.9999989271165,10|0|8|0,0:0|3:0|0:0|3:0,0:0:0:0:
70,130,98786,2,0,L|115:123,3,44.9999989271165,10|0|8|0,0:0|3:0|0:0|3:0,0:0:0:0:
296,28,99036,5,12,0:0:0:0:
293,72,99098,1,0,3:0:0:0:
290,117,99161,1,8,0:0:0:0:
287,161,99223,1,0,3:0:0:0:
284,206,99286,2,0,L|279:278,1,44.9999989271165,8|0,0:0|3:0,0:0:0:0:
116,294,99411,6,0,L|114:339,3,44.9999989271165,10|0|8|0,0:0|3:0|0:0|3:0,0:0:0:0:
37,214,99661,2,0,L|45:259,1,44.9999989271165,8|0,0:0|3:0,0:0:0:0:
188,158,99786,2,0,L|185:202,3,44.9999989271165,10|0|8|0,0:0|3:0|0:0|3:0,0:0:0:0:
106,33,100036,6,0,L|115:129,1,89.999997854233,0|8,3:0|0:0,0:0:0:0:
295,250,100286,2,0,L|286:160,1,89.999997854233,0|8,3:0|0:0,0:0:0:0:
82,17,100536,2,0,L|65:112,1,89.999997854233,0|8,3:0|0:0,0:0:0:0:
30,322,100786,1,0,3:0:0:0:
30,322,100848,1,8,0:0:0:0:
30,322,100911,1,8,0:0:0:0:
30,322,100973,1,8,0:0:0:0:
30,322,101036,5,12,0:0:0:0:
64,294,101098,1,0,3:0:0:0:
108,286,101161,1,8,0:0:0:0:
151,299,101223,1,0,3:0:0:0:
182,331,101286,2,0,L|217:374,1,44.9999989271165,8|0,0:0|3:0,0:0:0:0:
295,250,101411,6,0,L|293:205,3,44.9999989271165,10|0|8|0,0:0|3:0|0:0|3:0,0:0:0:0:
365,169,101661,2,0,L|372:125,1,44.9999989271165,8|0,0:0|3:0,0:0:0:0:
207,134,101786,2,0,L|205:89,3,44.9999989271165,10|0|8|0,0:0|3:0|0:0|3:0,0:0:0:0:
275,45,102036,2,0,L|282:1,1,44.9999989271165,8|0,0:0|3:0,0:0:0:0:
387,243,102161,6,0,L|432:245,3,44.9999989271165,10|0|8|0,0:0|3:0|0:0|3:0,0:0:0:0:
468,173,102411,2,0,L|512:166,1,44.9999989271165,8|0,0:0|3:0,0:0:0:0:
408,34,102536,2,0,L|364:41,3,44.9999989271165,10|0|8|0,0:0|3:0|0:0|3:0,0:0:0:0:
285,122,102786,2,0,L|330:124,3,44.9999989271165,10|0|8|0,0:0|3:0|0:0|3:0,0:0:0:0:
138,34,103036,5,12,0:0:0:0:
135,78,103098,1,0,3:0:0:0:
132,123,103161,1,8,0:0:0:0:
129,167,103223,1,0,3:0:0:0:
126,212,103286,2,0,L|121:284,1,44.9999989271165,8|0,0:0|3:0,0:0:0:0:
302,311,103411,6,0,L|300:356,3,44.9999989271165,10|0|8|0,0:0|3:0|0:0|3:0,0:0:0:0:
223,231,103661,2,0,L|231:276,1,44.9999989271165,8|0,0:0|3:0,0:0:0:0:
374,175,103786,2,0,L|371:219,3,44.9999989271165,10|0|8|0,0:0|3:0|0:0|3:0,0:0:0:0:
451,44,104036,1,8,0:3:0:0:
451,44,104098,1,8,3:3:0:0:
451,44,104161,2,8,L|388:29,1,44.9999989271165,8|8,0:3|3:3,0:3:0:0:
204,11,104286,1,4,0:3:0:0:
199,55,104348,1,4,3:3:0:0:
194,100,104411,2,4,L|187:164,1,44.9999989271165,4|4,0:3|3:3,0:3:0:0:
59,303,104536,6,0,B|114:298|131:259|131:259|180:291|180:291|210:264|246:249|317:273|323:319,1,297.00000198269,8|0,0:0|2:0,0:0:0:0:
308,179,105036,6,0,B|331:136|313:84|313:84|329:57|327:15|327:15|317:34|281:49,2,215.999994850159,6|2|2,2:0|2:0|2:0,0:0:0:0:
508,352,106036,6,0,P|455:321|354:380,1,179.999995708466,6|2,3:1|2:1,0:0:0:0:
114,333,106911,1,0,3:0:0:0:
114,333,106973,1,0,3:0:0:0:
114,333,107036,2,0,L|107:183,1,134.999996781349,10|0,3:1|3:0,3:0:0:0:
103,121,107536,1,2,2:1:0:0:
103,121,107786,1,0,3:0:0:0:
283,48,108036,6,0,P|331:40|384:66,1,89.999997854233,2|0,3:1|2:0,0:0:0:0:
412,134,108411,1,0,3:0:0:0:
412,134,108536,2,0,P|364:142|311:116,1,89.999997854233,2|0,2:1|3:0,0:0:0:0:
460,54,109036,2,0,P|504:130|458:216,1,179.999995708466,10|2,0:0|2:1,0:0:0:0:
469,208,109786,1,0,3:0:0:0:
186,216,110036,6,0,B|196:176|177:140|177:140|186:82|250:60,1,179.999995708466,2|2,3:1|2:1,0:0:0:0:
256,272,110911,1,0,3:0:0:0:
256,272,110973,1,0,3:0:0:0:
256,272,111036,2,0,P|170:301|124:271,1,134.999996781349,10|0,0:0|3:0,0:0:0:0:
77,228,111536,1,2,2:1:0:0:
77,228,111786,1,0,3:0:0:0:
238,64,112036,6,0,L|138:42,1,89.999997854233,2|0,2:1|2:0,0:0:0:0:
232,175,112411,1,0,3:0:0:0:
232,175,112536,2,0,L|319:155,1,89.999997854233,2|0,2:1|3:0,0:0:0:0:
397,133,112911,1,0,3:0:0:0:
238,64,113036,5,0,3:0:0:0:
441,20,113161,1,8,0:0:0:0:
378,217,113286,1,8,0:0:0:0:
336,76,113411,1,0,3:0:0:0:
232,175,113536,1,8,0:0:0:0:
397,133,113661,1,0,3:0:0:0:
166,120,113786,1,8,0:0:0:0:
354,210,113911,1,8,0:0:0:0:
87,105,114036,6,0,P|139:48|226:68,1,148.500000991345,4|0,3:1|0:0,0:0:0:0:
237,76,114286,2,0,L|342:76,1,99.0000006608966,0|8,3:0|0:0,0:0:0:0:
488,171,114536,1,0,3:0:0:0:
402,0,114661,1,8,0:0:0:0:
354,210,114786,1,0,3:0:0:0:
497,55,114911,1,8,0:0:0:0:
278,254,115036,6,0,L|272:144,1,99.0000006608966,0|8,3:0|0:0,0:0:0:0:
489,318,115286,2,0,L|495:208,1,99.0000006608966,0|8,3:0|0:0,0:0:0:0:
229,320,115536,2,0,P|284:337|346:295,1,99.0000006608966,0|8,3:0|0:0,0:0:0:0:
501,139,115786,2,0,P|446:122|384:164,1,99.0000006608966,0|8,3:0|0:0,0:0:0:0:
209,192,116036,6,0,L|207:242,1,49.5000003304483,0|0,3:0|2:0,0:0:0:0:
229,320,116161,1,8,0:0:0:0:
130,156,116286,2,0,P|199:105|280:142,1,148.500000991345,0|0,3:0|2:0,0:0:0:0:
285,128,116536,2,0,L|281:17,1,99.0000006608966,0|8,3:0|0:0,0:0:0:0:
48,128,116786,2,0,L|52:239,1,99.0000006608966,0|8,3:0|0:0,0:0:0:0:
224,316,117036,1,0,3:0:0:0:
38,331,117161,1,8,0:0:0:0:
225,354,117286,1,0,3:0:0:0:
51,226,117411,1,8,0:0:0:0:
244,277,117536,6,0,L|362:308,1,99.0000006608966,0|8,3:0|0:0,0:0:0:0:
493,163,117786,2,0,L|397:188,1,99.0000006608966,0|8,3:0|0:0,0:0:0:0:
157,271,118036,6,0,L|160:166,1,99.0000006608966,0|8,3:0|0:0,0:0:0:0:
161,63,118286,1,0,3:0:0:0:
333,132,118411,1,8,0:0:0:0:
189,70,118536,1,0,3:0:0:0:
363,36,118661,1,8,0:0:0:0:
258,193,118786,1,0,3:0:0:0:
258,193,118911,1,8,0:0:0:0:
493,163,119036,6,0,L|492:53,1,99.0000006608966,0|8,3:0|0:0,0:0:0:0:
340,203,119286,2,0,L|339:313,1,99.0000006608966,0|8,3:0|0:0,0:0:0:0:
444,231,119536,1,0,3:0:0:0:
258,193,119661,1,8,0:0:0:0:
360,115,119786,1,0,3:0:0:0:
363,221,119911,1,0,0:0:0:0:
348,91,120036,6,0,L|253:60,1,99.0000006608966,0|8,3:0|0:0,0:0:0:0:
166,37,120286,1,0,3:0:0:0:
153,229,120411,1,8,0:0:0:0:
258,193,120536,1,0,3:0:0:0:
72,155,120661,1,8,0:0:0:0:
281,196,120786,2,0,L|277:302,1,99.0000006608966,0|8,3:0|0:0,0:0:0:0:
53,349,121036,6,0,P|45:295|65:245,1,99.0000006608966,0|8,3:0|0:0,0:0:0:0:
219,133,121286,1,0,3:0:0:0:
209,337,121411,1,8,0:0:0:0:
37,125,121536,6,0,B|87:119|117:146|117:146|151:122|151:122|184:145|219:132,1,198.000001321793,0|8,3:0|0:0,0:0:0:0:
386,65,121911,1,8,0:0:0:0:
396,66,121973,1,8,0:0:0:0:
406,67,122036,5,8,0:0:0:0:
442,87,122098,1,0,3:0:0:0:
461,125,122161,1,8,0:0:0:0:
456,167,122223,1,0,3:0:0:0:
429,199,122286,1,8,0:0:0:0:
404,233,122348,1,0,3:0:0:0:
399,275,122411,1,8,0:0:0:0:
415,314,122473,1,0,3:0:0:0:
446,341,122536,5,10,0:0:0:0:
408,321,122598,1,0,3:0:0:0:
365,315,122661,1,8,0:0:0:0:
324,324,122723,1,0,3:0:0:0:
287,345,122786,1,10,0:0:0:0:
250,366,122848,1,0,3:0:0:0:
209,374,122910,1,8,0:0:0:0:
166,369,122973,1,0,3:0:0:0:
129,349,123036,1,10,0:0:0:0:
94,324,123098,1,0,3:0:0:0:
74,286,123161,1,8,0:0:0:0:
72,244,123223,1,0,3:0:0:0:
89,205,123286,1,8,0:0:0:0:
121,178,123348,1,0,3:0:0:0:
162,167,123411,1,8,0:0:0:0:
204,175,123473,1,0,3:0:0:0:
237,200,123536,2,0,P|263:229|275:260,3,56.2499986588956,8|0|8|0,0:0|3:0|0:0|3:0,0:0:0:0:
365,315,123786,6,0,L|366:256,1,56.2499986588956,10|0,0:0|3:0,0:0:0:0:
370,53,123911,1,8,0:0:0:0:
370,53,123973,1,0,3:0:0:0:
370,53,124036,5,10,0:0:0:0:
335,78,124098,1,0,3:0:0:0:
294,83,124161,1,8,0:0:0:0:
254,68,124223,1,0,3:0:0:0:
227,36,124286,1,8,0:0:0:0:
189,18,124348,1,0,3:0:0:0:
147,21,124411,1,10,0:0:0:0:
112,45,124473,1,0,3:0:0:0:
94,83,124536,1,8,0:0:0:0:
97,125,124598,1,0,3:0:0:0:
121,160,124661,1,8,0:0:0:0:
160,178,124723,1,0,3:0:0:0:
202,175,124786,2,0,L|265:153,3,56.2499986588956,10|0|8|0,0:0|3:0|0:0|3:0,0:0:0:0:
370,53,125036,5,10,0:0:0:0:
369,58,125098,1,0,3:0:0:0:
369,64,125161,1,8,0:0:0:0:
368,69,125223,1,0,3:0:0:0:
368,75,125286,1,8,0:0:0:0:
367,81,125348,1,0,3:0:0:0:
367,86,125411,1,10,0:0:0:0:
367,92,125473,1,0,3:0:0:0:
366,97,125536,1,8,0:0:0:0:
366,103,125598,1,0,3:0:0:0:
365,109,125661,1,8,0:0:0:0:
365,115,125723,1,0,3:0:0:0:
364,121,125786,2,0,L|359:197,3,56.2499986588956,10|0|8|0,0:0|3:0|0:0|3:0,0:0:0:0:
386,330,126036,5,10,0:0:0:0:
347,307,126098,1,0,3:0:0:0:
303,299,126161,1,8,0:0:0:0:
259,305,126223,1,0,3:0:0:0:
219,326,126286,1,8,0:0:0:0:
180,348,126348,1,0,3:0:0:0:
136,356,126411,1,8,0:0:0:0:
92,350,126473,1,0,3:0:0:0:
52,329,126536,1,8,0:0:0:0:
21,296,126598,1,0,3:0:0:0:
8,253,126661,1,8,0:0:0:0:
16,209,126723,1,0,3:0:0:0:
42,173,126786,1,8,0:0:0:0:
82,153,126848,1,0,3:0:0:0:
127,153,126911,1,8,0:0:0:0:
167,172,126973,1,0,3:0:0:0:
194,207,127036,5,8,0:0:0:0:
187,163,127098,1,0,3:0:0:0:
202,121,127161,1,8,0:0:0:0:
237,93,127223,1,0,3:0:0:0:
280,85,127286,1,8,0:0:0:0:
322,100,127348,1,0,3:0:0:0:
351,133,127411,1,8,0:0:0:0:
360,177,127473,1,0,3:0:0:0:
346,219,127536,1,8,0:0:0:0:
332,261,127598,1,0,3:0:0:0:
341,305,127660,1,8,0:0:0:0:
370,338,127723,1,0,3:0:0:0:
412,353,127786,6,0,L|478:367,1,56.2499986588956,10|0,0:0|3:0,0:0:0:0:
460,94,127911,1,8,0:0:0:0:
460,94,127973,1,0,3:0:0:0:
460,94,128036,5,10,0:0:0:0:
432,53,128098,1,0,3:0:0:0:
388,31,128161,1,8,0:0:0:0:
339,34,128223,1,0,3:0:0:0:
298,61,128286,1,8,0:0:0:0:
275,104,128348,1,0,3:0:0:0:
277,153,128411,1,10,0:0:0:0:
303,195,128473,1,0,3:0:0:0:
345,218,128536,2,0,P|372:226|421:216,3,49.5000003304483,8|0|8|0,0:0|3:0|0:0|3:0,0:0:0:0:
421,123,128786,2,0,P|444:109|472:67,3,49.5000003304483,10|0|8|0,0:0|3:0|0:0|3:0,0:0:0:0:
259,30,129036,5,10,3:0:0:0:
259,30,129098,1,8,3:0:0:0:
259,30,129161,2,0,P|282:44|310:86,1,49.5000003304483,8|0,3:1|3:0,3:0:0:0:
345,218,129286,1,4,3:0:0:0:
345,218,129348,1,4,3:0:0:0:
345,218,129411,2,0,P|344:244|322:290,1,49.5000003304483,4|0,3:0|3:0,3:0:0:0:
181,346,129536,5,0,3:0:0:0:
183,296,129598,1,0,3:0:0:0:
185,247,129661,1,8,0:0:0:0:
349,119,129786,1,0,3:0:0:0:
347,168,129849,1,0,3:0:0:0:
345,218,129911,1,8,0:0:0:0:
105,243,130036,6,0,P|141:180|260:219,1,198.000001321793,0|8,3:0|3:1,3:0:0:0:
343,316,130411,1,0,3:0:0:0:
343,316,130473,1,0,3:0:0:0:
343,316,130536,2,0,L|345:204,1,99.0000006608966,0|0,3:2|3:0,3:0:0:0:
349,119,130786,2,0,L|351:7,1,99.0000006608966,8|0,3:1|3:0,3:0:0:0:
476,205,131036,5,0,3:0:0:0:
447,228,131098,1,0,3:0:0:0:
412,239,131161,1,0,3:0:0:0:
375,234,131223,1,0,3:0:0:0:
344,216,131286,2,0,P|294:197|228:210,1,99.0000006608966,8|0,3:1|3:0,3:0:0:0:
18,294,131536,5,0,3:0:0:0:
46,317,131598,1,0,3:0:0:0:
81,328,131661,1,0,3:0:0:0:
118,323,131723,1,0,3:0:0:0:
149,305,131786,2,0,P|165:282|170:255,1,49.5000003304483,8|0,3:1|3:0,3:0:0:0:
150,182,131911,2,0,P|145:154|129:131,1,49.5000003304483,0|0,3:0|3:0,3:0:0:0:
12,37,132036,6,0,L|214:24,1,198.000001321793,0|8,3:0|3:1,3:0:0:0:
348,194,132411,1,0,3:0:0:0:
348,194,132473,1,0,3:0:0:0:
348,194,132536,2,0,L|249:200,1,99.0000006608966,0|0,3:0|3:0,3:0:0:0:
378,92,132786,2,0,L|476:85,1,99.0000006608966,8|0,3:1|3:0,3:0:0:0:
503,363,133036,5,0,3:0:0:0:
478,338,133098,1,0,3:0:0:0:
450,320,133161,1,0,3:0:0:0:
419,306,133223,1,0,3:0:0:0:
387,298,133286,1,8,3:1:0:0:
352,297,133348,1,0,3:0:0:0:
320,302,133411,1,0,3:0:0:0:
287,312,133473,1,0,3:0:0:0:
258,328,133536,1,0,3:0:0:0:
229,345,133598,1,0,3:0:0:0:
196,355,133660,1,0,3:0:0:0:
163,360,133723,1,0,3:0:0:0:
129,359,133785,1,8,3:1:0:0:
97,351,133848,1,0,3:0:0:0:
65,337,133910,1,0,3:0:0:0:
37,318,133973,1,0,3:0:0:0:
13,294,134036,6,0,L|15:222,1,44.9999989271165,4|0,3:1|3:0,3:0:0:0:
19,138,134161,1,0,3:0:0:0:
19,138,134223,1,0,3:0:0:0:
19,138,134286,2,0,P|34:84|72:61,1,89.999997854233,8|0,3:1|3:0,3:0:0:0:
137,169,134536,1,0,3:0:0:0:
157,49,134661,1,0,3:0:0:0:
265,98,134786,1,8,3:1:0:0:
265,98,134848,1,0,3:0:0:0:
265,98,134911,2,0,L|319:68,1,44.9999989271165,0|0,3:0|3:0,3:0:0:0:
450,21,135036,5,0,3:0:0:0:
429,47,135098,1,0,3:0:0:0:
420,79,135161,1,0,3:0:0:0:
424,113,135223,1,0,3:0:0:0:
440,142,135286,2,0,L|438:204,1,44.9999989271165,8|0,3:1|3:0,3:0:0:0:
430,320,135411,1,0,3:0:0:0:
430,320,135473,1,0,3:0:0:0:
430,320,135536,1,0,3:0:0:0:
400,303,135598,1,0,3:0:0:0:
367,299,135661,1,0,3:0:0:0:
335,309,135723,1,0,3:0:0:0:
310,331,135786,2,0,P|290:353|282:369,3,44.9999989271165,8|0|0|0,3:1|3:0|3:0|3:0,3:0:0:0:
179,354,136036,5,0,3:0:0:0:
180,320,136098,1,0,3:0:0:0:
181,286,136161,1,0,3:0:0:0:
183,252,136223,1,0,3:0:0:0:
184,219,136286,2,0,L|190:122,1,89.999997854233,0|0,3:0|3:0,3:0:0:0:
34,46,136536,2,0,L|28:143,1,89.999997854233,8|0,3:1|3:0,3:0:0:0:
268,136,136786,1,0,3:0:0:0:
262,102,136848,1,0,3:0:0:0:
244,74,136911,1,0,3:0:0:0:
216,56,136973,1,0,3:0:0:0:
183,51,137036,6,0,L|121:57,3,44.9999989271165,0|0|0|0,3:0|3:0|3:0|3:0,3:0:0:0:
309,20,137286,2,0,L|371:25,3,44.9999989271165,0|0|0|0,3:0|3:0|3:0|3:0,3:0:0:0:
268,136,137536,1,8,3:1:0:0:
267,141,137598,1,0,3:0:0:0:
267,146,137661,1,0,3:0:0:0:
267,152,137723,1,0,3:0:0:0:
267,157,137786,1,0,3:0:0:0:
267,162,137848,1,0,3:0:0:0:
267,168,137911,1,0,3:0:0:0:
267,173,137973,1,0,3:0:0:0:
267,179,138036,5,10,3:1:0:0:
300,180,138098,1,0,3:0:0:0:
330,195,138161,1,0,3:1:0:0:
351,221,138223,1,0,3:0:0:0:
360,253,138286,1,2,3:1:0:0:
355,286,138348,1,0,3:0:0:0:
336,315,138411,1,0,3:1:0:0:
308,333,138473,1,0,3:0:0:0:
275,338,138536,6,0,P|248:339|208:327,1,44.9999989271165,10|0,3:1|3:0,3:0:0:0:
121,266,138661,1,0,3:0:0:0:
121,243,138723,1,0,3:0:0:0:
122,221,138786,1,2,3:1:0:0:
122,198,138848,1,0,3:0:0:0:
123,176,138911,1,0,3:0:0:0:
124,153,138973,1,0,3:0:0:0:
124,131,139036,6,0,L|124:68,1,44.9999989271165,10|0,3:1|3:0,3:0:0:0:
273,34,139161,1,0,3:0:0:0:
285,67,139223,1,0,3:0:0:0:
310,93,139286,1,2,3:1:0:0:
342,108,139348,1,0,3:0:0:0:
378,110,139411,1,0,3:0:0:0:
411,98,139473,1,0,3:0:0:0:
438,75,139536,6,0,L|445:141,1,44.9999989271165,10|0,3:1|3:0,3:0:0:0:
453,229,139661,1,0,3:0:0:0:
453,236,139723,1,0,3:0:0:0:
454,243,139786,1,2,3:1:0:0:
454,250,139848,1,0,3:0:0:0:
455,257,139911,1,0,3:0:0:0:
456,264,139973,1,0,3:0:0:0:
456,272,140036,6,0,L|462:326,1,44.9999989271165,10|0,3:1|3:0,3:0:0:0:
276,350,140161,1,0,3:0:0:0:
293,321,140223,1,0,3:0:0:0:
297,288,140286,1,2,3:1:0:0:
287,256,140348,1,0,3:0:0:0:
265,231,140411,1,0,3:0:0:0:
243,206,140474,1,0,3:0:0:0:
233,174,140536,6,0,L|235:111,1,44.9999989271165,10|0,3:1|3:0,3:0:0:0:
109,35,140661,1,0,3:0:0:0:
76,40,140723,1,0,3:0:0:0:
48,59,140786,1,2,3:1:0:0:
31,88,140848,1,0,3:0:0:0:
27,121,140911,1,0,3:0:0:0:
37,153,140973,1,0,3:0:0:0:
60,178,141036,6,0,L|63:235,3,44.9999989271165,8|0|0|0,3:0|3:0|3:0|3:0,3:0:0:0:
178,343,141286,2,4,L|175:286,3,44.9999989271165,4|4|4|4,3:0|3:0|3:0|3:0,3:0:0:0:
233,174,141536,6,0,B|288:169|305:130|305:130|354:162|354:162|414:127|483:172,1,269.999993562699,2|0,3:0|3:0,3:0:0:0:
163,49,142036,1,6,3:1:0:0:
256,192,142098,12,0,149973,0:0:0:0:
134,104,150036,5,10,3:1:0:0:
85,173,152036,1,10,3:1:0:0:
134,104,154036,5,10,3:1:0:0:
138,131,154411,1,10,3:1:0:0:
46,197,156036,2,0,L|203:213,1,135.000001931191,4|0,3:1|0:0,0:0:0:0:
333,235,156411,1,0,3:0:0:0:
274,100,156536,1,8,3:0:0:0:
274,100,156598,1,0,3:0:0:0:
274,100,156661,1,8,3:0:0:0:
188,218,156786,1,4,3:0:0:0:
188,218,156848,1,0,3:0:0:0:
188,218,156911,1,4,3:0:0:0:
333,235,157036,5,0,3:0:0:0:
196,135,157161,1,8,0:0:0:0:
342,149,157286,1,8,0:0:0:0:
254,268,157411,1,0,3:0:0:0:
274,100,157536,1,8,0:0:0:0:
254,268,157661,1,0,3:0:0:0:
232,34,157786,1,8,0:0:0:0:
255,31,157848,1,8,0:0:0:0:
278,29,157911,1,8,0:0:0:0:
302,26,157973,1,8,0:0:0:0:
325,24,158036,6,0,L|420:14,1,89.999997854233,8|0,0:0|3:0,0:0:0:0:
512,7,158286,1,8,0:0:0:0:
353,126,158411,2,0,L|362:215,1,89.999997854233,0|8,3:0|0:0,0:0:0:0:
374,303,158661,1,0,3:0:0:0:
300,68,158786,2,0,P|340:48|384:55,1,89.999997854233,8|0,0:0|3:0,0:0:0:0:
186,100,159036,5,8,0:0:0:0:
186,100,159161,2,0,L|192:0,1,89.999997854233,0|8,3:0|0:0,0:0:0:0:
69,181,159411,1,0,3:0:0:0:
69,181,159536,2,0,L|63:81,1,89.999997854233,8|0,0:0|3:0,0:0:0:0:
122,259,159786,2,0,L|22:265,1,89.999997854233,8|0,0:0|3:0,0:0:0:0:
244,353,160036,6,0,L|247:309,1,44.9999989271165,8|0,0:0|2:0,0:0:0:0:
253,234,160161,1,0,3:0:0:0:
345,363,160286,1,8,0:0:0:0:
345,363,160411,2,0,P|401:348|445:366,1,89.999997854233,0|8,3:0|0:0,0:0:0:0:
512,224,160661,1,0,3:0:0:0:
512,224,160786,2,0,P|456:239|412:221,1,89.999997854233,8|0,0:0|3:0,0:0:0:0:
417,76,161036,5,8,0:0:0:0:
294,134,161161,1,0,3:0:0:0:
464,156,161286,1,8,0:0:0:0:
323,140,161411,1,0,3:0:0:0:
497,89,161536,2,0,L|495:-8,1,89.999997854233,8|0,0:0|3:0,0:0:0:0:
292,44,161786,2,0,L|294:141,1,89.999997854233,8|0,0:0|3:0,0:0:0:0:
304,331,162036,5,8,0:0:0:0:
192,268,162161,2,0,P|171:304|175:358,1,89.999997854233,0|8,3:0|0:0,0:0:0:0:
355,269,162411,1,0,3:0:0:0:
355,269,162473,1,0,3:0:0:0:
355,269,162536,2,0,L|356:169,1,89.999997854233,8|0,0:0|3:0,0:0:0:0:
332,344,162786,1,8,0:0:0:0:
220,281,162911,2,0,P|199:317|203:371,1,89.999997854233,0|8,3:0|0:0,0:0:0:0:
276,160,163161,5,0,3:0:0:0:
425,149,163286,1,8,0:0:0:0:
276,160,163411,1,0,3:0:0:0:
454,139,163536,2,0,L|451:48,1,89.999997854233,8|0,0:0|3:0,0:0:0:0:
242,85,163786,2,0,L|245:176,1,89.999997854233,8|0,0:0|3:0,0:0:0:0:
317,32,164036,6,0,L|153:31,1,134.999996781349,8|0,0:0|2:0,0:0:0:0:
148,55,164286,1,8,0:0:0:0:
52,126,164411,2,0,P|96:123|133:147,1,89.999997854233,0|8,3:0|0:0,0:0:0:0:
106,328,164661,1,0,3:0:0:0:
202,257,164786,2,0,P|157:259|120:235,1,89.999997854233,8|0,0:0|3:0,0:0:0:0:
293,173,165036,5,8,0:0:0:0:
275,308,165161,1,0,3:0:0:0:
407,252,165286,1,8,0:0:0:0:
275,266,165411,1,0,3:0:0:0:
453,241,165536,2,0,P|453:196|423:143,1,89.999997854233,8|0,0:0|3:0,0:0:0:0:
358,58,165786,1,8,0:0:0:0:
336,220,165911,1,0,3:0:0:0:
257,43,166036,6,0,L|367:34,1,89.999997854233,8|0,0:0|3:0,0:0:0:0:
308,129,166286,1,8,0:0:0:0:
160,89,166411,2,0,L|158:-10,1,89.999997854233,0|8,3:0|0:0,3:0:0:0:
163,169,166661,1,0,3:0:0:0:
16,36,166786,2,0,P|-7:86|10:134,1,89.999997854233,8|0,0:0|3:0,0:0:0:0:
89,334,167036,5,8,0:0:0:0:
89,334,167161,2,0,L|-11:340,1,89.999997854233,0|8,3:0|0:0,0:0:0:0:
170,217,167411,1,0,3:0:0:0:
170,217,167536,2,0,L|70:211,1,89.999997854233,8|0,0:0|3:0,0:0:0:0:
284,341,167786,2,0,L|194:335,1,89.999997854233,8|0,0:0|3:0,0:0:0:0:
359,238,168036,6,0,L|363:288,1,44.9999989271165,8|0,0:0|2:0,0:0:0:0:
370,362,168161,1,0,3:0:0:0:
291,193,168286,1,8,0:0:0:0:
291,193,168411,2,0,P|329:162|394:164,1,89.999997854233,0|8,3:0|0:0,0:0:0:0:
447,325,168661,1,0,3:0:0:0:
447,325,168786,2,0,P|409:356|344:354,1,89.999997854233,8|0,0:0|3:0,0:0:0:0:
486,237,169036,5,8,0:0:0:0:
359,238,169161,1,0,3:0:0:0:
486,237,169286,1,8,0:0:0:0:
368,156,169411,1,0,3:0:0:0:
447,325,169536,5,8,0:0:0:0:
512,153,169661,1,0,3:0:0:0:
282,191,169786,2,0,L|288:94,1,89.999997854233,8|0,0:0|3:0,0:0:0:0:
393,142,170036,5,8,0:0:0:0:
249,27,170161,2,0,P|219:55|217:127,1,89.999997854233,0|8,3:0|0:0,0:0:0:0:
235,260,170411,1,0,3:0:0:0:
235,260,170473,1,0,3:0:0:0:
235,260,170536,2,0,L|328:279,1,89.999997854233,8|0,0:0|3:0,0:0:0:0:
411,150,170786,1,8,0:0:0:0:
267,35,170911,2,0,P|237:63|235:135,1,89.999997854233,0|8,3:0|0:0,0:0:0:0:
323,278,171161,5,0,3:0:0:0:
165,311,171286,1,8,0:0:0:0:
323,278,171411,1,0,3:0:0:0:
88,325,171536,2,0,L|95:198,1,89.999997854233,8|0,0:0|3:0,0:0:0:0:
318,188,171786,2,0,L|325:315,1,89.999997854233,8|0,0:0|3:0,0:0:0:0:
16,211,172036,6,0,P|63:161|160:187,1,134.999996781349,8|0,0:0|0:0,0:0:0:0:
162,168,172286,2,0,L|165:64,1,89.999997854233,8|0,0:0|3:0,0:0:0:0:
92,235,172536,1,8,0:0:0:0:
238,191,172661,1,0,3:0:0:0:
203,339,172786,1,8,0:0:0:0:
92,235,172911,1,0,3:0:0:0:
281,276,173036,5,0,3:0:0:0:
123,242,173161,1,12,0:0:0:0:
282,306,173286,1,0,3:0:0:0:
124,340,173411,1,12,0:0:0:0:
358,325,173536,5,12,0:0:0:0:
368,305,173598,1,8,0:0:0:0:
373,283,173661,1,8,0:0:0:0:
373,261,173723,1,8,0:0:0:0:
366,239,173786,1,0,3:0:0:0:
354,220,173848,1,0,3:0:0:0:
337,205,173911,1,0,3:0:0:0:
317,195,173973,1,0,3:0:0:0:
295,191,174036,6,0,P|248:186|175:200,2,89.999997854233,4|8|0,3:1|0:0|3:1,0:0:0:0:
457,229,174411,2,0,L|460:107,1,89.999997854233,8|0,0:0|3:0,0:0:0:0:
460,47,174661,1,8,0:0:0:0:
295,191,174786,2,0,P|248:196|175:182,2,89.999997854233,0|8|0,3:0|0:0|3:0,0:0:0:0:
196,49,175161,1,8,0:0:0:0:
122,205,175286,1,0,3:0:0:0:
295,191,175411,1,8,0:0:0:0:
72,142,175536,2,0,P|45:182|48:233,1,89.999997854233,0|8,3:0|0:0,0:0:0:0:
267,271,175786,2,0,P|294:231|291:180,1,89.999997854233,0|8,3:0|0:0,0:0:0:0:
137,338,176036,6,0,L|206:344,1,44.9999989271165,0|0,3:0|2:0,0:0:0:0:
261,346,176161,1,8,0:0:0:0:
59,333,176286,1,0,3:0:0:0:
267,271,176411,2,0,P|322:290|336:366,1,134.999996781349,8|0,0:0|0:0,0:0:0:0:
381,358,176661,2,0,L|477:361,2,89.999997854233,8|0|8,0:0|3:0|0:0,0:0:0:0:
435,222,177036,5,0,3:0:0:0:
267,271,177161,1,8,0:0:0:0:
446,198,177286,1,0,3:0:0:0:
292,140,177411,1,8,0:0:0:0:
457,171,177536,1,0,3:0:0:0:
337,218,177661,1,8,0:0:0:0:
479,98,177786,2,0,L|478:-19,1,89.999997854233,0|8,3:0|0:0,0:0:0:0:
233,184,178036,5,0,3:0:0:0:
345,121,178161,2,0,P|366:157|362:211,1,89.999997854233,8|0,0:0|3:0,0:0:0:0:
182,122,178411,1,8,0:0:0:0:
182,122,178473,1,0,0:0:0:0:
182,122,178536,2,0,L|181:22,1,89.999997854233,0|8,3:0|0:0,0:0:0:0:
205,197,178786,1,0,3:0:0:0:
317,134,178911,2,0,P|338:170|334:224,1,89.999997854233,8|0,0:0|3:0,0:0:0:0:
175,335,179161,5,8,0:0:0:0:
330,298,179286,1,0,3:0:0:0:
175,335,179411,1,8,0:0:0:0:
397,357,179536,2,0,B|408:321|408:321|399:251,1,89.999997854233,0|8,3:0|0:0,0:0:0:0:
183,212,179786,2,0,L|178:335,1,89.999997854233,0|8,3:0|0:0,0:0:0:0:
83,127,180036,6,0,B|127:142|152:124|178:100|233:138,1,134.999996781349,0|0,3:0|0:0,0:0:0:0:
248,145,180286,1,0,3:0:0:0:
365,95,180411,2,0,L|363:-1,1,89.999997854233,8|0,0:0|3:0,0:0:0:0:
275,180,180661,2,0,L|273:269,2,89.999997854233,8|0|8,0:0|3:0|0:0,0:0:0:0:
131,77,181036,5,0,3:0:0:0:
108,71,181098,1,8,0:0:0:0:
85,65,181161,2,0,P|54:70|22:91,1,44.9999989271165,8|0,0:0|3:0,0:0:0:0:
34,197,181286,1,8,0:0:0:0:
33,208,181348,1,8,0:0:0:0:
33,219,181411,1,0,3:0:0:0:
33,230,181473,1,0,3:0:0:0:
32,241,181536,2,8,L|32:312,1,44.9999989271165
119,358,181661,2,8,L|127:288,1,44.9999989271165
187,192,181786,2,8,L|195:262,1,44.9999989271165
275,370,181911,2,8,L|283:300,1,44.9999989271165
308,158,182036,5,2,3:1:0:0:
325,144,182098,1,0,3:0:0:0:
346,135,182161,1,0,3:0:0:0:
368,132,182223,1,0,3:0:0:0:
391,135,182286,1,10,3:1:0:0:
412,143,182348,1,0,3:0:0:0:
430,157,182411,1,0,3:0:0:0:
444,174,182473,1,0,3:0:0:0:
453,195,182536,1,2,3:1:0:0:
456,217,182598,1,0,3:0:0:0:
454,239,182661,1,0,3:0:0:0:
447,260,182723,1,0,3:0:0:0:
434,279,182786,1,10,3:1:0:0:
417,293,182848,1,0,3:0:0:0:
397,303,182911,1,0,3:0:0:0:
375,307,182973,1,0,3:0:0:0:
352,306,183036,5,2,3:1:0:0:
333,293,183098,1,0,3:0:0:0:
312,285,183161,1,0,3:0:0:0:
290,284,183223,1,0,3:0:0:0:
268,288,183286,1,10,3:1:0:0:
248,298,183348,1,0,3:0:0:0:
231,313,183411,1,0,3:0:0:0:
219,332,183473,1,0,3:0:0:0:
212,354,183536,1,2,3:1:0:0:
194,366,183598,1,0,3:0:0:0:
173,374,183661,1,0,3:0:0:0:
151,375,183723,1,0,3:0:0:0:
129,371,183786,1,10,3:1:0:0:
109,361,183848,1,0,3:0:0:0:
92,346,183911,1,0,3:0:0:0:
80,327,183973,1,0,3:0:0:0:
73,305,184036,5,2,3:1:0:0:
95,305,184098,1,0,3:0:0:0:
117,299,184161,1,0,3:0:0:0:
137,289,184223,1,0,3:0:0:0:
153,274,184286,1,10,3:1:0:0:
166,255,184348,1,0,3:0:0:0:
173,234,184411,1,0,3:0:0:0:
175,212,184473,1,0,3:0:0:0:
172,190,184536,1,2,3:1:0:0:
163,169,184598,1,0,3:0:0:0:
149,151,184661,1,0,3:0:0:0:
132,137,184723,1,0,3:0:0:0:
111,128,184786,1,10,3:1:0:0:
89,124,184848,1,0,3:0:0:0:
67,126,184911,1,0,3:0:0:0:
45,133,184973,1,0,3:0:0:0:
27,144,185036,6,0,L|-16:169,3,44.9999989271165,2|0|0|0,3:1|3:0|3:0|3:0,3:0:0:0:
51,38,185286,2,0,L|95:50,3,44.9999989271165,10|0|0|0,3:1|3:0|3:0|3:0,3:0:0:0:
202,146,185536,2,0,L|159:171,3,44.9999989271165,2|0|0|0,3:1|3:0|3:0|3:0,3:0:0:0:
226,40,185786,2,0,L|269:51,3,44.9999989271165,10|0|0|0,3:1|3:0|3:0|3:0,3:0:0:0:
391,74,186036,5,2,3:1:0:0:
390,85,186098,1,0,3:0:0:0:
390,96,186161,1,0,3:0:0:0:
390,107,186223,1,0,3:0:0:0:
389,118,186286,1,10,3:1:0:0:
389,130,186348,1,0,3:0:0:0:
389,141,186411,1,0,3:0:0:0:
388,152,186473,1,0,3:0:0:0:
388,163,186536,1,2,3:1:0:0:
367,154,186598,1,0,3:0:0:0:
344,153,186661,1,0,3:0:0:0:
323,160,186723,1,0,3:0:0:0:
305,173,186786,1,10,3:1:0:0:
293,192,186848,1,0,3:0:0:0:
287,213,186911,1,0,3:0:0:0:
290,236,186973,1,0,3:0:0:0:
299,256,187036,5,2,3:1:0:0:
315,272,187098,1,0,3:0:0:0:
335,281,187161,1,0,3:0:0:0:
358,283,187223,1,0,3:0:0:0:
379,278,187286,1,10,3:1:0:0:
368,258,187348,1,0,3:0:0:0:
352,242,187411,1,0,3:0:0:0:
333,230,187473,1,0,3:0:0:0:
311,224,187536,1,2,3:1:0:0:
289,225,187598,1,0,3:0:0:0:
268,231,187661,1,0,3:0:0:0:
249,243,187723,1,0,3:0:0:0:
233,259,187786,1,10,3:1:0:0:
211,258,187848,1,0,3:0:0:0:
190,252,187911,1,0,3:0:0:0:
171,240,187973,1,0,3:0:0:0:
155,223,188036,5,2,3:1:0:0:
135,234,188098,1,0,3:0:0:0:
114,240,188161,1,0,3:0:0:0:
92,240,188223,1,0,3:0:0:0:
70,234,188286,1,10,3:1:0:0:
51,221,188348,1,0,3:0:0:0:
37,204,188411,1,0,3:0:0:0:
28,183,188473,1,0,3:0:0:0:
25,161,188536,1,2,3:1:0:0:
29,139,188598,1,0,3:0:0:0:
39,119,188661,1,0,3:0:0:0:
54,102,188723,1,0,3:0:0:0:
73,91,188786,1,10,3:1:0:0:
95,85,188848,1,0,3:0:0:0:
117,86,188911,1,0,3:0:0:0:
139,93,188973,1,0,3:0:0:0:
159,104,189036,6,0,L|215:130,1,44.9999989271165,0|0,3:0|3:3,0:0:0:0:
303,168,189161,1,8,0:0:0:0:
303,154,189223,1,8,0:0:0:0:
304,141,189286,1,8,0:0:0:0:
305,127,189348,1,8,0:0:0:0:
305,114,189411,1,8,0:0:0:0:
306,100,189473,1,8,0:0:0:0:
307,87,189536,2,8,L|311:33,3,44.9999989271165
418,137,189786,2,8,L|422:191,3,44.9999989271165,8|8|8|8,3:0|3:0|3:0|3:0,3:0:0:0:
412,60,190036,5,10,0:0:0:0:
427,260,190161,1,8,0:0:0:0:
246,172,190286,1,8,0:0:0:0:
412,60,190411,1,8,0:0:0:0:
311,268,190536,1,8,0:0:0:0:
476,155,190661,1,8,0:0:0:0:
296,67,190786,1,8,0:0:0:0:
473,252,191036,5,4,3:0:0:0:
473,252,191161,1,0,0:0:0:0:
473,252,191286,2,0,L|464:356,1,89.999997854233,8|0,0:0|0:0,0:0:0:0:
465,341,191661,1,0,0:0:0:0:
346,278,191786,2,0,L|349:233,1,44.9999989271165,8|0,0:0|0:0,0:0:0:0:
354,144,192036,1,4,0:0:0:0:
354,144,192161,1,0,0:0:0:0:
219,302,192286,5,8,0:0:0:0:
219,302,192536,1,8,0:0:0:0:
346,278,192661,1,8,0:0:0:0:
138,229,192786,1,8,0:0:0:0:
354,144,193036,5,4,0:0:0:0:
353,161,193161,1,0,0:0:0:0:
352,178,193286,1,0,0:0:0:0:
351,195,193411,1,0,0:0:0:0:
350,212,193536,1,0,0:0:0:0:
349,229,193661,1,0,0:0:0:0:
348,246,193786,1,0,0:0:0:0:
347,263,193911,1,0,0:0:0:0:
223,178,194036,5,12,0:0:0:0:
197,336,194161,1,8,0:0:0:0:
313,192,194286,1,8,0:0:0:0:
164,249,194411,1,8,0:0:0:0:
287,350,194536,1,8,0:0:0:0:
313,192,194661,1,8,0:0:0:0:
197,336,194786,1,8,0:0:0:0:
15,308,195036,5,4,0:0:0:0:
15,308,195161,1,0,0:0:0:0:
15,308,195286,2,0,L|20:246,2,44.9999989271165,8|0|0,0:0|0:0|0:0,0:0:0:0:
27,175,195661,1,0,0:0:0:0:
142,321,195786,2,0,L|149:231,1,89.999997854233,8|4,0:0|0:0,0:0:0:0:
230,330,196161,1,0,0:0:0:0:
275,255,196286,5,8,0:0:0:0:
275,255,196536,1,8,0:0:0:0:
148,231,196661,1,8,0:0:0:0:
356,182,196786,1,8,0:0:0:0:
140,95,197036,5,4,0:0:0:0:
141,112,197161,1,0,0:0:0:0:
142,129,197286,1,0,0:0:0:0:
143,146,197411,1,0,0:0:0:0:
144,163,197536,1,0,0:0:0:0:
145,180,197661,1,0,0:0:0:0:
146,197,197786,1,0,0:0:0:0:
147,214,197911,1,0,0:0:0:0:
148,231,198036,5,14,0:0:0:0:
271,129,198161,1,8,0:0:0:0:
297,287,198286,1,8,0:0:0:0:
181,143,198411,1,8,0:0:0:0:
330,200,198536,1,8,0:0:0:0:
207,301,198661,1,8,0:0:0:0:
271,129,198786,1,8,0:0:0:0:
479,257,199036,5,4,0:3:0:0:
479,257,199161,1,0,0:0:0:0:
479,257,199286,2,0,L|463:158,1,89.999997854233,8|0,0:0|0:0,0:0:0:0:
464,168,199661,1,0,0:0:0:0:
271,129,199786,2,0,L|263:173,1,44.9999989271165,8|0,0:0|0:0,0:0:0:0:
247,261,200036,1,4,0:0:0:0:
247,261,200161,1,0,0:0:0:0:
144,105,200286,5,8,0:0:0:0:
144,105,200536,1,8,0:0:0:0:
271,129,200661,1,8,0:0:0:0:
63,178,200786,1,8,0:0:0:0:
372,95,201036,5,4,0:0:0:0:
371,112,201161,1,0,0:0:0:0:
370,129,201286,1,0,0:0:0:0:
369,146,201411,1,0,0:0:0:0:
368,163,201536,1,0,0:0:0:0:
367,180,201661,1,0,0:0:0:0:
366,197,201786,1,0,0:0:0:0:
365,214,201911,1,0,0:0:0:0:
364,231,202036,5,12,0:0:0:0:
241,129,202161,1,8,0:0:0:0:
215,287,202286,1,8,0:0:0:0:
331,143,202411,1,8,0:0:0:0:
182,200,202536,1,8,0:0:0:0:
305,301,202661,1,8,0:0:0:0:
241,129,202786,1,8,0:0:0:0:
39,132,203036,5,4,0:0:0:0:
39,132,203161,1,0,0:0:0:0:
39,132,203286,2,0,L|48:28,1,89.999997854233,8|0,0:0|0:0,0:0:0:0:
47,43,203661,1,0,0:0:0:0:
166,106,203786,2,0,L|163:151,1,44.9999989271165,8|0,0:0|0:0,0:0:0:0:
158,240,204036,1,4,0:0:0:0:
158,240,204161,1,0,0:0:0:0:
293,82,204286,5,8,0:0:0:0:
293,82,204536,1,8,0:0:0:0:
166,106,204661,1,8,0:0:0:0:
374,155,204786,1,8,0:0:0:0:
145,27,205036,5,6,0:0:0:0:
166,106,205411,5,4,0:0:0:0:
145,27,205536,2,0,P|87:80|145:185,1,202.500002896786,0|0,0:0|2:0,0:0:0:0:
379,261,206036,5,10,3:1:0:0:
191,241,206161,1,8,3:1:0:0:
366,295,206286,1,8,3:1:0:0:
184,345,206411,1,8,3:1:0:0:
299,195,206536,1,8,3:1:0:0:
372,370,206661,1,8,3:1:0:0:
214,260,206786,1,8,3:1:0:0:
443,183,207036,5,0,3:1:0:0:
214,260,207286,1,8,3:1:0:0:
214,260,207786,1,8,3:1:0:0:
261,23,208286,5,8,3:1:0:0:
261,23,208536,1,8,3:1:0:0:
268,117,208661,1,8,3:1:0:0:
275,211,208786,1,8,3:1:0:0:
339,57,209036,6,0,P|259:24|181:86,1,179.999995708466,2|0,3:1|3:0,3:0:0:0:
410,344,210036,5,10,3:1:0:0:
385,183,210161,1,8,3:1:0:0:
262,285,210286,1,8,3:1:0:0:
444,255,210411,1,8,3:1:0:0:
294,199,210536,1,8,3:1:0:0:
317,357,210661,1,8,3:1:0:0:
444,255,210786,1,8,3:1:0:0:
205,214,211036,5,0,3:0:0:0:
444,255,211286,1,8,3:1:0:0:
444,255,211786,1,8,3:1:0:0:
205,214,212286,5,8,3:1:0:0:
205,214,212536,1,8,3:1:0:0:
212,120,212661,1,8,3:1:0:0:
219,26,212786,1,8,3:1:0:0:
135,171,213036,2,0,P|214:135|284:198,1,179.999995708466,2|0,3:1|3:0,3:0:0:0:
9,318,214036,5,10,3:1:0:0:
197,338,214161,1,8,3:1:0:0:
22,284,214286,1,8,3:1:0:0:
204,234,214411,1,8,3:1:0:0:
89,384,214536,1,8,3:1:0:0:
16,209,214661,1,8,3:1:0:0:
174,319,214786,1,8,3:1:0:0:
132,76,215036,5,0,3:0:0:0:
174,319,215286,1,8,3:1:0:0:
174,319,215786,1,8,3:1:0:0:
132,76,216286,5,8,3:1:0:0:
132,76,216536,1,8,3:1:0:0:
226,69,216661,1,8,3:1:0:0:
320,62,216786,1,8,3:1:0:0:
159,0,217036,2,0,P|211:68|175:146,1,179.999995708466,2|0,3:1|3:0,3:0:0:0:
410,40,218036,5,10,3:1:0:0:
385,201,218161,1,8,3:1:0:0:
262,99,218286,1,8,3:1:0:0:
444,129,218411,1,8,3:1:0:0:
294,185,218536,1,8,3:1:0:0:
317,27,218661,1,8,3:1:0:0:
444,129,218786,1,8,3:1:0:0:
205,170,219036,5,0,3:0:0:0:
444,129,219286,1,8,3:1:0:0:
444,129,219786,1,8,3:1:0:0:
205,170,220286,5,8,3:1:0:0:
205,170,220536,1,8,3:1:0:0:
212,264,220661,1,8,3:1:0:0:
219,358,220786,1,8,3:1:0:0:
135,213,221036,2,0,P|214:249|284:186,1,179.999995708466,2|0,3:1|3:0,3:0:0:0:
280,196,221786,1,0,3:0:0:0:
38,248,222036,6,0,L|47:100,1,134.999996781349,6|0,3:1|3:0,3:0:0:0:
53,34,222411,1,0,3:0:0:0:
149,287,222536,2,0,P|93:260|25:363,1,202.500002896786,10|0,3:1|3:0,3:0:0:0:
220,336,223036,2,0,L|319:344,1,67.5000009655954,2|8,3:1|3:1,3:0:0:0:
367,347,223286,2,0,L|466:355,1,67.5000009655954,0|0,3:0|3:0,3:0:0:0:
489,263,223536,2,0,L|484:46,1,202.500002896786,10|0,3:1|3:0,3:0:0:0:
285,46,224036,6,0,P|223:78|143:46,1,135.000001931191,6|0,3:1|3:0,3:0:0:0:
99,19,224411,1,0,3:0:0:0:
93,141,224536,2,0,L|90:214,1,67.5000009655954,10|0,3:1|3:0,3:0:0:0:
87,287,224786,2,0,L|84:360,1,67.5000009655954,0|0,3:0|3:0,3:0:0:0:
279,280,225036,5,2,3:1:0:0:
159,248,225161,1,8,3:1:0:0:
159,248,225411,1,8,3:1:0:0:
272,169,225536,1,10,3:1:0:0:
272,169,225661,1,8,3:0:0:0:
297,317,225786,1,4,3:0:0:0:
297,317,225911,1,0,3:0:0:0:
141,158,226036,5,14,3:1:0:0:
73,219,226161,1,8,3:0:0:0:
159,248,226286,1,0,3:0:0:0:
153,129,226411,5,14,3:1:0:0:
72,170,226536,1,8,3:0:0:0:
147,220,226661,1,0,3:0:0:0:
172,104,226786,5,14,3:1:0:0:
83,123,226911,1,0,3:0:0:0:
238,38,227036,6,0,L|237:180,1,135.000001931191,14|0,3:1|3:0,3:0:0:0:
237,275,227411,1,0,3:0:0:0:
237,275,227536,2,0,P|305:251|374:286,1,135.000001931191,10|0,3:1|3:0,3:0:0:0:
424,334,227911,1,0,3:0:0:0:
434,182,228036,6,0,L|436:86,1,67.5000009655954,14|0,3:1|3:0,3:0:0:0:
341,43,228286,2,0,L|343:139,1,67.5000009655954,0|0,3:0|3:0,3:0:0:0:
237,172,228536,2,0,L|239:76,1,67.5000009655954,10|0,3:1|3:0,3:0:0:0:
144,33,228786,2,0,L|146:129,1,67.5000009655954,0|0,3:0|3:0,3:0:0:0:
148,225,229036,5,10,3:1:0:0:
24,206,229161,1,0,3:0:0:0:
164,243,229286,1,8,3:1:0:0:
47,289,229411,1,0,3:0:0:0:
192,336,229536,5,8,0:0:0:0:
204,324,229598,1,8,0:0:0:0:
219,317,229661,1,0,3:0:0:0:
236,315,229723,1,0,3:0:0:0:
253,317,229786,1,8,3:0:0:0:
254,293,229848,1,8,3:0:0:0:
255,269,229911,1,8,3:0:0:0:
256,246,229973,1,8,3:0:0:0:
257,222,230036,6,0,L|262:87,1,134.999996781349,12|0,0:0|3:0,0:0:0:0:
344,5,230536,2,0,L|347:96,1,67.5000009655954,10|0,3:1|3:0,3:0:0:0:
179,124,230786,2,0,L|175:32,1,67.5000009655954,0|0,3:0|3:0,3:0:0:0:
356,23,231036,2,0,L|359:114,1,67.5000009655954,10|0,3:1|3:0,3:0:0:0:
191,142,231286,2,0,L|187:50,1,67.5000009655954,0|0,3:0|3:0,3:0:0:0:
368,41,231536,2,0,L|371:132,1,67.5000009655954,10|0,3:1|3:0,3:0:0:0:
203,160,231786,2,0,L|199:68,1,67.5000009655954,0|0,3:0|3:0,3:0:0:0:
264,242,232036,6,0,P|199:210|138:244,1,134.999996781349,12|0,3:1|3:0,3:0:0:0:
47,281,232536,2,0,L|40:359,1,67.5000009655954,10|0,3:1|3:0,3:0:0:0:
207,361,232786,2,0,L|200:283,1,67.5000009655954,0|0,3:0|3:0,3:0:0:0:
68,251,233036,2,0,L|61:329,1,67.5000009655954,10|0,3:1|3:0,3:0:0:0:
228,331,233286,2,0,L|221:253,1,67.5000009655954,0|0,3:0|3:0,3:0:0:0:
89,221,233536,2,0,L|82:299,1,67.5000009655954,10|0,3:1|3:0,3:0:0:0:
249,301,233786,2,0,L|242:223,1,67.5000009655954,0|0,3:0|3:0,3:0:0:0:
245,86,234036,5,14,3:1:0:0:
123,60,234161,1,0,3:0:0:0:
242,28,234286,1,10,3:1:0:0:
228,153,234411,1,0,3:0:0:0:
243,14,234536,2,0,L|328:6,1,67.5000009655954,14|0,3:1|3:0,3:0:0:0:
315,178,234786,2,0,L|247:171,1,67.5000009655954,10|0,3:1|3:0,3:0:0:0:
382,93,235036,5,14,3:1:0:0:
392,219,235161,1,0,3:0:0:0:
489,137,235286,1,10,3:1:0:0:
374,236,235411,1,0,3:0:0:0:
487,334,235536,6,0,L|483:249,1,67.5000009655954,14|0,3:1|3:0,3:0:0:0:
293,236,235786,2,0,L|289:321,1,67.5000009655954,10|0,3:1|3:0,3:0:0:0:
121,344,236036,5,0,3:0:0:0:
106,313,236098,1,8,0:0:0:0:
103,280,236161,1,8,0:0:0:0:
114,248,236223,1,8,0:0:0:0:
135,222,236286,2,0,P|158:208|191:201,1,44.9999989271165,0|0,3:0|3:0,3:0:0:0:
372,157,236411,5,8,0:0:0:0:
372,180,236473,1,8,0:0:0:0:
373,202,236536,1,8,0:0:0:0:
374,225,236598,1,8,0:0:0:0:
375,247,236661,2,0,L|379:311,1,44.9999989271165,0|0,3:0|3:0,3:0:0:0:
453,88,236786,5,8,0:0:0:0:
424,106,236848,1,8,0:0:0:0:
392,114,236911,1,8,3:0:0:0:
358,109,236973,1,8,3:0:0:0:
329,94,237036,1,4,3:0:0:0:
300,79,237098,1,4,3:0:0:0:
266,74,237160,1,8,0:0:0:0:
234,82,237223,1,8,0:0:0:0:
205,100,237286,2,0,L|163:141,1,44.9999989271165,0|0,3:0|3:0,3:0:0:0:
103,280,237411,2,0,L|92:220,1,44.9999989271165,0|0,3:0|3:0,3:0:0:0:
68,69,237536,5,12,0:0:0:0:
68,69,238036,1,2,3:0:0:0:
256,192,238098,12,0,239786,0:0:0:0:
81,118,240036,5,0,3:0:0:0:
51,134,240098,1,0,3:0:0:0:
33,162,240161,1,0,3:0:0:0:
29,195,240223,1,0,3:0:0:0:
40,227,240286,2,0,L|41:295,1,44.9999989271165,8|0,0:0|3:0,0:0:0:0:
158,350,240411,1,0,3:0:0:0:
158,350,240473,1,0,3:0:0:0:
158,350,240536,2,0,L|164:297,1,44.9999989271165,8|0,0:0|3:0,0:0:0:0:
180,168,240661,1,0,3:0:0:0:
206,187,240723,1,0,3:0:0:0:
239,195,240786,1,0,3:0:0:0:
272,190,240848,1,0,3:0:0:0:
300,172,240911,6,0,L|309:116,1,44.9999989271165,8|0,0:0|3:0,0:0:0:0:
374,37,241036,2,0,L|382:93,1,44.9999989271165,0|0,3:0|3:0,0:0:0:0:
409,262,241161,1,8,0:0:0:0:
409,262,241223,1,0,3:0:0:0:
409,262,241286,2,0,L|340:273,1,44.9999989271165,8|0,0:0|3:0,0:0:0:0:
286,284,241411,1,0,3:0:0:0:
508,182,241536,5,8,0:0:0:0:
509,193,241598,1,8,0:0:0:0:
509,204,241661,1,8,3:0:0:0:
510,215,241723,1,0,3:0:0:0:
488,248,241786,5,8,3:0:0:0:
81,118,242036,5,8,0:0:0:0:
114,116,242098,1,0,3:0:0:0:
145,127,242161,1,8,0:0:0:0:
169,151,242223,1,0,3:0:0:0:
182,182,242286,1,10,0:0:0:0:
181,215,242348,1,0,3:0:0:0:
166,245,242411,1,8,0:0:0:0:
140,267,242473,1,0,3:0:0:0:
108,276,242536,2,0,P|71:286|38:277,3,56.2499986588956,10|0|8|0,0:0|3:0|0:0|3:0,0:0:0:0:
191,357,242786,2,0,P|218:355|245:363,3,56.2499986588956,10|0|8|0,0:0|3:0|0:0|3:0,0:0:0:0:
361,362,243036,5,10,0:0:0:0:
346,331,243098,1,0,3:0:0:0:
343,298,243161,1,8,0:0:0:0:
352,265,243223,1,0,3:0:0:0:
371,238,243286,1,10,0:0:0:0:
385,207,243348,1,0,3:0:0:0:
388,174,243411,1,10,0:0:0:0:
379,141,243473,1,0,3:0:0:0:
360,114,243536,2,0,L|352:46,3,56.2499986588956,10|0|8|0,0:0|3:0|0:0|3:0,0:0:0:0:
228,148,243786,2,0,L|220:216,3,56.2499986588956,10|0|8|0,0:0|3:0|0:0|3:0,0:0:0:0:
20,54,244036,5,8,0:0:0:0:
20,54,244098,1,0,3:0:0:0:
20,54,244161,1,10,0:0:0:0:
42,88,244223,1,0,3:0:0:0:
76,109,244286,1,10,0:0:0:0:
116,114,244348,1,0,3:0:0:0:
154,100,244411,1,10,0:0:0:0:
183,72,244473,1,0,3:0:0:0:
220,59,244535,1,10,0:0:0:0:
260,63,244598,1,0,3:0:0:0:
294,85,244660,1,10,0:0:0:0:
315,119,244723,1,0,3:0:0:0:
319,159,244785,1,10,0:0:0:0:
305,197,244848,1,0,3:0:0:0:
275,225,244910,1,10,0:0:0:0:
237,237,244973,1,0,3:0:0:0:
197,230,245036,6,0,L|77:224,1,112.499997317791,2|8,3:0|0:0,0:0:0:0:
228,148,245286,1,2,3:0:0:0:
228,148,245411,1,8,0:0:0:0:
32,162,245536,2,0,P|-1:212|20:280,1,112.499997317791,2|8,3:0|0:0,0:0:0:0:
192,381,245786,5,8,0:0:0:0:
193,367,245848,1,8,0:0:0:0:
193,353,245911,1,8,0:0:0:0:
194,339,245973,1,8,0:0:0:0:
194,324,246036,5,10,0:0:0:0:
234,334,246098,1,0,3:0:0:0:
275,322,246161,1,10,0:0:0:0:
304,292,246223,1,0,3:0:0:0:
313,250,246286,1,10,0:0:0:0:
299,210,246348,1,0,3:0:0:0:
267,183,246411,1,10,0:0:0:0:
225,176,246473,1,0,3:0:0:0:
186,191,246536,1,10,0:0:0:0:
147,206,246599,1,0,3:0:0:0:
105,199,246661,1,10,0:0:0:0:
73,172,246724,1,0,3:0:0:0:
59,132,246786,1,10,0:0:0:0:
68,90,246849,1,0,3:0:0:0:
97,60,246911,1,10,0:0:0:0:
138,48,246974,1,0,3:0:0:0:
179,59,247036,5,10,0:0:0:0:
203,21,247098,1,0,3:0:0:0:
242,0,247161,1,8,0:0:0:0:
287,0,247223,1,0,3:0:0:0:
327,19,247286,1,10,0:0:0:0:
353,55,247348,1,0,3:0:0:0:
359,99,247411,1,8,0:0:0:0:
345,141,247473,1,0,3:0:0:0:
312,171,247536,2,0,P|282:185|249:182,3,56.2499986588956,10|0|8|0,0:0|3:0|0:0|3:0,0:0:0:0:
353,55,247786,2,0,P|383:41|416:44,3,56.2499986588956,10|0|8|0,0:0|3:0|0:0|3:0,0:0:0:0:
230,113,248036,5,10,0:0:0:0:
189,140,248098,1,0,3:0:0:0:
174,186,248161,1,8,0:0:0:0:
189,232,248223,1,0,3:0:0:0:
229,260,248286,2,0,L|226:330,3,56.2499986588956,10|0|8|0,0:0|3:0|0:0|3:0,0:0:0:0:
329,384,248536,2,0,L|325:314,3,56.2499986588956,10|0|8|0,0:0|3:0|0:0|3:0,0:0:0:0:
425,258,248786,2,0,L|421:327,3,56.2499986588956,10|0|8|0,0:0|3:0|0:0|3:0,0:0:0:0:
492,96,249036,5,8,3:0:0:0:
459,66,249098,1,8,0:0:0:0:
417,52,249161,1,8,0:0:0:0:
373,58,249223,1,8,0:0:0:0:
336,83,249286,2,8,P|316:112|310:151,1,44.9999989271165,8|8,3:0|3:0,3:0:0:0:
321,238,249411,5,8,3:0:0:0:
321,249,249473,1,8,3:0:0:0:
321,260,249536,1,4,3:0:0:0:
322,271,249598,1,4,3:0:0:0:
322,282,249661,2,4,L|327:347,1,44.9999989271165,4|4,3:0|3:0,3:0:0:0:
410,159,249786,1,4,3:0:0:0:
410,159,250036,6,0,P|332:120|217:208,1,224.999994635582,4|0,3:1|3:0,0:0:0:0:
202,313,250411,1,8,0:0:0:0:
115,162,250536,1,0,3:0:0:0:
324,225,250661,1,8,0:0:0:0:
114,257,250786,1,0,3:0:0:0:
324,225,250911,1,8,0:0:0:0:
48,211,251036,6,0,P|17:256|40:331,1,112.499997317791,0|8,3:0|0:0,0:0:0:0:
223,186,251286,2,0,P|254:141|231:66,1,112.499997317791,0|8,3:0|0:0,0:0:0:0:
106,340,251536,2,0,B|161:326|161:326|235:353,1,112.499997317791,0|8,3:0|0:0,0:0:0:0:
354,91,251786,2,0,B|299:105|299:105|225:78,1,112.499997317791,0|8,3:0|0:0,0:0:0:0:
66,18,252036,1,4,3:1:0:0:
81,208,252161,1,8,0:0:0:0:
217,12,252286,6,0,P|167:74|208:155,1,168.749995976687,0|0,3:0|0:0,0:0:0:0:
243,166,252536,2,0,L|221:289,1,112.499997317791,0|8,3:0|0:0,0:0:0:0:
390,346,252786,2,0,L|368:223,1,112.499997317791,0|8,3:1|0:0,0:0:0:0:
415,58,253036,2,0,B|354:55|329:74|329:74|293:42|293:42|255:66|198:46,1,224.999994635582,4|0,3:1|3:0,0:0:0:0:
87,17,253411,1,8,0:0:0:0:
243,166,253536,1,4,3:1:0:0:
81,208,253661,1,8,0:0:0:0:
314,203,253786,2,0,P|323:149|295:102,1,112.499997317791,0|8,3:0|0:0,0:0:0:0:
81,208,254036,6,0,L|74:327,1,112.499997317791,4|8,3:1|0:0,0:0:0:0:
256,365,254286,1,0,3:0:0:0:
256,365,254411,2,0,L|249:252,2,112.499997317791,8|0|8,0:0|3:0|0:0,0:0:0:0:
195,126,254786,2,0,P|252:93|323:127,1,112.499997317791,0|8,3:0|0:0,0:0:0:0:
462,299,255036,6,0,P|407:305|361:274,1,112.499997317791,0|8,3:0|0:0,0:0:0:0:
294,101,255286,2,0,P|348:94|394:125,1,112.499997317791,0|8,3:0|0:0,0:0:0:0:
190,189,255536,1,0,3:0:0:0:
365,198,255661,1,8,0:0:0:0:
189,208,255786,1,0,3:0:0:0:
275,292,255911,1,8,0:0:0:0:
134,269,256036,6,0,L|127:395,1,112.499997317791,0|8,3:0|0:0,0:0:0:0:
56,171,256286,1,0,3:0:0:0:
56,171,256411,2,0,P|49:106|103:56,2,112.499997317791,8|0|8,0:0|3:0|0:0,0:0:0:0:
67,309,256786,1,0,3:0:0:0:
127,133,256911,1,8,0:0:0:0:
197,319,257036,6,0,P|189:265|212:211,1,112.499997317791,0|8,3:0|0:0,0:0:0:0:
392,98,257286,1,0,3:0:0:0:
353,307,257411,1,8,0:0:0:0:
186,89,257536,6,0,B|259:71|290:111|290:111|324:87|324:87|357:110|392:97,1,224.999994635582,0|8,3:0|0:0,0:0:0:0:
507,303,257911,1,8,0:0:0:0:
507,303,257973,1,8,0:0:0:0:
507,303,258036,5,8,0:0:0:0:
470,280,258098,1,0,3:0:0:0:
428,274,258161,1,8,0:0:0:0:
387,283,258223,1,0,3:0:0:0:
352,306,258286,1,8,0:0:0:0:
317,329,258348,1,0,3:0:0:0:
276,338,258410,1,8,0:0:0:0:
234,332,258473,1,0,3:0:0:0:
198,310,258536,5,10,0:0:0:0:
240,312,258598,1,0,3:0:0:0:
277,292,258661,1,8,0:0:0:0:
298,256,258723,1,0,3:0:0:0:
297,214,258786,1,10,0:0:0:0:
274,178,258848,1,0,3:0:0:0:
236,160,258911,1,8,0:0:0:0:
194,165,258973,1,0,3:0:0:0:
161,191,259036,1,10,0:0:0:0:
128,217,259098,1,0,3:0:0:0:
86,222,259160,1,8,0:0:0:0:
48,204,259223,1,0,3:0:0:0:
25,168,259285,1,8,0:0:0:0:
24,126,259348,1,0,3:0:0:0:
45,90,259410,1,8,0:0:0:0:
82,70,259473,1,0,3:0:0:0:
125,73,259536,2,0,L|199:77,3,56.2499986588956,8|0|8|0,0:0|3:0|0:0|3:0,0:0:0:0:
290,37,259786,6,0,P|284:68|289:104,1,56.2499986588956,10|0,0:0|3:0,0:0:0:0:
448,236,259911,1,8,0:0:0:0:
448,236,259973,1,0,3:0:0:0:
448,236,260036,5,10,0:0:0:0:
410,215,260098,1,0,3:0:0:0:
368,211,260161,1,8,0:0:0:0:
328,226,260223,1,0,3:0:0:0:
298,255,260286,1,8,0:0:0:0:
261,275,260348,1,0,3:0:0:0:
219,279,260411,1,10,0:0:0:0:
179,264,260473,1,0,3:0:0:0:
149,235,260536,1,8,0:0:0:0:
125,199,260598,1,0,3:0:0:0:
119,157,260661,1,8,0:0:0:0:
132,117,260723,1,0,3:0:0:0:
161,86,260786,2,0,L|166:11,3,56.2499986588956,10|0|8|0,0:0|3:0|0:0|3:0,0:0:0:0:
27,128,261036,5,10,0:0:0:0:
26,136,261098,1,0,3:0:0:0:
26,144,261161,1,8,0:0:0:0:
25,153,261223,1,0,3:0:0:0:
25,161,261286,1,8,0:0:0:0:
25,170,261348,1,0,3:0:0:0:
24,178,261411,1,10,0:0:0:0:
24,187,261473,1,0,3:0:0:0:
24,195,261536,1,8,0:0:0:0:
23,203,261598,1,0,3:0:0:0:
23,212,261661,1,8,0:0:0:0:
23,220,261723,1,0,3:0:0:0:
22,229,261786,2,0,L|19:306,3,56.2499986588956,10|0|8|0,0:0|3:0|0:0|3:0,0:0:0:0:
170,384,262036,5,10,0:0:0:0:
196,348,262098,1,0,3:0:0:0:
237,329,262161,1,8,0:0:0:0:
281,331,262223,1,0,3:0:0:0:
319,354,262286,1,8,0:0:0:0:
363,356,262348,1,0,3:0:0:0:
406,342,262411,1,8,0:0:0:0:
440,313,262473,1,0,3:0:0:0:
460,274,262536,1,8,0:0:0:0:
464,229,262598,1,0,3:0:0:0:
451,186,262661,1,8,0:0:0:0:
423,152,262723,1,0,3:0:0:0:
384,130,262786,1,8,0:0:0:0:
340,125,262848,1,0,3:0:0:0:
297,136,262911,1,8,0:0:0:0:
261,164,262973,1,0,3:0:0:0:
239,202,263036,5,8,0:0:0:0:
233,158,263098,1,0,3:0:0:0:
207,122,263161,1,8,0:0:0:0:
167,104,263223,1,0,3:0:0:0:
122,107,263286,1,8,0:0:0:0:
85,133,263348,1,0,3:0:0:0:
66,172,263411,1,8,0:0:0:0:
68,217,263473,1,0,3:0:0:0:
92,254,263536,1,8,0:0:0:0:
125,285,263598,1,0,3:0:0:0:
167,299,263661,1,8,0:0:0:0:
212,294,263723,1,0,3:0:0:0:
250,272,263786,1,10,0:0:0:0:
277,236,263848,1,0,3:0:0:0:
286,193,263911,1,8,0:0:0:0:
277,149,263973,1,0,3:0:0:0:
251,113,264036,5,10,0:0:0:0:
281,74,264098,1,0,3:0:0:0:
325,53,264161,1,8,0:0:0:0:
374,53,264223,1,0,3:0:0:0:
418,75,264286,1,8,0:0:0:0:
449,113,264348,1,0,3:0:0:0:
459,161,264411,1,10,0:0:0:0:
447,209,264473,1,0,3:0:0:0:
416,247,264536,1,8,0:0:0:0:
376,276,264598,1,0,3:0:0:0:
330,293,264661,1,8,0:0:0:0:
281,294,264723,1,0,3:0:0:0:
233,281,264786,1,10,0:0:0:0:
192,254,264848,1,0,3:0:0:0:
161,216,264911,1,8,0:0:0:0:
142,170,264973,1,0,3:0:0:0:
139,121,265036,6,8,L|148:29,3,56.2499986588956,8|8|8|8,3:0|3:0|3:0|3:0,3:0:0:0:
277,149,265286,2,4,L|286:241,3,56.2499986588956,12|4|12|4,3:0|3:0|3:0|3:0,3:0:0:0:
78,234,265536,1,8,3:0:0:0:
78,234,265598,1,0,3:0:0:0:
78,234,265661,1,8,0:0:0:0:
238,67,265786,1,0,3:0:0:0:
238,67,265848,1,0,3:0:0:0:
238,67,265911,1,8,0:0:0:0:
60,154,266036,6,0,P|-2:235|51:311,1,198.000001321793,4|8,3:1|3:1,3:0:0:0:
238,67,266411,1,0,3:0:0:0:
238,67,266473,1,0,3:0:0:0:
238,67,266536,2,0,L|240:179,1,99.0000006608966,0|0,3:2|3:0,3:0:0:0:
241,261,266786,2,0,L|243:373,1,99.0000006608966,8|0,3:1|3:0,3:0:0:0:
430,326,267036,5,0,3:0:0:0:
413,296,267098,1,0,3:0:0:0:
409,263,267161,1,0,3:0:0:0:
418,231,267223,1,0,3:0:0:0:
439,204,267286,2,0,P|448:142|411:90,1,99.0000006608966,8|0,3:1|3:0,3:0:0:0:
238,67,267536,1,0,3:0:0:0:
209,83,267598,1,0,3:0:0:0:
176,87,267661,1,0,3:0:0:0:
144,78,267723,1,0,3:0:0:0:
117,57,267786,2,0,P|54:48|2:85,1,99.0000006608966,8|0,3:1|3:0,3:0:0:0:
114,268,268036,6,0,P|184:303|276:232,1,198.000001321793,4|8,3:1|3:1,3:0:0:0:
412,48,268411,1,0,3:0:0:0:
412,48,268473,1,0,3:0:0:0:
412,48,268536,2,0,L|414:160,1,99.0000006608966,0|0,3:2|3:0,3:0:0:0:
415,242,268786,2,0,L|417:354,1,99.0000006608966,8|0,3:1|3:0,3:0:0:0:
240,384,269036,5,4,3:1:0:0:
223,354,269098,1,0,3:0:0:0:
219,321,269161,1,0,3:0:0:0:
228,289,269223,1,0,3:0:0:0:
249,263,269286,1,8,3:1:0:0:
265,234,269348,1,0,3:0:0:0:
269,201,269411,1,0,3:0:0:0:
260,169,269473,1,0,3:0:0:0:
239,143,269536,5,4,3:1:0:0:
215,167,269598,1,0,3:0:0:0:
185,181,269661,1,0,3:0:0:0:
151,183,269723,1,0,3:0:0:0:
119,173,269786,1,8,3:1:0:0:
93,152,269848,1,0,3:0:0:0:
77,122,269911,1,0,3:0:0:0:
72,89,269973,1,0,3:0:0:0:
80,57,270036,6,0,L|96:0,3,44.9999989271165,4|0|0|0,3:1|3:0|3:0|3:0,3:0:0:0:
168,95,270286,2,0,L|219:66,3,44.9999989271165,8|0|0|0,3:1|3:0|3:0|3:0,3:0:0:0:
203,184,270536,2,0,L|260:200,3,44.9999989271165,0|0|0|0,3:0|3:0|3:0|3:0,3:0:0:0:
164,271,270786,2,0,L|192:322,3,44.9999989271165,8|0|0|0,3:1|3:0|3:0|3:0,3:0:0:0:
89,176,271036,5,0,3:0:0:0:
56,182,271098,1,0,3:0:0:0:
28,201,271161,1,0,3:0:0:0:
8,228,271223,1,0,3:0:0:0:
0,261,271286,1,8,3:1:0:0:
5,294,271348,1,0,3:0:0:0:
21,323,271411,1,0,3:0:0:0:
48,344,271473,1,0,3:0:0:0:
80,354,271536,5,0,3:0:0:0:
105,331,271598,1,0,3:0:0:0:
137,321,271661,1,0,3:0:0:0:
170,324,271723,1,0,3:0:0:0:
199,341,271786,1,8,3:1:0:0:
228,358,271848,1,0,3:0:0:0:
261,361,271910,1,0,3:0:0:0:
293,351,271973,1,0,3:0:0:0:
319,328,272036,6,0,L|348:270,7,44.9999989271165,0|0|0|0|0|0|0|0,3:0|3:0|3:0|3:0|3:0|3:0|3:0|3:0,3:0:0:0:
446,189,272536,2,0,L|475:247,7,44.9999989271165,8|0|0|0|0|0|0|0,3:1|3:0|3:0|3:0|3:0|3:0|3:0|3:0,3:0:0:0:
237,177,273036,2,0,L|266:119,7,44.9999989271165,0|0|0|0|0|0|0|0,3:0|3:0|3:0|3:0|3:0|3:0|3:0|3:0,3:0:0:0:
364,38,273536,2,0,L|393:96,7,44.9999989271165,8|0|0|0|0|0|0|0,3:1|3:0|3:0|3:0|3:0|3:0|3:0|3:0,3:0:0:0:
217,17,274036,5,10,3:1:0:0:
201,46,274098,1,0,3:0:0:0:
174,66,274161,1,0,3:0:0:0:
141,71,274223,1,0,3:0:0:0:
109,62,274286,1,0,3:0:0:0:
76,70,274348,1,0,3:0:0:0:
50,91,274411,1,0,3:0:0:0:
35,121,274473,1,0,3:0:0:0:
33,154,274536,1,10,3:1:0:0:
44,186,274598,1,0,3:0:0:0:
68,210,274661,1,0,3:0:0:0:
100,218,274723,1,0,3:0:0:0:
126,239,274786,1,0,3:0:0:0:
141,269,274848,1,0,3:0:0:0:
144,302,274911,1,0,3:0:0:0:
132,334,274973,1,0,3:0:0:0:
108,357,275036,6,0,L|50:369,7,44.9999989271165,10|0|0|0|0|0|0|0,3:1|3:0|3:0|3:0|3:0|3:0|3:0|3:0,3:0:0:0:
258,306,275536,2,0,L|302:315,7,44.9999989271165,10|0|0|0|0|0|0|0,3:1|3:0|3:0|3:0|3:0|3:0|3:0|3:0,3:0:0:0:
433,339,276036,5,10,3:1:0:0:
433,327,276098,1,0,3:0:0:0:
433,316,276161,1,0,3:0:0:0:
433,305,276223,1,0,3:0:0:0:
433,294,276286,1,0,3:0:0:0:
434,282,276348,1,0,3:0:0:0:
434,271,276411,1,0,3:0:0:0:
434,260,276473,1,0,3:0:0:0:
434,249,276536,2,0,L|436:196,7,44.9999989271165,10|0|0|0|0|0|0|0,3:1|3:0|3:0|3:0|3:0|3:0|3:0|3:0,3:0:0:0:
339,46,277036,5,8,3:0:0:0:
339,46,277098,1,8,3:0:0:0:
339,46,277161,2,0,L|413:27,1,44.9999989271165,0|0,3:0|3:0,3:0:0:0:
199,104,277286,1,4,3:0:0:0:
199,104,277348,1,4,3:0:0:0:
199,104,277411,2,4,L|273:123,1,44.9999989271165,4|4,3:0|3:0,3:0:0:0:
46,48,277536,6,0,B|50:77|31:105|31:105|61:106|87:124|87:124|66:138|53:163|53:163|72:186|72:186|47:216|68:248,1,269.999993562699,2|0,0:3|3:0,0:0:0:0:
212,334,278036,5,8,0:0:0:0:
189,336,278098,1,8,0:0:0:0:
167,338,278161,1,0,3:0:0:0:
300,263,278286,1,8,0:0:0:0:
322,265,278349,1,8,0:0:0:0:
345,268,278411,1,0,3:0:0:0:
215,193,278536,1,8,0:0:0:0:
192,195,278598,1,8,0:0:0:0:
170,197,278661,1,0,3:0:0:0:
326,178,278786,6,8,L|326:121,1,44.9999989271165
212,289,278911,2,8,L|212:346,1,44.9999989271165
300,263,279036,1,0,3:0:0:0:
170,197,279161,1,8,0:0:0:0:
432,184,279286,5,8,0:0:0:0:
431,195,279348,1,8,0:0:0:0:
431,206,279411,1,8,0:0:0:0:
431,217,279473,1,8,0:0:0:0:
431,228,279536,5,8,0:0:0:0:
416,211,279598,1,8,0:0:0:0:
396,199,279661,1,8,0:0:0:0:
374,195,279723,1,8,0:0:0:0:
352,197,279786,1,8,0:0:0:0:
332,206,279848,1,8,0:0:0:0:
315,221,279911,1,8,0:0:0:0:
304,241,279973,1,8,0:0:0:0:
300,263,280036,5,12,3:1:0:0:
180,233,280161,1,8,0:0:0:0:
282,340,280286,2,0,P|330:339|367:308,1,99.0000006608966,0|8,3:0|0:0,0:0:0:0:
180,233,280536,2,0,P|132:234|95:265,1,99.0000006608966,0|8,3:0|0:0,0:0:0:0:
160,309,280786,1,0,3:0:0:0:
360,152,280911,1,8,0:0:0:0:
360,152,280973,1,8,0:0:0:0:
360,152,281036,6,0,L|352:27,1,99.0000006608966,0|8,3:0|0:0,0:0:0:0:
303,219,281286,2,0,P|347:241|396:233,1,99.0000006608966,0|8,3:0|0:0,0:0:0:0:
273,137,281536,1,0,3:0:0:0:
273,137,281661,1,8,0:0:0:0:
130,189,281786,1,0,3:0:0:0:
246,285,281911,1,8,0:0:0:0:
192,118,282036,5,0,3:0:0:0:
185,240,282161,1,8,0:0:0:0:
134,57,282286,2,0,L|245:35,1,99.0000006608966,0|8,3:0|0:0,0:0:0:0:
282,259,282536,2,0,L|184:239,1,99.0000006608966,0|8,3:0|0:0,0:0:0:0:
333,166,282786,1,0,3:0:0:0:
109,166,282911,1,8,0:0:0:0:
109,166,282973,1,8,0:0:0:0:
109,166,283036,2,0,P|76:211|91:275,1,99.0000006608966,0|8,3:0|0:0,0:0:0:0:
350,328,283286,2,0,P|380:290|380:241,1,99.0000006608966,0|8,3:0|0:0,0:0:0:0:
342,46,283536,5,8,0:0:0:0:
342,46,283598,1,8,0:0:0:0:
342,46,283661,1,8,0:0:0:0:
318,69,283723,1,8,0:0:0:0:
288,86,283786,1,8,0:0:0:0:
256,94,283848,1,8,0:0:0:0:
222,92,283911,1,8,0:0:0:0:
190,81,283973,1,8,0:0:0:0:
163,58,284036,5,12,3:1:0:0:
283,0,284161,1,8,0:0:0:0:
90,98,284286,2,0,L|94:-9,1,99.0000006608966,0|8,3:0|0:0,0:0:0:0:
288,86,284536,2,0,L|292:193,1,99.0000006608966,0|8,3:0|0:0,0:0:0:0:
296,271,284786,1,0,3:0:0:0:
64,189,284911,1,8,0:0:0:0:
64,189,284973,1,8,0:0:0:0:
64,189,285036,6,0,P|36:238|58:299,1,99.0000006608966,0|8,3:0|0:0,0:0:0:0:
126,131,285286,2,0,P|77:103|16:125,1,99.0000006608966,0|8,3:0|0:0,0:0:0:0:
150,218,285536,1,0,3:0:0:0:
150,218,285661,1,8,0:0:0:0:
171,344,285786,1,0,3:0:0:0:
270,263,285911,1,8,0:0:0:0:
83,291,286036,5,0,3:0:0:0:
221,273,286161,1,8,0:0:0:0:
26,291,286286,2,0,L|31:177,1,99.0000006608966,0|8,3:0|0:0,0:0:0:0:
265,164,286536,2,0,L|270:278,1,99.0000006608966,0|8,3:0|0:0,0:0:0:0:
126,212,286786,1,0,3:0:0:0:
126,212,286911,1,8,0:0:0:0:
305,78,287036,6,0,L|176:83,1,99.0000006608966,0|8,3:0|0:0,0:0:0:0:
355,195,287286,2,0,L|453:198,1,99.0000006608966,0|8,3:0|0:0,0:0:0:0:
178,8,287536,1,8,0:0:0:0:
178,8,287598,1,8,0:0:0:0:
178,8,287661,1,8,0:0:0:0:
152,22,287723,1,8,0:0:0:0:
133,45,287786,1,8,0:0:0:0:
124,73,287848,1,8,0:0:0:0:
126,102,287911,1,8,0:0:0:0:
139,129,287973,1,8,0:0:0:0:
161,149,288036,5,12,3:1:0:0:
12,143,288161,2,0,L|2:87,1,44.9999989271165,8|0,0:0|2:0,0:0:0:0:
46,219,288286,2,0,B|93:217|93:217|148:235,1,89.999997854233,0|8,3:0|0:0,0:0:0:0:
243,365,288536,2,0,B|196:367|196:367|141:349,1,89.999997854233,0|8,3:0|0:0,0:0:0:0:
75,199,288786,2,0,B|122:197|122:197|177:215,1,89.999997854233,0|8,3:0|0:0,0:0:0:0:
333,346,289036,6,0,L|336:235,1,89.999997854233,0|8,3:0|0:0,0:0:0:0:
483,168,289286,2,0,L|486:258,1,89.999997854233,0|8,3:0|0:0,0:0:0:0:
346,125,289536,1,0,3:0:0:0:
495,75,289661,1,8,0:0:0:0:
327,47,289786,2,0,P|267:101|310:194,1,179.999995708466,0|0,3:0|3:0,0:0:0:0:
333,346,290161,1,8,0:0:0:0:
104,211,290286,6,0,B|103:263|103:263|135:316,1,89.999997854233,0|8,3:1|0:0,0:0:0:0:
333,346,290536,2,0,B|344:263|344:263|337:249,1,89.999997854233,0|8,3:0|0:0,0:0:0:0:
210,145,290786,1,0,3:0:0:0:
401,115,290911,1,8,0:0:0:0:
180,132,291036,2,0,B|133:114|133:114|82:119,1,89.999997854233,0|8,3:0|0:0,0:0:0:0:
283,185,291286,6,0,L|295:70,1,89.999997854233,0|8,3:0|0:0,0:0:0:0:
31,177,291536,1,8,0:0:0:0:
31,177,291598,1,8,0:0:0:0:
31,177,291661,1,8,0:0:0:0:
14,155,291723,1,8,0:0:0:0:
5,130,291786,1,8,0:0:0:0:
6,103,291848,1,8,0:0:0:0:
17,78,291911,1,8,0:0:0:0:
35,59,291973,1,8,0:0:0:0:
59,47,292036,6,0,L|162:58,1,89.999997854233,12|8,3:1|0:0,0:0:0:0:
208,229,292286,2,0,L|118:238,1,89.999997854233,0|8,3:0|0:0,0:0:0:0:
214,130,292536,1,0,3:0:0:0:
230,313,292661,1,8,0:0:0:0:
248,106,292786,2,0,L|362:100,1,89.999997854233,0|8,3:0|0:0,0:0:0:0:
416,354,293036,6,0,B|374:335|355:309|355:309|316:333|316:333|285:297|214:316,1,215.999988258363,0|0,3:0|3:0,0:0:0:0:
80,340,293411,1,8,0:0:0:0:
80,340,293536,2,0,P|78:277|97:226,1,107.999994129181,0|8,3:0|0:0,0:0:0:0:
148,142,293786,1,0,3:0:0:0:
229,312,293911,1,8,0:0:0:0:
264,108,294036,5,0,3:0:0:0:
365,248,294161,2,0,L|366:306,1,44.9999989271165,8|0,0:0|2:0,0:0:0:0:
399,172,294286,2,0,B|446:174|446:174|501:156,1,89.999997854233,0|8,3:0|0:0,0:0:0:0:
302,34,294536,2,0,B|255:32|255:32|200:50,1,89.999997854233,0|8,3:0|0:0,0:0:0:0:
409,193,294786,2,0,B|456:195|456:195|511:177,1,89.999997854233,0|8,3:0|0:0,0:0:0:0:
264,108,295036,5,8,0:0:0:0:
244,134,295098,1,8,0:0:0:0:
236,167,295161,1,8,0:0:0:0:
242,200,295223,1,8,0:0:0:0:
261,228,295286,5,8,3:0:0:0:
280,254,295348,1,8,3:0:0:0:
288,287,295411,1,8,3:0:0:0:
282,320,295473,1,8,3:0:0:0:
263,348,295536,5,8,0:0:0:0:
235,367,295598,1,8,0:0:0:0:
202,373,295661,1,8,0:0:0:0:
170,364,295723,1,8,0:0:0:0:
145,343,295786,5,0,3:0:0:0:
131,312,295848,1,0,3:0:0:0:
132,279,295911,1,0,3:0:0:0:
147,249,295973,1,0,3:0:0:0:
174,228,296036,6,0,L|389:192,1,202.500002896786,8|0,0:0|2:0,0:0:0:0:
155,124,296536,1,12,3:1:0:0:
256,192,296598,12,0,300286,0:0:0:0:
