osu file format v14

[General]
AudioFilename: audio.mp3
AudioLeadIn: 0
PreviewTime: -1
Countdown: 0
SampleSet: None
StackLeniency: 0.2
Mode: 0
LetterboxInBreaks: 0
WidescreenStoryboard: 1

[Editor]
DistanceSpacing: 0.8
BeatDivisor: 4
GridSize: 16
TimelineZoom: 2.32

[Metadata]
Title:Ingaritsu No Togabito, Kyoukaimen-Jou No Unmei.
TitleUnicode:因果律ノ咎人、境界面上ノ運命。
Artist:Imperial Circus Dead Decadence
ArtistUnicode:Imperial Circus Dead Decadence
Creator:abcd452
Version:Introless
Source:
Tags:
BeatmapID:2024640
BeatmapSetID:966743

[Difficulty]
HPDrainRate:5
CircleSize:4.5
OverallDifficulty:9
ApproachRate:9.6
SliderMultiplier:2
SliderTickRate:1

[Events]
//Background and Video events
//Break Periods
//Storyboard Layer 0 (Background)
//Storyboard Layer 1 (Fail)
//Storyboard Layer 2 (Pass)
//Storyboard Layer 3 (Foreground)
//Storyboard Sound Samples

[TimingPoints]
3000,272.727272727273,4,2,0,100,1,0
3000,-200,4,2,0,100,0,0
7636,-100,4,2,0,100,0,0
21545,-100,4,1,0,100,0,0
96818,-76.9230769230769,4,3,0,100,0,0
100090,-100,4,3,0,100,0,0
104863,-76.9230769230769,4,3,0,100,0,0
105545,-76.9230769230769,4,1,0,100,0,0
113181,-76.9230769230769,4,3,0,100,0,0
114272,-76.9230769230769,4,3,0,100,0,0
115363,-100,4,3,0,100,0,0
122045,-100,4,1,0,100,0,0
127363,-100,4,3,0,100,0,0
130909,-133.333333333333,4,3,0,100,0,0
131181,-100,4,3,0,100,0,0
237000,319.148936170213,4,2,0,100,1,0
266680,272.727272727273,4,2,0,100,1,0
271452,272.727272727273,4,2,0,100,1,0

[HitObjects]
472,130,96818,5,8,0:0:0:0:
430,80,96886,1,0,0:0:0:0:
370,57,96954,1,0,0:0:0:0:
307,69,97022,1,0,0:0:0:0:
257,109,97090,5,8,0:0:0:0:
232,169,97159,1,0,0:0:0:0:
172,194,97227,1,0,0:0:0:0:
112,169,97295,1,0,0:0:0:0:
87,109,97363,1,8,0:0:0:0:
111,49,97431,1,0,0:0:0:0:
172,24,97500,1,0,0:0:0:0:
232,49,97568,1,0,0:0:0:0:
257,109,97636,5,8,0:0:0:0:
265,140,97704,1,8,0:0:0:0:
263,172,97772,1,8,0:0:0:0:
248,201,97840,1,8,0:0:0:0:
225,223,97910,5,8,0:0:0:0:
251,268,97977,1,0,0:0:0:0:
303,282,98045,1,0,0:0:0:0:
348,255,98114,1,0,0:0:0:0:
361,204,98182,5,8,0:0:0:0:
316,231,98250,1,0,0:0:0:0:
303,282,98318,1,0,0:0:0:0:
330,327,98387,1,0,0:0:0:0:
376,335,98454,5,8,0:0:0:0:
426,294,98522,1,0,0:0:0:0:
453,236,98590,1,0,0:0:0:0:
453,171,98658,1,0,0:0:0:0:
425,113,98727,5,8,0:0:0:0:
389,167,98795,1,0,0:0:0:0:
331,195,98863,1,0,0:0:0:0:
268,186,98931,1,0,0:0:0:0:
221,142,99000,5,8,0:0:0:0:
242,152,99068,1,8,0:0:0:0:
257,168,99136,1,8,0:0:0:0:
266,189,99204,1,8,0:0:0:0:
266,211,99272,1,8,0:0:0:0:
258,232,99340,1,8,0:0:0:0:
243,248,99409,1,8,0:0:0:0:
227,262,99477,1,8,0:0:0:0:
208,267,99545,5,8,0:0:0:0:
185,230,99613,1,0,0:0:0:0:
149,207,99681,1,0,0:0:0:0:
106,203,99750,1,0,0:0:0:0:
66,219,99818,1,8,0:0:0:0:
38,251,99886,1,0,0:0:0:0:
27,292,99954,1,0,0:0:0:0:
36,334,100022,1,0,0:0:0:0:
59,351,100090,6,8,P|84:348|103:327,5,50
106,203,100500,5,8,0:0:0:0:
104,187,100568,1,8,0:0:0:0:
103,170,100637,1,8,0:0:0:0:
101,153,100705,1,8,0:0:0:0:
100,137,100773,1,8,0:0:0:0:
98,120,100841,1,8,0:0:0:0:
97,105,100908,5,8,0:0:0:0:
124,64,100976,1,0,0:0:0:0:
166,36,101045,1,0,0:0:0:0:
215,26,101113,1,0,0:0:0:0:
264,36,101181,5,8,0:0:0:0:
252,99,101249,1,0,0:0:0:0:
288,153,101317,1,0,0:0:0:0:
351,166,101385,1,0,0:0:0:0:
405,130,101454,5,8,0:0:0:0:
345,154,101522,1,0,0:0:0:0:
321,214,101591,1,0,0:0:0:0:
347,274,101659,1,0,0:0:0:0:
406,299,101727,5,8,0:0:0:0:
372,352,101795,1,0,0:0:0:0:
310,365,101863,1,0,0:0:0:0:
257,331,101931,1,0,0:0:0:0:
244,269,102000,5,8,0:0:0:0:
220,209,102068,1,0,0:0:0:0:
159,185,102136,1,0,0:0:0:0:
99,209,102205,1,0,0:0:0:0:
75,269,102272,5,8,0:0:0:0:
95,278,102340,1,8,0:0:0:0:
117,280,102409,1,8,0:0:0:0:
139,273,102477,1,0,0:0:0:0:
200,219,102545,5,8,0:0:0:0:
220,209,102613,1,8,0:0:0:0:
242,207,102682,1,8,0:0:0:0:
264,214,102750,1,8,0:0:0:0:
282,227,102818,5,8,0:0:0:0:
301,272,102886,1,0,0:0:0:0:
347,291,102954,1,0,0:0:0:0:
393,273,103022,1,0,0:0:0:0:
411,227,103091,1,8,0:0:0:0:
393,181,103159,1,0,0:0:0:0:
347,162,103227,1,0,0:0:0:0:
301,181,103295,1,0,0:0:0:0:
255,162,103363,5,8,0:0:0:0:
233,108,103431,1,0,0:0:0:0:
255,52,103499,1,0,0:0:0:0:
310,29,103567,1,0,0:0:0:0:
366,52,103635,5,8,0:0:0:0:
356,107,103704,1,0,0:0:0:0:
347,162,103772,1,0,0:0:0:0:
337,217,103841,1,0,0:0:0:0:
326,272,103909,1,8,0:0:0:0:
281,318,103977,1,0,0:0:0:0:
220,337,104045,1,0,0:0:0:0:
157,322,104113,1,0,0:0:0:0:
110,278,104181,5,8,0:0:0:0:
110,232,104249,1,0,0:0:0:0:
137,204,104317,1,0,0:0:0:0:
167,206,104385,1,0,0:0:0:0:
186,224,104454,6,8,P|203:241|228:243,5,50
212,115,104863,5,8,0:0:0:0:
196,117,104931,1,8,0:0:0:0:
179,118,105000,1,8,0:0:0:0:
162,120,105068,1,8,0:0:0:0:
146,121,105136,1,8,0:0:0:0:
129,123,105204,1,8,0:0:0:0:
114,124,105271,5,8,0:0:0:0:
73,144,105340,1,0,0:0:0:0:
60,188,105409,1,0,0:0:0:0:
81,229,105477,1,0,0:0:0:0:
124,242,105545,6,0,P|122:316|73:358,1,129.999994049073,2|0,0:0|0:0,0:0:0:0:
26,229,105818,5,2,0:0:0:0:
237,155,105954,1,0,0:0:0:0:
30,143,106090,1,2,0:0:0:0:
232,240,106226,1,0,0:0:0:0:
242,70,106363,1,2,0:0:0:0:
124,236,106500,1,0,0:0:0:0:
341,245,106636,6,0,P|366:180|354:121,1,129.999994049073,2|0,0:0|0:0,0:0:0:0:
172,130,106909,1,2,0:0:0:0:
253,325,107045,1,0,0:0:0:0:
242,70,107181,1,2,0:0:0:0:
96,260,107318,1,0,0:0:0:0:
323,265,107454,1,2,0:0:0:0:
156,40,107590,1,0,0:0:0:0:
171,313,107727,5,2,0:0:0:0:
328,40,107863,1,0,0:0:0:0:
87,99,108000,2,0,P|76:168|135:235,1,129.999994049073
259,260,108272,1,8,0:0:0:0:
274,261,108340,1,8,0:0:0:0:
290,262,108409,1,8,0:0:0:0:
306,264,108477,1,8,0:0:0:0:
323,265,108545,2,0,L|466:277,1,129.999994049073,8|0,0:0|0:0,0:0:0:0:
440,123,108818,5,8,0:0:0:0:
394,109,108886,1,8,0:0:0:0:
355,131,108954,1,8,0:0:0:0:
342,175,109022,1,8,0:0:0:0:
363,215,109090,2,0,P|396:251|372:333,1,129.999994049073,8|0,0:0|0:0,0:0:0:0:
227,348,109363,5,8,0:0:0:0:
194,345,109431,1,8,0:0:0:0:
162,342,109500,1,8,0:0:0:0:
128,338,109567,1,8,0:0:0:0:
96,335,109636,2,0,B|30:328|30:328|59:297|36:261,1,129.999994049073,8|0,0:0|0:0,0:0:0:0:
60,85,109909,5,2,0:0:0:0:
198,238,110045,1,0,0:0:0:0:
252,51,110181,1,2,0:0:0:0:
70,262,110318,1,0,0:0:0:0:
326,216,110454,1,2,0:0:0:0:
124,73,110590,1,0,0:0:0:0:
110,321,110727,2,0,P|178:320|234:294,1,129.999994049073,2|0,0:0|0:0,0:0:0:0:
405,132,111000,5,2,0:0:0:0:
170,160,111136,1,0,0:0:0:0:
377,276,111272,1,2,0:0:0:0:
277,61,111409,1,0,0:0:0:0:
233,294,111545,5,8,0:0:0:0:
215,320,111613,1,8,0:0:0:0:
186,335,111681,1,8,0:0:0:0:
154,332,111750,1,8,0:0:0:0:
128,313,111818,2,0,P|109:229|135:196,1,129.999994049073,8|0,0:0|0:0,0:0:0:0:
274,145,112090,5,8,0:0:0:0:
307,142,112158,1,8,0:0:0:0:
339,139,112227,1,8,0:0:0:0:
373,135,112294,1,8,0:0:0:0:
405,132,112363,1,8,0:0:0:0:
329,41,112500,1,0,0:0:0:0:
349,237,112636,5,8,0:0:0:0:
352,270,112703,1,8,0:0:0:0:
355,302,112772,1,8,0:0:0:0:
359,336,112839,1,8,0:0:0:0:
362,368,112909,2,0,P|433:355|473:309,1,129.999994049073,8|0,0:0|0:0,0:0:0:0:
405,132,113181,5,0,0:0:0:0:
395,102,113250,1,0,0:0:0:0:
374,79,113318,1,0,0:0:0:0:
346,64,113386,1,0,0:0:0:0:
315,62,113454,1,0,0:0:0:0:
286,72,113523,1,0,0:0:0:0:
261,92,113591,1,0,0:0:0:0:
248,120,113659,1,0,0:0:0:0:
245,151,113727,5,8,0:0:0:0:
243,166,113795,1,8,0:0:0:0:
242,182,113864,1,8,0:0:0:0:
240,198,113932,1,8,0:0:0:0:
239,215,114000,1,8,0:0:0:0:
237,231,114068,1,8,0:0:0:0:
236,247,114137,1,8,0:0:0:0:
235,263,114205,1,8,0:0:0:0:
233,280,114273,5,12,0:0:0:0:
195,306,114341,1,0,0:0:0:0:
151,314,114409,1,0,0:0:0:0:
106,306,114477,1,0,0:0:0:0:
68,280,114546,1,8,0:0:0:0:
43,242,114614,1,0,0:0:0:0:
34,198,114682,1,0,0:0:0:0:
43,153,114750,1,0,0:0:0:0:
68,115,114818,1,8,0:0:0:0:
106,90,114886,1,0,0:0:0:0:
151,81,114955,1,0,0:0:0:0:
195,90,115023,1,0,0:0:0:0:
233,115,115090,5,8,0:0:0:0:
223,129,115159,1,0,0:0:0:0:
218,146,115227,1,0,0:0:0:0:
219,163,115295,1,0,0:0:0:0:
225,179,115363,5,8,0:0:0:0:
238,210,115432,1,0,0:0:0:0:
284,229,115500,1,0,0:0:0:0:
331,210,115568,1,0,0:0:0:0:
350,163,115636,1,8,0:0:0:0:
331,117,115704,1,0,0:0:0:0:
284,98,115773,1,0,0:0:0:0:
238,117,115841,1,0,0:0:0:0:
196,140,115909,5,8,0:0:0:0:
149,159,115977,1,0,0:0:0:0:
103,140,116045,1,0,0:0:0:0:
84,93,116113,1,0,0:0:0:0:
103,47,116182,1,8,0:0:0:0:
149,28,116250,1,0,0:0:0:0:
196,47,116318,1,0,0:0:0:0:
215,93,116386,1,0,0:0:0:0:
196,140,116455,5,8,0:0:0:0:
149,159,116523,1,0,0:0:0:0:
130,205,116591,1,0,0:0:0:0:
149,252,116659,1,0,0:0:0:0:
196,271,116727,5,8,0:0:0:0:
232,236,116795,1,0,0:0:0:0:
280,223,116863,1,0,0:0:0:0:
328,236,116932,1,0,0:0:0:0:
364,271,117000,1,8,0:0:0:0:
376,319,117068,1,0,0:0:0:0:
364,368,117136,5,0,0:0:0:0:
329,333,117205,1,0,0:0:0:0:
315,285,117273,1,8,0:0:0:0:
329,237,117341,1,0,0:0:0:0:
364,200,117409,1,0,0:0:0:0:
412,187,117477,1,0,0:0:0:0:
461,199,117545,5,8,0:0:0:0:
460,183,117613,1,8,0:0:0:0:
458,167,117682,1,8,0:0:0:0:
457,151,117750,1,8,0:0:0:0:
455,133,117818,1,8,0:0:0:0:
454,118,117886,1,8,0:0:0:0:
453,102,117955,1,8,0:0:0:0:
451,86,118023,1,8,0:0:0:0:
449,70,118090,5,8,0:0:0:0:
415,48,118159,1,0,0:0:0:0:
376,40,118227,1,0,0:0:0:0:
337,48,118296,1,0,0:0:0:0:
303,70,118364,1,8,0:0:0:0:
282,103,118432,1,0,0:0:0:0:
274,143,118500,1,0,0:0:0:0:
282,182,118568,1,0,0:0:0:0:
303,215,118636,5,8,0:0:0:0:
311,255,118704,1,0,0:0:0:0:
303,295,118772,1,0,0:0:0:0:
281,327,118840,1,0,0:0:0:0:
247,350,118908,1,8,0:0:0:0:
208,358,118976,1,0,0:0:0:0:
169,350,119044,1,0,0:0:0:0:
135,328,119113,1,0,0:0:0:0:
115,294,119181,1,8,0:0:0:0:
107,255,119250,1,0,0:0:0:0:
115,215,119317,1,0,0:0:0:0:
136,182,119385,1,0,0:0:0:0:
170,160,119453,1,8,0:0:0:0:
209,152,119522,1,0,0:0:0:0:
248,160,119590,1,0,0:0:0:0:
282,182,119659,1,0,0:0:0:0:
303,215,119727,5,8,0:0:0:0:
318,239,119795,1,0,0:0:0:0:
344,256,119864,1,0,0:0:0:0:
373,262,119932,1,0,0:0:0:0:
402,256,120001,1,8,0:0:0:0:
428,239,120069,1,0,0:0:0:0:
444,215,120137,1,0,0:0:0:0:
450,185,120204,1,0,0:0:0:0:
444,156,120272,5,8,0:0:0:0:
404,141,120340,1,0,0:0:0:0:
385,105,120408,1,0,0:0:0:0:
397,66,120476,1,0,0:0:0:0:
433,48,120544,1,8,0:0:0:0:
472,60,120612,1,0,0:0:0:0:
491,96,120681,1,0,0:0:0:0:
478,136,120749,1,0,0:0:0:0:
444,156,120818,5,8,0:0:0:0:
410,158,120886,1,0,0:0:0:0:
377,161,120954,1,0,0:0:0:0:
344,164,121023,1,0,0:0:0:0:
311,166,121091,1,0,0:0:0:0:
279,169,121159,1,0,0:0:0:0:
245,173,121227,1,0,0:0:0:0:
213,175,121295,1,0,0:0:0:0:
181,178,121363,5,8,0:0:0:0:
213,210,121431,1,0,0:0:0:0:
224,253,121499,1,0,0:0:0:0:
213,297,121567,1,0,0:0:0:0:
181,328,121636,5,0,0:0:0:0:
213,296,121704,1,0,0:0:0:0:
256,284,121772,1,0,0:0:0:0:
300,296,121840,1,0,0:0:0:0:
331,328,121909,5,8,0:0:0:0:
406,372,122045,1,0,0:0:0:0:
481,328,122181,1,2,0:0:0:0:
406,198,122318,1,0,0:0:0:0:
331,328,122454,5,2,0:0:0:0:
300,162,122590,1,0,0:0:0:0:
172,358,122727,1,2,0:0:0:0:
385,89,122863,1,0,0:0:0:0:
115,103,123000,1,2,0:0:0:0:
73,367,123136,6,0,L|184:357,1,100
328,259,123409,1,0,0:0:0:0:
172,185,123545,1,2,0:0:0:0:
313,85,123681,1,0,0:0:0:0:
115,103,123818,1,2,0:0:0:0:
370,167,123954,1,0,0:0:0:0:
229,268,124090,1,2,0:0:0:0:
256,2,124227,1,0,0:0:0:0:
329,257,124363,6,0,L|371:166,1,100,2|0,0:0|0:0,0:0:0:0:
432,30,124636,2,0,L|412:76,2,50
329,257,124909,1,2,0:0:0:0:
214,94,125045,1,0,0:0:0:0:
412,76,125181,5,8,0:0:0:0:
363,81,125249,1,8,0:0:0:0:
313,85,125317,1,8,0:0:0:0:
264,90,125386,1,8,0:0:0:0:
214,94,125454,5,2,0:0:0:0:
100,234,125590,1,0,0:0:0:0:
124,79,125727,1,2,0:0:0:0:
204,289,125863,1,0,0:0:0:0:
277,69,126000,1,2,0:0:0:0:
67,149,126136,1,0,0:0:0:0:
290,185,126272,5,2,0:0:0:0:
147,198,126409,1,0,0:0:0:0:
303,328,126545,1,2,0:0:0:0:
433,172,126681,1,0,0:0:0:0:
277,42,126818,5,2,0:0:0:0:
280,67,126886,1,8,0:0:0:0:
282,90,126954,1,8,0:0:0:0:
284,114,127022,1,8,0:0:0:0:
286,137,127090,2,0,P|282:191|298:239,1,100,8|0,0:0|0:0,0:0:0:0:
433,172,127363,6,0,L|426:92,1,50
282,90,127500,2,0,L|289:170,1,50
441,270,127636,2,0,L|454:190,1,50
290,188,127772,2,0,L|317:263,1,50
433,172,127909,5,0,0:0:0:0:
413,149,127977,1,0,0:0:0:0:
388,133,128045,1,0,0:0:0:0:
359,124,128113,1,0,0:0:0:0:
329,124,128182,1,0,0:0:0:0:
300,133,128250,1,0,0:0:0:0:
275,149,128318,1,0,0:0:0:0:
255,172,128386,1,0,0:0:0:0:
243,199,128454,6,0,P|224:228|196:243,3,50
189,262,128727,5,0,0:0:0:0:
163,279,128795,1,0,0:0:0:0:
135,288,128863,1,0,0:0:0:0:
105,289,128931,1,0,0:0:0:0:
76,281,129000,1,0,0:0:0:0:
50,265,129068,1,0,0:0:0:0:
30,243,129136,1,0,0:0:0:0:
18,215,129204,1,0,0:0:0:0:
12,179,129272,6,0,P|31:163|55:157,3,50
84,143,129545,5,0,0:0:0:0:
109,106,129613,1,0,0:0:0:0:
147,81,129681,1,0,0:0:0:0:
191,72,129749,1,0,0:0:0:0:
235,81,129817,1,0,0:0:0:0:
272,106,129885,1,0,0:0:0:0:
298,143,129954,1,0,0:0:0:0:
306,187,130022,1,0,0:0:0:0:
298,232,130090,5,0,0:0:0:0:
306,276,130159,1,0,0:0:0:0:
331,314,130227,1,0,0:0:0:0:
369,339,130295,1,0,0:0:0:0:
413,348,130363,1,0,0:0:0:0:
457,339,130432,1,0,0:0:0:0:
494,314,130500,2,0,P|503:284|491:255,1,50
472,185,130636,5,0,0:0:0:0:
469,172,130704,1,0,0:0:0:0:
467,160,130772,1,0,0:0:0:0:
465,147,130840,1,0,0:0:0:0:
463,135,130909,2,0,L|454:87,3,37.5000014305115
453,85,131181,5,0,0:0:0:0:
440,77,131250,1,0,0:0:0:0:
426,71,131318,1,0,0:0:0:0:
411,67,131386,1,0,0:0:0:0:
396,66,131454,1,0,0:0:0:0:
381,65,131522,1,0,0:0:0:0:
367,61,131590,1,0,0:0:0:0:
353,55,131659,1,0,0:0:0:0:
340,47,131727,5,0,0:0:0:0:
347,82,131795,1,0,0:0:0:0:
340,118,131863,1,0,0:0:0:0:
320,147,131931,1,0,0:0:0:0:
290,167,131999,1,0,0:0:0:0:
254,174,132068,1,0,0:0:0:0:
219,167,132136,1,0,0:0:0:0:
189,147,132204,1,0,0:0:0:0:
169,117,132272,5,0,0:0:0:0:
144,154,132341,1,0,0:0:0:0:
136,198,132409,1,0,0:0:0:0:
144,242,132477,1,0,0:0:0:0:
169,280,132545,5,0,0:0:0:0:
192,240,132613,1,0,0:0:0:0:
237,231,132681,1,0,0:0:0:0:
274,255,132749,1,0,0:0:0:0:
286,300,132818,5,0,0:0:0:0:
310,297,132885,1,0,0:0:0:0:
330,282,132953,1,0,0:0:0:0:
341,260,133022,1,0,0:0:0:0:
339,235,133090,1,0,0:0:0:0:
324,215,133158,1,0,0:0:0:0:
302,204,133227,5,0,0:0:0:0:
256,223,133295,1,0,0:0:0:0:
209,210,133363,1,0,0:0:0:0:
182,169,133431,1,0,0:0:0:0:
187,120,133499,1,0,0:0:0:0:
222,87,133567,1,0,0:0:0:0:
271,84,133635,5,0,0:0:0:0:
274,97,133704,1,0,0:0:0:0:
276,109,133772,1,0,0:0:0:0:
278,122,133840,1,0,0:0:0:0:
280,134,133909,1,0,0:0:0:0:
