osu file format v14

[General]
AudioFilename: audio.mp3
AudioLeadIn: 0
PreviewTime: 330098
Countdown: 0
SampleSet: None
StackLeniency: 0.3
Mode: 0
LetterboxInBreaks: 0
WidescreenStoryboard: 0

[Editor]
DistanceSpacing: 0.5
BeatDivisor: 4
GridSize: 8
TimelineZoom: 2

[Metadata]
Title:Haishita Shoujo wa, Haiyoru Konton to Kaikousu.
TitleUnicode:廃した少女は、這い寄る混沌と邂逅す。
Artist:Imperial Circus Dead Decadence
ArtistUnicode:Imperial Circus Dead Decadence
Creator:AMX
Version:Desolate Soul
Source:
Tags:狂おしく咲いた凄惨な骸は奏で、愛おしく裂いた少女は聖餐の詞を謳う。 japanese rsi deathstream melodic symphonic black metal icdd daiyouseii- unknown anon kaikō shōjo
BeatmapID:1861434
BeatmapSetID:890412

[Difficulty]
HPDrainRate:5
CircleSize:4.5
OverallDifficulty:9.8
ApproachRate:9.8
SliderMultiplier:2
SliderTickRate:1

[Events]
//Background and Video events
0,0,"cropped-1920-1080-947462.jpg",0,0
//Break Periods
2,43542,47149
2,278755,294326
//Storyboard Layer 0 (Background)
//Storyboard Layer 1 (Fail)
//Storyboard Layer 2 (Pass)
//Storyboard Layer 3 (Foreground)
//Storyboard Sound Samples

[TimingPoints]
486,267.857142857143,4,3,10,30,1,0
753,-142.857142857143,4,2,0,40,0,0
5173,-166.666666666667,4,3,9,40,0,0
5508,-166.666666666667,4,3,99,5,0,0
5575,-90.9090909090909,4,3,9,40,0,0
5776,-90.9090909090909,4,3,99,5,0,0
5843,-125,4,3,9,40,0,0
6111,-125,4,2,0,40,0,0
6914,-125,4,3,8,40,0,0
6981,-200,4,3,8,40,0,0
7450,-200,4,3,99,5,0,0
7584,-200,4,3,9,40,0,0
8253,-166.666666666667,4,3,12,40,0,0
8521,-166.666666666667,4,3,11,45,0,0
8789,-333.333333333333,4,3,11,60,0,0
9057,-100,4,3,8,60,0,0
9191,-100,4,3,5,60,0,0
13343,-100,4,3,1,60,0,0
13477,-100,4,3,5,60,0,0
16557,-125,4,3,1,60,0,0
16624,-125,4,3,1,45,0,0
16825,-125,4,3,1,60,0,0
16892,-125,4,3,1,45,0,0
17093,-100,4,3,1,60,0,0
17182,-100,4,3,1,45,0,0
17361,-100,4,3,1,60,0,0
17450,-100,4,3,1,45,0,0
17628,-100,4,3,8,60,0,0
18030,-100,4,3,7,60,0,0
24325,-142.857142857143,4,3,11,60,0,0
24459,-142.857142857143,4,3,1,60,0,0
24593,-142.857142857143,4,3,11,60,0,0
24727,-142.857142857143,4,3,1,60,0,0
24861,-142.857142857143,4,3,1,60,0,0
25128,-100,4,3,1,60,0,0
25530,-100,4,3,8,60,0,0
26200,-90.9090909090909,4,3,3,60,0,1
26468,-90.9090909090909,4,3,8,60,0,1
41267,-90.9090909090909,4,3,8,60,0,1
41334,-90.9090909090909,4,3,8,60,0,1
41401,-90.9090909090909,4,3,8,60,0,1
41468,-90.9090909090909,4,3,8,60,0,1
41535,-90.9090909090909,4,3,8,60,0,1
41602,-90.9090909090909,4,3,8,60,0,1
41669,-90.9090909090909,4,3,8,60,0,1
41736,-90.9090909090909,4,3,8,60,0,1
41802,-90.9090909090909,4,3,8,60,0,1
41869,-90.9090909090909,4,3,8,60,0,1
41936,-90.9090909090909,4,3,8,60,0,1
42003,-90.9090909090909,4,3,3,60,0,1
42070,-90.9090909090909,4,3,3,60,0,1
42137,-90.9090909090909,4,3,3,60,0,1
42204,-90.9090909090909,4,3,3,60,0,1
42271,-90.9090909090909,4,3,3,60,0,1
42338,-90.9090909090909,4,3,3,45,0,1
43142,-83.3333333333333,4,3,12,50,0,1
43343,-142.857142857143,4,3,8,60,0,0
47628,-121.951219512195,4,3,8,45,0,0
47695,-121.951219512195,4,3,1,5,0,0
49771,-142.857142857143,4,3,1,45,0,0
50039,-142.857142857143,4,3,11,40,0,0
50307,-142.857142857143,4,3,1,45,0,0
50575,-142.857142857143,4,3,11,49,0,0
50843,-333.333333333333,4,3,12,49,0,0
51111,-125,4,3,1,49,0,0
51244,-125,4,3,11,49,0,0
51512,-125,4,3,1,49,0,0
51646,-76.9230769230769,4,3,1,50,0,0
51847,-90.9090909090909,4,3,99,50,0,0
51914,-100,4,3,8,50,0,0
52048,-100,4,3,5,50,0,0
57807,-100,4,3,1,55,0,0
58075,-100,4,3,8,55,0,0
58343,-83.3333333333333,4,3,3,55,0,0
58611,-83.3333333333333,4,3,5,55,0,0
58878,-83.3333333333333,4,3,2,55,0,0
59146,-83.3333333333333,4,3,5,55,0,0
59414,-125,4,3,11,50,0,0
59548,-125,4,3,1,50,0,0
59682,-100,4,3,3,55,0,0
59950,-100,4,3,5,50,0,0
60486,-100,4,3,8,50,0,0
60619,-100,4,3,5,50,0,0
66646,-100,4,3,8,55,0,0
66914,-83.3333333333333,4,3,3,55,0,0
67182,-83.3333333333333,4,3,5,55,0,0
67450,-83.3333333333333,4,3,2,55,0,0
67718,-83.3333333333333,4,3,5,55,0,0
67986,-125,4,3,1,55,0,0
68052,-125,4,3,1,35,0,0
68253,-125,4,3,1,55,0,0
68320,-125,4,3,11,55,0,0
68521,-125,4,3,1,55,0,0
68588,-125,4,3,11,55,0,0
68789,-125,4,3,10,55,0,0
69057,-100,4,3,8,50,0,0
69994,-100,4,3,1,50,0,0
70530,-100,4,3,3,50,0,0
71066,-100,4,3,8,50,0,0
72137,-100,4,3,1,50,0,0
72673,-100,4,3,3,50,0,0
72874,-100,4,3,11,50,0,0
73343,-100,4,3,8,50,0,0
73611,-100,4,3,3,50,0,0
74280,-100,4,3,1,50,0,0
74548,-100,4,3,11,50,0,0
74682,-100,4,3,1,50,0,0
74816,-100,4,3,3,50,0,0
75084,-100,4,3,11,50,0,0
75218,-100,4,3,3,50,0,0
75352,-100,4,3,8,50,0,0
76423,-100,4,3,1,50,0,0
76691,-100,4,3,11,50,0,0
77093,-100,4,3,11,50,0,0
77361,-100,4,3,12,35,0,0
77494,-100,4,3,1,35,0,0
77628,-100,4,3,8,50,0,0
77762,-100,4,3,5,50,0,0
83521,-100,4,3,1,55,0,0
83789,-100,4,3,8,55,0,0
84057,-83.3333333333333,4,3,3,55,0,0
84325,-83.3333333333333,4,3,5,55,0,0
84593,-83.3333333333333,4,3,2,55,0,0
84861,-83.3333333333333,4,3,5,55,0,0
85128,-125,4,3,11,55,0,0
85262,-125,4,3,1,55,0,0
85396,-100,4,3,1,50,0,0
86200,-100,4,3,8,50,0,0
86334,-100,4,3,5,50,0,0
92093,-100,4,3,5,55,0,0
92361,-100,4,3,1,55,0,0
92628,-83.3333333333333,4,3,3,55,0,0
92896,-83.3333333333333,4,3,5,55,0,0
93164,-83.3333333333333,4,3,2,55,0,0
93432,-83.3333333333333,4,3,5,55,0,0
93700,-100,4,3,1,50,0,0
93834,-100,4,3,11,50,0,0
93968,-100,4,3,1,50,0,0
94102,-100,4,3,11,50,0,0
94236,-166.666666666667,4,3,1,50,0,0
94503,-166.666666666667,4,3,10,50,0,0
94771,-100,4,3,1,35,0,0
95039,-142.857142857143,4,3,4,35,0,0
95307,-142.857142857143,4,3,5,35,0,0
95575,-142.857142857143,4,3,5,35,0,0
95843,-142.857142857143,4,3,11,50,0,0
95977,-142.857142857143,4,3,5,50,0,0
96378,-142.857142857143,4,3,11,50,0,0
96512,-142.857142857143,4,3,5,50,0,0
96780,-142.857142857143,4,3,5,30,0,0
96847,-142.857142857143,4,3,5,45,0,0
96914,-100,4,3,8,50,0,0
97182,-100,4,3,2,50,0,0
101334,-100,4,3,8,50,0,0
101468,-100,4,3,2,50,0,0
102807,-100,4,3,7,50,0,0
103209,-100,4,3,8,50,0,0
103611,-100,4,3,7,50,0,0
105218,-100,4,3,11,50,0,0
105486,-100,4,3,8,50,0,0
105753,-100,4,3,2,50,0,0
109771,-125,4,3,2,50,0,0
110843,-166.666666666667,4,3,1,50,0,0
111044,-166.666666666667,4,3,11,50,0,0
111111,-166.666666666667,4,3,1,50,0,0
111244,-166.666666666667,4,3,11,50,0,0
111557,-166.666666666667,4,3,1,50,0,0
111914,-133.333333333333,4,3,8,40,0,0
112450,-133.333333333333,4,3,4,40,0,0
112986,-133.333333333333,4,3,2,40,0,0
113521,-133.333333333333,4,3,1,40,0,0
114593,-133.333333333333,4,3,4,40,0,0
115128,-133.333333333333,4,3,3,40,0,0
115664,-117.647058823529,4,3,1,40,0,0
116200,-117.647058823529,4,3,1,45,0,0
116468,-117.647058823529,4,3,7,50,0,0
117271,-100,4,3,7,50,0,0
119414,-100,4,3,1,50,0,0
119950,-90.9090909090909,4,3,1,50,0,0
120017,-90.9090909090909,4,3,1,35,0,0
120218,-90.9090909090909,4,3,1,50,0,0
120285,-90.9090909090909,4,3,1,35,0,0
120486,-133.333333333333,4,3,8,40,0,0
121021,-133.333333333333,4,3,4,40,0,0
121557,-133.333333333333,4,3,2,40,0,0
122628,-133.333333333333,4,3,1,40,0,0
123164,-133.333333333333,4,3,4,40,0,0
123700,-133.333333333333,4,3,3,40,0,0
124236,-117.647058823529,4,3,1,40,0,0
124771,-142.857142857143,4,3,1,50,0,0
125039,-142.857142857143,4,3,7,50,0,0
125843,-100,4,3,7,50,0,0
126914,-100,4,3,2,50,0,0
127048,-100,4,3,5,50,0,0
127450,-200,4,3,3,50,0,0
127718,-200,4,3,12,50,0,0
127986,-125,4,3,1,50,0,0
128119,-125,4,3,11,50,0,0
128387,-125,4,3,1,50,0,0
128521,-76.9230769230769,4,3,1,50,0,0
128923,-76.9230769230769,4,3,11,50,0,0
129057,-76.9230769230769,4,3,1,60,0,1
129325,-76.9230769230769,4,3,8,60,0,1
135486,-90.9090909090909,4,3,8,60,0,1
136021,-90.9090909090909,4,3,3,60,0,1
136155,-125,4,3,1,60,0,1
136557,-100,4,3,1,60,0,1
137093,-100,4,3,3,60,0,1
137361,-100,4,3,8,60,0,1
137628,-76.9230769230769,4,3,1,60,0,1
137896,-76.9230769230769,4,3,8,60,0,1
142316,-76.9230769230769,4,3,2,60,0,1
142986,-125,4,3,1,60,0,1
143521,-100,4,3,1,55,0,1
143878,-100,4,3,11,50,0,1
144057,-100,4,3,1,50,0,0
144191,-100,4,3,5,50,0,0
148343,-100,4,3,1,50,0,0
148477,-100,4,3,5,50,0,0
151557,-142.857142857143,4,3,1,50,0,0
151624,-142.857142857143,4,3,1,35,0,0
151758,-142.857142857143,4,3,1,50,0,0
151825,-142.857142857143,4,3,1,35,0,0
152450,-142.857142857143,4,3,11,50,0,0
152628,-100,4,3,1,50,0,0
152762,-100,4,3,7,50,0,0
158119,-100,4,3,2,50,0,0
159057,-125,4,3,1,50,0,0
159325,-200,4,3,1,50,0,0
159459,-200,4,3,11,50,0,0
159727,-200,4,3,1,50,0,0
159861,-125,4,3,1,50,0,0
159927,-125,4,3,1,35,0,0
160128,-125,4,3,2,50,0,0
160195,-125,4,3,2,35,0,0
160530,-125,4,3,1,50,0,0
160597,-125,4,3,1,35,0,0
160664,-100,4,3,1,35,0,0
160932,-100,4,3,3,50,0,0
161200,-100,4,3,8,50,0,0
161334,-100,4,3,5,50,0,0
167093,-100,4,3,1,55,0,0
167361,-100,4,3,8,55,0,0
167628,-83.3333333333333,4,3,8,55,0,0
167629,-83.3333333333333,4,3,3,55,0,0
167897,-83.3333333333333,4,3,5,55,0,0
168164,-83.3333333333333,4,3,2,55,0,0
168432,-83.3333333333333,4,3,5,55,0,0
168700,-125,4,3,11,50,0,0
168834,-125,4,3,1,50,0,0
168968,-100,4,3,3,50,0,0
169236,-100,4,3,5,50,0,0
169772,-100,4,3,8,50,0,0
169905,-100,4,3,5,50,0,0
175932,-100,4,3,8,60,0,0
176200,-83.3333333333333,4,3,3,60,0,0
176468,-83.3333333333333,4,3,5,60,0,0
176736,-83.3333333333333,4,3,2,60,0,0
177004,-83.3333333333333,4,3,5,60,0,0
177271,-100,4,3,5,60,0,0
177272,-100,4,3,1,60,0,0
177338,-100,4,3,1,35,0,0
177539,-100,4,3,1,55,0,0
177606,-100,4,3,11,55,0,0
177807,-333.333333333333,4,3,1,55,0,0
177874,-333.333333333333,4,3,11,55,0,0
178075,-142.857142857143,4,3,10,50,0,0
178343,-142.857142857143,4,3,10,35,0,0
178611,-142.857142857143,4,3,4,60,0,0
178879,-142.857142857143,4,3,5,35,0,0
179147,-142.857142857143,4,3,5,35,0,0
179414,-100,4,3,5,35,0,0
179415,-100,4,3,11,50,0,0
179548,-142.857142857143,4,3,11,50,0,0
179549,-142.857142857143,4,3,5,50,0,0
179682,-142.857142857143,4,3,11,50,0,0
179816,-142.857142857143,4,3,5,50,0,0
179950,-142.857142857143,4,3,11,50,0,0
180084,-142.857142857143,4,3,5,50,0,0
180218,-142.857142857143,4,3,11,50,0,0
180352,-100,4,3,5,30,0,0
180419,-100,4,3,5,45,0,0
180486,-100,4,3,8,50,0,0
180754,-100,4,3,2,50,0,0
184906,-100,4,3,8,50,0,0
185040,-100,4,3,2,50,0,0
186379,-100,4,3,7,50,0,0
186781,-100,4,3,8,50,0,0
187183,-100,4,3,7,50,0,0
188790,-100,4,3,11,50,0,0
189058,-100,4,3,8,50,0,0
189325,-100,4,3,2,50,0,0
193343,-125,4,3,2,50,0,0
194415,-125,4,3,1,50,0,0
194616,-125,4,3,11,50,0,0
194683,-125,4,3,1,50,0,0
194816,-125,4,3,11,50,0,0
195129,-125,4,3,1,50,0,0
195486,-133.333333333333,4,3,8,40,0,0
196021,-133.333333333333,4,3,4,40,0,0
196557,-133.333333333333,4,3,2,40,0,0
197093,-133.333333333333,4,3,1,40,0,0
198164,-133.333333333333,4,3,7,30,0,0
198432,-133.333333333333,4,3,1,40,0,0
198700,-133.333333333333,4,3,3,40,0,0
199236,-133.333333333333,4,3,1,40,0,0
199771,-133.333333333333,4,3,8,40,0,0
200307,-133.333333333333,4,3,4,40,0,0
200843,-133.333333333333,4,3,2,40,0,0
201378,-133.333333333333,4,3,1,40,0,0
201914,-133.333333333333,4,3,2,40,0,0
202450,-153.846153846153,4,3,2,40,0,0
202986,-153.846153846153,4,3,3,40,0,0
203343,-153.846153846153,4,3,1,35,0,0
203521,-181.818181818181,4,3,1,40,0,0
204057,-133.333333333333,4,3,8,40,0,0
204593,-133.333333333333,4,3,4,40,0,0
205128,-133.333333333333,4,3,2,40,0,0
206200,-133.333333333333,4,3,1,40,0,0
206736,-133.333333333333,4,3,7,35,0,0
207003,-133.333333333333,4,3,2,40,0,0
207807,-133.333333333333,4,3,1,40,0,0
208343,-133.333333333333,4,3,8,40,0,0
208878,-133.333333333333,4,3,4,40,0,0
209414,-133.333333333333,4,3,2,40,0,0
210486,-333.333333333333,4,3,2,45,0,0
211021,-125,4,3,3,50,0,0
211289,-125,4,3,12,50,0,0
211557,-333.333333333333,4,3,1,50,0,0
211691,-333.333333333333,4,3,11,50,0,0
211959,-333.333333333333,4,3,1,50,0,0
212093,-83.3333333333333,4,3,1,50,0,0
212361,-83.3333333333333,4,3,11,50,0,0
212628,-76.9230769230769,4,3,1,60,0,1
212896,-76.9230769230769,4,3,8,60,0,1
219592,-76.9230769230769,4,3,3,60,0,1
219726,-76.9230769230769,4,3,1,60,0,1
219727,-125,4,3,1,60,0,1
220128,-100,4,3,1,60,0,1
220664,-100,4,3,3,60,0,1
220932,-100,4,3,8,60,0,1
221199,-100,4,3,1,60,0,1
221200,-76.9230769230769,4,3,1,60,0,1
221467,-76.9230769230769,4,3,8,60,0,1
225887,-76.9230769230769,4,3,2,60,0,1
226557,-125,4,3,1,60,0,1
227093,-90.9090909090909,4,3,1,60,0,1
227449,-90.9090909090909,4,3,11,60,0,1
227628,631.578947368421,4,3,8,60,1,0
227706,-100,4,3,1,5,0,0
228259,-100,4,3,1,8,0,0
228891,-100,4,3,1,11,0,0
229522,-100,4,3,1,14,0,0
230154,-100,4,3,1,35,0,0
230233,-100,4,3,1,14,0,0
230785,-100,4,3,1,17,0,0
231417,-100,4,3,1,20,0,0
232049,-100,4,3,1,23,0,0
232680,-100,4,3,1,35,0,0
232759,-100,4,3,1,23,0,0
233312,-100,4,3,1,26,0,0
233943,-100,4,3,1,29,0,0
234575,-100,4,3,1,32,0,0
235206,-100,4,3,1,35,0,0
236470,-100,4,3,8,35,0,0
236628,-100,4,3,8,5,0,0
236785,-100,4,3,8,45,0,0
237101,-100,4,3,11,35,0,0
237733,-100,4,3,8,35,0,0
238996,-100,4,3,2,45,0,0
240259,-100,4,3,2,35,0,0
241522,-100,4,3,2,45,0,0
241838,-100,4,3,2,35,0,0
242785,-100,4,3,2,40,0,0
243101,-100,4,3,2,35,0,0
244049,-100,4,3,2,45,0,0
245154,-100,4,3,99,35,0,0
245312,-100,4,3,2,35,0,0
246496,-100,4,3,2,27,0,0
246575,-100,4,3,2,35,0,0
246891,-83.3333333333333,4,3,1,35,0,0
247206,-71.4285714285714,4,3,1,45,0,0
247522,-62.5,4,3,1,50,0,0
247838,-50,4,3,1,45,0,0
248154,-50,4,3,7,45,0,0
255417,-52.6315789473684,4,3,5,50,0,0
256049,-58.8235294117647,4,3,8,55,0,0
256680,-66.6666666666667,4,3,3,60,0,0
256891,-66.6666666666667,4,3,11,60,0,0
257101,-66.6666666666667,4,3,3,60,0,0
257312,857.142857142857,4,3,2,60,1,0
257312,-76.9230769230769,4,3,2,60,0,0
257883,-76.9230769230769,4,3,12,35,0,0
258026,-76.9230769230769,4,3,12,25,0,0
258169,1120.44817927171,4,3,1,60,1,0
258169,-38.4615384615385,4,3,1,60,0,0
258449,-38.4615384615385,4,3,2,5,0,0
261530,-38.4615384615385,4,3,99,5,0,0
262663,267.857142857143,4,2,0,50,1,0
263734,-100,4,3,8,50,0,0
264002,-100,4,3,2,50,0,0
268154,-100,4,3,8,50,0,0
268288,-100,4,3,2,50,0,0
269627,-100,4,3,7,50,0,0
270029,-100,4,3,8,50,0,0
270163,-111.111111111111,4,3,8,50,0,0
270430,-111.111111111111,4,3,7,50,0,0
272038,-111.111111111111,4,3,11,50,0,0
272305,-111.111111111111,4,3,8,50,0,0
272573,-111.111111111111,4,3,2,50,0,0
276591,-125,4,3,2,50,0,0
277663,-125,4,3,1,50,0,0
277863,-125,4,3,11,50,0,0
277930,-166.666666666667,4,3,1,50,0,0
278064,-166.666666666667,4,3,11,50,0,0
278377,-166.666666666667,4,3,1,45,0,0
278555,-166.666666666667,4,3,1,55,0,0
294805,-166.666666666667,4,3,1,30,0,0
295073,-166.666666666667,4,3,1,40,0,0
295341,-166.666666666667,4,3,1,50,0,0
295609,-166.666666666667,4,3,1,60,0,0
295877,-166.666666666667,4,2,0,15,0,0
296145,-166.666666666667,4,2,0,30,0,0
297149,-166.666666666667,4,3,99,5,0,0
297216,-166.666666666667,4,2,0,30,0,0
298221,-166.666666666667,4,3,99,5,0,0
298288,-166.666666666667,4,2,0,30,0,0
301435,-166.666666666667,4,3,99,5,0,0
301502,-166.666666666667,4,2,0,30,0,0
302506,-166.666666666667,4,3,99,5,0,0
302573,-166.666666666667,4,2,0,30,0,0
303444,-166.666666666667,4,3,1,30,0,0
304180,-166.666666666667,4,2,0,30,0,0
305721,-166.666666666667,4,3,99,5,0,0
305788,-166.666666666667,4,2,0,30,0,0
306792,-166.666666666667,4,3,99,5,0,0
306859,-166.666666666667,4,2,0,30,0,0
309872,-166.666666666667,4,3,1,30,0,0
310341,-166.666666666667,4,2,0,30,0,0
311078,-166.666666666667,4,3,99,5,0,0
311145,-166.666666666667,4,2,0,30,0,0
311948,-100,4,3,11,40,0,0
312082,-100,4,3,1,45,0,0
312216,-100,4,3,3,50,0,0
312484,-100,4,3,5,55,0,0
312752,-100,4,3,1,57,0,0
313020,-76.9230769230769,4,3,1,60,0,1
313154,-76.9230769230769,4,3,8,60,0,1
319716,-76.9230769230769,4,3,1,60,0,1
319984,-76.9230769230769,4,3,2,60,0,1
320118,-125,4,3,1,60,0,1
320520,-83.3333333333333,4,3,1,60,0,1
321055,-83.3333333333333,4,3,8,60,0,1
321323,-83.3333333333333,4,3,3,60,0,1
321591,-76.9230769230769,4,3,1,60,0,1
321725,-76.9230769230769,4,3,8,60,0,1
328221,-76.9230769230769,4,3,99,5,0,1
328288,-76.9230769230769,4,3,3,60,0,1
328488,-76.9230769230769,4,3,99,5,0,1
328555,-76.9230769230769,4,3,2,60,0,1
328957,-83.3333333333333,4,3,2,60,0,1
329359,-83.3333333333333,4,3,1,60,0,1
329627,-83.3333333333333,4,3,3,60,0,1
329895,-83.3333333333333,4,3,8,60,0,1
330163,-100,4,3,9,40,0,0
331234,-100,4,3,9,45,0,0
332305,-117.647058823529,4,3,1,50,0,0
333109,-117.647058823529,4,3,11,50,0,0
333243,-117.647058823529,4,3,10,50,0,0
333377,-117.647058823529,4,3,9,50,0,0
334180,-117.647058823529,4,3,11,50,0,0
334314,-117.647058823529,4,3,9,50,0,0
334448,-133.333333333333,4,3,8,45,0,0
335453,-133.333333333333,4,3,99,45,0,0
335520,-133.333333333333,4,3,8,45,0,0
338466,-133.333333333333,4,3,11,45,0,0
338734,-133.333333333333,4,3,8,50,0,0
338868,-133.333333333333,4,3,8,45,0,0
339738,-133.333333333333,4,3,99,45,0,0
339805,-133.333333333333,4,3,8,45,0,0
343020,-133.333333333333,4,3,8,50,0,0
343154,-133.333333333333,4,3,8,45,0,0
345163,-90.9090909090909,4,3,1,55,0,0
345229,-90.9090909090909,4,3,1,35,0,0
345430,-90.9090909090909,4,3,1,55,0,0
345497,-90.9090909090909,4,3,1,35,0,0
345698,-90.9090909090909,4,3,1,55,0,0
345765,-90.9090909090909,4,3,1,35,0,0
345966,-333.333333333333,4,3,12,55,0,0
346234,-71.4285714285714,4,3,1,55,0,0
346368,-71.4285714285714,4,3,11,55,0,0
346636,-71.4285714285714,4,3,1,55,0,0
346837,-71.4285714285714,4,3,1,25,0,0
346904,-71.4285714285714,4,3,1,55,0,0
346971,-71.4285714285714,4,3,1,25,0,0
347038,-71.4285714285714,4,3,1,55,0,0
347104,-71.4285714285714,4,3,1,25,0,0
347171,-71.4285714285714,4,3,1,55,0,0
347238,-71.4285714285714,4,3,1,25,0,0
347305,-83.3333333333333,4,3,3,60,0,1
347573,-83.3333333333333,4,3,8,60,0,1
362372,-83.3333333333333,4,3,8,60,0,1
362439,-83.3333333333333,4,3,8,60,0,1
362506,-83.3333333333333,4,3,8,60,0,1
362573,-83.3333333333333,4,3,8,60,0,1
362640,-83.3333333333333,4,3,8,60,0,1
362707,-83.3333333333333,4,3,8,60,0,1
362774,-83.3333333333333,4,3,8,60,0,1
362841,-83.3333333333333,4,3,8,60,0,1
362908,-83.3333333333333,4,3,8,60,0,1
362975,-83.3333333333333,4,3,8,60,0,1
363042,-83.3333333333333,4,3,8,60,0,1
363109,-83.3333333333333,4,3,3,60,0,1
363176,-83.3333333333333,4,3,3,60,0,1
363243,-83.3333333333333,4,3,3,60,0,1
363310,-83.3333333333333,4,3,3,60,0,1
363377,-83.3333333333333,4,3,3,60,0,1
363444,-83.3333333333333,4,3,3,45,0,1
364247,-76.9230769230769,4,3,12,50,0,1
364314,-68.9655172413793,4,3,12,55,0,1
364448,-243.90243902439,4,3,8,60,0,0
364716,-243.90243902439,4,3,7,58,0,0
364984,-243.90243902439,4,3,7,56,0,0
365252,-243.90243902439,4,3,7,54,0,0
365520,-243.90243902439,4,3,7,52,0,0
365788,-243.90243902439,4,3,7,50,0,0
366055,-243.90243902439,4,3,7,48,0,0
366323,-243.90243902439,4,3,7,46,0,0
366591,-243.90243902439,4,3,7,44,0,0
366859,-243.90243902439,4,3,7,42,0,0
367127,-243.90243902439,4,3,7,40,0,0
367395,-243.90243902439,4,3,7,38,0,0
367663,-243.90243902439,4,3,7,36,0,0
367930,-243.90243902439,4,3,7,34,0,0
368198,-243.90243902439,4,3,7,32,0,0
368466,-243.90243902439,4,3,7,30,0,0
368734,-243.90243902439,4,3,7,28,0,0
369002,-243.90243902439,4,3,7,26,0,0
369270,-243.90243902439,4,3,7,24,0,0
369538,-243.90243902439,4,3,7,22,0,0
369805,-243.90243902439,4,3,7,20,0,0
370073,-243.90243902439,4,3,7,18,0,0
370341,-243.90243902439,4,3,7,16,0,0
370609,-243.90243902439,4,3,7,14,0,0
370877,-250,4,3,6,5,0,0
370944,-250,4,3,7,14,0,0
371948,-66.6666666666667,4,3,1,12,0,0
373020,-66.6666666666667,4,3,1,10,0,0
374091,-66.6666666666667,4,3,1,8,0,0
375163,-66.6666666666667,4,3,1,6,0,0
375966,-66.6666666666667,4,3,99,5,0,0

[Colours]
Combo1 : 191,191,191
Combo2 : 119,51,51
Combo3 : 111,111,111
Combo4 : 90,75,95
Combo5 : 77,77,94
Combo6 : 141,10,10
Combo7 : 72,54,97
Combo8 : 53,73,119

[HitObjects]
411,272,486,5,6,0:0:0:0:
411,272,753,2,0,L|407:362,1,69.9999978637696,0|0,0:0|0:0,0:0:0:0:
327,280,1021,2,0,L|323:190,1,69.9999978637696,2|2,0:0|0:0,0:0:0:0:
317,130,1289,1,0,0:0:0:0:
278,350,1423,6,0,P|208:329|124:367,1,139.999995727539,2|0,0:0|0:0,0:0:0:0:
33,280,1825,1,2,0:0:0:0:
33,280,2093,2,0,L|131:282,1,69.9999978637696,2|2,0:0|0:0,0:0:0:0:
176,245,2361,1,0,0:0:0:0:
108,202,2494,6,0,B|67:69,1,139.999995727539,2|0,0:0|0:0,0:0:0:0:
186,157,2896,1,2,0:0:0:0:
186,157,3164,2,0,L|279:164,1,69.9999978637696,2|2,0:0|0:0,0:0:0:0:
336,165,3432,1,0,0:0:0:0:
462,235,3566,102,0,B|410:224|410:224|323:253,1,139.999995727539,2|0,0:0|0:0,0:0:0:0:
272,360,3968,1,2,0:0:0:0:
272,360,4236,2,0,L|359:331,1,69.9999978637696,2|2,0:0|0:0,0:0:0:0:
414,309,4503,1,0,0:0:0:0:
336,165,4637,22,0,P|308:97|337:17,1,139.999995727539,2|0,0:0|0:0,0:0:0:0:
389,92,5039,1,0,0:0:0:0:
257,262,5173,86,0,B|288:234|288:234|157:242,1,149.999995422363,6|0,0:0|0:0,0:0:0:0:
79,276,5575,102,0,B|106:282|124:304|124:304|90:261|94:214|125:172,1,165.000005035401,6|0,0:0|0:0,0:0:0:0:
219,128,5843,6,0,B|180:160|180:160|146:27,1,160,6|0,0:0|0:0,0:0:0:0:
152,53,6378,6,0,L|230:35,1,80,2|2,0:0|0:0,0:0:0:0:
77,4,6646,2,0,L|0:23,1,80,0|2,0:0|0:0,0:0:0:0:
334,156,6914,102,0,B|370:140|370:140|304:105|250:145|250:145|214:118|214:118|164:149|108:131,1,320,6|0,0:0|0:0,0:0:0:0:
21,93,7584,1,6,0:0:0:0:
233,363,7852,1,6,0:0:0:0:
233,363,8253,22,0,L|220:312,3,29.9999990844727,8|8|4|4,0:0|0:0|0:0|0:0,0:0:0:0:
299,262,8521,2,0,L|307:292,3,29.9999990844727,8|8|8|8,0:0|0:0|0:0|0:0,0:0:0:0:
428,254,8789,85,4,0:0:0:0:
420,267,8856,1,4,0:0:0:0:
413,280,8923,1,4,0:0:0:0:
406,293,8990,1,4,0:0:0:0:
399,304,9057,102,0,L|358:170,1,100,6|10,0:0|0:0,0:0:0:0:
308,13,9325,1,4,0:0:0:0:
308,13,9392,1,4,0:0:0:0:
308,13,9459,1,10,0:0:0:0:
216,183,9593,1,4,0:0:0:0:
418,96,9727,1,10,0:0:0:0:
157,48,9861,1,4,0:0:0:0:
157,48,9927,1,4,0:0:0:0:
157,48,9994,6,0,B|176:114|176:114|161:272,1,200,10|10,0:0|0:0,0:0:0:0:
467,346,10396,2,0,L|341:353,1,100,4|10,0:0|0:0,0:0:0:0:
196,136,10664,2,0,L|312:146,1,100,4|10,0:0|0:0,0:0:0:0:
491,165,10932,1,4,0:0:0:0:
491,165,10999,1,4,0:0:0:0:
491,165,11066,1,10,0:0:0:0:
277,265,11200,6,0,B|171:302|172:302,1,100,4|10,0:0|0:0,0:0:0:0:
0,370,11468,1,4,0:0:0:0:
0,370,11535,1,4,0:0:0:0:
0,370,11602,1,10,0:0:0:0:
20,157,11736,1,4,0:0:0:0:
88,319,11869,1,10,0:0:0:0:
168,127,12003,1,4,0:0:0:0:
168,127,12070,1,4,0:0:0:0:
168,127,12137,102,0,B|231:151|231:151|368:140,1,200,10|10,0:0|0:0,0:0:0:0:
437,345,12539,2,0,L|442:230,1,100,4|10,0:0|0:0,0:0:0:0:
456,58,12807,1,4,0:0:0:0:
316,227,12941,1,10,0:0:0:0:
239,18,13075,1,4,0:0:0:0:
239,18,13142,1,4,0:0:0:0:
239,18,13209,22,0,L|229:223,1,200,10|10,0:0|0:0,0:0:0:0:
406,102,13611,1,4,0:0:0:0:
406,102,13677,1,4,0:0:0:0:
406,102,13744,1,10,0:0:0:0:
464,351,13878,1,4,0:0:0:0:
361,213,14012,1,10,0:0:0:0:
236,350,14146,1,4,0:0:0:0:
236,350,14213,1,4,0:0:0:0:
236,350,14280,86,0,L|223:121,1,200,10|10,0:0|0:0,0:0:0:0:
491,42,14682,2,0,L|496:166,1,100,4|10,0:0|0:0,0:0:0:0:
365,312,14950,2,0,L|360:188,1,100,4|10,0:0|0:0,0:0:0:0:
355,36,15218,1,4,0:0:0:0:
355,36,15285,1,4,0:0:0:0:
355,36,15352,1,10,0:0:0:0:
115,283,15486,101,4,0:0:0:0:
61,93,15619,1,10,0:0:0:0:
115,283,15753,1,4,0:0:0:0:
312,174,15887,2,0,L|187:168,1,100,10|4,0:0|0:0,0:0:0:0:
118,165,16088,1,4,0:0:0:0:
118,165,16155,1,8,0:0:0:0:
67,368,16289,1,4,0:0:0:0:
67,368,16356,1,4,0:0:0:0:
67,368,16423,1,8,0:0:0:0:
203,249,16557,5,12,0:0:0:0:
233,222,16623,1,8,0:0:0:0:
271,213,16690,1,8,0:0:0:0:
310,220,16757,1,8,0:0:0:0:
342,244,16824,1,12,0:0:0:0:
375,266,16891,1,8,0:0:0:0:
414,271,16958,1,8,0:0:0:0:
452,258,17025,1,8,0:0:0:0:
480,229,17093,6,0,P|440:221|396:197,2,66.6666666666667,12|8|8,0:0|0:0|0:0,0:0:0:0:
323,127,17361,2,0,P|289:137|257:139,2,66.6666666666667,12|8|8,0:0|0:0|0:0,0:0:0:0:
60,181,17628,102,0,L|177:169,1,100,6|8,0:0|0:0,0:0:0:0:
375,317,17896,2,0,L|258:305,1,100,4|10,0:0|0:0,0:0:0:0:
105,279,18164,1,4,0:0:0:0:
314,195,18298,1,10,0:0:0:0:
184,75,18432,1,4,0:0:0:0:
276,335,18566,22,0,B|375:316|375:316|500:339,1,200,10|10,0:0|0:0,0:0:0:0:
512,127,18968,1,4,0:0:0:0:
370,281,19102,1,10,0:0:0:0:
274,73,19236,1,4,0:0:0:0:
435,206,19369,1,10,0:0:0:0:
418,10,19503,2,0,L|381:82,1,50,4|4,0:0|0:0,0:0:0:0:
323,183,19637,1,10,0:0:0:0:
101,128,19771,86,0,L|116:-9,1,100,4|10,0:0|0:0,0:0:0:0:
228,282,20039,2,0,L|213:145,1,100,4|10,0:0|0:0,0:0:0:0:
42,299,20307,1,4,0:0:0:0:
204,377,20441,1,10,0:0:0:0:
42,299,20575,1,4,0:0:0:0:
202,96,20709,102,0,L|347:103,1,100,10|4,0:0|0:0,0:0:0:0:
395,240,20977,1,10,0:0:0:0:
472,66,21111,1,4,0:0:0:0:
511,335,21244,1,10,0:0:0:0:
434,153,21378,1,4,0:0:0:0:
338,384,21512,1,10,0:0:0:0:
243,190,21646,2,0,L|327:213,1,50,4|4,0:0|0:0,0:0:0:0:
395,240,21780,1,10,0:0:0:0:
142,350,21914,6,0,L|3:357,1,100,4|10,0:0|0:0,0:0:0:0:
165,97,22182,2,0,L|304:104,1,100,4|10,0:0|0:0,0:0:0:0:
481,228,22450,1,4,0:0:0:0:
410,14,22584,1,10,0:0:0:0:
290,206,22718,2,0,L|225:210,1,50,4|4,0:0|0:0,0:0:0:0:
82,220,22852,6,0,B|68:135|68:135|86:19,1,200,10|8,0:0|0:0,0:0:0:0:
306,0,23253,1,4,0:0:0:0:
169,106,23387,1,8,0:0:0:0:
437,244,23521,1,4,0:0:0:0:
285,107,23655,1,8,0:0:0:0:
255,340,23789,2,0,L|285:288,1,50,4|0,0:0|0:0,0:0:0:0:
354,179,23923,1,8,0:0:0:0:
178,212,24057,101,8,0:0:0:0:
133,218,24124,1,8,0:0:0:0:
89,225,24191,1,8,0:0:0:0:
44,231,24258,1,8,0:0:0:0:
0,238,24325,2,0,L|10:297,3,34.9999989318848,8|8|4|4,0:0|0:0|0:0|0:0,0:0:0:0:
145,140,24593,2,0,L|135:81,3,34.9999989318848,4|4|4|4,0:0|0:0|0:0|0:0,0:0:0:0:
75,364,24861,21,8,0:0:0:0:
109,368,24927,1,8,0:0:0:0:
142,357,24994,1,8,0:0:0:0:
168,334,25061,1,8,0:0:0:0:
181,302,25128,1,6,0:0:0:0:
195,255,25194,1,8,0:0:0:0:
231,221,25261,1,8,0:0:0:0:
279,209,25328,1,8,0:0:0:0:
327,224,25396,86,0,L|337:281,1,50,8|8,0:0|0:0,0:0:0:0:
461,162,25530,2,0,L|451:219,1,50,6|8,0:0|0:0,0:0:0:0:
343,79,25664,2,0,L|353:136,1,50,8|8,0:0|0:0,0:0:0:0:
456,0,25798,2,0,L|446:57,1,50,8|8,0:0|0:0,0:0:0:0:
478,260,25932,2,0,L|454:126,1,100,10|2,0:0|0:0,0:0:0:0:
247,44,26200,37,10,0:0:0:0:
201,73,26267,1,4,0:0:0:0:
181,123,26334,1,8,0:0:0:0:
193,176,26401,1,4,0:0:0:0:
233,212,26468,1,10,0:0:0:0:
255,261,26535,1,4,0:0:0:0:
248,315,26602,1,10,0:0:0:0:
214,357,26669,1,4,0:0:0:0:
163,375,26736,1,10,0:0:0:0:
110,364,26802,1,4,0:0:0:0:
71,326,26869,1,10,0:0:0:0:
57,273,26936,1,4,0:0:0:0:
73,222,27003,1,10,0:0:0:0:
96,172,27070,1,4,0:0:0:0:
93,118,27137,1,10,0:0:0:0:
65,71,27204,1,4,0:0:0:0:
18,43,27271,37,10,0:0:0:0:
24,97,27338,1,4,0:0:0:0:
59,138,27405,1,10,0:0:0:0:
111,152,27472,1,4,0:0:0:0:
162,133,27539,1,10,0:0:0:0:
209,106,27606,1,4,0:0:0:0:
263,108,27673,1,10,0:0:0:0:
308,138,27740,1,4,0:0:0:0:
329,188,27807,1,10,0:0:0:0:
336,241,27874,1,4,0:0:0:0:
375,279,27941,1,10,0:0:0:0:
429,285,28008,1,4,0:0:0:0:
475,258,28075,1,10,0:0:0:0:
495,208,28142,1,4,0:0:0:0:
481,156,28209,1,10,0:0:0:0:
438,123,28276,1,4,0:0:0:0:
384,123,28343,85,10,0:0:0:0:
366,71,28410,1,4,0:0:0:0:
326,34,28477,1,10,0:0:0:0:
274,19,28544,1,4,0:0:0:0:
221,31,28611,1,10,0:0:0:0:
179,66,28677,1,4,0:0:0:0:
159,116,28744,1,10,0:0:0:0:
165,171,28811,1,4,0:0:0:0:
195,216,28878,1,10,0:0:0:0:
209,268,28945,1,4,0:0:0:0:
194,320,29012,1,10,0:0:0:0:
154,356,29079,1,4,0:0:0:0:
100,366,29146,1,10,0:0:0:0:
50,346,29213,1,4,0:0:0:0:
18,302,29280,1,10,0:0:0:0:
13,248,29347,1,4,0:0:0:0:
38,200,29414,21,10,0:0:0:0:
87,222,29481,1,4,0:0:0:0:
140,212,29548,1,10,0:0:0:0:
178,173,29615,1,4,0:0:0:0:
185,119,29682,1,10,0:0:0:0:
161,71,29749,1,4,0:0:0:0:
113,46,29816,1,10,0:0:0:0:
59,53,29883,1,4,0:0:0:0:
20,90,29950,2,0,L|96:116,3,55.0000016784668,10|4|10|4,0:0|0:0|0:0|0:0,0:0:0:0:
270,55,30218,2,0,L|345:29,3,55.0000016784668,10|4|10|4,0:0|0:0|0:0|0:0,0:0:0:0:
512,200,30486,101,10,0:0:0:0:
479,156,30552,1,4,0:0:0:0:
428,137,30619,1,10,0:0:0:0:
375,149,30686,1,4,0:0:0:0:
337,187,30753,1,10,0:0:0:0:
304,230,30820,1,4,0:0:0:0:
253,249,30887,1,10,0:0:0:0:
200,237,30954,1,4,0:0:0:0:
162,199,31021,1,10,0:0:0:0:
115,171,31088,1,4,0:0:0:0:
61,175,31155,1,10,0:0:0:0:
18,209,31222,1,4,0:0:0:0:
1,260,31289,1,10,0:0:0:0:
16,312,31356,1,4,0:0:0:0:
58,347,31423,1,10,0:0:0:0:
112,352,31490,1,4,0:0:0:0:
160,326,31557,5,10,0:0:0:0:
114,297,31624,1,4,0:0:0:0:
97,246,31691,1,10,0:0:0:0:
116,195,31758,1,4,0:0:0:0:
163,167,31825,1,10,0:0:0:0:
208,137,31892,1,4,0:0:0:0:
225,86,31959,1,10,0:0:0:0:
206,35,32026,1,4,0:0:0:0:
159,8,32093,1,10,0:0:0:0:
142,59,32160,1,4,0:0:0:0:
151,113,32227,1,10,0:0:0:0:
183,157,32294,1,4,0:0:0:0:
232,180,32361,1,10,0:0:0:0:
287,178,32427,1,4,0:0:0:0:
334,151,32494,1,10,0:0:0:0:
364,106,32561,1,4,0:0:0:0:
369,52,32628,69,10,0:0:0:0:
319,70,32695,1,4,0:0:0:0:
294,117,32762,1,10,0:0:0:0:
307,169,32829,1,4,0:0:0:0:
352,199,32896,1,10,0:0:0:0:
395,230,32963,1,4,0:0:0:0:
414,281,33030,1,10,0:0:0:0:
400,334,33097,1,4,0:0:0:0:
359,369,33164,1,10,0:0:0:0:
305,375,33231,1,4,0:0:0:0:
257,349,33298,1,10,0:0:0:0:
232,301,33365,1,4,0:0:0:0:
239,247,33432,1,10,0:0:0:0:
244,193,33499,1,4,0:0:0:0:
223,143,33566,1,10,0:0:0:0:
181,108,33633,1,4,0:0:0:0:
125,105,33700,37,10,0:0:0:0:
162,144,33767,1,4,0:0:0:0:
166,198,33834,1,10,0:0:0:0:
137,243,33901,1,4,0:0:0:0:
86,260,33968,1,10,0:0:0:0:
35,242,34035,1,4,0:0:0:0:
6,196,34102,1,10,0:0:0:0:
12,142,34169,1,4,0:0:0:0:
50,104,34236,2,0,L|63:178,3,55.0000016784668,10|4|10|4,0:0|0:0|0:0|0:0,0:0:0:0:
223,313,34503,2,0,L|210:239,3,55.0000016784668,10|4|10|4,0:0|0:0|0:0|0:0,0:0:0:0:
347,23,34771,85,10,0:0:0:0:
305,57,34838,1,4,0:0:0:0:
289,109,34905,1,10,0:0:0:0:
303,161,34972,1,4,0:0:0:0:
344,198,35039,1,10,0:0:0:0:
385,232,35106,1,4,0:0:0:0:
401,284,35173,1,10,0:0:0:0:
384,335,35240,1,4,0:0:0:0:
342,369,35307,1,10,0:0:0:0:
288,373,35374,1,4,0:0:0:0:
241,346,35441,1,10,0:0:0:0:
217,297,35508,1,4,0:0:0:0:
225,243,35575,1,10,0:0:0:0:
230,190,35642,1,4,0:0:0:0:
202,143,35709,1,10,0:0:0:0:
153,120,35776,1,4,0:0:0:0:
100,129,35843,21,10,0:0:0:0:
138,168,35910,1,4,0:0:0:0:
191,181,35977,1,10,0:0:0:0:
242,163,36044,1,4,0:0:0:0:
276,121,36111,1,10,0:0:0:0:
313,82,36177,1,4,0:0:0:0:
366,69,36244,1,10,0:0:0:0:
417,87,36311,1,4,0:0:0:0:
451,130,36378,1,10,0:0:0:0:
456,184,36445,1,4,0:0:0:0:
432,232,36512,1,10,0:0:0:0:
385,259,36579,1,4,0:0:0:0:
331,258,36646,1,10,0:0:0:0:
276,252,36713,1,4,0:0:0:0:
224,268,36780,1,10,0:0:0:0:
182,304,36847,1,4,0:0:0:0:
158,353,36914,101,10,0:0:0:0:
153,299,36981,1,4,0:0:0:0:
121,254,37048,1,10,0:0:0:0:
72,232,37115,1,4,0:0:0:0:
32,194,37182,1,10,0:0:0:0:
21,141,37249,1,4,0:0:0:0:
41,91,37316,1,10,0:0:0:0:
86,61,37383,1,4,0:0:0:0:
140,62,37450,1,10,0:0:0:0:
175,103,37517,1,4,0:0:0:0:
227,120,37584,1,10,0:0:0:0:
280,108,37651,1,4,0:0:0:0:
319,70,37718,1,10,0:0:0:0:
354,29,37785,1,4,0:0:0:0:
407,16,37852,1,10,0:0:0:0:
457,35,37919,1,4,0:0:0:0:
487,80,37986,5,10,0:0:0:0:
433,86,38052,1,4,0:0:0:0:
393,122,38119,1,10,0:0:0:0:
382,175,38186,1,4,0:0:0:0:
403,225,38253,1,10,0:0:0:0:
420,276,38320,1,4,0:0:0:0:
404,327,38387,1,10,0:0:0:0:
360,359,38454,1,4,0:0:0:0:
306,357,38521,2,0,L|298:268,3,55.0000016784668,10|4|10|4,0:0|0:0|0:0|0:0,0:0:0:0:
237,142,38789,2,0,L|228:231,3,55.0000016784668,10|4|10|4,0:0|0:0|0:0|0:0,0:0:0:0:
85,356,39057,69,10,0:0:0:0:
126,321,39124,1,4,0:0:0:0:
142,269,39191,1,10,0:0:0:0:
126,217,39258,1,4,0:0:0:0:
85,182,39325,1,10,0:0:0:0:
45,145,39392,1,4,0:0:0:0:
37,92,39459,1,10,0:0:0:0:
64,45,39526,1,4,0:0:0:0:
114,26,39593,1,10,0:0:0:0:
166,42,39660,1,4,0:0:0:0:
196,87,39727,1,10,0:0:0:0:
221,135,39794,1,4,0:0:0:0:
266,164,39861,1,10,0:0:0:0:
321,167,39927,1,4,0:0:0:0:
369,143,39994,1,10,0:0:0:0:
399,97,40061,1,4,0:0:0:0:
402,43,40128,37,10,0:0:0:0:
358,75,40195,1,4,0:0:0:0:
337,125,40262,1,10,0:0:0:0:
344,179,40329,1,4,0:0:0:0:
376,223,40396,1,10,0:0:0:0:
400,271,40463,1,4,0:0:0:0:
390,324,40530,1,10,0:0:0:0:
350,361,40597,1,4,0:0:0:0:
297,366,40664,1,10,0:0:0:0:
250,339,40731,1,4,0:0:0:0:
230,289,40798,1,10,0:0:0:0:
219,236,40865,1,4,0:0:0:0:
178,201,40932,1,10,0:0:0:0:
124,198,40999,1,4,0:0:0:0:
80,230,41066,1,10,0:0:0:0:
65,281,41133,1,4,0:0:0:0:
85,331,41200,86,0,L|166:322,1,55.0000016784668,4|0,0:0|0:0,0:0:0:0:
306,245,41334,2,0,L|224:253,1,55.0000016784668,4|0,0:0|0:0,0:0:0:0:
25,235,41468,2,0,L|106:226,1,55.0000016784668,4|0,0:0|0:0,0:0:0:0:
336,131,41602,2,0,L|254:139,1,55.0000016784668,4|0,0:0|0:0,0:0:0:0:
48,77,41736,22,0,L|50:139,1,55.0000016784668,4|0,0:0|0:0,0:0:0:0:
175,341,41869,2,0,L|173:279,1,55.0000016784668,4|0,0:0|0:0,0:0:0:0:
180,35,42003,2,0,L|182:97,1,55.0000016784668,6|0,0:0|0:0,0:0:0:0:
308,299,42137,2,0,L|305:233,1,55.0000016784668,4|0,0:0|0:0,0:0:0:0:
316,46,42271,101,4,0:0:0:0:
367,30,42337,1,8,0:0:0:0:
419,47,42405,2,0,P|455:73|468:93,1,55.0000016784668,8|8,0:0|0:0,0:0:0:0:
453,335,42539,5,4,0:0:0:0:
401,350,42605,1,8,0:0:0:0:
349,333,42673,2,0,P|313:307|300:287,1,55.0000016784668,8|8,0:0|0:0,0:0:0:0:
216,122,42807,69,4,0:0:0:0:
163,83,42873,1,8,0:0:0:0:
98,81,42940,1,8,0:0:0:0:
45,118,43007,1,8,0:0:0:0:
22,178,43074,1,8,0:0:0:0:
39,241,43141,1,8,0:0:0:0:
89,283,43208,1,8,0:0:0:0:
153,288,43275,1,8,0:0:0:0:
209,254,43342,1,6,0:0:0:0:
505,175,47628,70,0,B|436:171|421:102|421:102|367:142|310:128|310:128|269:162|201:107|246:31|315:33|348:95|310:128|310:128|276:217|335:290|335:290|194:259|131:369|131:369|88:310|132:239|132:239|84:189|84:189|141:133|107:71|59:53,1,1230.00001876831,6|0,0:0|0:0,0:0:0:0:
38,127,49771,5,8,0:0:0:0:
15,153,49837,1,8,0:0:0:0:
6,186,49904,1,8,0:0:0:0:
12,220,49971,1,8,0:0:0:0:
33,248,50039,2,0,L|70:278,3,34.9999989318848,0|8|8|0,0:0|0:0|0:0|0:0,0:0:0:0:
231,210,50307,101,8,0:0:0:0:
262,225,50373,1,8,0:0:0:0:
285,250,50440,1,8,0:0:0:0:
298,283,50507,1,8,0:0:0:0:
298,317,50575,2,0,L|291:368,3,34.9999989318848,0|4|4|4,0:0|0:0|0:0|0:0,0:0:0:0:
399,303,50843,21,8,0:0:0:0:
401,288,50909,1,8,0:0:0:0:
403,273,50976,1,8,0:0:0:0:
406,258,51043,1,8,0:0:0:0:
409,244,51111,2,0,L|463:252,3,40,4|4|8|8,0:0|0:0|0:0|0:0,0:0:0:0:
469,144,51378,2,0,L|508:138,3,40,4|4|4|4,0:0|0:0|0:0|0:0,0:0:0:0:
289,38,51646,86,0,B|253:10|253:10|261:176,1,194.999991073609,10|0,0:0|0:0,0:0:0:0:
261,160,51914,102,0,L|132:149,1,100,6|8,0:0|0:0,0:0:0:0:
144,296,52182,1,4,0:0:0:0:
76,130,52316,1,10,0:0:0:0:
20,337,52450,1,4,0:0:0:0:
110,212,52584,1,10,0:0:0:0:
183,381,52718,1,4,0:0:0:0:
2,243,52852,1,10,0:0:0:0:
261,160,52986,5,4,0:0:0:0:
261,160,53052,1,4,0:0:0:0:
261,160,53119,1,10,0:0:0:0:
333,328,53253,1,4,0:0:0:0:
414,118,53387,1,10,0:0:0:0:
296,244,53521,1,4,0:0:0:0:
221,73,53655,1,10,0:0:0:0:
398,216,53789,2,0,L|416:98,1,100,4|10,0:0|0:0,0:0:0:0:
202,317,54057,6,0,L|184:199,1,100,4|10,0:0|0:0,0:0:0:0:
458,374,54325,2,0,L|476:256,1,100,4|10,0:0|0:0,0:0:0:0:
318,140,54593,1,4,0:0:0:0:
330,335,54727,1,10,0:0:0:0:
486,153,54861,1,4,0:0:0:0:
326,239,54994,1,10,0:0:0:0:
304,33,55128,101,4,0:0:0:0:
304,33,55195,1,4,0:0:0:0:
304,33,55262,1,10,0:0:0:0:
409,202,55396,1,4,0:0:0:0:
458,0,55530,1,10,0:0:0:0:
223,150,55664,2,0,L|209:33,1,100,4|10,0:0|0:0,0:0:0:0:
326,239,55932,1,4,0:0:0:0:
395,71,56066,1,10,0:0:0:0:
222,233,56200,22,0,L|87:249,1,100,4|10,0:0|0:0,0:0:0:0:
26,149,56468,1,4,0:0:0:0:
0,348,56602,1,10,0:0:0:0:
140,123,56736,1,4,0:0:0:0:
173,326,56869,1,10,0:0:0:0:
25,114,57003,1,4,0:0:0:0:
65,294,57137,1,10,0:0:0:0:
217,73,57271,86,0,L|274:66,2,50,4|4|10,0:0|0:0|0:0,0:0:0:0:
76,183,57539,1,4,0:0:0:0:
92,3,57673,1,10,0:0:0:0:
335,169,57807,101,6,0:0:0:0:
140,123,57941,1,8,0:0:0:0:
457,117,58075,5,6,0:0:0:0:
193,263,58209,1,8,0:0:0:0:
491,318,58343,6,0,P|441:268|406:202,1,119.999996337891,10|4,0:0|0:0,0:0:0:0:
325,38,58611,1,10,0:0:0:0:
278,294,58744,1,4,0:0:0:0:
38,77,58878,102,0,P|74:110|110:175,1,119.999996337891,10|4,0:0|0:0,0:0:0:0:
195,383,59146,1,10,0:0:0:0:
248,116,59280,1,4,0:0:0:0:
248,116,59347,1,4,0:0:0:0:
248,116,59414,21,8,0:0:0:0:
283,134,59481,1,8,0:0:0:0:
322,140,59548,1,4,0:0:0:0:
362,136,59615,1,4,0:0:0:0:
398,119,59682,2,0,P|446:108|518:138,1,100,10|4,0:0|0:0,0:0:0:0:
490,370,59950,1,10,0:0:0:0:
447,186,60084,1,4,0:0:0:0:
288,342,60218,1,8,0:0:0:0:
325,329,60285,1,8,0:0:0:0:
363,317,60352,1,4,0:0:0:0:
248,116,60486,86,0,L|136:107,1,100,6|8,0:0|0:0,0:0:0:0:
185,264,60753,1,4,0:0:0:0:
64,116,60887,1,10,0:0:0:0:
50,337,61021,1,4,0:0:0:0:
119,192,61155,1,10,0:0:0:0:
247,343,61289,1,4,0:0:0:0:
248,116,61423,1,10,0:0:0:0:
384,252,61557,101,4,0:0:0:0:
384,252,61624,1,4,0:0:0:0:
384,252,61691,1,10,0:0:0:0:
464,81,61825,1,4,0:0:0:0:
496,314,61959,1,10,0:0:0:0:
356,133,62093,1,4,0:0:0:0:
336,367,62227,1,10,0:0:0:0:
482,214,62361,2,0,L|497:323,1,100,4|10,0:0|0:0,0:0:0:0:
234,167,62628,6,0,L|219:276,1,100,4|10,0:0|0:0,0:0:0:0:
387,69,62896,2,0,L|402:178,1,100,4|10,0:0|0:0,0:0:0:0:
342,275,63164,1,4,0:0:0:0:
293,80,63298,1,10,0:0:0:0:
151,290,63432,1,4,0:0:0:0:
317,180,63566,1,10,0:0:0:0:
362,372,63700,6,0,L|336:247,1,100,4|10,0:0|0:0,0:0:0:0:
194,187,63968,1,4,0:0:0:0:
110,380,64102,1,10,0:0:0:0:
23,155,64236,1,4,0:0:0:0:
151,290,64369,1,10,0:0:0:0:
119,59,64503,1,4,0:0:0:0:
0,266,64637,1,10,0:0:0:0:
224,106,64771,102,0,L|350:115,1,100,4|10,0:0|0:0,0:0:0:0:
435,269,65039,1,4,0:0:0:0:
412,62,65173,1,10,0:0:0:0:
291,284,65307,1,4,0:0:0:0:
423,165,65441,1,10,0:0:0:0:
446,368,65575,1,4,0:0:0:0:
325,187,65709,1,10,0:0:0:0:
261,374,65843,22,0,L|198:377,2,50,4|4|10,0:0|0:0|0:0,0:0:0:0:
195,171,66111,1,4,0:0:0:0:
118,327,66244,1,10,0:0:0:0:
72,94,66378,85,4,0:0:0:0:
330,138,66512,1,10,0:0:0:0:
20,256,66646,101,6,0:0:0:0:
354,137,66780,1,8,0:0:0:0:
5,0,66914,6,0,P|60:58|74:109,1,119.999996337891,10|4,0:0|0:0,0:0:0:0:
26,351,67182,1,10,0:0:0:0:
195,171,67316,1,4,0:0:0:0:
416,373,67450,6,0,P|361:315|347:263,1,119.999996337891,10|4,0:0|0:0,0:0:0:0:
392,29,67718,1,10,0:0:0:0:
195,171,67852,1,4,0:0:0:0:
36,41,67986,101,12,0:0:0:0:
38,80,68052,1,8,0:0:0:0:
40,120,68119,1,8,0:0:0:0:
43,160,68186,1,8,0:0:0:0:
45,200,68253,2,0,L|49:264,3,40,4|8|8|8,0:0|0:0|0:0|0:0,0:0:0:0:
143,287,68521,21,4,0:0:0:0:
172,260,68587,1,4,0:0:0:0:
210,248,68654,1,4,0:0:0:0:
250,253,68721,1,4,0:0:0:0:
284,273,68789,2,0,L|347:264,3,40,6|4|4|4,0:0|0:0|0:0|0:0,0:0:0:0:
454,331,69057,86,0,L|346:348,1,100,2|0,0:0|0:0,0:0:0:0:
423,129,69325,2,0,L|406:242,1,100,8|0,0:0|0:0,0:0:0:0:
299,72,69593,1,0,0:0:0:0:
213,211,69727,1,4,0:0:0:0:
213,211,69794,1,4,0:0:0:0:
213,211,69861,1,8,0:0:0:0:
50,26,69994,102,0,B|76:89|76:89|57:237,1,200,6|4,0:0|0:0,0:0:0:0:
190,104,70396,1,8,0:0:0:0:
406,220,70530,2,0,B|343:194|343:194|195:213,1,200,6|4,0:0|0:0,0:0:0:0:
299,72,70932,1,8,0:0:0:0:
29,114,71066,6,0,L|50:315,1,200,6|4,0:0|0:0,0:0:0:0:
212,210,71468,1,8,0:0:0:0:
192,368,71602,1,0,0:0:0:0:
349,195,71736,1,4,0:0:0:0:
350,182,71802,1,4,0:0:0:0:
352,170,71869,1,4,0:0:0:0:
354,157,71936,1,4,0:0:0:0:
356,145,72003,1,8,0:0:0:0:
499,311,72137,6,0,P|406:266|309:313,1,200,6|4,0:0|0:0,0:0:0:0:
28,235,72539,2,0,P|75:245|130:229,1,100,8|6,0:0|0:0,0:0:0:0:
186,73,72807,1,4,0:0:0:0:
185,86,72874,1,8,0:0:0:0:
183,98,72941,1,8,0:0:0:0:
181,111,73008,1,4,0:0:0:0:
179,123,73075,1,4,0:0:0:0:
215,243,73209,1,4,0:0:0:0:
351,169,73343,102,0,L|473:174,1,100,6|0,0:0|0:0,0:0:0:0:
361,384,73611,2,0,L|353:258,1,100,8|0,0:0|0:0,0:0:0:0:
182,335,73878,1,0,0:0:0:0:
243,153,74012,1,4,0:0:0:0:
243,153,74079,1,4,0:0:0:0:
243,153,74146,1,8,0:0:0:0:
33,27,74280,22,0,L|46:240,1,200,6|8,0:0|0:0,0:0:0:0:
181,62,74682,1,8,0:0:0:0:
442,165,74816,2,0,L|229:152,1,200,6|4,0:0|0:0,0:0:0:0:
329,300,75218,1,8,0:0:0:0:
374,39,75352,86,0,B|316:67|316:67|164:61,1,200,6|0,0:0|0:0,0:0:0:0:
0,168,75753,1,8,0:0:0:0:
68,0,75887,1,0,0:0:0:0:
170,188,76021,1,4,0:0:0:0:
171,200,76088,1,4,0:0:0:0:
172,212,76155,1,4,0:0:0:0:
173,225,76222,1,4,0:0:0:0:
174,237,76289,1,8,0:0:0:0:
433,181,76423,102,0,B|399:396|399:395,1,200,6|8,0:0|0:0,0:0:0:0:
346,204,76825,1,8,0:0:0:0:
318,360,76959,1,8,0:0:0:0:
261,225,77093,1,4,0:0:0:0:
245,307,77227,1,4,0:0:0:0:
181,251,77361,1,8,0:0:0:0:
181,251,77494,1,4,0:0:0:0:
185,72,77628,6,0,L|206:205,1,100,6|8,0:0|0:0,0:0:0:0:
373,66,77896,1,4,0:0:0:0:
343,267,78030,1,10,0:0:0:0:
277,72,78164,1,4,0:0:0:0:
358,169,78298,1,10,0:0:0:0:
451,16,78432,1,4,0:0:0:0:
425,229,78566,1,10,0:0:0:0:
231,152,78700,5,4,0:0:0:0:
231,152,78767,1,4,0:0:0:0:
231,152,78834,1,10,0:0:0:0:
190,343,78968,1,4,0:0:0:0:
77,157,79102,1,10,0:0:0:0:
210,250,79236,1,4,0:0:0:0:
251,60,79369,1,10,0:0:0:0:
318,306,79503,2,0,L|308:195,1,100,4|10,0:0|0:0,0:0:0:0:
100,338,79771,102,0,L|118:226,1,100,4|10,0:0|0:0,0:0:0:0:
413,384,80039,2,0,L|401:275,1,100,4|10,0:0|0:0,0:0:0:0:
245,384,80307,1,4,0:0:0:0:
318,151,80441,1,10,0:0:0:0:
318,306,80575,1,4,0:0:0:0:
241,80,80709,1,10,0:0:0:0:
133,256,80843,21,4,0:0:0:0:
133,256,80910,1,4,0:0:0:0:
133,256,80977,1,10,0:0:0:0:
85,50,81111,1,4,0:0:0:0:
190,169,81244,1,10,0:0:0:0:
329,51,81378,2,0,L|315:172,1,100,4|10,0:0|0:0,0:0:0:0:
300,280,81646,1,4,0:0:0:0:
429,223,81780,1,10,0:0:0:0:
287,369,81914,86,0,L|169:350,1,100,4|10,0:0|0:0,0:0:0:0:
25,156,82182,1,4,0:0:0:0:
87,335,82316,1,10,0:0:0:0:
232,148,82450,1,4,0:0:0:0:
107,233,82584,1,10,0:0:0:0:
44,3,82718,1,4,0:0:0:0:
131,131,82852,1,10,0:0:0:0:
310,2,82986,102,0,L|361:7,2,50,4|4|10,0:0|0:0|0:0,0:0:0:0:
232,148,83253,1,4,0:0:0:0:
174,0,83387,1,10,0:0:0:0:
196,240,83521,5,6,0:0:0:0:
408,149,83655,1,8,0:0:0:0:
107,102,83789,5,6,0:0:0:0:
439,155,83923,1,8,0:0:0:0:
165,355,84057,102,0,L|205:205,1,119.999996337891,10|4,0:0|0:0,0:0:0:0:
264,0,84325,1,10,0:0:0:0:
5,83,84459,1,4,0:0:0:0:
311,207,84593,22,0,L|196:238,1,119.999996337891,10|4,0:0|0:0,0:0:0:0:
5,373,84861,1,10,0:0:0:0:
107,102,84994,1,4,0:0:0:0:
107,102,85061,1,4,0:0:0:0:
107,102,85128,85,8,0:0:0:0:
146,103,85195,1,8,0:0:0:0:
186,105,85262,1,4,0:0:0:0:
226,107,85329,1,4,0:0:0:0:
266,109,85396,2,0,P|302:69|366:55,1,100,10|4,0:0|0:0,0:0:0:0:
504,246,85664,1,10,0:0:0:0:
345,137,85798,1,4,0:0:0:0:
292,341,85932,1,8,0:0:0:0:
300,302,85999,1,8,0:0:0:0:
310,263,86066,1,4,0:0:0:0:
226,107,86200,102,0,L|203:214,1,100,6|8,0:0|0:0,0:0:0:0:
41,120,86468,1,4,0:0:0:0:
93,302,86602,1,10,0:0:0:0:
147,54,86736,1,4,0:0:0:0:
65,212,86869,1,10,0:0:0:0:
11,33,87003,1,4,0:0:0:0:
204,204,87137,1,10,0:0:0:0:
246,5,87271,5,4,0:0:0:0:
246,5,87338,1,4,0:0:0:0:
246,5,87405,1,10,0:0:0:0:
313,209,87539,1,4,0:0:0:0:
384,49,87673,1,10,0:0:0:0:
373,297,87807,1,4,0:0:0:0:
255,127,87941,1,10,0:0:0:0:
189,303,88075,2,0,L|302:291,1,100,4|10,0:0|0:0,0:0:0:0:
90,384,88343,6,0,L|78:264,1,100,4|10,0:0|0:0,0:0:0:0:
57,123,88611,1,4,0:0:0:0:
189,303,88744,1,10,0:0:0:0:
255,127,88878,2,0,L|233:246,1,100,4|10,0:0|0:0,0:0:0:0:
43,23,89146,2,0,L|59:142,1,100,4|10,0:0|0:0,0:0:0:0:
155,101,89414,101,4,0:0:0:0:
155,101,89481,1,4,0:0:0:0:
155,101,89548,1,10,0:0:0:0:
189,303,89682,1,4,0:0:0:0:
357,193,89816,1,10,0:0:0:0:
295,384,89950,2,0,L|289:274,1,100,4|10,0:0|0:0,0:0:0:0:
276,136,90218,1,4,0:0:0:0:
438,243,90352,1,10,0:0:0:0:
440,19,90486,22,0,L|434:129,1,100,4|10,0:0|0:0,0:0:0:0:
280,238,90753,1,4,0:0:0:0:
268,38,90887,1,10,0:0:0:0:
131,247,91021,1,4,0:0:0:0:
276,136,91155,1,10,0:0:0:0:
282,336,91289,1,4,0:0:0:0:
170,150,91423,1,10,0:0:0:0:
90,341,91557,86,0,L|29:343,2,50,4|4|10,0:0|0:0|0:0,0:0:0:0:
72,160,91825,1,4,0:0:0:0:
186,335,91959,1,10,0:0:0:0:
386,154,92093,101,4,0:0:0:0:
131,247,92227,1,10,0:0:0:0:
490,302,92361,5,6,0:0:0:0:
239,238,92494,1,8,0:0:0:0:
396,34,92628,6,0,L|383:186,1,119.999996337891,10|4,0:0|0:0,0:0:0:0:
370,384,92896,1,10,0:0:0:0:
228,122,93030,1,4,0:0:0:0:
31,382,93164,102,0,L|44:230,1,119.999996337891,10|4,0:0|0:0,0:0:0:0:
64,22,93432,1,10,0:0:0:0:
239,238,93566,1,4,0:0:0:0:
366,24,93700,21,8,0:0:0:0:
333,61,93767,1,8,0:0:0:0:
322,109,93834,1,8,0:0:0:0:
334,157,93901,1,8,0:0:0:0:
367,194,93968,1,4,0:0:0:0:
399,231,94035,1,4,0:0:0:0:
410,279,94102,1,8,0:0:0:0:
398,327,94169,1,8,0:0:0:0:
365,364,94236,85,4,0:0:0:0:
348,339,94302,1,4,0:0:0:0:
323,324,94369,1,4,0:0:0:0:
293,321,94436,1,4,0:0:0:0:
265,330,94503,2,0,L|210:338,1,29.9999990844727,6|0,0:0|0:0,0:0:0:0:
167,261,94637,2,0,L|111:253,1,29.9999990844727,6|0,0:0|0:0,0:0:0:0:
25,171,94771,101,0,0:0:0:0:
23,158,95039,1,2,0:0:0:0:
22,146,95307,1,2,0:0:0:0:
21,133,95575,1,2,0:0:0:0:
20,120,95843,6,0,L|16:71,1,34.9999989318848,8|0,0:0|0:0,0:0:0:0:
231,231,95977,1,8,0:0:0:0:
241,263,96043,1,8,0:0:0:0:
242,298,96111,2,0,P|235:318|225:336,1,34.9999989318848,8|0,0:0|0:0,0:0:0:0:
134,188,96244,1,8,0:0:0:0:
124,156,96310,1,8,0:0:0:0:
123,121,96378,6,0,P|129:100|139:82,1,34.9999989318848,8|0,0:0|0:0,0:0:0:0:
248,49,96512,1,8,0:0:0:0:
277,67,96578,1,8,0:0:0:0:
312,68,96645,1,4,0:0:0:0:
341,51,96713,1,4,0:0:0:0:
370,32,96779,1,8,0:0:0:0:
405,31,96846,1,8,0:0:0:0:
435,47,96914,102,0,B|461:77|461:77|469:143,1,100,10|4,0:0|0:0,0:0:0:0:
333,372,97182,2,0,L|318:273,1,100,10|4,0:0|0:0,0:0:0:0:
392,114,97449,1,10,0:0:0:0:
504,266,97584,2,0,L|371:271,1,100,4|10,0:0|0:0,0:0:0:0:
42,319,97852,22,0,L|246:327,1,200,4|4,0:0|0:0,0:0:0:0:
116,104,98253,2,0,P|101:154|121:231,1,100,10|4,0:0|0:0,0:0:0:0:
321,198,98521,1,10,0:0:0:0:
182,34,98655,2,0,P|146:15|74:22,1,100,4|10,0:0|0:0,0:0:0:0:
253,255,98923,86,0,B|324:236|324:236|486:257,1,200,4|4,0:0|0:0,0:0:0:0:
182,325,99325,2,0,P|161:280|169:204,1,100,10|4,0:0|0:0,0:0:0:0:
365,124,99593,1,10,0:0:0:0:
483,347,99727,2,0,L|367:330,1,100,4|10,0:0|0:0,0:0:0:0:
258,164,99994,1,4,0:0:0:0:
182,325,100128,101,10,0:0:0:0:
128,85,100262,1,4,0:0:0:0:
189,302,100396,5,10,0:0:0:0:
268,145,100530,1,4,0:0:0:0:
195,281,100664,5,10,0:0:0:0:
135,107,100798,1,4,0:0:0:0:
203,261,100932,101,10,0:0:0:0:
258,164,101066,1,4,0:0:0:0:
32,330,101200,22,0,P|100:266|209:263,1,200,10|10,0:0|0:0,0:0:0:0:
353,338,101602,1,4,0:0:0:0:
264,78,101736,2,0,P|215:92|181:126,1,100,10|4,0:0|0:0,0:0:0:0:
85,247,102003,1,10,0:0:0:0:
40,16,102137,86,0,P|119:31|182:136,1,200,4|4,0:0|0:0,0:0:0:0:
94,354,102539,1,10,0:0:0:0:
74,137,102673,1,4,0:0:0:0:
256,232,102807,2,0,L|376:223,1,100,10|4,0:0|0:0,0:0:0:0:
442,218,103008,1,4,0:0:0:0:
442,218,103075,1,10,0:0:0:0:
269,115,103209,102,0,B|199:104|199:104|29:148,1,200,6|0,0:0|0:0,0:0:0:0:
294,17,103611,2,0,L|406:39,1,100,10|0,0:0|0:0,0:0:0:0:
360,259,103878,2,0,L|352:131,2,100,6|4|10,0:0|0:0|0:0,0:0:0:0:
106,269,104280,6,0,P|160:260|234:277,1,100,4|2,0:0|0:0,0:0:0:0:
458,256,104548,2,0,P|403:264|329:247,1,100,4|10,0:0|0:0,0:0:0:0:
269,115,104816,1,4,0:0:0:0:
269,115,104883,1,4,0:0:0:0:
269,115,104950,5,8,0:0:0:0:
288,330,105084,1,8,0:0:0:0:
423,68,105218,1,8,0:0:0:0:
134,133,105352,1,4,0:0:0:0:
359,258,105486,102,0,L|364:140,1,100,6|0,0:0|0:0,0:0:0:0:
142,332,105753,2,0,L|133:124,1,200,10|0,0:0|0:0,0:0:0:0:
254,235,106155,1,4,0:0:0:0:
286,72,106289,1,10,0:0:0:0:
465,268,106423,22,0,P|364:289|309:374,1,200,0|0,0:0|0:0,0:0:0:0:
16,180,106825,2,0,P|117:201|172:286,1,200,10|0,0:0|0:0,0:0:0:0:
210,372,107227,1,4,0:0:0:0:
307,223,107361,1,10,0:0:0:0:
210,372,107494,86,0,L|187:170,1,200,0|0,0:0|0:0,0:0:0:0:
330,25,107896,2,0,L|307:227,1,200,10|0,0:0|0:0,0:0:0:0:
292,312,108298,1,4,0:0:0:0:
187,173,108432,1,10,0:0:0:0:
113,325,108566,1,0,0:0:0:0:
132,79,108700,101,4,0:0:0:0:
355,198,108834,1,0,0:0:0:0:
150,73,108968,5,10,0:0:0:0:
351,147,109102,1,4,0:0:0:0:
166,68,109236,5,0,0:0:0:0:
349,95,109369,1,4,0:0:0:0:
181,64,109503,101,10,0:0:0:0:
344,43,109637,1,0,0:0:0:0:
62,67,109771,22,0,L|71:12,1,53.3333333333333,10|0,0:0|0:0,0:0:0:0:
140,158,109950,85,4,0:0:0:0:
129,204,110039,101,4,0:0:0:0:
119,251,110128,5,4,0:0:0:0:
109,298,110218,5,4,0:0:0:0:
98,345,110307,102,0,B|68:296|68:296|-11:256,2,106.666666666667,10|4|4,0:0|0:0|0:0,0:0:0:0:
255,221,110843,21,8,0:0:0:0:
281,207,110910,1,0,0:0:0:0:
310,200,110977,1,0,0:0:0:0:
340,201,111044,1,8,0:0:0:0:
369,210,111111,1,4,0:0:0:0:
366,181,111177,1,4,0:0:0:0:
377,153,111244,1,8,0:0:0:0:
399,133,111311,1,8,0:0:0:0:
427,124,111378,2,0,P|456:90|465:52,2,79.9999975585938,8|4|4,0:0|0:0|0:0,0:0:0:0:
181,31,111914,86,0,B|225:92|180:170|180:170|131:253|204:335,1,300.000011444092,6|2,0:0|0:0,0:0:0:0:
246,234,112718,1,4,0:0:0:0:
334,153,112986,102,0,P|401:129|478:156,1,150.000005722046,10|0,0:0|0:0,0:0:0:0:
432,357,113521,2,0,P|396:295|409:214,1,150.000005722046,2|0,0:0|0:0,0:0:0:0:
389,70,114057,5,2,0:0:0:0:
334,153,114325,2,0,P|261:135|182:153,1,150.000005722046,4|2,0:0|0:0,0:0:0:0:
107,204,114861,1,4,0:0:0:0:
107,204,114994,1,4,0:0:0:0:
254,377,115128,6,0,P|272:304|254:225,1,150.000005722046,10|0,0:0|0:0,0:0:0:0:
187,131,115664,2,0,P|187:30|266:115,1,255.000004863739,6|0,0:0|0:0,0:0:0:0:
129,216,116200,102,0,L|72:207,3,42.5000008106232,4|4|12|4,0:0|0:0|0:0|0:0,0:0:0:0:
303,171,116468,2,0,L|360:180,3,42.5000008106232,14|4|12|4,0:0|0:0|0:0|0:0,0:0:0:0:
212,305,116736,2,0,L|155:296,3,42.5000008106232,14|4|12|4,0:0|0:0|0:0|0:0,0:0:0:0:
368,274,117003,2,0,L|425:283,3,42.5000008106232,14|4|12|4,0:0|0:0|0:0|0:0,0:0:0:0:
273,43,117271,22,0,P|241:24|189:7,1,50,14|4,0:0|0:0,0:0:0:0:
338,101,117405,2,0,P|369:82|421:65,1,50,12|4,0:0|0:0,0:0:0:0:
236,140,117539,2,0,P|217:108|181:67,1,50,14|4,0:0|0:0,0:0:0:0:
283,215,117673,2,0,P|301:183|337:142,1,50,12|4,0:0|0:0,0:0:0:0:
50,154,117807,86,0,P|72:164|94:177,1,50,14|4,0:0|0:0,0:0:0:0:
202,213,117941,2,0,P|179:223|157:236,1,50,12|4,0:0|0:0,0:0:0:0:
29,233,118075,2,0,P|43:253|55:275,1,50,14|4,0:0|0:0,0:0:0:0:
129,308,118209,2,0,P|114:328|102:350,1,50,12|4,0:0|0:0,0:0:0:0:
313,105,118343,101,12,0:0:0:0:
350,81,118409,1,4,0:0:0:0:
394,73,118476,1,4,0:0:0:0:
438,81,118543,1,4,0:0:0:0:
476,105,118611,2,0,P|490:122|502:148,1,50,4|4,0:0|0:0,0:0:0:0:
283,215,118744,5,4,0:0:0:0:
245,191,118810,1,4,0:0:0:0:
219,155,118877,1,4,0:0:0:0:
208,111,118944,1,4,0:0:0:0:
214,67,119012,2,0,P|223:46|245:22,1,50,4|4,0:0|0:0,0:0:0:0:
391,200,119146,5,4,0:0:0:0:
379,243,119212,1,4,0:0:0:0:
353,279,119279,1,4,0:0:0:0:
315,303,119346,1,4,0:0:0:0:
271,311,119414,102,0,P|220:303|177:270,1,100,8|8,0:0|0:0,0:0:0:0:
124,31,119682,2,0,P|175:39|218:72,1,100,6|0,0:0|0:0,0:0:0:0:
128,173,119950,21,12,0:0:0:0:
90,211,120017,1,8,0:0:0:0:
76,263,120084,1,8,0:0:0:0:
90,315,120151,1,8,0:0:0:0:
129,353,120218,1,12,0:0:0:0:
182,366,120285,1,8,0:0:0:0:
234,350,120352,1,8,0:0:0:0:
271,311,120419,1,8,0:0:0:0:
282,257,120486,86,0,P|340:186|417:333,1,300.000011444092,6|2,0:0|0:0,0:0:0:0:
366,266,121289,1,4,0:0:0:0:
243,56,121557,102,0,B|323:37|323:37|482:68,2,225.000008583069,10|0|0,0:0|0:0|0:0,0:0:0:0:
75,88,122628,5,2,0:0:0:0:
154,177,122896,2,0,L|312:141,1,150.000005722046,4|2,0:0|0:0,0:0:0:0:
394,120,123432,1,4,0:0:0:0:
394,120,123566,1,4,0:0:0:0:
386,283,123700,6,0,P|273:279|214:388,1,225.000008583069,10|0,0:0|0:0,0:0:0:0:
46,141,124236,2,0,P|138:205|104:335,1,255.000004863739,6|0,0:0|0:0,0:0:0:0:
37,254,124771,101,4,0:0:0:0:
66,234,124838,1,4,0:0:0:0:
98,222,124905,1,12,0:0:0:0:
133,218,124972,1,4,0:0:0:0:
168,223,125039,1,14,0:0:0:0:
201,235,125106,1,4,0:0:0:0:
230,254,125173,1,12,0:0:0:0:
261,270,125240,1,4,0:0:0:0:
295,276,125307,1,14,0:0:0:0:
330,270,125374,1,4,0:0:0:0:
361,255,125441,1,12,0:0:0:0:
386,231,125508,1,4,0:0:0:0:
403,201,125575,1,14,0:0:0:0:
410,167,125642,1,4,0:0:0:0:
406,132,125709,1,12,0:0:0:0:
392,100,125776,1,4,0:0:0:0:
369,74,125843,21,14,0:0:0:0:
335,110,125910,1,4,0:0:0:0:
288,124,125977,1,12,0:0:0:0:
240,113,126044,1,4,0:0:0:0:
193,96,126111,1,14,0:0:0:0:
143,99,126177,1,4,0:0:0:0:
98,121,126244,1,12,0:0:0:0:
66,158,126311,1,4,0:0:0:0:
50,205,126378,1,14,0:0:0:0:
54,255,126445,1,4,0:0:0:0:
77,299,126512,1,12,0:0:0:0:
115,331,126579,1,4,0:0:0:0:
162,346,126646,1,14,0:0:0:0:
212,345,126713,1,4,0:0:0:0:
256,322,126780,1,12,0:0:0:0:
286,283,126847,1,4,0:0:0:0:
295,234,126914,86,0,L|225:212,3,50,14|4|6|4,0:0|0:0|0:0|0:0,0:0:0:0:
460,144,127182,2,0,L|530:121,3,50,4|4|4|4,0:0|0:0|0:0|0:0,0:0:0:0:
357,61,127450,101,10,0:0:0:0:
357,74,127517,1,0,0:0:0:0:
358,89,127584,1,8,0:0:0:0:
359,104,127651,1,8,0:0:0:0:
361,119,127718,1,8,0:0:0:0:
362,134,127785,1,8,0:0:0:0:
364,149,127852,1,4,0:0:0:0:
365,164,127919,1,4,0:0:0:0:
365,179,127986,5,4,0:0:0:0:
347,143,128052,1,4,0:0:0:0:
317,116,128119,1,8,0:0:0:0:
280,102,128186,1,8,0:0:0:0:
240,103,128253,1,0,0:0:0:0:
203,117,128320,1,0,0:0:0:0:
174,145,128387,1,4,0:0:0:0:
157,181,128454,1,4,0:0:0:0:
154,220,128521,5,8,0:0:0:0:
217,224,128587,1,8,0:0:0:0:
270,188,128654,1,8,0:0:0:0:
288,127,128721,1,8,0:0:0:0:
265,68,128788,1,4,0:0:0:0:
210,36,128855,1,4,0:0:0:0:
147,45,128922,1,4,0:0:0:0:
103,92,128989,1,4,0:0:0:0:
101,157,129057,70,0,L|234:198,1,129.999994049073,4|10,0:0|0:0,0:0:0:0:
391,0,129325,1,6,0:0:0:0:
96,56,129459,2,0,P|32:87|4:139,1,129.999994049073,8|6,0:0|0:0,0:0:0:0:
184,373,129727,1,8,0:0:0:0:
299,101,129861,1,6,0:0:0:0:
512,327,129994,102,0,B|423:304|423:304|219:336,1,259.999988098145,8|8,0:0|0:0,0:0:0:0:
120,154,130396,1,6,0:0:0:0:
27,376,130530,1,8,0:0:0:0:
16,86,130664,1,6,0:0:0:0:
129,287,130798,1,8,0:0:0:0:
201,55,130932,1,6,0:0:0:0:
415,303,131066,6,0,L|445:23,1,259.999988098145,8|8,0:0|0:0,0:0:0:0:
250,229,131468,1,6,0:0:0:0:
174,18,131602,1,8,0:0:0:0:
129,287,131736,1,6,0:0:0:0:
367,107,131869,2,0,P|299:108|221:117,1,129.999994049073,8|6,0:0|0:0,0:0:0:0:
0,355,132137,70,0,B|89:332|89:332|293:364,1,259.999988098145,8|8,0:0|0:0,0:0:0:0:
444,84,132539,37,6,0:0:0:0:
493,315,132673,1,8,0:0:0:0:
453,54,132807,85,6,0:0:0:0:
274,232,132941,1,8,0:0:0:0:
463,25,133075,21,6,0:0:0:0:
512,290,133209,1,8,0:0:0:0:
335,90,133343,101,6,0:0:0:0:
281,330,133477,1,8,0:0:0:0:
130,126,133611,2,0,P|190:142|263:151,1,129.999994049073,6|8,0:0|0:0,0:0:0:0:
37,375,133878,1,6,0:0:0:0:
29,107,134012,2,0,P|81:44|152:34,1,129.999994049073,8|6,0:0|0:0,0:0:0:0:
436,109,134280,6,0,L|417:372,1,259.999988098145,8|8,0:0|0:0,0:0:0:0:
186,104,134682,1,6,0:0:0:0:
258,374,134816,1,8,0:0:0:0:
328,82,134950,1,6,0:0:0:0:
202,268,135084,1,8,0:0:0:0:
94,39,135218,1,6,0:0:0:0:
272,174,135352,1,8,0:0:0:0:
484,23,135486,70,0,L|499:170,1,110.000003356934,10|4,0:0|0:0,0:0:0:0:
181,79,135753,2,0,L|196:226,1,110.000003356934,10|4,0:0|0:0,0:0:0:0:
202,268,135954,1,4,0:0:0:0:
202,268,136021,1,10,0:0:0:0:
388,154,136155,1,4,0:0:0:0:
388,154,136222,1,4,0:0:0:0:
388,154,136289,1,4,0:0:0:0:
414,183,136355,1,4,0:0:0:0:
426,220,136422,1,12,0:0:0:0:
421,260,136489,1,4,0:0:0:0:
400,293,136556,37,4,0:0:0:0:
364,259,136623,1,4,0:0:0:0:
316,247,136690,1,4,0:0:0:0:
268,260,136757,1,4,0:0:0:0:
234,295,136825,1,12,0:0:0:0:
198,329,136891,1,4,0:0:0:0:
150,341,136958,1,4,0:0:0:0:
102,327,137025,1,4,0:0:0:0:
67,292,137093,86,0,P|73:235|39:163,1,100,10|4,0:0|0:0,0:0:0:0:
158,25,137361,2,0,P|152:82|186:154,1,100,10|4,0:0|0:0,0:0:0:0:
241,356,137628,22,0,P|250:287|272:193,1,129.999994049073,6|8,0:0|0:0,0:0:0:0:
372,59,137896,1,6,0:0:0:0:
511,233,138030,1,8,0:0:0:0:
498,57,138164,1,6,0:0:0:0:
387,311,138298,1,8,0:0:0:0:
248,68,138432,1,6,0:0:0:0:
3,245,138566,102,0,L|284:226,1,259.999988098145,8|8,0:0|0:0,0:0:0:0:
471,375,138968,1,6,0:0:0:0:
412,147,139102,1,8,0:0:0:0:
286,370,139236,1,6,0:0:0:0:
195,138,139369,1,8,0:0:0:0:
94,354,139503,1,6,0:0:0:0:
501,88,139637,6,0,B|415:55|415:55|215:70,1,259.999988098145,8|8,0:0|0:0,0:0:0:0:
63,280,140039,1,6,0:0:0:0:
166,49,140173,1,8,0:0:0:0:
316,321,140307,2,0,L|334:142,1,129.999994049073,6|8,0:0|0:0,0:0:0:0:
348,0,140575,1,6,0:0:0:0:
0,138,140709,70,0,L|296:125,1,259.999988098145,8|8,0:0|0:0,0:0:0:0:
415,339,141111,37,6,0:0:0:0:
512,111,141244,1,8,0:0:0:0:
412,358,141378,85,6,0:0:0:0:
318,84,141512,1,8,0:0:0:0:
409,378,141646,21,6,0:0:0:0:
512,82,141780,1,8,0:0:0:0:
321,248,141914,101,6,0:0:0:0:
187,0,142048,1,8,0:0:0:0:
108,260,142182,2,0,L|161:87,1,129.999994049073,4|10,0:0|0:0,0:0:0:0:
318,84,142450,1,4,0:0:0:0:
195,305,142584,2,0,P|137:348|53:342,1,129.999994049073,10|4,0:0|0:0,0:0:0:0:
37,75,142852,1,10,0:0:0:0:
262,157,142986,5,4,0:0:0:0:
299,171,143052,1,4,0:0:0:0:
338,170,143119,1,8,0:0:0:0:
375,156,143186,1,8,0:0:0:0:
412,141,143253,1,8,0:0:0:0:
451,142,143320,1,8,0:0:0:0:
488,156,143387,2,0,L|508:213,1,40,8|8,0:0|0:0,0:0:0:0:
283,271,143521,69,4,0:0:0:0:
218,257,143611,37,4,0:0:0:0:
174,208,143700,85,8,0:0:0:0:
167,143,143789,21,8,0:0:0:0:
200,86,143878,101,8,0:0:0:0:
260,59,143968,5,8,0:0:0:0:
324,72,144057,6,0,L|344:204,1,100,6|10,0:0|0:0,0:0:0:0:
375,366,144325,1,4,0:0:0:0:
375,366,144392,1,4,0:0:0:0:
375,366,144459,1,10,0:0:0:0:
489,163,144593,1,4,0:0:0:0:
258,251,144727,1,10,0:0:0:0:
130,66,144861,1,4,0:0:0:0:
130,66,144927,1,4,0:0:0:0:
130,66,144994,6,0,B|207:44|207:44|343:76,1,200,10|10,0:0|0:0,0:0:0:0:
463,257,145396,2,0,L|345:233,1,100,4|10,0:0|0:0,0:0:0:0:
178,202,145664,1,4,0:0:0:0:
253,379,145798,1,10,0:0:0:0:
76,331,145932,1,4,0:0:0:0:
76,331,145999,1,4,0:0:0:0:
76,331,146066,1,10,0:0:0:0:
132,121,146200,6,0,P|182:118|231:129,1,100,4|10,0:0|0:0,0:0:0:0:
307,308,146468,1,4,0:0:0:0:
307,308,146535,1,4,0:0:0:0:
307,308,146602,1,10,0:0:0:0:
383,105,146736,1,4,0:0:0:0:
178,202,146869,1,10,0:0:0:0:
300,19,147003,1,4,0:0:0:0:
300,19,147070,1,4,0:0:0:0:
300,19,147137,102,0,L|306:230,1,200,10|10,0:0|0:0,0:0:0:0:
73,290,147539,2,0,L|68:147,1,100,4|10,0:0|0:0,0:0:0:0:
62,18,147807,1,4,0:0:0:0:
199,202,147941,1,10,0:0:0:0:
361,80,148075,1,4,0:0:0:0:
361,80,148142,1,4,0:0:0:0:
361,80,148209,22,0,P|391:142|535:160,1,200,10|10,0:0|0:0,0:0:0:0:
434,360,148611,1,4,0:0:0:0:
434,360,148677,1,4,0:0:0:0:
434,360,148744,1,10,0:0:0:0:
332,197,148878,1,4,0:0:0:0:
247,383,149012,1,10,0:0:0:0:
133,224,149146,1,4,0:0:0:0:
133,224,149213,1,4,0:0:0:0:
133,224,149280,86,0,L|337:196,1,200,10|10,0:0|0:0,0:0:0:0:
466,54,149682,2,0,L|452:195,1,100,4|10,0:0|0:0,0:0:0:0:
201,15,149950,2,0,L|215:156,1,100,4|10,0:0|0:0,0:0:0:0:
232,302,150218,1,4,0:0:0:0:
232,302,150285,1,4,0:0:0:0:
232,302,150352,1,10,0:0:0:0:
329,144,150486,101,4,0:0:0:0:
396,340,150619,1,10,0:0:0:0:
329,144,150753,1,4,0:0:0:0:
146,325,150887,2,0,P|152:273|198:215,1,100,10|4,0:0|0:0,0:0:0:0:
247,186,151088,1,4,0:0:0:0:
247,186,151155,1,8,0:0:0:0:
307,384,151289,1,4,0:0:0:0:
307,384,151356,1,4,0:0:0:0:
307,384,151423,1,8,0:0:0:0:
502,144,151557,5,12,0:0:0:0:
475,167,151624,1,8,0:0:0:0:
443,179,151691,1,8,0:0:0:0:
408,179,151758,1,8,0:0:0:0:
376,167,151825,1,12,0:0:0:0:
343,154,151892,1,8,0:0:0:0:
308,153,151959,1,8,0:0:0:0:
275,163,152026,1,8,0:0:0:0:
246,183,152093,6,0,L|258:265,2,46.6666652425131,4|0|8,0:0|0:0|0:0,0:0:0:0:
146,275,152361,2,0,L|133:356,2,46.6666652425131,8|8|4,0:0|0:0|0:0,0:0:0:0:
19,120,152628,102,0,P|75:128|150:102,1,100,6|10,0:0|0:0,0:0:0:0:
269,3,152896,1,4,0:0:0:0:
269,3,152963,1,4,0:0:0:0:
269,3,153030,1,10,0:0:0:0:
294,200,153164,1,4,0:0:0:0:
194,66,153298,1,10,0:0:0:0:
112,214,153432,1,4,0:0:0:0:
112,214,153499,1,4,0:0:0:0:
112,214,153566,22,0,P|75:271|135:391,1,200,10|10,0:0|0:0,0:0:0:0:
328,221,153968,1,4,0:0:0:0:
157,290,154102,1,10,0:0:0:0:
334,377,154236,1,4,0:0:0:0:
219,194,154369,1,10,0:0:0:0:
430,192,154503,1,4,0:0:0:0:
430,192,154570,1,4,0:0:0:0:
430,192,154637,1,10,0:0:0:0:
243,11,154771,86,0,L|248:126,1,100,4|10,0:0|0:0,0:0:0:0:
265,311,155039,1,4,0:0:0:0:
265,311,155106,1,4,0:0:0:0:
265,311,155173,1,10,0:0:0:0:
170,164,155307,1,4,0:0:0:0:
68,311,155441,1,10,0:0:0:0:
17,103,155575,1,4,0:0:0:0:
17,103,155642,1,4,0:0:0:0:
17,103,155709,102,0,B|139:79|139:79|245:105,1,200,10|10,0:0|0:0,0:0:0:0:
164,323,156111,1,4,0:0:0:0:
164,323,156177,1,0,0:0:0:0:
164,323,156244,1,10,0:0:0:0:
313,141,156378,1,4,0:0:0:0:
312,364,156512,1,10,0:0:0:0:
215,78,156646,1,4,0:0:0:0:
215,78,156713,1,4,0:0:0:0:
215,78,156780,6,0,L|0:104,1,200,10|10,0:0|0:0,0:0:0:0:
56,313,157182,2,0,L|175:294,1,100,4|10,0:0|0:0,0:0:0:0:
220,384,157450,1,4,0:0:0:0:
319,176,157584,1,10,0:0:0:0:
435,349,157718,1,4,0:0:0:0:
435,349,157785,1,4,0:0:0:0:
435,349,157852,6,0,B|414:285|414:285|435:114,1,200,10|10,0:0|0:0,0:0:0:0:
233,260,158253,2,0,L|110:246,1,100,4|10,0:0|0:0,0:0:0:0:
3,338,158521,1,4,0:0:0:0:
126,144,158655,1,10,0:0:0:0:
204,349,158789,1,4,0:0:0:0:
204,349,158856,1,4,0:0:0:0:
204,349,158923,1,10,0:0:0:0:
441,63,159057,101,8,0:0:0:0:
427,100,159123,1,8,0:0:0:0:
430,139,159190,1,8,0:0:0:0:
448,175,159257,1,8,0:0:0:0:
479,199,159324,21,0,0:0:0:0:
456,203,159392,1,4,0:0:0:0:
435,215,159459,1,8,0:0:0:0:
421,236,159526,1,8,0:0:0:0:
417,260,159593,1,8,0:0:0:0:
424,284,159660,1,8,0:0:0:0:
440,303,159727,1,4,0:0:0:0:
463,313,159794,1,4,0:0:0:0:
488,312,159861,85,8,0:0:0:0:
457,287,159927,1,8,0:0:0:0:
419,276,159994,1,8,0:0:0:0:
380,282,160061,1,8,0:0:0:0:
347,304,160128,1,6,0:0:0:0:
316,329,160195,1,8,0:0:0:0:
278,340,160262,1,8,0:0:0:0:
239,334,160329,1,8,0:0:0:0:
206,312,160396,2,0,L|140:278,1,40,8|8,0:0|0:0,0:0:0:0:
100,152,160530,1,6,0:0:0:0:
100,152,160597,1,8,0:0:0:0:
100,152,160664,101,8,0:0:0:0:
141,175,160731,1,8,0:0:0:0:
185,200,160798,1,8,0:0:0:0:
228,224,160865,1,8,0:0:0:0:
273,250,160932,2,0,B|264:194|264:194|279:128,1,100,6|0,0:0|0:0,0:0:0:0:
424,43,161200,6,0,L|427:161,1,100,6|8,0:0|0:0,0:0:0:0:
301,67,161468,1,4,0:0:0:0:
382,238,161602,1,10,0:0:0:0:
248,148,161736,1,4,0:0:0:0:
162,323,161869,1,10,0:0:0:0:
345,154,162003,1,4,0:0:0:0:
428,325,162137,1,10,0:0:0:0:
204,239,162271,5,4,0:0:0:0:
204,239,162338,1,4,0:0:0:0:
204,239,162405,1,10,0:0:0:0:
41,365,162539,1,4,0:0:0:0:
36,145,162673,1,10,0:0:0:0:
119,303,162807,1,4,0:0:0:0:
191,90,162941,1,10,0:0:0:0:
115,194,163075,1,4,0:0:0:0:
78,21,163209,1,10,0:0:0:0:
204,189,163343,102,0,L|187:68,1,100,4|10,0:0|0:0,0:0:0:0:
382,264,163611,2,0,L|399:143,1,100,4|10,0:0|0:0,0:0:0:0:
230,338,163878,1,4,0:0:0:0:
303,146,164012,1,10,0:0:0:0:
364,383,164146,1,4,0:0:0:0:
273,241,164280,1,10,0:0:0:0:
126,380,164414,21,4,0:0:0:0:
126,380,164481,1,4,0:0:0:0:
126,380,164548,1,10,0:0:0:0:
28,163,164682,1,4,0:0:0:0:
180,260,164816,1,10,0:0:0:0:
207,67,164950,2,0,L|193:175,1,100,4|10,0:0|0:0,0:0:0:0:
57,37,165218,1,4,0:0:0:0:
99,213,165352,1,10,0:0:0:0:
314,70,165486,86,0,L|427:56,1,100,4|10,0:0|0:0,0:0:0:0:
456,305,165753,1,4,0:0:0:0:
388,142,165887,1,10,0:0:0:0:
276,323,166021,1,4,0:0:0:0:
418,223,166155,1,10,0:0:0:0:
501,384,166289,1,4,0:0:0:0:
327,207,166423,1,10,0:0:0:0:
183,330,166557,102,0,L|112:336,2,50,4|4|10,0:0|0:0|0:0,0:0:0:0:
304,119,166825,1,4,0:0:0:0:
367,315,166959,1,10,0:0:0:0:
112,158,167093,5,6,0:0:0:0:
358,200,167227,1,8,0:0:0:0:
46,324,167361,5,6,0:0:0:0:
327,207,167494,1,8,0:0:0:0:
151,49,167628,102,0,P|116:104|128:206,1,119.999996337891,10|4,0:0|0:0,0:0:0:0:
331,333,167896,1,10,0:0:0:0:
304,119,168030,1,4,0:0:0:0:
455,358,168164,22,0,P|492:299|470:198,1,119.999996337891,10|4,0:0|0:0,0:0:0:0:
380,35,168432,1,10,0:0:0:0:
408,276,168566,1,4,0:0:0:0:
408,276,168633,1,4,0:0:0:0:
408,276,168700,85,8,0:0:0:0:
374,253,168767,1,8,0:0:0:0:
336,245,168834,1,4,0:0:0:0:
296,250,168901,1,4,0:0:0:0:
262,269,168968,102,0,P|216:285|132:259,1,100,10|4,0:0|0:0,0:0:0:0:
103,23,169236,1,10,0:0:0:0:
202,195,169369,1,4,0:0:0:0:
279,24,169503,1,8,0:0:0:0:
263,60,169570,1,8,0:0:0:0:
248,97,169637,1,4,0:0:0:0:
483,204,169771,6,0,L|373:189,1,100,6|8,0:0|0:0,0:0:0:0:
339,352,170039,1,4,0:0:0:0:
293,174,170173,1,10,0:0:0:0:
197,384,170307,1,4,0:0:0:0:
312,262,170441,1,10,0:0:0:0:
422,384,170575,1,4,0:0:0:0:
231,239,170709,1,10,0:0:0:0:
68,372,170843,5,4,0:0:0:0:
68,372,170910,1,4,0:0:0:0:
68,372,170977,1,10,0:0:0:0:
0,160,171111,1,4,0:0:0:0:
137,301,171244,1,10,0:0:0:0:
172,87,171378,1,4,0:0:0:0:
69,227,171512,1,10,0:0:0:0:
77,10,171646,2,0,L|77:110,1,100,4|10,0:0|0:0,0:0:0:0:
419,75,171914,102,0,L|411:181,1,100,4|10,0:0|0:0,0:0:0:0:
172,87,172182,2,0,L|180:193,1,100,4|10,0:0|0:0,0:0:0:0:
352,294,172450,1,4,0:0:0:0:
290,115,172584,1,10,0:0:0:0:
203,352,172718,1,4,0:0:0:0:
323,203,172852,1,10,0:0:0:0:
395,377,172986,21,4,0:0:0:0:
395,377,173052,1,4,0:0:0:0:
395,377,173119,1,10,0:0:0:0:
512,189,173253,1,4,0:0:0:0:
352,294,173387,1,10,0:0:0:0:
419,87,173521,2,0,L|413:190,1,100,4|10,0:0|0:0,0:0:0:0:
245,89,173789,1,4,0:0:0:0:
249,269,173923,1,10,0:0:0:0:
56,122,174057,86,0,L|173:130,1,100,4|10,0:0|0:0,0:0:0:0:
168,325,174325,1,4,0:0:0:0:
246,179,174459,1,10,0:0:0:0:
319,384,174593,1,4,0:0:0:0:
249,269,174727,1,10,0:0:0:0:
82,363,174861,2,0,L|70:247,1,100,4|10,0:0|0:0,0:0:0:0:
295,104,175128,102,0,L|363:110,2,50,4|4|10,0:0|0:0|0:0,0:0:0:0:
159,227,175396,1,4,0:0:0:0:
115,55,175530,1,10,0:0:0:0:
379,218,175664,5,4,0:0:0:0:
66,226,175798,1,10,0:0:0:0:
393,384,175932,5,6,0:0:0:0:
159,227,176066,1,8,0:0:0:0:
460,9,176200,102,0,L|408:139,1,119.999996337891,10|4,0:0|0:0,0:0:0:0:
314,323,176468,1,10,0:0:0:0:
221,75,176602,1,4,0:0:0:0:
21,337,176736,22,0,L|73:207,1,119.999996337891,10|4,0:0|0:0,0:0:0:0:
164,0,177003,1,10,0:0:0:0:
349,181,177137,1,4,0:0:0:0:
54,130,177271,85,12,0:0:0:0:
48,179,177338,1,8,0:0:0:0:
65,225,177405,1,8,0:0:0:0:
103,257,177472,1,8,0:0:0:0:
151,268,177539,1,4,0:0:0:0:
199,256,177606,1,8,0:0:0:0:
246,240,177673,1,8,0:0:0:0:
296,241,177740,1,8,0:0:0:0:
342,260,177807,101,4,0:0:0:0:
341,275,177874,1,4,0:0:0:0:
340,289,177941,1,4,0:0:0:0:
339,304,178008,1,4,0:0:0:0:
338,319,178075,2,0,L|335:363,3,34.9999989318848,6|4|6|4,0:0|0:0|0:0|0:0,0:0:0:0:
435,220,178343,5,0,0:0:0:0:
437,207,178611,1,2,0:0:0:0:
438,195,178878,1,2,0:0:0:0:
439,182,179146,1,2,0:0:0:0:
440,169,179414,6,0,L|447:102,1,50,8|0,0:0|0:0,0:0:0:0:
266,14,179548,1,8,0:0:0:0:
268,49,179615,1,8,0:0:0:0:
272,85,179682,2,0,L|274:136,1,34.9999989318848,8|0,0:0|0:0,0:0:0:0:
107,61,179816,1,8,0:0:0:0:
109,96,179883,1,8,0:0:0:0:
113,132,179950,102,0,L|115:183,1,34.9999989318848,8|0,0:0|0:0,0:0:0:0:
27,229,180084,1,8,0:0:0:0:
51,254,180150,1,8,0:0:0:0:
81,270,180217,1,4,0:0:0:0:
116,275,180284,1,4,0:0:0:0:
150,269,180352,2,0,L|208:239,1,50,8|8,0:0|0:0,0:0:0:0:
397,139,180486,22,0,L|282:147,1,100,10|4,0:0|0:0,0:0:0:0:
430,314,180753,1,10,0:0:0:0:
489,93,180887,2,0,P|445:58|379:51,1,100,4|10,0:0|0:0,0:0:0:0:
186,126,181155,1,4,0:0:0:0:
320,255,181289,1,10,0:0:0:0:
278,76,181423,86,0,L|64:89,1,200,4|4,0:0|0:0,0:0:0:0:
220,267,181825,2,0,L|349:251,1,100,10|4,0:0|0:0,0:0:0:0:
186,126,182093,1,10,0:0:0:0:
140,319,182227,2,0,P|178:354|249:360,1,100,4|10,0:0|0:0,0:0:0:0:
483,148,182494,102,0,B|424:133|424:133|281:164,1,200,4|4,0:0|0:0,0:0:0:0:
434,333,182896,2,0,L|422:218,1,100,10|4,0:0|0:0,0:0:0:0:
408,41,183164,1,10,0:0:0:0:
184,89,183298,2,0,P|184:139|217:206,1,100,4|10,0:0|0:0,0:0:0:0:
336,299,183566,1,4,0:0:0:0:
285,109,183700,5,10,0:0:0:0:
95,296,183834,1,4,0:0:0:0:
302,126,183968,5,10,0:0:0:0:
110,212,184102,1,4,0:0:0:0:
317,141,184236,101,10,0:0:0:0:
124,133,184369,1,4,0:0:0:0:
332,160,184503,21,10,0:0:0:0:
139,54,184637,1,4,0:0:0:0:
213,278,184771,86,0,P|258:254|331:252,1,100,10|4,0:0|0:0,0:0:0:0:
396,353,185039,1,10,0:0:0:0:
143,356,185173,2,0,P|119:311|117:238,1,100,4|10,0:0|0:0,0:0:0:0:
139,54,185441,1,4,0:0:0:0:
235,167,185575,1,10,0:0:0:0:
35,174,185709,102,0,L|259:166,1,200,4|4,0:0|0:0,0:0:0:0:
431,257,186111,2,0,L|315:262,1,100,10|4,0:0|0:0,0:0:0:0:
185,267,186378,1,10,0:0:0:0:
324,119,186512,1,4,0:0:0:0:
322,357,186646,1,10,0:0:0:0:
456,65,186780,6,0,B|442:16|442:16|406:92|445:181,1,200,6|0,0:0|0:0,0:0:0:0:
434,353,187182,2,0,P|439:281|414:231,1,100,10|0,0:0|0:0,0:0:0:0:
253,298,187450,2,0,L|363:306,2,100,6|4|10,0:0|0:0|0:0,0:0:0:0:
52,251,187852,6,0,P|95:297|104:361,1,100,4|2,0:0|0:0,0:0:0:0:
229,142,188119,2,0,P|186:188|177:252,1,100,4|10,0:0|0:0,0:0:0:0:
76,105,188387,1,4,0:0:0:0:
76,105,188454,1,4,0:0:0:0:
76,105,188521,101,8,0:0:0:0:
346,56,188655,1,8,0:0:0:0:
253,298,188789,1,8,0:0:0:0:
167,56,188923,1,4,0:0:0:0:
466,101,189057,22,0,L|457:212,1,100,6|0,0:0|0:0,0:0:0:0:
355,383,189325,2,0,B|374:324|374:324|363:175,1,200,10|0,0:0|0:0,0:0:0:0:
343,38,189727,1,4,0:0:0:0:
215,164,189861,1,10,0:0:0:0:
102,15,189994,86,0,L|76:238,1,200
238,362,190396,2,0,L|212:139,1,200,10|0,0:0|0:0,0:0:0:0:
28,315,190798,2,0,L|153:299,1,100,4|10,0:0|0:0,0:0:0:0:
365,224,191066,102,0,P|371:158|490:85,1,200
400,323,191468,2,0,P|334:317|261:198,1,200,10|0,0:0|0:0,0:0:0:0:
383,54,191869,1,4,0:0:0:0:
365,224,192003,1,10,0:0:0:0:
321,132,192137,1,0,0:0:0:0:
95,218,192271,5,4,0:0:0:0:
300,351,192405,1,0,0:0:0:0:
121,219,192539,5,10,0:0:0:0:
338,224,192673,1,4,0:0:0:0:
147,220,192807,101,0,0:0:0:0:
276,335,192941,1,4,0:0:0:0:
173,221,193075,21,10,0:0:0:0:
310,222,193209,1,0,0:0:0:0:
128,68,193343,86,0,L|51:69,1,53.3333333333333,10|0,0:0|0:0,0:0:0:0:
196,138,193521,101,4,0:0:0:0:
238,138,193610,5,4,0:0:0:0:
281,139,193699,5,4,0:0:0:0:
323,140,193788,101,4,0:0:0:0:
366,141,193878,22,0,L|503:142,2,106.666666666667,10|4|4,0:0|0:0|0:0,0:0:0:0:
383,304,194414,85,8,0:0:0:0:
348,284,194481,1,0,0:0:0:0:
309,277,194548,1,0,0:0:0:0:
269,282,194615,1,8,0:0:0:0:
233,299,194682,1,4,0:0:0:0:
198,318,194749,1,4,0:0:0:0:
159,325,194816,1,8,0:0:0:0:
119,320,194883,1,8,0:0:0:0:
83,303,194950,2,0,P|53:245|54:183,2,106.666666666667,8|4|4,0:0|0:0|0:0,0:0:0:0:
305,355,195486,102,0,P|368:366|352:199,1,300.000011444092,6|2,0:0|0:0,0:0:0:0:
272,208,196289,1,4,0:0:0:0:
204,6,196557,6,0,B|248:67|203:145|203:145|154:228|227:310,1,300.000011444092,10|2,0:0|0:0,0:0:0:0:
270,353,197361,1,0,0:0:0:0:
375,198,197628,5,2,0:0:0:0:
248,139,197896,2,0,L|92:154,1,150.000005722046,4|2,0:0|0:0,0:0:0:0:
7,164,198432,1,4,0:0:0:0:
7,164,198566,1,4,0:0:0:0:
50,345,198700,102,0,P|154:294|243:353,1,225.000008583069,10|0,0:0|0:0,0:0:0:0:
493,264,199236,2,0,P|389:315|300:256,1,225.000008583069,6|0,0:0|0:0,0:0:0:0:
356,83,199771,22,0,B|404:74|439:32|439:32|396:84|373:155|400:219,1,300.000011444092,6|2,0:0|0:0,0:0:0:0:
448,313,200575,1,4,0:0:0:0:
285,292,200843,86,0,B|329:231|284:153|284:153|235:70|308:-12,1,300.000011444092,10|2,0:0|0:0,0:0:0:0:
290,10,201914,102,0,L|404:19,2,100.000003814697,10|4|4,0:0|0:0|0:0,0:0:0:0:
234,87,202450,2,0,L|103:100,1,129.999994049073,10|4,0:0|0:0,0:0:0:0:
26,111,202807,1,4,0:0:0:0:
26,111,202896,1,4,0:0:0:0:
26,111,202986,6,0,L|34:261,1,129.999994049073,10|8,0:0|0:0,0:0:0:0:
108,263,203343,1,8,0:0:0:0:
118,265,203432,1,8,0:0:0:0:
129,267,203521,2,0,P|173:220|259:226,1,146.666671142578,6|4,0:0|0:0,0:0:0:0:
366,210,204057,6,0,P|340:340|217:295,1,300.000011444092,6|2,0:0|0:0,0:0:0:0:
188,207,204861,1,4,0:0:0:0:
310,129,205128,102,0,P|281:170|302:277,1,150.000005722046,10|0,0:0|0:0,0:0:0:0:
392,79,205530,2,0,P|351:50|244:71,1,150.000005722046,0|0,0:0|0:0,0:0:0:0:
181,108,205932,1,0,0:0:0:0:
91,6,206200,21,2,0:0:0:0:
32,128,206468,2,0,B|205:104,1,150.000005722046,4|2,0:0|0:0,0:0:0:0:
276,91,207003,1,4,0:0:0:0:
276,91,207137,1,4,0:0:0:0:
492,178,207271,86,0,P|388:229|299:170,1,225.000008583069,10|0,0:0|0:0,0:0:0:0:
49,259,207807,2,0,P|153:208|242:267,1,225.000008583069,6|0,0:0|0:0,0:0:0:0:
402,348,208343,102,0,L|391:36,1,300.000011444092,6|0,0:0|0:0,0:0:0:0:
302,83,209146,1,4,0:0:0:0:
139,180,209414,6,0,L|305:166,1,150.000005722046,10|0,0:0|0:0,0:0:0:0:
441,280,209816,2,0,L|275:266,1,150.000005722046,0|0,0:0|0:0,0:0:0:0:
190,265,210218,1,0,0:0:0:0:
3,152,210486,5,6,0:0:0:0:
17,152,210552,1,4,0:0:0:0:
32,151,210619,1,4,0:0:0:0:
47,148,210686,1,4,0:0:0:0:
61,143,210753,1,4,0:0:0:0:
74,136,210820,1,4,0:0:0:0:
87,127,210887,1,4,0:0:0:0:
97,117,210954,1,4,0:0:0:0:
107,105,211021,101,10,0:0:0:0:
135,77,211088,1,0,0:0:0:0:
173,64,211155,1,8,0:0:0:0:
212,69,211222,1,8,0:0:0:0:
245,91,211289,1,8,0:0:0:0:
266,125,211356,1,8,0:0:0:0:
269,165,211423,2,0,L|259:224,1,40,4|4,0:0|0:0,0:0:0:0:
149,269,211557,21,4,0:0:0:0:
152,254,211624,1,4,0:0:0:0:
156,240,211691,1,8,0:0:0:0:
160,225,211758,1,8,0:0:0:0:
164,211,211825,1,0,0:0:0:0:
168,196,211892,1,0,0:0:0:0:
172,182,211959,1,4,0:0:0:0:
176,167,212026,1,4,0:0:0:0:
180,153,212093,85,8,0:0:0:0:
185,211,212160,1,8,0:0:0:0:
222,258,212227,1,8,0:0:0:0:
279,276,212294,1,8,0:0:0:0:
336,260,212361,1,8,0:0:0:0:
375,216,212427,1,8,0:0:0:0:
383,157,212494,1,4,0:0:0:0:
358,104,212561,1,4,0:0:0:0:
307,73,212628,38,0,P|241:77|166:91,1,129.999994049073,4|10,0:0|0:0,0:0:0:0:
229,343,212896,1,6,0:0:0:0:
394,118,213030,2,0,P|401:45|360:-10,1,129.999994049073,8|6,0:0|0:0,0:0:0:0:
122,193,213298,1,8,0:0:0:0:
49,0,213432,1,6,0:0:0:0:
98,276,213566,38,0,B|168:271|168:271|191:247|191:247|218:268|218:268|352:258,1,259.999988098145,8|8,3:0|3:0,3:0:0:0:
480,72,213968,1,6,0:0:0:0:
512,332,214102,1,8,0:0:0:0:
402,166,214236,1,6,0:0:0:0:
264,364,214369,2,0,L|349:244,1,129.999994049073,8|6,0:0|0:0,0:0:0:0:
385,45,214637,86,0,B|304:26|304:26|127:74|128:74,1,259.999988098145,8|8,0:0|0:0,0:0:0:0:
128,264,215039,1,6,0:0:0:0:
18,35,215173,1,8,0:0:0:0:
1,343,215307,1,6,0:0:0:0:
69,135,215441,1,8,0:0:0:0:
189,371,215575,1,6,0:0:0:0:
192,116,215709,22,0,L|455:185,1,259.999988098145,8|8,0:0|0:0,0:0:0:0:
406,347,216111,101,6,0:0:0:0:
490,68,216244,1,8,0:0:0:0:
407,325,216378,5,6,0:0:0:0:
313,59,216512,1,8,0:0:0:0:
408,304,216646,69,6,0:0:0:0:
503,47,216780,1,8,0:0:0:0:
347,229,216914,37,6,0:0:0:0:
231,0,217048,1,8,0:0:0:0:
127,247,217182,2,0,P|196:246|277:237,1,129.999994049073,6|8,0:0|0:0,0:0:0:0:
115,0,217450,1,6,0:0:0:0:
16,260,217584,2,0,P|52:323|116:344,1,129.999994049073,8|6,0:0|0:0,0:0:0:0:
459,137,217852,86,0,L|184:158,1,259.999988098145,8|8,0:0|0:0,0:0:0:0:
285,269,218253,1,6,0:0:0:0:
360,43,218387,1,8,0:0:0:0:
410,368,218521,1,6,0:0:0:0:
326,148,218655,1,8,0:0:0:0:
244,384,218789,1,6,0:0:0:0:
443,205,218923,1,8,0:0:0:0:
181,309,219057,22,0,P|155:240|167:159,1,129.999994049073,10|4,0:0|0:0,0:0:0:0:
18,0,219325,2,0,P|44:69|32:150,1,129.999994049073,10|4,0:0|0:0,0:0:0:0:
10,208,219526,1,4,0:0:0:0:
10,208,219593,1,10,0:0:0:0:
217,81,219727,1,4,0:0:0:0:
217,81,219794,1,4,0:0:0:0:
217,81,219861,1,4,0:0:0:0:
243,110,219927,1,4,0:0:0:0:
253,148,219994,1,12,0:0:0:0:
246,187,220061,1,4,0:0:0:0:
222,219,220128,101,4,0:0:0:0:
200,263,220194,1,4,0:0:0:0:
202,312,220261,1,4,0:0:0:0:
228,354,220328,1,4,0:0:0:0:
271,379,220395,1,12,0:0:0:0:
320,379,220462,1,4,0:0:0:0:
364,356,220529,1,4,0:0:0:0:
390,314,220596,1,4,0:0:0:0:
394,265,220664,6,0,L|280:277,1,100,10|4,0:0|0:0,0:0:0:0:
68,163,220932,2,0,L|182:151,1,100,10|4,0:0|0:0,0:0:0:0:
384,33,221200,70,0,P|411:98|388:195,1,129.999994049073,6|8,0:0|0:0,0:0:0:0:
284,375,221468,1,6,0:0:0:0:
193,128,221602,2,0,P|258:100|355:123,1,129.999994049073,8|6,0:0|0:0,0:0:0:0:
419,362,221869,1,8,0:0:0:0:
512,133,222003,1,6,0:0:0:0:
168,379,222137,38,0,B|162:290|162:290|199:212|199:212|189:90,1,259.999988098145,8|8,0:0|0:0,0:0:0:0:
69,235,222539,1,6,0:0:0:0:
120,27,222673,1,8,0:0:0:0:
243,285,222807,1,6,0:0:0:0:
95,125,222941,1,8,0:0:0:0:
43,332,223075,1,6,0:0:0:0:
256,122,223209,86,0,B|341:103|341:103|523:135,1,259.999988098145,8|8,0:0|0:0,0:0:0:0:
345,253,223611,1,6,0:0:0:0:
397,25,223744,1,8,0:0:0:0:
500,286,223878,1,6,0:0:0:0:
370,136,224012,1,8,0:0:0:0:
318,354,224146,1,6,0:0:0:0:
160,54,224280,22,0,L|208:321,1,259.999988098145,8|8,0:0|0:0,0:0:0:0:
86,352,224682,101,6,0:0:0:0:
287,118,224816,1,8,0:0:0:0:
105,343,224950,5,6,0:0:0:0:
370,136,225084,1,8,0:0:0:0:
125,333,225218,69,6,0:0:0:0:
423,200,225352,1,8,0:0:0:0:
139,170,225486,37,6,0:0:0:0:
297,373,225619,1,8,0:0:0:0:
283,69,225753,2,0,P|209:42|125:56,1,129.999994049073,4|10,0:0|0:0,0:0:0:0:
55,276,226021,1,4,0:0:0:0:
356,154,226155,2,0,P|383:80|369:-4,1,129.999994049073,10|4,0:0|0:0,0:0:0:0:
210,271,226423,1,10,0:0:0:0:
84,24,226557,85,4,0:0:0:0:
45,46,226624,1,4,0:0:0:0:
24,82,226691,1,8,0:0:0:0:
22,125,226758,1,8,0:0:0:0:
39,166,226825,1,8,0:0:0:0:
70,192,226892,1,8,0:0:0:0:
111,204,226959,2,0,L|178:188,1,40,8|8,0:0|0:0,0:0:0:0:
110,109,227093,21,4,0:0:0:0:
167,69,227182,101,4,0:0:0:0:
236,63,227271,5,8,0:0:0:0:
298,92,227361,69,8,0:0:0:0:
355,131,227450,37,0,0:0:0:0:
424,137,227539,85,0,0:0:0:0:
486,108,227628,21,6,0:0:0:0:
256,192,227706,12,0,230154,0:0:0:0:
256,192,230233,12,0,232680,0:0:0:0:
256,192,232759,12,0,235206,0:0:0:0:
305,204,236470,54,0,L|257:235,1,50,6|0,0:0|0:0,0:0:0:0:
356,135,236785,1,8,0:0:0:0:
386,217,236943,1,8,0:0:0:0:
498,98,237101,1,8,0:0:0:0:
445,156,237259,1,8,0:0:0:0:
337,56,237417,2,0,L|263:50,1,50,4|4,0:0|0:0,0:0:0:0:
208,45,237733,85,4,0:0:0:0:
51,224,238049,1,4,0:0:0:0:
51,224,238680,101,4,0:0:0:0:
278,184,238996,1,10,0:0:0:0:
278,184,240259,5,4,0:0:0:0:
422,334,240575,1,4,0:0:0:0:
422,334,241285,5,0,0:0:0:0:
402,338,241364,1,4,0:0:0:0:
382,342,241443,1,0,0:0:0:0:
362,346,241522,2,0,P|315:323|255:322,1,100,10|4,0:0|0:0,0:0:0:0:
82,345,242312,1,4,0:0:0:0:
25,105,242785,101,4,0:0:0:0:
199,252,243101,1,4,0:0:0:0:
199,252,243733,21,4,0:0:0:0:
254,32,244049,1,10,0:0:0:0:
254,32,244996,86,0,L|315:37,1,50,4|0,0:0|0:0,0:0:0:0:
383,46,245312,101,4,0:0:0:0:
330,275,245628,1,4,0:0:0:0:
330,275,246338,6,0,L|287:268,3,25,4|4|8|0,0:0|0:0|0:0|0:0,0:0:0:0:
390,334,246891,6,0,P|410:298|411:255,1,59.9999981689454,6|0,0:0|0:0,0:0:0:0:
312,207,247206,2,0,L|340:316,1,69.9999978637696,8|8,0:0|0:0,0:0:0:0:
383,162,247522,2,0,P|346:132|287:128,1,80,6|0,0:0|0:0,0:0:0:0:
110,170,247838,102,0,L|231:164,1,100,4|0,0:0|0:0,0:0:0:0:
111,67,248154,1,2,0:0:0:0:
4,153,248312,1,0,0:0:0:0:
77,371,248470,22,0,L|96:249,1,100,8|0,0:0|0:0,0:0:0:0:
110,170,248785,1,2,0:0:0:0:
206,250,248943,1,0,0:0:0:0:
298,89,249101,85,4,0:0:0:0:
213,150,249259,1,4,0:0:0:0:
198,38,249417,1,2,0:0:0:0:
298,89,249575,1,0,0:0:0:0:
376,246,249733,102,0,P|325:222|296:174,1,100,8|4,0:0|0:0,0:0:0:0:
384,27,250049,1,2,0:0:0:0:
390,144,250206,1,0,0:0:0:0:
198,38,250364,6,0,L|81:50,1,100,4|0,0:0|0:0,0:0:0:0:
66,152,250680,1,6,0:0:0:0:
0,70,250838,1,0,0:0:0:0:
44,250,250996,6,0,L|70:135,1,100,8|0,0:0|0:0,0:0:0:0:
98,48,251312,1,2,0:0:0:0:
181,139,251470,1,4,0:0:0:0:
382,104,251628,102,0,L|263:121,1,100,2|0,0:0|0:0,0:0:0:0:
255,224,251943,1,2,0:0:0:0:
181,139,252101,1,4,0:0:0:0:
85,302,252259,21,8,0:0:0:0:
132,222,252417,1,4,0:0:0:0:
190,303,252575,2,0,L|290:315,1,100,2|0,0:0|0:0,0:0:0:0:
432,195,252891,86,0,P|378:209|336:259,1,100,4|0,0:0|0:0,0:0:0:0:
418,384,253206,1,2,0:0:0:0:
424,284,253364,1,0,0:0:0:0:
275,346,253522,102,0,P|221:332|179:282,1,100,8|0,0:0|0:0,0:0:0:0:
261,157,253837,1,2,0:0:0:0:
267,257,253995,1,0,0:0:0:0:
95,168,254154,5,4,0:0:0:0:
178,212,254312,1,4,0:0:0:0:
179,111,254470,1,2,0:0:0:0:
95,168,254628,1,0,0:0:0:0:
13,11,254785,6,0,L|103:66,1,100,8|4,0:0|0:0,0:0:0:0:
179,111,255101,1,2,0:0:0:0:
259,63,255259,1,0,0:0:0:0:
444,163,255417,102,0,P|385:170|315:246,1,126.666663284302,6|0,0:0|0:0,0:0:0:0:
266,379,255838,1,0,0:0:0:0:
145,223,256049,22,0,P|203:229|254:267,1,113.333335494995,10|10,0:0|0:0,0:0:0:0:
175,360,256470,2,0,L|170:295,1,56.6666677474976,4|4,0:0|0:0,0:0:0:0:
118,139,256680,86,0,P|70:174|55:256,1,100.000003814697,10|8,0:0|0:0,0:0:0:0:
342,31,257101,1,4,0:0:0:0:
342,31,257206,1,4,0:0:0:0:
342,31,257312,102,0,P|390:35|439:82,1,86.6666626993817,10|0,0:0|0:0,0:0:0:0:
53,32,257883,5,8,0:0:0:0:
53,32,258026,1,4,0:0:0:0:
53,32,258169,6,0,B|96:39|120:73|120:73|147:46|190:43|190:43|211:95|285:103|285:103|295:3|415:-21|506:69|470:190|367:223|309:166|309:166|336:211|328:254|328:254|272:164|125:167|70:245|122:418|265:481|388:294|319:242|134:197|201:382|201:382|175:338|116:308|45:325,1,1559.99992858887,6|0,0:0|0:0,0:0:0:0:
195,167,262663,102,0,P|226:165|283:106,1,100,2|0,0:0|0:0,0:0:0:0:
374,251,262930,2,0,P|333:250|282:204,1,100,2|0,0:0|0:0,0:0:0:0:
208,94,263198,21,2,0:0:0:0:
180,244,263332,1,2,0:0:0:0:
353,180,263466,1,2,0:0:0:0:
195,167,263600,1,2,0:0:0:0:
398,323,263734,86,0,L|541:316,1,100,8|6,0:0|0:0,0:0:0:0:
413,106,264002,1,10,0:0:0:0:
312,284,264136,2,0,P|308:351|337:398,1,100,4|10,0:0|0:0,0:0:0:0:
483,178,264404,1,4,0:0:0:0:
278,97,264538,1,10,0:0:0:0:
113,306,264671,102,0,L|315:283,1,200,4|4,0:0|0:0,0:0:0:0:
125,101,265073,2,0,L|-23:111,1,100,10|4,0:0|0:0,0:0:0:0:
25,280,265341,1,10,0:0:0:0:
205,139,265475,2,0,P|209:72|180:25,1,100,4|10,0:0|0:0,0:0:0:0:
191,272,265743,6,0,B|260:291|260:291|418:262,1,200,4|4,0:0|0:0,0:0:0:0:
326,44,266145,2,0,L|313:182,1,100,10|4,0:0|0:0,0:0:0:0:
301,313,266413,1,10,0:0:0:0:
509,114,266546,2,0,L|371:101,1,100,4|10,0:0|0:0,0:0:0:0:
177,82,266814,1,4,0:0:0:0:
365,213,266948,5,10,0:0:0:0:
94,191,267082,1,4,0:0:0:0:
344,215,267216,101,10,0:0:0:0:
128,234,267350,1,4,0:0:0:0:
324,217,267484,21,10,0:0:0:0:
164,274,267618,1,4,0:0:0:0:
304,220,267752,85,10,0:0:0:0:
199,316,267886,1,4,0:0:0:0:
266,57,268020,102,0,P|317:47|391:68,1,100,10|6,0:0|0:0,0:0:0:0:
427,248,268288,1,10,0:0:0:0:
184,112,268421,2,0,P|174:61|195:-13,1,100,4|10,0:0|0:0,0:0:0:0:
447,66,268689,1,4,0:0:0:0:
289,189,268823,1,10,0:0:0:0:
65,175,268957,6,0,B|32:144|32:144|197:109,1,200,4|4,0:0|0:0,0:0:0:0:
386,168,269359,2,0,L|250:197,1,100,10|4,0:0|0:0,0:0:0:0:
165,211,269627,1,10,0:0:0:0:
249,20,269761,1,4,0:0:0:0:
386,168,269895,1,10,0:0:0:0:
210,113,270029,1,6,0:0:0:0:
135,299,270163,5,4,0:0:0:0:
34,139,270296,1,4,0:0:0:0:
34,139,270564,1,4,0:0:0:0:
210,113,270698,2,0,B|389:89,1,179.999994506836,8|10,0:0|0:0,0:0:0:0:
340,274,271100,1,4,0:0:0:0:
135,299,271234,102,0,P|127:257|139:201,1,89.9999972534181,2|4,0:0|0:0,0:0:0:0:
416,235,271502,2,0,P|423:276|411:332,1,89.9999972534181,10|4,0:0|0:0,0:0:0:0:
403,349,271703,1,4,0:0:0:0:
403,349,271770,21,8,0:0:0:0:
234,141,271904,1,8,0:0:0:0:
109,384,272038,1,8,0:0:0:0:
340,274,272171,1,4,0:0:0:0:
73,8,272305,86,0,L|61:110,1,89.9999972534181,6|0,0:0|0:0,0:0:0:0:
176,329,272573,2,0,L|151:144,1,179.999994506836,10|0,0:0|0:0,0:0:0:0:
9,186,272975,1,4,0:0:0:0:
161,50,273109,1,10,0:0:0:0:
330,166,273243,102,0,P|430:166|488:92,1,179.999994506836
264,94,273645,2,0,P|234:148|295:257,1,179.999994506836,10|0,0:0|0:0,0:0:0:0:
407,314,274046,1,4,0:0:0:0:
330,166,274180,1,10,0:0:0:0:
197,294,274314,6,0,B|137:272|137:272|21:293,1,179.999994506836
288,380,274716,2,0,L|303:197,1,179.999994506836,10|0,0:0|0:0,0:0:0:0:
373,40,275118,1,4,0:0:0:0:
223,114,275252,1,10,0:0:0:0:
394,147,275386,1,0,0:0:0:0:
257,15,275520,5,4,0:0:0:0:
192,237,275654,1,0,0:0:0:0:
262,37,275788,101,10,0:0:0:0:
332,228,275921,1,4,0:0:0:0:
267,59,276055,21,0,0:0:0:0:
206,215,276189,1,4,0:0:0:0:
272,81,276323,85,10,0:0:0:0:
332,228,276457,1,0,0:0:0:0:
117,57,276591,102,0,L|53:51,1,53.3333333333333,10|0,0:0|0:0,0:0:0:0:
74,154,276770,5,4,0:0:0:0:
80,200,276859,5,4,0:0:0:0:
88,248,276948,101,4,0:0:0:0:
94,294,277038,21,4,0:0:0:0:
102,342,277127,86,0,P|56:287|-4:274,2,106.666666666667,10|4|4,0:0|0:0|0:0,0:0:0:0:
254,267,277663,101,8,0:0:0:0:
289,250,277729,1,0,0:0:0:0:
317,220,277796,1,0,0:0:0:0:
331,183,277863,1,8,0:0:0:0:
331,144,277930,1,4,0:0:0:0:
344,170,277997,1,4,0:0:0:0:
366,190,278064,1,8,0:0:0:0:
394,201,278131,1,8,0:0:0:0:
424,202,278198,5,8,0:0:0:0:
493,21,278377,5,4,0:0:0:0:
406,124,278555,101,4,0:0:0:0:
256,192,294805,12,0,295877,0:0:0:0:
131,90,296145,22,0,P|163:84|201:90,1,59.9999981689454
250,126,296413,1,0,0:0:0:0:
168,215,296546,2,0,P|162:183|168:145,2,59.9999981689454
243,329,296948,86,0,P|289:317|343:332,1,89.9999972534181,2|0,0:0|0:0,0:0:0:0:
358,348,297216,2,0,P|391:354|429:348,1,59.9999981689454
392,283,297484,1,0,0:0:0:0:
332,190,297618,2,0,L|328:266,2,59.9999981689454
460,57,298020,102,0,P|413:68|359:53,1,89.9999972534181,2|0,0:0|0:0,0:0:0:0:
345,38,298288,2,0,P|312:32|274:38,1,59.9999981689454
221,68,298555,1,0,0:0:0:0:
161,111,298689,2,0,P|129:117|91:111,2,59.9999981689454
297,212,299091,6,0,L|305:130,1,59.9999981689454,2|0,0:0|0:0,0:0:0:0:
233,262,299359,2,0,L|225:344,1,59.9999981689454
320,199,299627,2,0,L|328:117,1,59.9999981689454
210,275,299895,2,0,L|202:357,1,59.9999981689454
201,120,300163,5,2,0:0:0:0:
201,120,300430,2,0,P|168:115|131:122,1,59.9999981689454
76,152,300698,1,0,0:0:0:0:
33,94,300832,2,0,P|28:61|35:24,2,59.9999981689454
29,219,301234,102,0,P|75:230|129:215,1,89.9999972534181,2|0,0:0|0:0,0:0:0:0:
144,200,301502,2,0,P|177:194|215:200,1,59.9999981689454
268,230,301770,1,0,0:0:0:0:
329,186,301904,2,0,P|335:154|329:116,2,59.9999981689454
217,380,302305,22,0,P|228:333|213:279,1,89.9999972534181,2|0,0:0|0:0,0:0:0:0:
198,265,302573,2,0,P|192:232|198:194,1,59.9999981689454
223,139,302841,1,0,0:0:0:0:
288,97,302975,2,0,P|320:91|361:97,2,59.9999981689454
113,192,303377,86,0,B|201:140|281:189|281:189|376:242|465:168,1,359.999989013672,2|0,0:0|0:0,0:0:0:0:
357,103,304448,101,2,0:0:0:0:
357,103,304716,2,0,P|324:98|287:105,1,59.9999981689454
238,143,304984,1,0,0:0:0:0:
179,185,305118,2,0,P|146:189|109:182,2,59.9999981689454
324,169,305520,6,0,P|336:215|321:269,1,89.9999972534181,2|0,0:0|0:0,0:0:0:0:
305,284,305788,2,0,P|299:317|305:355,1,59.9999981689454
358,384,306055,1,0,0:0:0:0:
471,335,306189,2,0,L|405:330,2,59.9999981689454
436,181,306591,6,0,P|390:169|336:184,1,89.9999972534181,2|0,0:0|0:0,0:0:0:0:
321,200,306859,2,0,P|288:206|250:200,1,59.9999981689454
209,153,307127,1,0,0:0:0:0:
137,161,307261,2,0,L|60:172,2,59.9999981689454
293,291,307663,102,0,P|283:322|277:358,1,59.9999981689454,2|0,0:0|0:0,0:0:0:0:
198,230,307930,2,0,P|207:261|213:297,1,59.9999981689454
287,154,308198,2,0,P|277:185|271:221,1,59.9999981689454
194,94,308466,2,0,P|203:125|209:161,1,59.9999981689454
339,15,308734,21,2,0:0:0:0:
339,15,309002,2,0,L|413:21,1,59.9999981689454
470,27,309270,1,0,0:0:0:0:
427,147,309404,2,0,L|433:72,2,59.9999981689454
286,303,309805,86,0,B|267:345|267:345|226:254|305:246|254:144,1,239.999992675781,2|0,0:0|0:0,0:0:0:0:
80,214,310475,2,0,B|123:198|123:198|211:207,1,119.999996337891
311,92,310877,102,0,P|265:80|211:95,1,89.9999972534181,2|0,0:0|0:0,0:0:0:0:
195,110,311145,2,0,P|162:116|124:110,1,59.9999981689454
75,154,311413,2,0,L|81:230,1,59.9999981689454
148,249,311680,2,0,L|142:325,1,59.9999981689454
231,319,311948,6,0,L|362:303,1,100,8|4,0:0|0:0,0:0:0:0:
406,300,312149,1,4,0:0:0:0:
406,300,312216,5,10,0:0:0:0:
282,102,312350,1,4,0:0:0:0:
291,351,312484,101,10,0:0:0:0:
391,70,312618,1,4,0:0:0:0:
144,144,312752,21,8,0:0:0:0:
420,60,312886,1,4,0:0:0:0:
64,91,313020,54,0,P|50:161|74:226,1,129.999994049073,6|10,0:0|0:0,0:0:0:0:
291,351,313288,1,4,0:0:0:0:
250,79,313421,2,0,P|173:108|136:158,1,129.999994049073,10|4,0:0|0:0,0:0:0:0:
152,384,313689,1,10,0:0:0:0:
0,160,313823,1,4,0:0:0:0:
291,351,313957,70,0,P|310:237|349:81,1,259.999988098145,10|10,0:0|0:0,0:0:0:0:
464,310,314359,1,4,0:0:0:0:
442,51,314493,1,10,0:0:0:0:
232,248,314627,1,4,0:0:0:0:
347,3,314761,1,10,0:0:0:0:
351,284,314895,1,4,0:0:0:0:
205,74,315029,38,0,P|117:31|-1:175,1,259.999988098145,10|10,0:0|0:0,0:0:0:0:
60,266,315430,1,4,0:0:0:0:
106,32,315564,1,10,0:0:0:0:
244,295,315698,1,4,0:0:0:0:
85,138,315832,1,10,0:0:0:0:
35,378,315966,1,4,0:0:0:0:
223,169,316100,86,0,B|309:133|309:133|480:172,1,259.999988098145,10|10,0:0|0:0,0:0:0:0:
329,365,316502,21,4,0:0:0:0:
303,37,316636,1,10,0:0:0:0:
318,340,316770,101,4,0:0:0:0:
376,28,316904,1,10,0:0:0:0:
308,314,317038,5,4,0:0:0:0:
447,17,317171,1,10,0:0:0:0:
199,319,317305,70,0,B|183:231|183:231|212:149|212:149|189:29,1,259.999988098145,4|4,0:0|0:0,0:0:0:0:
45,273,317707,1,10,0:0:0:0:
10,32,317841,1,4,0:0:0:0:
243,238,317975,1,10,0:0:0:0:
26,142,318109,1,4,0:0:0:0:
71,384,318243,38,0,P|107:284|262:243,1,259.999988098145,10|10,0:0|0:0,0:0:0:0:
424,384,318645,1,4,0:0:0:0:
428,114,318779,1,10,0:0:0:0:
299,349,318913,2,0,P|255:297|246:215,1,129.999994049073,4|10,0:0|0:0,0:0:0:0:
381,11,319180,1,4,0:0:0:0:
341,251,319314,1,10,0:0:0:0:
136,74,319448,86,0,L|142:221,1,129.999994049073,10|14,0:0|0:0,0:0:0:0:
467,46,319716,2,0,L|458:193,1,129.999994049073,10|4,0:0|0:0,0:0:0:0:
456,270,319917,1,4,0:0:0:0:
456,270,319984,1,10,0:0:0:0:
252,162,320118,1,4,0:0:0:0:
252,162,320185,1,4,0:0:0:0:
252,162,320252,1,4,0:0:0:0:
227,193,320319,1,4,0:0:0:0:
216,231,320386,1,12,0:0:0:0:
219,271,320453,1,4,0:0:0:0:
236,307,320520,21,4,0:0:0:0:
229,248,320587,1,4,0:0:0:0:
189,204,320654,1,4,0:0:0:0:
132,192,320721,1,4,0:0:0:0:
78,216,320788,1,12,0:0:0:0:
49,268,320854,1,4,0:0:0:0:
55,326,320921,1,4,0:0:0:0:
95,370,320988,1,4,0:0:0:0:
153,382,321055,102,0,L|134:242,1,119.999996337891,10|0,0:0|0:0,0:0:0:0:
418,163,321323,2,0,L|398:303,1,119.999996337891,10|0,0:0|0:0,0:0:0:0:
40,142,321591,6,0,P|9:219|40:319,1,129.999994049073,6|10,0:0|0:0,0:0:0:0:
256,384,321859,1,4,0:0:0:0:
337,87,321993,2,0,P|260:56|160:86,1,129.999994049073,10|4,0:0|0:0,0:0:0:0:
111,281,322261,1,10,0:0:0:0:
6,22,322395,1,4,0:0:0:0:
273,262,322529,70,0,L|315:-4,1,259.999988098145,10|10,0:0|0:0,0:0:0:0:
447,293,322930,1,4,0:0:0:0:
402,48,323064,1,10,0:0:0:0:
299,356,323198,1,4,0:0:0:0:
421,136,323332,1,10,0:0:0:0:
470,381,323466,1,4,0:0:0:0:
249,109,323600,38,0,P|247:224|102:234,1,259.999988098145,10|10,0:0|0:0,0:0:0:0:
0,27,324002,1,4,0:0:0:0:
0,306,324136,1,10,0:0:0:0:
177,41,324270,2,0,P|241:17|320:41,1,129.999994049073,4|10,0:0|0:0,0:0:0:0:
372,308,324538,1,4,0:0:0:0:
468,8,324671,86,0,L|514:282,1,259.999988098145,10|10,0:0|0:0,0:0:0:0:
347,118,325073,21,4,0:0:0:0:
299,381,325207,1,10,0:0:0:0:
340,90,325341,101,4,0:0:0:0:
494,352,325475,1,10,0:0:0:0:
335,60,325609,5,4,0:0:0:0:
267,384,325743,1,10,0:0:0:0:
121,132,325877,70,0,L|275:104,1,129.999994049073,4|10,0:0|0:0,0:0:0:0:
368,327,326145,1,4,0:0:0:0:
91,223,326279,2,0,P|39:188|24:111,1,129.999994049073,10|4,0:0|0:0,0:0:0:0:
305,0,326546,1,10,0:0:0:0:
281,285,326680,1,4,0:0:0:0:
209,67,326814,38,0,P|309:104|434:11,1,259.999988098145,10|10,0:0|0:0,0:0:0:0:
499,286,327216,1,4,0:0:0:0:
356,125,327350,1,10,0:0:0:0:
281,285,327484,1,4,0:0:0:0:
483,117,327618,1,10,0:0:0:0:
393,384,327752,1,4,0:0:0:0:
237,128,327886,1,4,0:0:0:0:
57,356,328020,86,0,B|3:354|3:354|64:285|183:345,1,194.999991073609,10|0,0:0|0:0,0:0:0:0:
211,348,328288,2,0,B|260:344|260:344|162:236,1,194.999991073609,10|0,0:0|0:0,0:0:0:0:
113,178,328555,1,10,0:0:0:0:
283,23,328689,1,4,0:0:0:0:
283,31,328756,1,4,0:0:0:0:
284,39,328823,1,4,0:0:0:0:
284,47,328890,1,4,0:0:0:0:
285,55,328957,21,14,0:0:0:0:
342,39,329024,1,4,0:0:0:0:
399,54,329091,1,4,0:0:0:0:
442,95,329158,1,4,0:0:0:0:
458,152,329225,1,12,0:0:0:0:
445,210,329292,1,4,0:0:0:0:
404,254,329359,1,4,0:0:0:0:
348,271,329426,1,4,0:0:0:0:
290,259,329493,1,4,0:0:0:0:
246,220,329560,1,4,0:0:0:0:
226,163,329627,101,10,0:0:0:0:
477,98,329761,1,4,0:0:0:0:
301,334,329895,1,10,0:0:0:0:
327,22,330029,1,4,0:0:0:0:
512,293,330163,5,10,0:0:0:0:
30,352,331234,5,6,0:0:0:0:
114,52,332305,6,0,B|167:90|235:51|235:51|307:8|379:72,1,255.000004863739,6|4,0:0|0:0,0:0:0:0:
411,171,332841,1,8,0:0:0:0:
295,112,332975,1,4,0:0:0:0:
266,217,333109,1,8,0:0:0:0:
266,217,333176,1,8,0:0:0:0:
266,217,333243,2,0,L|249:277,1,42.5000008106232,8|8,0:0|0:0,0:0:0:0:
361,371,333377,6,0,L|331:271,1,85.0000016212464,4|8,0:0|0:0,0:0:0:0:
156,153,333645,2,0,L|186:253,1,85.0000016212464,8|4,0:0|0:0,0:0:0:0:
229,383,333913,1,0,0:0:0:0:
75,338,334046,1,4,0:0:0:0:
264,296,334180,1,8,0:0:0:0:
150,359,334314,1,6,0:0:0:0:
165,231,334448,102,0,L|183:59,1,150.000005722046,6|0,0:0|0:0,0:0:0:0:
321,108,334850,1,4,0:0:0:0:
402,51,334984,2,0,P|374:27|321:11,1,75.0000028610231,8|0,0:0|0:0,0:0:0:0:
266,189,335252,2,0,P|318:204|390:179,1,112.500004291535,4|0,0:0|0:0,0:0:0:0:
373,190,335520,22,0,P|351:274|378:340,1,150.000005722046,4|4,0:0|0:0,0:0:0:0:
459,219,335921,1,0,0:0:0:0:
266,189,336055,2,0,L|166:225,1,75.0000028610231,8|4,0:0|0:0,0:0:0:0:
66,258,336323,1,0,0:0:0:0:
0,157,336457,1,4,0:0:0:0:
0,157,336524,1,4,0:0:0:0:
0,157,336591,86,0,B|58:168|58:168|232:120,1,225.000008583069,4|4,0:0|0:0,0:0:0:0:
273,5,337127,2,0,L|121:41,1,150.000005722046,8|0,0:0|0:0,0:0:0:0:
176,242,337529,1,4,0:0:0:0:
176,242,337596,1,4,0:0:0:0:
176,242,337663,102,0,P|242:271|328:234,1,150.000005722046,4|0,0:0|0:0,0:0:0:0:
340,120,338064,1,4,0:0:0:0:
254,182,338198,1,8,0:0:0:0:
181,6,338332,1,8,0:0:0:0:
259,61,338466,1,8,0:0:0:0:
176,124,338600,1,4,0:0:0:0:
400,54,338734,6,0,P|429:98|401:193,1,150.000005722046,6|0,0:0|0:0,0:0:0:0:
326,258,339136,1,4,0:0:0:0:
326,258,339270,2,0,L|325:347,1,75.0000028610231,8|0,0:0|0:0,0:0:0:0:
226,236,339538,2,0,P|164:221|93:254,1,112.500004291535,4|0,0:0|0:0,0:0:0:0:
171,303,339805,6,0,L|185:125,1,150.000005722046,4|4,0:0|0:0,0:0:0:0:
279,140,340207,1,0,0:0:0:0:
133,84,340341,2,0,L|32:103,1,75.0000028610231,8|4,0:0|0:0,0:0:0:0:
299,61,340609,2,0,L|400:80,1,75.0000028610231
389,144,340810,1,4,0:0:0:0:
366,159,340877,102,0,P|314:224|239:218,1,150.000005722046,4|0,0:0|0:0,0:0:0:0:
174,163,341279,1,4,0:0:0:0:
109,312,341413,2,0,L|145:226,1,75.0000028610231,8|4,0:0|0:0,0:0:0:0:
211,300,341680,2,0,L|247:386,1,75.0000028610231,0|4,0:0|0:0,0:0:0:0:
309,358,341881,1,4,0:0:0:0:
320,331,341948,22,0,P|388:299|460:334,1,150.000005722046,4|0,0:0|0:0,0:0:0:0:
388,384,342350,1,4,0:0:0:0:
356,223,342484,2,0,L|370:134,1,75.0000028610231,8|0,0:0|0:0,0:0:0:0:
383,64,342752,1,4,0:0:0:0:
250,174,342886,1,8,0:0:0:0:
74,50,343020,86,0,P|40:136|155:200,1,225.000008583069,6|4,0:0|0:0,0:0:0:0:
183,71,343555,2,0,P|144:95|118:134,1,75.0000028610231,8|0,0:0|0:0,0:0:0:0:
274,80,343823,2,0,P|266:34|240:-4,1,75.0000028610231,4|0,0:0|0:0,0:0:0:0:
261,265,344091,102,0,P|280:335|346:366,1,150.000005722046,4|4,0:0|0:0,0:0:0:0:
301,181,344493,2,0,P|212:185|162:258,1,150.000005722046,0|4,0:0|0:0,0:0:0:0:
368,245,344895,2,0,P|389:197|389:161,1,75.0000028610231,0|4,0:0|0:0,0:0:0:0:
400,18,345163,5,12,0:0:0:0:
352,43,345229,1,8,0:0:0:0:
331,93,345296,1,8,0:0:0:0:
347,145,345363,1,8,0:0:0:0:
391,175,345430,1,8,0:0:0:0:
438,201,345497,1,8,0:0:0:0:
462,250,345564,1,8,0:0:0:0:
456,303,345631,1,8,0:0:0:0:
421,345,345698,1,12,0:0:0:0:
369,360,345765,1,8,0:0:0:0:
317,344,345832,1,8,0:0:0:0:
283,302,345899,1,8,0:0:0:0:
278,248,345966,5,4,0:0:0:0:
279,233,346033,1,4,0:0:0:0:
281,218,346100,1,8,0:0:0:0:
283,203,346167,1,8,0:0:0:0:
285,188,346234,101,4,0:0:0:0:
236,236,346301,1,4,0:0:0:0:
167,244,346368,1,8,0:0:0:0:
109,207,346435,1,8,0:0:0:0:
86,143,346502,1,8,0:0:0:0:
107,77,346569,1,8,0:0:0:0:
165,39,346636,1,4,0:0:0:0:
233,45,346703,1,4,0:0:0:0:
284,92,346770,22,0,L|273:175,1,69.9999978637696,8|0,0:0|0:0,0:0:0:0:
87,362,346904,2,0,L|98:279,1,69.9999978637696,8|0,0:0|0:0,0:0:0:0:
38,68,347038,86,0,L|107:77,1,69.9999978637696,8|0,0:0|0:0,0:0:0:0:
365,313,347171,2,0,L|295:303,1,69.9999978637696,8|0,0:0|0:0,0:0:0:0:
208,51,347305,37,10,0:0:0:0:
254,14,347372,1,4,0:0:0:0:
312,18,347439,1,8,0:0:0:0:
354,60,347506,1,4,0:0:0:0:
357,118,347573,1,10,0:0:0:0:
321,164,347640,1,4,0:0:0:0:
263,175,347707,1,10,0:0:0:0:
205,181,347774,1,4,0:0:0:0:
163,223,347841,1,10,0:0:0:0:
157,282,347908,1,4,0:0:0:0:
190,331,347975,1,10,0:0:0:0:
246,349,348042,1,4,0:0:0:0:
301,328,348109,1,10,0:0:0:0:
347,291,348176,1,4,0:0:0:0:
406,287,348243,1,10,0:0:0:0:
458,316,348310,1,4,0:0:0:0:
484,369,348377,37,10,0:0:0:0:
425,367,348444,1,4,0:0:0:0:
379,331,348511,1,10,0:0:0:0:
363,274,348578,1,4,0:0:0:0:
384,219,348645,1,10,0:0:0:0:
405,163,348712,1,4,0:0:0:0:
392,105,348779,1,10,0:0:0:0:
350,64,348846,1,4,0:0:0:0:
292,52,348913,1,10,0:0:0:0:
237,73,348979,1,4,0:0:0:0:
202,121,349046,1,10,0:0:0:0:
199,180,349113,1,4,0:0:0:0:
229,232,349180,1,10,0:0:0:0:
247,288,349247,1,4,0:0:0:0:
220,342,349314,1,10,0:0:0:0:
173,379,349381,1,4,0:0:0:0:
113,370,349448,85,10,0:0:0:0:
84,319,349515,1,4,0:0:0:0:
99,262,349582,1,10,0:0:0:0:
149,233,349649,1,4,0:0:0:0:
206,248,349716,1,10,0:0:0:0:
263,259,349783,1,4,0:0:0:0:
308,222,349850,1,10,0:0:0:0:
308,164,349917,1,4,0:0:0:0:
266,120,349984,1,10,0:0:0:0:
262,179,350051,1,4,0:0:0:0:
289,232,350118,1,10,0:0:0:0:
341,260,350185,1,4,0:0:0:0:
401,254,350252,1,10,0:0:0:0:
446,217,350319,1,4,0:0:0:0:
465,161,350386,1,10,0:0:0:0:
449,103,350453,1,4,0:0:0:0:
405,64,350520,21,10,0:0:0:0:
350,87,350587,1,4,0:0:0:0:
292,79,350654,1,10,0:0:0:0:
246,41,350721,1,4,0:0:0:0:
196,17,350788,1,10,0:0:0:0:
137,17,350854,1,4,0:0:0:0:
90,51,350921,1,10,0:0:0:0:
71,107,350988,1,4,0:0:0:0:
87,164,351055,2,0,L|154:157,3,59.9999981689454,10|4|10|4,0:0|0:0|0:0|0:0,0:0:0:0:
248,274,351323,2,0,L|181:267,3,59.9999981689454,10|4|10|4,0:0|0:0|0:0|0:0,0:0:0:0:
401,133,351591,101,10,0:0:0:0:
455,155,351658,1,4,0:0:0:0:
484,206,351725,1,10,0:0:0:0:
475,265,351792,1,4,0:0:0:0:
432,305,351859,1,10,0:0:0:0:
373,310,351926,1,4,0:0:0:0:
324,277,351993,1,10,0:0:0:0:
305,222,352060,1,4,0:0:0:0:
298,162,352127,1,10,0:0:0:0:
264,114,352194,1,4,0:0:0:0:
211,88,352261,1,10,0:0:0:0:
152,90,352328,1,4,0:0:0:0:
101,121,352395,1,10,0:0:0:0:
72,173,352462,1,4,0:0:0:0:
72,232,352529,1,10,0:0:0:0:
100,285,352596,1,4,0:0:0:0:
150,317,352663,5,10,0:0:0:0:
205,298,352729,1,4,0:0:0:0:
230,246,352796,1,10,0:0:0:0:
209,191,352863,1,4,0:0:0:0:
155,169,352930,1,10,0:0:0:0:
100,146,352997,1,4,0:0:0:0:
77,93,353064,1,10,0:0:0:0:
98,38,353131,1,4,0:0:0:0:
151,14,353198,1,10,0:0:0:0:
206,34,353265,1,4,0:0:0:0:
231,86,353332,1,10,0:0:0:0:
263,137,353399,1,4,0:0:0:0:
315,164,353466,1,10,0:0:0:0:
374,159,353533,1,4,0:0:0:0:
422,125,353600,1,10,0:0:0:0:
446,70,353667,1,4,0:0:0:0:
438,13,353734,69,10,0:0:0:0:
389,46,353801,1,4,0:0:0:0:
365,100,353868,1,10,0:0:0:0:
374,159,353935,1,4,0:0:0:0:
412,204,354002,1,10,0:0:0:0:
435,257,354069,1,4,0:0:0:0:
425,316,354136,1,10,0:0:0:0:
385,359,354203,1,4,0:0:0:0:
328,374,354270,1,10,0:0:0:0:
272,356,354337,1,4,0:0:0:0:
235,309,354404,1,10,0:0:0:0:
228,251,354471,1,4,0:0:0:0:
214,193,354538,1,10,0:0:0:0:
167,159,354604,1,4,0:0:0:0:
108,163,354671,1,10,0:0:0:0:
66,204,354738,1,4,0:0:0:0:
66,264,354805,37,10,0:0:0:0:
126,266,354872,1,4,0:0:0:0:
179,241,354939,1,10,0:0:0:0:
214,193,355006,1,4,0:0:0:0:
220,133,355073,1,10,0:0:0:0:
197,77,355140,1,4,0:0:0:0:
151,41,355207,1,10,0:0:0:0:
93,30,355274,1,4,0:0:0:0:
36,49,355341,2,0,L|23:150,3,59.9999981689454,10|4|10|4,0:0|0:0|0:0|0:0,0:0:0:0:
162,289,355609,2,0,L|149:188,3,59.9999981689454,10|4|10|4,0:0|0:0|0:0|0:0,0:0:0:0:
329,39,355877,85,10,0:0:0:0:
388,40,355944,1,4,0:0:0:0:
437,72,356011,1,10,0:0:0:0:
463,126,356078,1,4,0:0:0:0:
456,185,356145,1,10,0:0:0:0:
420,232,356212,1,4,0:0:0:0:
364,252,356279,1,10,0:0:0:0:
306,241,356346,1,4,0:0:0:0:
263,201,356413,1,10,0:0:0:0:
224,155,356479,1,4,0:0:0:0:
169,133,356546,1,10,0:0:0:0:
110,141,356613,1,4,0:0:0:0:
62,175,356680,1,10,0:0:0:0:
37,229,356747,1,4,0:0:0:0:
41,288,356814,1,10,0:0:0:0:
72,339,356881,1,4,0:0:0:0:
124,367,356948,21,10,0:0:0:0:
152,315,357015,1,4,0:0:0:0:
203,287,357082,1,10,0:0:0:0:
262,291,357149,1,4,0:0:0:0:
310,327,357216,1,10,0:0:0:0:
365,349,357283,1,4,0:0:0:0:
423,340,357350,1,10,0:0:0:0:
470,303,357417,1,4,0:0:0:0:
492,248,357484,1,10,0:0:0:0:
483,189,357551,1,4,0:0:0:0:
446,143,357618,1,10,0:0:0:0:
390,122,357685,1,4,0:0:0:0:
332,131,357752,1,10,0:0:0:0:
276,150,357819,1,4,0:0:0:0:
217,141,357886,1,10,0:0:0:0:
169,106,357953,1,4,0:0:0:0:
155,46,358020,101,10,0:0:0:0:
211,64,358087,1,4,0:0:0:0:
245,113,358154,1,10,0:0:0:0:
243,171,358221,1,4,0:0:0:0:
207,218,358288,1,10,0:0:0:0:
169,263,358354,1,4,0:0:0:0:
169,321,358421,1,10,0:0:0:0:
208,365,358488,1,4,0:0:0:0:
266,374,358555,1,10,0:0:0:0:
315,342,358622,1,4,0:0:0:0:
332,286,358689,1,10,0:0:0:0:
349,230,358756,1,4,0:0:0:0:
399,200,358823,1,10,0:0:0:0:
456,213,358890,1,4,0:0:0:0:
488,262,358957,1,10,0:0:0:0:
478,320,359024,1,4,0:0:0:0:
432,355,359091,5,10,0:0:0:0:
372,354,359158,1,4,0:0:0:0:
324,319,359225,1,10,0:0:0:0:
303,262,359292,1,4,0:0:0:0:
322,205,359359,1,10,0:0:0:0:
370,168,359426,1,4,0:0:0:0:
402,118,359493,1,10,0:0:0:0:
398,60,359560,1,4,0:0:0:0:
359,16,359627,1,10,0:0:0:0:
302,4,359694,1,4,0:0:0:0:
249,31,359761,1,10,0:0:0:0:
223,84,359828,1,4,0:0:0:0:
235,141,359895,1,10,0:0:0:0:
246,199,359962,1,4,0:0:0:0:
220,252,360029,1,10,0:0:0:0:
168,280,360096,1,4,0:0:0:0:
110,272,360163,69,10,0:0:0:0:
154,232,360229,1,4,0:0:0:0:
212,222,360296,1,10,0:0:0:0:
266,246,360363,1,4,0:0:0:0:
300,295,360430,1,10,0:0:0:0:
339,339,360497,1,4,0:0:0:0:
396,355,360564,1,10,0:0:0:0:
453,339,360631,1,4,0:0:0:0:
492,295,360698,1,10,0:0:0:0:
502,236,360765,1,4,0:0:0:0:
480,182,360832,1,10,0:0:0:0:
432,147,360899,1,4,0:0:0:0:
373,144,360966,1,10,0:0:0:0:
315,158,361033,1,4,0:0:0:0:
259,140,361100,1,10,0:0:0:0:
221,95,361167,1,4,0:0:0:0:
213,36,361234,37,10,0:0:0:0:
260,71,361301,1,4,0:0:0:0:
275,128,361368,1,10,0:0:0:0:
252,182,361435,1,4,0:0:0:0:
200,210,361502,1,10,0:0:0:0:
152,244,361569,1,4,0:0:0:0:
140,302,361636,1,10,0:0:0:0:
170,352,361703,1,4,0:0:0:0:
226,369,361770,1,10,0:0:0:0:
279,343,361837,1,4,0:0:0:0:
300,288,361904,1,10,0:0:0:0:
307,229,361971,1,4,0:0:0:0:
352,191,362038,1,10,0:0:0:0:
411,193,362104,1,4,0:0:0:0:
453,233,362171,1,10,0:0:0:0:
458,291,362238,1,4,0:0:0:0:
422,338,362305,86,0,L|356:358,1,59.9999981689454,4|4,0:0|0:0,0:0:0:0:
431,110,362439,2,0,L|497:90,1,59.9999981689454,4|4,0:0|0:0,0:0:0:0:
300,288,362573,2,0,L|234:308,1,59.9999981689454,4|4,0:0|0:0,0:0:0:0:
325,57,362707,2,0,L|391:37,1,59.9999981689454,4|4,0:0|0:0,0:0:0:0:
105,233,362841,22,0,L|87:290,1,59.9999981689454,4|0,0:0|0:0,0:0:0:0:
282,230,362975,2,0,L|299:287,1,59.9999981689454,4|0,0:0|0:0,0:0:0:0:
36,153,363109,2,0,L|18:210,1,59.9999981689454,6|0,0:0|0:0,0:0:0:0:
348,150,363243,2,0,L|365:207,1,59.9999981689454,4|0,0:0|0:0,0:0:0:0:
33,347,363377,101,4,0:0:0:0:
90,362,363444,1,8,0:0:0:0:
147,347,363511,2,0,L|173:284,1,59.9999981689454,8|8,0:0|0:0,0:0:0:0:
437,343,363645,5,4,0:0:0:0:
380,358,363712,1,8,0:0:0:0:
323,343,363779,2,0,L|296:280,1,59.9999981689454,8|8,0:0|0:0,0:0:0:0:
220,86,363913,69,4,0:0:0:0:
183,137,363979,1,8,0:0:0:0:
199,198,364046,1,8,0:0:0:0:
256,225,364113,1,8,0:0:0:0:
313,198,364180,1,8,0:0:0:0:
330,138,364247,1,8,0:0:0:0:
294,86,364314,2,0,L|256:148,1,72.5000022125245,8|8,0:0|0:0,0:0:0:0:
238,360,364448,38,0,B|199:264|61:251|61:251|81:200|69:166|13:140|13:140|47:99|46:41|6:-2|6:-2|150:8|184:160|184:160|170:97|200:48|200:48|216:88|216:88|256:64|296:88|296:88|312:48|312:48|346:97|330:161|330:161|369:10|511:4|511:4|461:47|456:110|499:150|499:150|447:177|438:223|456:271|456:271|312:259|269:369,1,1968.0000300293,6|0,0:0|0:0,0:0:0:0:
256,192,370944,12,0,375966,0:0:0:0:
