osu file format v14

[General]
AudioFilename: audio.mp3
AudioLeadIn: 0
PreviewTime: 328857
Countdown: 1
SampleSet: None
StackLeniency: 0.7
Mode: 0
LetterboxInBreaks: 0
WidescreenStoryboard: 0

[Editor]
DistanceSpacing: 1.3
BeatDivisor: 4
GridSize: 4
TimelineZoom: 3.599999

[Metadata]
Title:Gekiai no Yobigoe ga Dekiai no Kyougoe wo Kurau
TitleUnicode:Gekiai no Yobigoe ga Dekiai no Kyougoe wo Kurau
Artist:Imperial Circus Dead Decadence
ArtistUnicode:Imperial Circus Dead Decadence
Creator:Stoof
Version:Retribution
Source:
Tags:
BeatmapID:997365
BeatmapSetID:465924

[Difficulty]
HPDrainRate:6
CircleSize:4
OverallDifficulty:9.3
ApproachRate:9.6
SliderMultiplier:1.8
SliderTickRate:1

[Events]
//Background and Video events
0,0,"heartofstone.png",0,0
//Break Periods
2,209057,214348
2,239338,242133
2,242842,247133
2,312928,328418
//Storyboard Layer 0 (Background)
//Storyboard Layer 1 (Fail)
//Storyboard Layer 2 (Pass)
//Storyboard Layer 3 (Foreground)
//Storyboard Sound Samples

[TimingPoints]
0,285.714285714286,4,3,0,70,1,0
13571,-100,4,3,0,70,0,0
20571,-100,4,3,0,70,0,1
24000,-86.9565217391304,4,3,0,70,0,1
24428,-100,4,3,0,70,0,1
32000,-100,4,3,0,70,0,0
37928,-100,4,3,0,60,0,0
38285,-100,4,3,0,55,0,0
38500,-100,4,3,0,40,0,0
38857,-100,4,3,0,70,0,1
47357,-100,4,3,0,55,0,1
48000,-100,4,3,0,70,0,1
51428,-80,4,3,0,70,0,1
51714,-100,4,3,0,70,0,1
64000,-133.333333333333,4,3,0,70,0,1
64571,-100,4,3,0,70,0,1
67428,-100,4,3,0,70,0,0
82571,-80,4,3,0,70,0,0
83000,-80,4,3,0,55,0,0
83428,-80,4,3,0,40,0,0
84000,-80,4,3,0,70,0,1
85714,-90.9090909090909,4,3,0,70,0,1
102000,-125,4,3,0,70,0,0
106714,-90.9090909090909,4,3,0,70,0,1
115428,-71.4285714285714,4,3,0,70,0,0
116000,-90.9090909090909,4,3,0,70,0,0
120571,-100,4,3,0,70,0,0
121714,-90.9090909090909,4,3,0,70,0,0
125142,-117.647058823529,4,3,0,70,0,0
127428,-90.9090909090909,4,3,0,70,0,0
130857,-166.666666666667,4,3,0,70,0,0
132285,-188.679245283019,4,3,0,70,0,0
134142,-142.857142857143,4,3,0,70,0,0
135428,-100,4,3,0,70,0,0
138857,-100,4,3,0,70,0,0
141142,-100,4,3,0,70,0,1
143428,-100,4,3,0,70,0,0
145714,-100,4,3,0,70,0,1
148000,-100,4,3,0,70,0,0
150285,-100,4,3,0,70,0,1
152571,-100,4,3,0,70,0,0
157142,-100,4,3,0,70,0,1
169714,-90.9090909090909,4,3,0,70,0,0
177714,-90.9090909090909,4,3,0,70,0,0
182285,-111.111111111111,4,3,0,70,0,0
182571,-90.9090909090909,4,3,0,70,0,0
183142,-111.111111111111,4,3,0,70,0,0
183428,-90.9090909090909,4,3,0,70,0,0
186857,-125,4,3,0,70,0,0
190285,-100,4,3,0,70,0,0
191285,-90.9090909090909,4,3,0,70,0,1
193714,-80,4,3,0,70,0,1
196000,-80,4,3,0,70,0,1
202857,375,4,3,0,70,1,0
202857,-80,4,3,0,70,0,0
214857,-125,4,3,0,70,0,0
242642,285.714285714286,4,3,0,70,1,0
249499,-200,4,3,0,70,0,0
250642,-100,4,3,0,70,0,0
266642,-83.3333333333333,4,3,0,70,0,0
267784,-71.4285714285714,4,3,0,70,0,0
268928,-66.6666666666667,4,3,0,70,0,0
269499,-200,4,3,0,70,0,0
269999,-90.9090909090909,4,3,0,70,0,1
271784,-86.9565217391304,4,3,0,70,0,1
279213,-100,4,3,0,70,0,0
294642,-90.9090909090909,4,3,0,70,0,1
312927,-90.9090909090909,4,3,0,70,0,0
328927,-83.3333333333333,4,3,0,70,0,0
330070,-76.9230769230769,4,3,0,70,0,0
331213,-71.4285714285714,4,3,0,70,0,0
332356,-66.6666666666667,4,3,0,70,0,0
333499,-90.9090909090909,4,3,0,70,0,1
340784,-83.3333333333333,4,3,0,70,0,1
341213,-90.9090909090909,4,3,0,70,0,1
344927,-90.9090909090909,4,3,0,70,0,0
351784,-125,4,3,0,70,0,0
354070,-133.333333333333,4,3,0,70,0,1
358642,-90.9090909090909,4,3,0,70,0,1
370070,-80,4,3,0,70,0,1
390642,-80,4,3,0,70,0,0

[HitObjects]
205,348,0,6,0,P|160:348|120:327,1,90
88,172,285,2,0,B|132:177|174:205,1,90,8|0,3:0|0:0,0:0:0:0:
169,202,500,1,0,0:0:0:0:
169,202,571,1,8,3:0:0:0:
350,297,714,1,0,0:0:0:0:
350,297,857,2,0,B|298:307|240:278,1,90,8|0,3:0|0:0,0:0:0:0:
148,108,1143,5,8,3:0:0:0:
383,192,1286,1,0,0:0:0:0:
200,190,1428,1,8,3:0:0:0:
401,109,1571,5,0,0:0:0:0:
401,109,1642,1,0,0:0:0:0:
401,109,1714,2,0,P|395:157|379:212,1,90,8|0,0:0|0:0,0:0:0:0:
200,190,2000,2,0,P|156:201|100:190,1,90,8|0,0:0|0:0,0:0:0:0:
300,304,2285,5,10,0:0:0:0:
154,120,2428,1,0,0:0:0:0:
402,47,2571,2,0,B|380:44|380:44|398:80|404:136,1,90,8|0,0:0|0:0,0:0:0:0:
434,229,2857,1,8,0:0:0:0:
158,203,3000,1,0,0:0:0:0:
158,203,3071,1,0,0:0:0:0:
158,203,3142,2,0,P|227:199|259:207,1,90,8|0,0:0|0:0,0:0:0:0:
344,84,3428,5,8,0:0:0:0:
260,316,3571,1,0,0:0:0:0:
260,84,3713,1,0,2:0:0:0:
340,312,3856,1,0,0:0:0:0:
352,72,4000,5,8,0:0:0:0:
248,324,4143,1,0,0:0:0:0:
252,72,4285,1,8,1:0:0:0:
348,324,4428,1,0,0:0:0:0:
423,112,4571,6,0,P|385:146|335:155,1,90,10|0,0:0|0:0,0:0:0:0:
173,191,4857,2,0,B|225:196|225:196|281:223,1,90,8|0,0:0|0:0,0:0:0:0:
260,213,5071,1,0,0:0:0:0:
260,213,5142,1,8,0:0:0:0:
333,45,5285,1,0,0:0:0:0:
333,45,5428,2,0,B|311:51|286:47|286:47|254:57|226:85,1,90,8|0,0:0|0:0,0:0:0:0:
88,212,5714,5,8,0:0:0:0:
319,141,5857,1,0,0:0:0:0:
182,240,6000,1,8,0:0:0:0:
308,333,6142,5,0,0:0:0:0:
308,333,6214,1,0,0:0:0:0:
308,333,6285,2,8,P|367:330|415:300,1,90,8|0,0:0|0:0,0:0:0:0:
319,141,6571,2,0,P|345:102|346:47,1,90,8|0,0:0|0:0,0:0:0:0:
56,124,6857,5,10,0:0:0:0:
216,284,7000,1,0,0:0:0:0:
271,76,7142,1,8,0:0:0:0:
62,131,7285,1,0,0:0:0:0:
62,131,7357,1,0,0:0:0:0:
62,131,7428,2,0,P|68:185|98:239,1,90,8|0,0:0|0:0,0:0:0:0:
204,320,7714,2,0,P|228:268|232:204,1,90,8|0,0:0|0:0,0:0:0:0:
172,136,8000,5,8,0:0:0:0:
312,56,8142,1,0,0:0:0:0:
312,220,8285,1,8,1:0:0:0:
172,136,8428,1,0,0:0:0:0:
380,116,8571,5,8,0:0:0:0:
208,232,8714,1,0,0:0:0:0:
216,48,8857,1,8,2:0:0:0:
446,171,9000,5,0,0:0:0:0:
446,171,9071,1,0,0:0:0:0:
446,171,9142,2,0,P|400:195|327:180,1,90,10|0,0:0|0:0,0:0:0:0:
220,127,9428,2,0,P|174:103|114:97,1,90,8|0,0:0|0:0,0:0:0:0:
45,27,9714,5,8,0:0:0:0:
89,261,9857,1,0,0:0:0:0:
137,97,10000,1,8,0:0:0:0:
256,200,10142,5,0,0:0:0:0:
256,200,10214,1,0,0:0:0:0:
256,200,10285,2,0,P|308:184|368:188,1,90,8|0,0:0|0:0,0:0:0:0:
400,336,10571,2,0,P|344:348|280:344,1,90,8|0,0:0|0:0,0:0:0:0:
174,321,10857,1,8,0:0:0:0:
132,103,11000,1,0,0:0:0:0:
134,249,11142,5,8,0:0:0:0:
224,25,11285,1,0,0:0:0:0:
92,325,11428,6,0,P|107:277|150:242,1,90,10|0,0:0|0:0,0:0:0:0:
344,132,11714,2,0,P|352:76|352:32,1,90,8|0,0:0|0:0,0:0:0:0:
352,42,11928,1,0,0:0:0:0:
352,42,12000,1,8,0:0:0:0:
115,121,12142,1,0,0:0:0:0:
115,121,12285,2,0,P|140:166|197:208,1,90,8|0,0:0|0:0,0:0:0:0:
344,132,12571,5,8,0:0:0:0:
444,360,12714,1,0,0:0:0:0:
456,140,12857,1,8,0:0:0:0:
332,352,13000,1,0,0:0:0:0:
428,244,13142,5,8,0:0:0:0:
292,264,13285,1,0,0:0:0:0:
344,132,13428,1,8,0:0:0:0:
170,222,13571,5,0,0:0:0:0:
170,222,13642,1,0,0:0:0:0:
170,222,13714,2,0,P|214:217|261:198,1,90,10|0,0:0|0:0,0:0:0:0:
212,52,14000,1,8,0:0:0:0:
216,316,14142,1,0,0:0:0:0:
422,103,14285,5,8,0:0:0:0:
256,200,14428,1,0,0:0:0:0:
337,68,14571,1,8,0:0:0:0:
380,304,14714,5,0,0:0:0:0:
380,304,14785,1,0,0:0:0:0:
380,304,14857,2,0,P|320:320|268:324,1,90,8|0,0:0|0:0,0:0:0:0:
132,312,15142,2,0,P|116:256|120:196,1,90,8|0,0:0|0:0,0:0:0:0:
340,192,15428,5,8,0:0:0:0:
187,253,15571,1,0,0:0:0:0:
426,284,15714,1,8,0:0:0:0:
126,147,15857,1,0,0:0:0:0:
289,54,16000,5,0,0:0:0:0:
311,79,16071,1,0,0:0:0:0:
329,107,16142,1,0,0:0:0:0:
343,138,16214,1,0,0:0:0:0:
352,170,16285,2,0,P|363:221|352:284,1,90,4|0,3:0|0:0,0:0:0:0:
154,215,16571,5,10,0:0:0:0:
146,179,16642,1,0,0:0:0:0:
126,147,16714,1,0,0:0:0:0:
94,131,16785,1,0,0:0:0:0:
58,135,16857,5,0,0:0:0:0:
90,95,16928,1,0,0:0:0:0:
130,67,17000,1,0,0:0:0:0:
178,55,17071,1,0,0:0:0:0:
226,59,17142,1,10,0:0:0:0:
274,75,17214,1,0,0:0:0:0:
314,103,17285,1,0,0:0:0:0:
350,139,17357,1,0,0:0:0:0:
326,135,17428,5,10,0:0:0:0:
303,138,17499,1,0,0:0:0:0:
284,148,17570,1,0,0:0:0:0:
268,164,17642,1,0,0:0:0:0:
258,185,17713,1,10,0:0:0:0:
255,207,17785,1,0,0:0:0:0:
259,229,17856,1,0,0:0:0:0:
270,248,17928,1,0,0:0:0:0:
286,264,17999,1,10,0:0:0:0:
306,273,18070,1,0,0:0:0:0:
329,276,18142,1,0,0:0:0:0:
351,271,18213,1,0,0:0:0:0:
376,261,18285,5,10,0:0:0:0:
256,192,18357,12,0,20285,0:0:0:0:
168,84,20571,6,0,P|220:96|268:136,1,90,10|0,0:0|0:0,0:0:0:0:
392,192,20857,1,8,0:0:0:0:
392,192,20928,1,0,0:0:0:0:
392,192,21000,1,0,0:0:0:0:
266,269,21142,1,8,0:0:0:0:
323,93,21285,1,0,0:0:0:0:
336,64,21356,1,0,0:0:0:0:
346,34,21428,1,8,0:0:0:0:
408,288,21571,5,0,0:0:0:0:
408,288,21714,2,0,P|353:281|285:292,1,90,8|0,0:0|0:0,0:0:0:0:
100,316,22000,2,0,P|154:322|222:311,1,90,8|0,0:0|0:0,0:0:0:0:
408,288,22285,1,8,0:0:0:0:
100,316,22428,1,0,0:0:0:0:
312,344,22571,1,8,0:0:0:0:
204,262,22714,1,0,0:0:0:0:
352,130,22857,6,0,P|301:126|238:142,1,90,10|0,0:0|0:0,0:0:0:0:
116,184,23142,1,0,0:0:0:0:
116,184,23214,1,0,0:0:0:0:
116,184,23285,1,0,0:0:0:0:
228,288,23428,2,0,P|284:296|340:288,1,90,8|0,1:0|0:0,0:0:0:0:
262,132,23714,2,0,P|209:128|155:102,1,90,0|0,0:0|2:0,0:0:0:0:
36,31,24000,6,0,B|32:88|32:88|52:155,1,103.500001974106,2|0,1:0|0:0,0:0:0:0:
216,188,24285,1,0,0:0:0:0:
216,188,24428,2,0,P|272:220|304:264,1,90,0|0,1:0|0:0,0:0:0:0:
440,184,24714,2,0,P|428:132|400:92,1,90,0|0,1:0|0:0,0:0:0:0:
232,92,25000,6,0,P|256:48|276:12,2,90,0|10|0,0:0|0:0|0:0,0:0:0:0:
168,236,25428,1,8,0:0:0:0:
168,236,25500,1,0,0:0:0:0:
168,236,25571,1,0,0:0:0:0:
366,261,25714,1,8,0:0:0:0:
252,134,25857,1,0,0:0:0:0:
232,92,25929,1,0,0:0:0:0:
214,50,26000,1,8,0:0:0:0:
308,316,26142,1,0,0:0:0:0:
96,276,26285,6,0,P|116:224|140:188,1,90,8|0,0:0|0:0,0:0:0:0:
214,50,26571,2,0,P|233:104|270:154,1,90,8|0,0:0|0:0,0:0:0:0:
392,120,26857,1,8,0:0:0:0:
308,316,27000,1,0,0:0:0:0:
128,244,27142,1,8,0:0:0:0:
204,52,27285,1,0,0:0:0:0:
284,216,27428,5,10,1:0:0:0:
284,216,27500,1,0,0:0:0:0:
284,216,27571,1,0,0:0:0:0:
128,244,27714,2,0,P|108:200|100:148,1,90
224,88,28000,2,0,B|254:69|254:69|273:41|273:41|305:22,2,90,8|0|0,1:0|0:0|1:0,0:0:0:0:
100,159,28428,1,0,0:0:0:0:
140,288,28571,2,0,P|188:296|248:296,1,90,8|0,1:0|0:0,0:0:0:0:
344,36,28857,5,0,0:0:0:0:
344,36,29000,2,0,B|308:96|308:96|304:160|304:160|276:220,1,180,2|0,1:0|1:0,0:0:0:0:
144,260,29428,2,0,P|196:296|264:312,1,90,8|0,1:0|0:0,0:0:0:0:
465,254,29714,5,8,0:0:0:0:
435,263,29785,1,0,0:0:0:0:
404,272,29857,1,0,0:0:0:0:
279,306,30000,1,8,0:0:0:0:
395,154,30142,1,0,0:0:0:0:
413,112,30214,1,0,0:0:0:0:
431,71,30285,1,8,0:0:0:0:
465,254,30428,1,0,0:0:0:0:
272,51,30571,6,0,B|274:76|274:76|316:156,1,90,8|0,0:0|0:0,0:0:0:0:
386,280,30857,2,0,P|338:296|273:288,1,90,8|0,0:3|0:3,0:3:0:0:
164,280,31142,2,0,P|116:264|51:271,1,90,8|0,0:3|0:3,0:3:0:0:
204,116,31428,1,8,0:0:0:0:
308,352,31571,1,0,0:0:0:0:
308,208,31714,1,8,0:0:0:0:
204,256,31857,1,0,0:0:0:0:
424,288,32000,5,2,0:0:0:0:
424,288,32071,1,0,0:0:0:0:
424,288,32142,1,0,0:0:0:0:
424,152,32285,2,0,B|420:127|420:127|426:98|426:98|419:46,1,90
232,92,32571,2,0,P|218:142|223:208,1,90,2|0,2:0|0:0,0:0:0:0:
311,289,32857,2,0,P|271:329|211:345,1,90
72,288,33142,6,0,B|76:228|76:228|60:184|60:184|68:96,1,180,8|0,1:0|0:0,0:0:0:0:
253,40,33571,2,0,B|301:56|301:56|349:48|349:48|397:48|437:68,1,180
353,139,34000,1,0,1:0:0:0:
89,85,34142,1,0,0:0:0:0:
423,36,34285,6,0,B|431:61|419:84|419:84|465:158|399:219|399:219,1,180,10|0,2:0|0:0,0:0:0:0:
264,309,34714,2,0,B|256:253|256:253|268:205|268:205|240:113,1,180
76,96,35142,2,0,L|92:208,1,90,0|0,2:0|0:0,0:0:0:0:
200,312,35428,6,0,B|232:320|260:308|260:308|331:341|330:289|396:326,1,180,8|0,1:0|0:0,0:0:0:0:
344,48,35857,2,0,B|372:112|372:112|372:164|372:164|396:220,1,180,0|0,1:0|0:0,0:0:0:0:
217,141,36285,1,0,2:0:0:0:
279,322,36428,1,0,0:0:0:0:
56,164,36571,6,0,B|98:166|120:136|120:136|132:100|132:100|160:68|216:44|280:60|312:92,1,270,2|0,1:0|0:0,0:0:0:0:
435,167,37142,5,8,1:0:0:0:
387,179,37214,1,0,0:0:0:0:
339,195,37285,1,0,0:0:0:0:
291,211,37357,1,0,0:0:0:0:
237,225,37428,2,0,L|195:239,3,45
64,200,37714,5,8,2:0:0:0:
92,156,37785,1,0,0:0:0:0:
132,120,37857,1,0,0:0:0:0:
184,104,37928,1,0,0:0:0:0:
240,100,38000,1,0,0:0:0:0:
292,116,38071,1,0,0:0:0:0:
340,144,38142,1,0,0:0:0:0:
372,188,38214,1,0,0:0:0:0:
380,224,38285,5,8,2:0:0:0:
344,212,38357,1,0,0:0:0:0:
312,212,38428,1,0,0:0:0:0:
284,224,38500,1,0,0:0:0:0:
256,240,38571,1,0,0:0:0:0:
228,252,38642,1,0,0:0:0:0:
196,256,38714,1,0,0:0:0:0:
164,248,38785,1,0,0:0:0:0:
136,232,38857,6,0,P|100:200|80:148,1,90,14|0,0:0|0:0,0:0:0:0:
211,18,39142,2,0,B|230:70|279:103,1,90,8|0,0:0|0:0,0:0:0:0:
263,91,39357,1,0,0:0:0:0:
263,91,39428,1,8,0:0:0:0:
448,204,39571,1,0,0:0:0:0:
448,204,39714,2,8,B|396:210|396:210|333:192,1,90,8|0,0:0|0:0,0:0:0:0:
188,152,40000,5,8,0:0:0:0:
288,300,40142,1,0,0:0:0:0:
263,91,40285,1,8,0:0:0:0:
64,144,40428,5,0,0:0:0:0:
64,144,40500,1,0,0:0:0:0:
64,144,40571,2,0,P|84:200|120:240,1,90,8|0,0:0|0:0,0:0:0:0:
288,300,40857,2,0,P|305:257|306:192,1,90,8|0,0:0|0:0,0:0:0:0:
320,12,41142,5,10,0:0:0:0:
360,240,41285,1,0,0:0:0:0:
159,93,41428,2,0,B|207:77|207:77|281:78,1,90,8|0,0:0|0:0,0:0:0:0:
444,76,41714,1,8,0:0:0:0:
224,172,41857,1,0,0:0:0:0:
224,172,41928,1,0,0:0:0:0:
224,172,42000,2,0,P|173:172|125:187,1,90,8|0,0:0|0:0,0:0:0:0:
344,224,42285,5,8,0:0:0:0:
396,16,42428,1,0,0:0:0:0:
448,224,42571,1,8,0:0:0:0:
224,136,42714,1,0,0:0:0:0:
224,136,42785,1,0,0:0:0:0:
224,136,42857,2,0,B|96:156,1,90,8|0,0:0|0:0,0:0:0:0:
112,328,43142,2,0,B|232:308,1,90,8|0,0:0|0:0,0:0:0:0:
337,121,43428,5,10,0:0:0:0:
280,336,43571,1,0,0:0:0:0:
106,178,43714,2,0,B|138:138|138:138|186:106,1,90,8|0,0:0|0:0,0:0:0:0:
410,200,44000,1,8,0:0:0:0:
195,201,44142,1,0,0:0:0:0:
195,201,44214,1,0,0:0:0:0:
195,201,44285,2,0,P|235:220|290:215,1,90,8|0,0:0|0:0,0:0:0:0:
410,200,44571,5,8,0:0:0:0:
194,316,44714,1,0,0:0:0:0:
218,60,44857,1,8,0:0:0:0:
410,200,45000,1,0,0:0:0:0:
410,200,45071,1,0,0:0:0:0:
410,200,45142,2,0,L|306:208,1,90,8|0,1:0|0:0,0:0:0:0:
112,288,45428,2,0,L|216:280,1,90,8|0,1:0|0:0,0:0:0:0:
141,33,45714,5,2,1:0:0:0:
201,281,45857,1,0,0:0:0:0:
141,33,46000,2,0,B|149:65|149:65|149:89|149:89|169:145,1,90
367,228,46285,2,0,L|411:224,2,45,8|0|0,1:0|0:0|0:0,0:0:0:0:
144,224,46571,2,0,L|100:220,2,45,8|0|0,1:0|0:0|0:0,0:0:0:0:
372,135,46857,5,8,1:0:0:0:
400,176,46928,1,0,0:0:0:0:
412,224,47000,1,0,0:0:0:0:
404,272,47071,1,0,0:0:0:0:
372,308,47142,1,0,0:0:0:0:
324,320,47214,1,0,0:0:0:0:
276,308,47285,1,0,0:0:0:0:
236,276,47357,1,0,0:0:0:0:
192,252,47428,1,8,2:0:0:0:
144,244,47500,1,0,0:0:0:0:
96,244,47571,1,0,0:0:0:0:
48,260,47642,1,0,0:0:0:0:
84,276,47714,5,8,2:0:0:0:
124,280,47785,1,0,0:0:0:0:
164,268,47857,1,0,0:0:0:0:
196,248,47928,1,0,0:0:0:0:
224,216,48000,6,0,P|244:168|244:112,1,90,10|0,0:0|0:0,0:0:0:0:
360,276,48285,1,8,0:0:0:0:
360,276,48357,1,0,0:0:0:0:
360,276,48428,1,0,0:0:0:0:
120,240,48571,1,8,0:0:0:0:
380,160,48714,1,0,0:0:0:0:
380,160,48786,1,0,0:0:0:0:
380,160,48857,1,8,0:0:0:0:
184,320,49000,1,0,0:0:0:0:
184,56,49142,6,0,B|184:92|184:92|192:120|192:120|192:160,1,90,8|0,0:0|0:0,0:0:0:0:
276,324,49428,2,0,B|304:289|313:229,1,90,8|0,0:0|0:0,0:0:0:0:
336,48,49714,1,8,0:0:0:0:
184,320,49857,1,0,0:0:0:0:
387,245,50000,1,8,0:0:0:0:
248,147,50143,1,0,0:0:0:0:
184,320,50285,6,0,B|215:283|215:283|263:253,1,90,10|0,0:0|0:0,0:0:0:0:
375,165,50571,1,0,2:0:0:0:
375,165,50642,1,0,0:0:0:0:
375,165,50714,1,0,0:0:0:0:
278,48,50857,1,0,1:0:0:0:
160,228,51000,5,0,0:0:0:0:
160,228,51071,1,0,0:0:0:0:
160,228,51142,1,0,2:0:0:0:
375,165,51285,1,0,0:0:0:0:
192,52,51428,2,0,B|199:31|199:31|196:99|258:142,1,112.5,10|0,2:0|0:0,0:0:0:0:
326,330,51714,5,0,0:0:0:0:
326,330,51857,2,0,P|271:335|198:318,1,90,8|0,1:0|2:0,0:0:0:0:
128,283,52142,2,0,P|104:239|100:171,1,90,8|0,1:0|0:0,0:0:0:0:
276,25,52428,6,0,B|183:68|188:182,1,180,10|0,1:0|0:0,0:0:0:0:
210,268,52857,1,8,1:0:0:0:
210,268,52928,1,0,0:0:0:0:
210,268,53000,1,0,0:0:0:0:
292,142,53142,1,8,1:0:0:0:
363,286,53285,1,0,0:0:0:0:
332,292,53357,1,0,0:0:0:0:
302,300,53428,1,8,0:0:0:0:
75,340,53571,1,0,0:0:0:0:
142,79,53714,6,0,B|166:61|166:61|200:83|256:51,1,90,10|0,0:0|0:0,0:0:0:0:
410,37,54000,2,0,P|422:93|414:157,1,90,8|0,0:0|0:0,0:0:0:0:
412,280,54285,1,8,0:0:0:0:
184,32,54428,1,0,0:0:0:0:
328,188,54571,1,8,0:0:0:0:
256,108,54714,1,0,0:0:0:0:
292,293,54857,6,0,B|268:313|228:317|184:305,1,90,10|0,0:0|0:0,0:0:0:0:
72,292,55142,1,8,1:0:0:0:
72,292,55214,1,0,0:0:0:0:
72,292,55285,1,0,0:0:0:0:
158,126,55428,1,8,0:0:0:0:
285,266,55571,1,0,0:0:0:0:
292,293,55642,1,0,0:0:0:0:
300,323,55714,1,8,1:0:0:0:
246,107,55857,5,0,0:0:0:0:
246,107,56000,2,0,P|231:163|229:227,1,90,8|0,1:0|0:0,0:0:0:0:
226,330,56285,1,0,0:0:0:0:
237,25,56428,2,0,B|253:73|222:100|222:100|195:148|245:225,1,180,2|0,1:0|0:0,0:0:0:0:
165,288,56857,2,0,P|134:248|122:199,1,90,0|0,1:0|0:0,0:0:0:0:
273,68,57142,6,0,L|318:163,1,90,2|0,0:0|0:0,0:0:0:0:
368,272,57428,1,8,0:0:0:0:
378,292,57500,1,0,0:0:0:0:
387,312,57571,1,0,0:0:0:0:
256,92,57714,1,8,0:0:0:0:
208,328,57857,1,0,0:0:0:0:
232,307,57928,1,0,0:0:0:0:
256,287,58000,1,8,0:0:0:0:
434,151,58142,1,0,0:0:0:0:
256,92,58285,6,0,B|280:72|280:72|316:92|368:68,1,90,8|0,0:0|0:0,0:0:0:0:
362,256,58571,2,0,P|354:312|330:360,1,90,8|0,0:0|0:0,0:0:0:0:
368,48,58857,5,8,0:0:0:0:
144,96,59000,1,0,0:0:0:0:
276,280,59142,1,8,0:0:0:0:
268,120,59285,1,0,0:0:0:0:
108,192,59428,5,10,0:0:0:0:
108,192,59500,1,0,0:0:0:0:
108,192,59571,1,0,0:0:0:0:
316,212,59714,6,0,P|264:205|207:237,1,90
228,88,60000,1,8,0:0:0:0:
272,340,60142,1,0,0:0:0:0:
260,88,60285,1,0,0:0:0:0:
240,340,60427,1,0,0:0:0:0:
465,134,60571,6,0,B|397:126|397:126|357:98|357:98|281:94,1,180,8|0,1:0|0:0,0:0:0:0:
136,42,61000,2,0,B|101:22|101:22|90:98|130:166,1,180
413,99,61428,1,8,1:0:0:0:
125,157,61571,1,0,0:0:0:0:
460,187,61714,6,0,B|380:199|380:199|340:227|340:227|268:239,1,180,2|0,2:0|0:0,0:0:0:0:
80,264,62142,2,0,B|80:200|80:200|96:156|96:156|96:76,1,180
252,320,62571,1,8,2:0:0:0:
212,32,62714,1,0,0:0:0:0:
252,320,62857,2,0,B|300:308|300:308|348:316,1,90,2|0,1:0|0:0,0:0:0:0:
252,229,63142,1,0,0:0:0:0:
252,229,63285,2,0,B|200:249|200:249|164:301|164:301|84:329,1,180
144,176,63714,5,8,1:0:0:0:
403,134,63857,1,0,0:0:0:0:
81,37,64000,2,0,B|126:122|23:135|85:242,1,202.500007724762,10|0,0:0|0:0,0:0:0:0:
232,316,64571,5,8,0:0:0:0:
248,304,64642,1,0,0:0:0:0:
268,292,64714,1,0,0:0:0:0:
288,280,64785,1,0,0:0:0:0:
308,272,64857,1,0,0:0:0:0:
324,260,64928,1,0,0:0:0:0:
344,248,65000,1,0,0:0:0:0:
364,236,65071,1,0,0:0:0:0:
408,248,65142,5,10,1:0:0:0:
432,208,65214,1,0,0:0:0:0:
440,164,65285,1,0,0:0:0:0:
428,120,65357,1,0,0:0:0:0:
400,84,65428,1,0,0:0:0:0:
360,60,65500,1,0,0:0:0:0:
316,52,65571,1,0,0:0:0:0:
272,64,65642,1,0,0:0:0:0:
316,80,65714,5,8,2:0:0:0:
352,108,65785,1,0,0:0:0:0:
376,148,65857,1,0,0:0:0:0:
388,192,65928,1,0,0:0:0:0:
380,236,66000,1,0,0:0:0:0:
356,272,66071,1,0,0:0:0:0:
316,292,66142,1,0,0:0:0:0:
272,300,66214,1,0,0:0:0:0:
228,292,66285,2,0,P|184:272|140:232,1,90,8|0,0:0|0:0,0:0:0:0:
60,64,66571,5,8,0:0:0:0:
76,56,66642,1,0,0:0:0:0:
92,52,66714,1,0,0:0:0:0:
108,52,66785,1,0,0:0:0:0:
124,56,66857,1,8,3:0:0:0:
140,64,66928,1,0,0:0:0:0:
148,80,67000,1,0,0:0:0:0:
156,96,67071,1,0,0:0:0:0:
164,112,67142,1,8,3:0:0:0:
176,124,67214,1,0,0:0:0:0:
192,132,67285,1,0,0:0:0:0:
208,136,67357,1,0,0:0:0:0:
224,136,67428,5,4,0:0:0:0:
76,324,68571,5,0,0:0:0:0:
76,324,68714,1,0,0:0:0:0:
76,324,68857,2,0,B|68:296|68:296|72:264|72:264|60:220,1,90,8|0,0:0|0:0,0:0:0:0:
252,324,69142,2,0,B|244:296|244:296|248:264|248:264|236:220,1,90,8|0,0:0|0:0,0:0:0:0:
436,60,69428,5,0,0:0:0:0:
436,60,69571,1,0,0:0:0:0:
436,60,69714,2,0,B|444:88|444:88|440:120|440:120|452:164,1,90,8|0,0:0|0:0,0:0:0:0:
260,60,69999,2,0,B|268:88|268:88|264:120|264:120|276:164,1,90,8|0,0:0|0:0,0:0:0:0:
76,168,70285,1,0,0:0:0:0:
76,168,70428,1,0,0:0:0:0:
76,168,70571,2,0,B|109:157|109:157|144:161|144:161|189:146,1,90,10|0,1:0|0:0,0:0:0:0:
413,56,70857,5,8,1:0:0:0:
416,100,70928,1,0,0:0:0:0:
420,144,71000,2,0,L|424:212,1,45
316,336,71142,5,0,1:0:0:0:
308,292,71213,1,0,0:0:0:0:
304,248,71285,2,0,L|300:180,1,45
288,44,71428,5,8,2:0:0:0:
244,52,71500,1,0,0:0:0:0:
204,72,71571,1,0,0:0:0:0:
172,104,71642,1,0,0:0:0:0:
152,144,71714,1,8,1:0:0:0:
140,188,71785,1,0,0:0:0:0:
144,232,71857,1,0,0:0:0:0:
156,276,71928,1,0,0:0:0:0:
180,312,72000,5,12,1:0:0:0:
436,52,73142,5,0,0:0:0:0:
214,53,73285,1,0,0:0:0:0:
436,52,73428,2,0,B|412:52|412:52|380:64|380:64|324:64,1,90,8|0,0:0|0:0,0:0:0:0:
72,128,73714,2,0,B|96:128|96:128|128:116|128:116|184:116,1,90,8|0,0:0|0:0,0:0:0:0:
338,151,74000,1,0,0:0:0:0:
139,190,74142,1,0,0:0:0:0:
408,212,74285,2,0,B|384:212|384:212|352:224|352:224|296:224,1,90,8|0,0:0|0:0,0:0:0:0:
68,288,74571,2,0,B|92:288|92:288|124:276|124:276|180:276,1,90,8|0,0:0|0:0,0:0:0:0:
408,316,74857,5,0,0:0:0:0:
408,316,75000,1,0,0:0:0:0:
408,316,75142,2,0,B|384:316|384:316|352:328|352:328|296:328,1,90,10|0,1:0|0:0,0:0:0:0:
100,272,75428,5,8,0:0:0:0:
76,236,75500,1,0,0:0:0:0:
64,192,75571,2,0,L|60:148,1,45
160,24,75714,5,0,0:0:0:0:
184,60,75786,1,0,0:0:0:0:
196,104,75857,2,0,L|200:148,1,45
172,276,76000,5,8,0:0:0:0:
208,300,76071,1,0,0:0:0:0:
252,312,76142,1,0,0:0:0:0:
296,308,76214,1,0,0:0:0:0:
336,288,76285,1,10,2:0:0:0:
368,256,76357,1,0,0:0:0:0:
380,212,76428,1,0,0:0:0:0:
376,168,76500,1,0,0:0:0:0:
356,128,76571,5,12,1:0:0:0:
133,130,77714,5,0,0:0:0:0:
132,347,77857,1,0,0:0:0:0:
121,42,78000,2,0,B|121:66|121:66|133:98|133:98|133:154,1,90,8|0,0:0|0:0,0:0:0:0:
207,357,78286,2,0,B|207:333|207:333|195:301|195:301|195:245,1,90,8|0,0:0|0:0,0:0:0:0:
214,110,78572,1,0,0:0:0:0:
269,285,78714,1,0,0:0:0:0:
276,40,78857,2,0,B|276:64|276:64|288:96|288:96|288:152,1,90,8|0,0:0|0:0,0:0:0:0:
355,358,79142,2,0,B|355:334|355:334|343:302|343:302|343:246,1,90,8|0,0:0|0:0,0:0:0:0:
422,59,79428,5,0,0:0:0:0:
424,284,79570,1,0,0:0:0:0:
422,59,79714,2,0,B|422:83|422:83|434:115|434:115|434:171,1,90,10|0,0:0|0:0,0:0:0:0:
440,240,80000,5,8,1:0:0:0:
424,284,80071,1,0,0:0:0:0:
396,320,80142,1,0,0:0:0:0:
360,348,80214,1,0,0:0:0:0:
316,364,80285,1,0,0:0:0:0:
272,364,80357,1,0,0:0:0:0:
232,348,80428,2,0,L|196:308,1,45
72,264,80571,5,8,1:0:0:0:
72,220,80642,1,0,0:0:0:0:
72,176,80714,2,0,L|72:112,1,45
188,36,80857,5,10,1:0:0:0:
188,80,80928,1,0,0:0:0:0:
188,124,81000,2,0,L|188:188,1,45
188,320,81142,5,8,1:0:0:0:
420,240,81428,1,0,0:0:0:0:
92,144,81714,1,8,0:0:0:0:
420,48,82000,1,8,0:0:0:0:
116,72,82285,6,0,B|124:132|124:132|148:172,1,90
268,300,82571,2,0,B|292:264|300:212|288:152,1,112.5,8|0,0:0|0:0,0:0:0:0:
272,32,82857,1,0,0:0:0:0:
376,192,83000,1,0,0:0:0:0:
376,192,83071,1,0,0:0:0:0:
376,192,83142,1,8,0:0:0:0:
152,192,83285,1,0,0:0:0:0:
304,240,83428,5,8,0:0:0:0:
208,144,83571,1,0,0:0:0:0:
292,156,83714,5,8,0:0:0:0:
220,228,83857,1,0,0:0:0:0:
376,40,84000,5,10,1:0:0:0:
376,40,84142,1,0,0:0:0:0:
92,96,84285,1,0,1:0:0:0:
92,96,84427,1,0,0:0:0:0:
376,96,84571,1,8,1:0:0:0:
92,96,84714,1,0,0:0:0:0:
312,156,84857,1,0,0:0:0:0:
144,168,85000,1,0,0:0:0:0:
377,180,85142,5,8,2:0:0:0:
82,207,85285,1,0,0:0:0:0:
325,252,85428,1,0,0:0:0:0:
139,263,85571,1,0,0:0:0:0:
332,168,85714,2,0,B|264:192|264:192|200:184|200:184|112:224,1,198.000006042481,2|0,1:0|0:0,0:0:0:0:
32,316,86142,1,0,0:0:0:0:
320,116,86285,5,10,1:0:0:0:
300,212,86428,1,0,0:0:0:0:
216,264,86571,1,0,0:0:0:0:
160,348,86714,1,8,0:0:0:0:
400,308,86857,5,10,2:0:0:0:
348,200,87000,1,0,0:0:0:0:
240,148,87142,1,0,0:0:0:0:
180,44,87285,1,8,0:0:0:0:
289,336,87428,5,10,1:0:0:0:
381,23,87571,1,0,0:0:0:0:
69,95,87714,1,8,1:0:0:0:
289,336,87857,1,0,0:0:0:0:
381,23,88000,2,0,B|336:52|336:52|296:56|296:56|260:112|260:112|192:112|116:176,1,297.000009063721,8|0,1:0|0:0,0:0:0:0:
400,279,88571,5,10,0:0:0:0:
72,200,88714,1,0,0:0:0:0:
304,164,88857,1,0,0:0:0:0:
72,200,89000,1,0,0:0:0:0:
336,40,89142,5,8,1:0:0:0:
184,108,89285,1,0,0:0:0:0:
336,172,89428,1,0,0:0:0:0:
184,240,89571,1,0,0:0:0:0:
264,316,89714,5,8,2:0:0:0:
352,208,89857,1,0,0:0:0:0:
364,308,90000,1,8,2:0:0:0:
256,220,90143,1,0,0:0:0:0:
444,252,90285,2,0,B|459:224|448:186|448:186|461:138|443:97|443:97|408:144,1,198.000006042481,8|0,2:0|0:0,0:0:0:0:
296,288,90714,1,0,0:0:0:0:
56,248,90857,6,0,B|68:196|68:196|56:160|56:160|72:104|132:68,1,198.000006042481,10|0,1:0|0:0,0:0:0:0:
256,40,91285,1,0,0:0:0:0:
384,76,91428,2,8,B|412:100|416:144|416:144|416:188|448:216,2,148.50000453186,8|0|8,1:0|0:0|0:0,0:0:0:0:
160,120,92000,1,8,0:0:0:0:
160,120,92142,1,0,0:0:0:0:
296,40,92285,5,8,1:0:0:0:
212,228,92428,1,0,0:0:0:0:
280,104,92571,1,8,0:0:0:0:
240,306,92714,1,0,0:0:0:0:
264,168,92857,1,8,2:0:0:0:
270,373,93000,1,0,0:0:0:0:
416,258,93142,6,0,B|404:198|404:198|356:174|356:174|347:113|299:69|220:62,1,297.000009063721,2|0,1:0|0:0,0:0:0:0:
444,64,93714,1,8,1:0:0:0:
120,128,93857,1,0,0:0:0:0:
440,208,94000,1,0,0:0:0:0:
172,20,94142,1,0,0:0:0:0:
92,340,94285,5,8,2:0:0:0:
260,200,94428,1,0,0:0:0:0:
44,244,94571,1,0,0:0:0:0:
252,316,94714,1,0,0:0:0:0:
130,156,94857,2,0,B|174:160|174:160|209:131|209:131|267:103|331:131,1,198.000006042481,8|0,0:0|0:0,0:0:0:0:
444,184,95285,1,0,0:0:0:0:
164,268,95428,5,10,1:0:0:0:
176,120,95571,1,0,0:0:0:0:
176,120,95642,1,0,0:0:0:0:
176,120,95714,1,0,0:0:0:0:
296,208,95857,1,0,0:0:0:0:
136,324,96000,5,8,2:0:0:0:
196,60,96142,1,0,0:0:0:0:
196,60,96214,1,0,0:0:0:0:
196,60,96285,1,0,0:0:0:0:
340,256,96428,1,0,0:0:0:0:
60,132,96571,5,8,1:0:0:0:
380,52,96714,1,0,0:0:0:0:
52,20,96857,5,8,1:0:0:0:
364,128,97000,1,0,0:0:0:0:
52,228,97142,1,8,1:0:0:0:
172,132,97285,5,0,0:0:0:0:
276,216,97428,1,8,2:0:0:0:
360,112,97571,1,0,0:0:0:0:
434,267,97714,6,0,B|407:272|388:293|388:293|356:286|316:303,1,99.0000030212403,10|0,0:0|0:0,0:0:0:0:
344,295,97928,1,0,0:0:0:0:
344,295,98000,1,0,0:0:0:0:
124,322,98142,1,0,0:0:0:0:
104,112,98285,5,8,0:0:0:0:
326,43,98428,1,0,0:0:0:0:
164,22,98571,1,0,0:0:0:0:
250,163,98714,1,0,0:0:0:0:
84,220,98857,6,0,B|61:209|48:184|48:184|47:157|31:134,2,99.0000030212403,8|0|0,0:0|0:0|0:0,0:0:0:0:
180,324,99285,1,0,0:0:0:0:
322,282,99428,2,0,B|314:226|334:186|334:186|339:122|298:86,1,198.000006042481,10|0,0:0|0:0,0:0:0:0:
200,24,99857,1,0,0:0:0:0:
72,124,100000,5,2,1:0:0:0:
80,172,100071,1,0,0:0:0:0:
100,216,100142,1,0,0:0:0:0:
136,252,100214,1,0,0:0:0:0:
180,272,100285,1,0,0:0:0:0:
228,280,100357,1,0,0:0:0:0:
276,272,100428,1,0,0:0:0:0:
320,248,100500,1,0,0:0:0:0:
344,212,100571,5,8,1:0:0:0:
308,176,100642,1,0,0:0:0:0:
264,156,100714,1,0,0:0:0:0:
216,144,100785,1,0,0:0:0:0:
168,148,100857,1,0,0:0:0:0:
124,172,100928,1,0,0:0:0:0:
84,204,101000,1,0,0:0:0:0:
56,244,101071,1,0,0:0:0:0:
44,292,101142,5,4,0:0:0:0:
324,64,102000,5,0,0:0:0:0:
328,88,102071,1,0,0:0:0:0:
332,112,102142,1,0,0:0:0:0:
336,136,102214,1,0,0:0:0:0:
340,160,102285,6,0,B|328:224|352:268|352:268|400:276|440:328,2,216,8|8|0,0:0|0:0|0:0,0:0:0:0:
172,160,103428,2,0,B|184:224|160:268|160:268|112:276|72:328,2,216,8|8|0,0:0|0:0|0:0,0:0:0:0:
256,276,104571,2,0,L|256:56,2,216,8|8|0,0:0|0:0|0:0,0:0:0:0:
140,112,105714,2,0,P|256:40|368:116,1,288,10|0,0:0|0:0,0:0:0:0:
256,192,106571,1,0,0:0:0:0:
116,84,106714,5,0,0:0:0:0:
116,84,106785,1,0,0:0:0:0:
116,84,106857,2,0,P|168:64|228:64,1,99.0000030212403,10|0,0:0|0:0,0:0:0:0:
408,76,107142,1,8,0:0:0:0:
408,76,107214,1,0,0:0:0:0:
408,76,107285,1,0,0:0:0:0:
272,220,107428,2,0,B|236:228|192:220|156:196,1,99.0000030212403,8|0,0:0|0:0,0:0:0:0:
20,332,107714,1,8,0:0:0:0:
20,332,107785,1,0,0:0:0:0:
20,332,107857,1,0,0:0:0:0:
84,144,108000,6,0,B|108:176|108:176|128:248,1,99.0000030212403,8|0,0:0|0:0,0:0:0:0:
176,356,108285,1,8,0:0:0:0:
304,304,108428,2,0,B|356:296|356:296|404:272,2,99.0000030212403,0|8|0,0:0|0:0|0:0,0:0:0:0:
232,184,108857,2,0,P|220:128|192:84,1,99.0000030212403,8|0,0:0|0:0,0:0:0:0:
432,56,109142,6,0,B|396:48|396:48|320:56,1,99.0000030212403,10|0,0:0|0:0,0:0:0:0:
88,140,109428,2,0,B|124:132|124:132|200:140,1,99.0000030212403,8|0,0:0|0:0,0:0:0:0:
436,184,109714,1,8,0:0:0:0:
436,184,109857,1,0,0:0:0:0:
320,300,110000,1,8,0:0:0:0:
280,308,110071,1,0,0:0:0:0:
240,308,110142,1,0,0:0:0:0:
200,300,110214,1,0,0:0:0:0:
152,320,110285,5,8,0:0:0:0:
128,272,110357,1,0,0:0:0:0:
124,220,110428,1,0,0:0:0:0:
136,168,110500,1,0,0:0:0:0:
164,120,110571,1,8,0:0:0:0:
204,84,110642,1,0,0:0:0:0:
256,64,110714,1,0,0:0:0:0:
312,64,110785,1,0,0:0:0:0:
276,84,110857,5,8,0:0:0:0:
248,112,110928,1,0,0:0:0:0:
232,148,111000,1,0,0:0:0:0:
232,188,111071,1,0,0:0:0:0:
244,224,111142,1,8,0:0:0:0:
264,256,111214,1,0,0:0:0:0:
292,284,111285,1,0,0:0:0:0:
328,300,111357,1,0,0:0:0:0:
368,296,111428,6,0,B|400:244|400:244|412:96,1,198.000006042481,10|8,0:0|0:0,0:0:0:0:
212,88,111857,1,0,0:0:0:0:
212,88,111928,1,0,0:0:0:0:
212,88,112000,1,8,0:0:0:0:
336,168,112142,1,0,0:0:0:0:
148,232,112285,2,0,B|184:256|184:256|252:264,1,99.0000030212403,8|0,0:0|0:0,0:0:0:0:
436,296,112571,1,8,0:0:0:0:
436,296,112642,1,0,0:0:0:0:
436,296,112714,1,0,0:0:0:0:
380,132,112857,1,8,0:0:0:0:
256,252,113000,5,0,0:0:0:0:
256,252,113071,1,0,0:0:0:0:
256,252,113143,1,8,0:0:0:0:
384,96,113285,1,0,0:0:0:0:
396,304,113428,2,0,B|360:328|360:328|320:336|276:328,1,99.0000030212403,8|0,0:0|0:0,0:0:0:0:
272,332,113642,1,0,0:0:0:0:
240,332,113714,2,0,B|188:336|136:312|136:312|104:272|92:200,1,198.000006042481,10|8,0:0|0:0,0:0:0:0:
96,44,114142,5,0,0:0:0:0:
96,44,114214,1,0,0:0:0:0:
96,44,114285,1,8,0:0:0:0:
112,192,114428,1,0,0:0:0:0:
184,12,114571,2,0,P|240:32|280:68,1,99.0000030212403,8|0,0:0|0:0,0:0:0:0:
420,60,114857,5,8,0:0:0:0:
316,160,115000,1,0,0:0:0:0:
444,180,115142,1,8,0:0:0:0:
444,180,115214,1,0,0:0:0:0:
444,180,115285,1,0,0:0:0:0:
270,56,115428,6,0,B|232:92|232:92|200:168,1,125.999996154785,8|0,0:0|0:0,0:0:0:0:
242,328,115714,2,0,B|280:292|280:292|312:216,1,125.999996154785,8|0,0:0|0:0,0:0:0:0:
148,79,116000,5,0,0:0:0:0:
144,88,116071,1,0,0:0:0:0:
141,97,116142,1,0,0:0:0:0:
139,106,116214,1,0,0:0:0:0:
138,115,116285,1,0,0:0:0:0:
138,124,116357,1,0,0:0:0:0:
139,133,116428,1,0,0:0:0:0:
141,142,116500,1,0,0:0:0:0:
143,151,116571,1,8,0:0:0:0:
370,286,117142,5,0,0:0:0:0:
379,263,117213,1,0,0:0:0:0:
386,239,117284,1,0,0:0:0:0:
389,214,117356,1,0,0:0:0:0:
391,190,117427,1,0,0:0:0:0:
389,165,117499,1,0,0:0:0:0:
385,141,117570,1,0,0:0:0:0:
378,117,117641,1,0,0:0:0:0:
368,94,117713,1,6,0:0:0:0:
99,68,118285,6,0,P|93:121|103:180,1,99.0000030212403,8|0,0:0|0:0,0:0:0:0:
170,327,118571,1,8,0:0:0:0:
170,327,118642,1,0,0:0:0:0:
170,327,118714,1,0,0:0:0:0:
349,291,118857,2,0,B|385:287|385:287|417:279,2,49.5000015106202,8|0|0,0:0|0:0|0:0,0:0:0:0:
353,121,119142,2,0,B|322:82|263:79,1,99.0000030212403,8|0,0:0|0:0,0:0:0:0:
64,56,119428,1,8,0:0:0:0:
140,281,119571,1,0,0:0:0:0:
267,80,119714,6,0,L|311:36,2,49.5000015106202,8|0|0,0:0|0:0|0:0,0:0:0:0:
122,216,120000,1,8,0:0:0:0:
122,216,120071,1,0,0:0:0:0:
122,216,120142,1,0,0:0:0:0:
221,115,120285,5,8,0:0:0:0:
239,288,120428,1,0,0:0:0:0:
392,180,120571,2,0,B|368:136|368:136|320:120|320:120|292:28|180:23,1,270,8|0,0:0|0:0,0:0:0:0:
196,244,121142,5,8,2:0:0:0:
276,20,121285,1,0,0:0:0:0:
200,256,121428,5,2,1:0:0:0:
100,31,121571,1,0,0:0:0:0:
392,192,121714,2,0,B|356:236|352:280|352:280|276:256|228:284|228:284|176:272|124:292,1,297.000009063721,8|0,0:0|0:0,0:0:0:0:
112,284,122214,1,0,0:0:0:0:
68,284,122285,2,0,B|52:228|52:228|60:160|104:96,1,198.000006042481,8|0,0:0|0:0,0:0:0:0:
216,24,122714,1,0,0:0:0:0:
444,134,122857,6,0,B|456:176|456:176|416:164|380:176|380:176|336:164|272:172,1,198.000006042481,2|0,1:0|0:0,0:0:0:0:
96,168,123285,1,0,0:0:0:0:
332,92,123428,5,8,0:0:0:0:
84,168,123571,1,0,0:0:0:0:
332,244,123714,5,0,0:0:0:0:
76,168,123857,1,0,0:0:0:0:
360,80,124000,5,8,0:0:0:0:
68,168,124142,1,0,0:0:0:0:
356,244,124285,5,0,0:0:0:0:
60,168,124428,1,0,0:0:0:0:
381,68,124571,2,0,B|405:116|405:116|381:164|381:164|401:216|401:216|340:272|373:364,1,297.000009063721,4|0,0:0|0:0,0:0:0:0:
140,352,125142,6,2,B|124:280|84:260|84:260|100:212|72:168|72:168|80:112|108:64|164:36|228:40|272:92,1,459.00000875473,8|0,0:0|0:0,0:0:0:0:
256,32,126285,5,8,0:0:0:0:
112,124,126428,1,0,0:0:0:0:
112,124,126500,1,0,0:0:0:0:
112,124,126571,1,8,0:0:0:0:
256,160,126714,1,0,0:0:0:0:
400,124,126857,1,8,0:0:0:0:
256,188,127000,1,0,0:0:0:0:
112,124,127142,1,8,0:0:0:0:
256,216,127285,1,0,0:0:0:0:
256,224,127357,1,0,0:0:0:0:
256,232,127428,2,0,B|256:271|256:320|256:320|180:332|112:280,1,198.000006042481,10|0,1:0|0:0,0:0:0:0:
44,196,127857,6,0,B|64:132|64:132|124:72|220:96,1,198.000006042481
344,36,128285,1,8,0:0:0:0:
172,252,128428,1,0,0:0:0:0:
432,344,128571,2,0,B|416:284|416:284|424:232|424:232|404:137,1,198.000006042481,10|8,1:0|0:0,0:0:0:0:
234,37,129000,2,0,P|122:81|82:177,1,198.000006042481
224,354,129428,1,8,0:0:0:0:
188,128,129571,1,0,0:0:0:0:
428,72,129714,6,0,B|396:124|396:124|404:176|404:176|368:208|356:272,1,198.000006042481,10|8,1:0|0:0,0:0:0:0:
68,292,130142,2,0,B|68:236|68:236|40:184|40:184|52:136|83:98,1,198.000006042481
323,86,130571,1,8,0:0:0:0:
392,284,130857,6,0,B|349:258|305:285|305:285|256:268|256:268|160:328|161:227|78:299,1,323.999990112305,2|0,2:0|0:0,0:0:0:0:
96,64,132000,1,0,0:0:0:0:
104,80,132071,1,0,0:0:0:0:
112,96,132142,1,0,0:0:0:0:
120,112,132214,1,0,0:0:0:0:
126,128,132285,2,2,B|169:72|241:68|293:116|272:181|272:181|162:163|133:232|133:232|169:296|233:304|290:248,1,572.400000873413,10|0,0:0|0:0,0:0:0:0:
360,128,134142,5,0,0:0:0:0:
360,128,134214,1,0,0:0:0:0:
360,128,134285,2,0,B|392:128|392:128|428:108|428:108|464:108,2,104.999996795654,8|0|0,0:0|0:0|0:0,0:0:0:0:
132,128,134904,2,0,B|100:132|100:132|68:124|68:124|44:128,2,83.9999974365235,8|0|0,0:0|0:0|0:0,0:0:0:0:
264,64,135428,2,0,P|320:80|352:112,1,90,8|0,0:0|0:0,0:0:0:0:
343,100,135642,1,0,0:0:0:0:
343,100,135714,1,0,0:0:0:0:
356,288,135857,1,0,0:0:0:0:
48,285,136000,5,8,0:0:0:0:
60,245,136071,1,0,0:0:0:0:
84,213,136142,1,0,0:0:0:0:
120,189,136214,1,0,0:0:0:0:
160,177,136285,1,0,0:0:0:0:
208,185,136357,1,0,0:0:0:0:
260,181,136428,1,0,0:0:0:0:
316,149,136500,1,0,0:0:0:0:
352,93,136571,5,14,1:0:0:0:
328,136,137142,5,8,2:0:0:0:
308,180,137714,5,8,2:0:0:0:
284,224,138285,5,8,2:0:0:0:
264,268,138857,5,8,1:0:0:0:
220,288,138952,1,0,0:0:0:0:
172,288,139047,1,0,0:0:0:0:
128,272,139142,1,0,0:0:0:0:
96,236,139238,1,0,0:0:0:0:
84,188,139333,1,0,0:0:0:0:
96,140,139428,1,8,0:0:0:0:
132,108,139523,1,0,0:0:0:0:
176,92,139619,1,0,0:0:0:0:
224,96,139714,1,0,0:0:0:0:
264,120,139809,1,0,0:0:0:0:
288,160,139904,1,0,0:0:0:0:
260,200,140000,5,8,1:0:0:0:
212,212,140095,1,0,0:0:0:0:
164,208,140190,1,0,0:0:0:0:
124,180,140285,1,0,0:0:0:0:
148,140,140380,1,0,0:0:0:0:
192,116,140476,1,0,0:0:0:0:
240,108,140571,1,8,0:0:0:0:
288,116,140666,1,0,0:0:0:0:
332,136,140761,1,0,0:0:0:0:
368,168,140857,1,0,0:0:0:0:
388,212,140952,1,0,0:0:0:0:
392,260,141047,1,0,0:0:0:0:
376,304,141142,6,0,P|332:328|264:320,1,90,10|0,0:0|0:0,0:0:0:0:
112,320,141428,1,8,0:0:0:0:
112,320,141500,1,0,0:0:0:0:
112,320,141571,1,0,0:0:0:0:
317,252,141714,1,8,0:0:0:0:
317,252,141786,1,0,0:0:0:0:
317,252,141857,1,0,0:0:0:0:
124,84,142000,1,8,0:0:0:0:
136,352,142142,1,0,0:0:0:0:
348,132,142285,5,10,0:0:0:0:
348,132,142357,1,0,0:0:0:0:
348,132,142428,1,0,0:0:0:0:
80,100,142571,2,0,L|48:52,2,45,8|0|0,0:0|0:0|0:0,0:0:0:0:
196,356,142857,1,8,0:0:0:0:
196,356,142928,1,0,0:0:0:0:
196,356,143000,1,0,0:0:0:0:
260,144,143142,5,8,0:0:0:0:
112,328,143285,1,0,0:0:0:0:
134,145,143428,5,10,0:0:0:0:
165,94,143523,1,0,0:0:0:0:
215,61,143619,1,0,0:0:0:0:
274,57,143714,1,8,0:0:0:0:
327,84,143809,1,0,0:0:0:0:
359,134,143904,1,0,0:0:0:0:
344,192,144000,1,8,0:0:0:0:
297,229,144095,1,0,0:0:0:0:
237,224,144190,1,0,0:0:0:0:
184,195,144285,1,8,0:0:0:0:
126,179,144380,1,0,0:0:0:0:
69,201,144476,1,0,0:0:0:0:
101,251,144571,5,10,0:0:0:0:
154,278,144666,1,0,0:0:0:0:
213,281,144761,1,0,0:0:0:0:
270,263,144857,1,8,0:0:0:0:
319,228,144952,1,0,0:0:0:0:
348,176,145047,1,0,0:0:0:0:
335,117,145142,1,8,0:0:0:0:
291,75,145238,1,0,0:0:0:0:
240,107,145333,1,0,0:0:0:0:
223,164,145428,1,8,0:0:0:0:
233,222,145523,1,0,0:0:0:0:
264,267,145619,1,0,0:0:0:0:
322,292,145714,6,0,P|371:312|444:307,1,90,10|0,0:0|0:0,0:0:0:0:
367,153,146000,1,8,0:0:0:0:
367,153,146071,1,0,0:0:0:0:
367,153,146142,1,0,0:0:0:0:
322,292,146285,2,0,B|278:282|278:282|238:252,1,90,8|0,0:0|0:0,0:0:0:0:
52,112,146571,1,8,0:0:0:0:
76,140,146642,1,0,0:0:0:0:
100,168,146714,1,0,0:0:0:0:
124,192,146785,1,0,0:0:0:0:
148,216,146857,1,10,0:0:0:0:
276,344,147000,1,0,0:0:0:0:
364,188,147142,5,8,0:0:0:0:
116,296,147285,1,0,0:0:0:0:
116,296,147357,1,0,0:0:0:0:
116,296,147428,2,0,B|112:240|112:240|124:184,1,90,8|0,0:0|0:0,0:0:0:0:
208,48,147714,2,0,B|260:40|260:40|328:48,1,90,8|0,0:0|0:0,0:0:0:0:
448,188,148000,5,8,0:0:0:0:
436,248,148095,1,0,0:0:0:0:
396,292,148190,1,0,0:0:0:0:
336,304,148285,1,8,0:0:0:0:
280,288,148380,1,0,0:0:0:0:
236,244,148476,1,0,0:0:0:0:
204,192,148571,1,12,0:0:0:0:
160,152,148666,1,0,0:0:0:0:
100,140,148761,1,0,0:0:0:0:
52,168,148857,1,8,0:0:0:0:
32,220,148952,1,0,0:0:0:0:
64,264,149047,1,0,0:0:0:0:
116,276,149142,5,8,0:0:0:0:
164,248,149238,1,0,0:0:0:0:
208,212,149333,1,0,0:0:0:0:
260,200,149428,1,8,0:0:0:0:
312,200,149523,1,0,0:0:0:0:
364,220,149619,1,0,0:0:0:0:
408,252,149714,1,12,0:0:0:0:
436,300,149809,1,0,0:0:0:0:
384,288,149904,1,0,0:0:0:0:
328,296,150000,1,8,0:0:0:0:
280,320,150095,1,0,0:0:0:0:
228,332,150190,1,0,0:0:0:0:
176,320,150285,6,0,B|136:320|136:320|104:312|72:288,1,90,14|0,0:0|0:0,0:0:0:0:
52,176,150571,1,8,0:0:0:0:
68,144,150642,1,0,0:0:0:0:
84,116,150714,1,0,0:0:0:0:
112,100,150785,1,0,0:0:0:0:
140,84,150857,1,4,1:0:0:0:
320,72,151000,1,0,0:0:0:0:
232,228,151142,5,8,0:0:0:0:
260,240,151214,1,0,0:0:0:0:
288,252,151285,1,0,0:0:0:0:
316,264,151357,1,0,0:0:0:0:
344,276,151428,1,14,0:0:0:0:
512,340,151571,1,0,0:0:0:0:
480,72,151714,1,8,0:0:0:0:
328,168,151857,5,0,0:0:0:0:
316,196,151928,1,0,0:0:0:0:
304,228,152000,1,12,0:0:0:0:
292,256,152071,1,0,0:0:0:0:
280,284,152142,1,0,0:0:0:0:
136,176,152285,1,12,0:0:0:0:
392,88,152428,1,0,0:0:0:0:
144,304,152571,6,0,B|108:300|108:300|64:304,2,60,8|0|0,0:0|0:0|0:0,0:0:0:0:
368,304,152857,6,0,B|404:300|404:300|448:304,2,60,14|0|0,0:0|0:0|0:0,0:0:0:0:
128,176,153142,6,0,B|92:172|92:172|48:176,2,60,8|0|0,0:0|0:0|0:0,0:0:0:0:
388,176,153428,6,0,B|424:172|424:172|468:176,2,60,14|0|0,0:0|0:0|0:0,0:0:0:0:
216,304,153714,5,12,0:0:0:0:
172,288,153809,1,0,0:0:0:0:
128,272,153904,1,0,0:0:0:0:
80,244,154000,5,14,0:0:0:0:
128,220,154095,1,0,0:0:0:0:
180,200,154190,1,0,0:0:0:0:
232,172,154285,5,12,0:0:0:0:
176,148,154380,1,0,0:0:0:0:
120,124,154476,1,0,0:0:0:0:
68,84,154571,5,14,0:0:0:0:
128,60,154666,1,0,0:0:0:0:
188,36,154761,1,0,0:0:0:0:
248,12,154857,2,0,B|312:20|312:20|380:80,1,135,10|0,1:0|0:0,0:0:0:0:
360,80,155142,5,0,0:0:0:0:
356,92,155214,1,0,0:0:0:0:
352,104,155285,1,0,0:0:0:0:
348,116,155357,1,0,0:0:0:0:
344,128,155428,2,0,B|264:144|264:144|208:188,1,135,10|0,1:0|0:0,0:0:0:0:
228,188,155714,5,0,0:0:0:0:
232,200,155785,1,0,0:0:0:0:
236,212,155857,1,0,0:0:0:0:
240,224,155928,1,0,0:0:0:0:
244,236,156000,1,12,1:0:0:0:
456,140,156285,5,0,0:0:0:0:
452,128,156356,1,0,0:0:0:0:
448,116,156428,1,0,0:0:0:0:
444,104,156499,1,0,0:0:0:0:
440,92,156571,2,0,B|384:80|384:80|260:104,1,180,8|8,1:0|1:0,0:0:0:0:
56,172,157142,5,14,0:0:0:0:
116,292,157284,1,0,0:0:0:0:
196,184,157428,1,8,0:0:0:0:
196,184,157500,1,0,0:0:0:0:
196,184,157571,1,0,0:0:0:0:
32,268,157714,1,8,0:0:0:0:
244,54,157857,5,0,0:0:0:0:
244,54,157928,1,0,0:0:0:0:
244,54,158000,1,8,0:0:0:0:
30,305,158142,1,0,0:0:0:0:
279,135,158285,6,0,B|255:107|243:75|243:39,1,90,8|0,0:0|0:0,0:0:0:0:
464,76,158571,1,8,0:0:0:0:
152,132,158714,1,0,0:0:0:0:
460,200,158857,2,0,P|404:192|348:208,1,90,8|0,0:0|0:0,0:0:0:0:
371,198,159071,1,0,0:0:0:0:
371,198,159142,1,8,0:0:0:0:
188,308,159285,1,0,0:0:0:0:
212,184,159428,5,10,1:0:0:0:
212,184,159571,1,0,0:0:0:0:
336,52,159714,1,0,0:0:0:0:
340,72,159785,1,0,0:0:0:0:
344,96,159857,1,0,0:0:0:0:
356,276,160000,2,0,B|312:272|312:272|248:284,1,90,8|0,1:0|0:0,0:0:0:0:
92,236,160285,2,0,B|88:192|88:192|100:128,1,90,0|0,0:0|1:0,0:0:0:0:
336,52,160571,6,0,L|352:156,1,90,10|0,1:0|0:0,0:0:0:0:
376,340,160857,1,0,0:0:0:0:
248,212,161000,2,0,P|248:152|236:116,1,90,0|8,1:0|0:0,0:0:0:0:
80,40,161285,2,0,P|64:100|68:148,1,90,0|0,1:0|0:0,0:0:0:0:
132,296,161571,1,0,0:0:0:0:
328,264,161714,5,14,1:0:0:0:
239,123,161857,1,0,0:0:0:0:
328,264,162000,1,8,0:0:0:0:
304,268,162071,1,0,0:0:0:0:
284,272,162142,1,0,0:0:0:0:
152,300,162285,1,8,0:0:0:0:
239,123,162428,1,0,0:0:0:0:
251,99,162500,1,0,0:0:0:0:
263,75,162571,1,8,0:0:0:0:
108,332,162714,1,0,0:0:0:0:
40,24,162857,6,0,B|44:72|44:72|68:132,1,90,8|0,0:0|0:0,0:0:0:0:
352,69,163142,1,8,0:0:0:0:
59,110,163285,1,0,0:0:0:0:
275,38,163428,2,0,B|258:106|321:150,1,90,8|0,0:0|0:0,0:0:0:0:
292,124,163642,1,0,0:0:0:0:
292,124,163714,1,8,0:0:0:0:
312,292,163857,1,0,0:0:0:0:
184,108,164000,6,0,B|176:168|224:224,1,90,14|0,1:0|0:0,0:0:0:0:
416,152,164285,1,0,0:0:0:0:
416,152,164357,1,0,0:0:0:0:
416,152,164428,1,0,0:0:0:0:
240,288,164571,2,0,B|192:296|192:296|124:288,1,90,8|0,1:0|0:0,0:0:0:0:
272,96,164857,2,0,B|320:88|320:88|388:96,1,90,8|0,1:0|0:0,0:0:0:0:
152,272,165142,2,0,P|122:190|152:72,1,180,10|0,1:0|0:0,0:0:0:0:
432,0,165571,2,0,B|452:44|452:44|428:196,1,180,10|0,1:0|0:0,0:0:0:0:
140,48,166000,1,8,2:0:0:0:
228,348,166142,1,0,0:0:0:0:
208,192,166285,5,14,0:0:0:0:
208,192,166428,1,0,0:0:0:0:
300,92,166571,1,8,0:0:0:0:
308,112,166642,1,0,0:0:0:0:
316,132,166714,1,0,0:0:0:0:
372,304,166857,1,8,0:0:0:0:
180,112,167000,5,0,0:0:0:0:
180,112,167071,1,0,0:0:0:0:
180,112,167142,1,8,0:0:0:0:
466,170,167285,1,0,0:0:0:0:
200,28,167428,6,0,B|176:56|172:84|180:116,1,90,8|0,0:0|0:0,0:0:0:0:
284,312,167714,1,8,0:0:0:0:
320,44,167857,1,0,0:0:0:0:
56,100,168000,2,0,P|52:156|80:212,1,90,8|0,0:0|0:0,0:0:0:0:
62,187,168214,1,0,0:0:0:0:
62,187,168285,1,8,0:0:0:0:
260,4,168428,1,0,0:0:0:0:
232,136,168571,5,14,0:0:0:0:
232,136,168714,1,0,0:0:0:0:
352,48,168857,2,0,B|376:72|388:112|392:160,1,90
180,208,169142,2,0,B|156:184|144:144|140:96,1,90,8|0,0:0|0:0,0:0:0:0:
368,32,169428,2,0,B|392:56|404:96|408:144,1,90
248,296,169714,6,0,B|185:297|185:297|121:264|96:180,1,198.000006042481,10|0,0:0|0:0,0:0:0:0:
288,24,170142,2,8,B|344:44|344:44|386:99|392:200,1,198.000006042481,0|0,0:0|0:0,0:0:0:0:
392,332,170571,1,8,0:0:0:0:
112,128,170714,1,0,0:0:0:0:
448,40,170857,6,0,B|460:88|460:88|456:184|352:216,1,198.000006042481,2|0,0:0|0:0,0:0:0:0:
100,272,171285,2,0,P|112:172|216:104,1,198.000006042481
328,24,171714,1,8,0:0:0:0:
335,269,171857,1,0,0:0:0:0:
291,170,172000,6,0,B|233:181|187:242,1,99.0000030212403,10|0,0:0|0:0,0:0:0:0:
340,272,172285,1,0,0:0:0:0:
340,272,172428,2,0,B|392:212|392:128|352:68,1,198.000006042481
202,116,172857,1,8,0:0:0:0:
268,344,173000,1,0,0:0:0:0:
391,12,173142,6,0,B|323:16|323:16|279:63|279:63|196:3|109:74,1,297.000009063721,2|0,0:0|0:0,0:0:0:0:
64,120,173714,5,8,0:0:0:0:
68,136,173785,1,0,0:0:0:0:
72,152,173857,1,0,0:0:0:0:
76,168,173928,1,0,0:0:0:0:
80,184,174000,1,0,0:0:0:0:
84,200,174071,1,0,0:0:0:0:
88,216,174142,1,0,0:0:0:0:
92,232,174214,1,0,0:0:0:0:
120,272,174285,5,10,0:0:0:0:
164,296,174357,1,0,0:0:0:0:
212,304,174428,1,0,0:0:0:0:
260,284,174500,1,0,0:0:0:0:
300,256,174571,1,8,0:0:0:0:
344,236,174642,1,0,0:0:0:0:
392,236,174714,1,0,0:0:0:0:
436,256,174785,1,0,0:0:0:0:
392,280,174857,5,8,0:0:0:0:
344,288,174928,1,0,0:0:0:0:
296,276,175000,1,0,0:0:0:0:
256,248,175071,1,0,0:0:0:0:
228,208,175142,1,8,0:0:0:0:
220,160,175214,1,0,0:0:0:0:
232,112,175285,1,0,0:0:0:0:
264,76,175357,1,0,0:0:0:0:
308,56,175428,2,0,P|368:40|416:52,2,99.0000030212403,12|0|0,0:0|0:0|0:0,0:0:0:0:
210,211,175857,1,0,0:0:0:0:
112,136,176000,5,12,0:0:0:0:
160,100,176071,1,0,0:0:0:0:
220,92,176142,1,0,0:0:0:0:
276,116,176214,1,0,0:0:0:0:
312,164,176285,1,8,0:0:0:0:
320,224,176357,1,0,0:0:0:0:
300,280,176428,1,0,0:0:0:0:
252,316,176500,1,0,0:0:0:0:
192,324,176571,5,12,0:0:0:0:
60,44,177714,5,0,0:0:0:0:
353,44,177857,1,0,0:0:0:0:
60,44,178000,2,0,B|184:44,1,99.0000030212403,8|0,0:0|0:0,0:0:0:0:
452,44,178285,2,0,B|328:44,1,99.0000030212403,8|0,0:0|0:0,0:0:0:0:
60,172,178571,5,0,0:0:0:0:
353,172,178714,1,0,0:0:0:0:
60,172,178857,2,0,L|168:172,1,99.0000030212403,8|0,0:0|0:0,0:0:0:0:
452,172,179142,2,0,L|344:172,1,99.0000030212403,8|0,0:0|0:0,0:0:0:0:
60,300,179428,5,0,0:0:0:0:
356,300,179571,1,0,0:0:0:0:
60,300,179714,2,0,L|188:300,1,99.0000030212403,10|0,0:0|0:0,0:0:0:0:
460,100,180000,5,8,0:0:0:0:
424,80,180071,1,0,0:0:0:0:
384,72,180142,1,0,0:0:0:0:
344,80,180214,1,0,0:0:0:0:
308,100,180285,1,0,0:0:0:0:
280,128,180357,1,0,0:0:0:0:
248,152,180428,1,0,0:0:0:0:
212,168,180500,1,0,0:0:0:0:
248,132,180571,5,8,0:0:0:0:
292,120,180642,1,0,0:0:0:0:
340,132,180714,1,0,0:0:0:0:
376,168,180785,1,0,0:0:0:0:
392,216,180857,1,8,0:0:0:0:
380,264,180928,1,0,0:0:0:0:
344,300,181000,1,0,0:0:0:0:
296,316,181071,1,0,0:0:0:0:
248,308,181142,5,12,0:0:0:0:
96,328,182285,5,0,0:0:0:0:
96,328,182428,1,0,0:0:0:0:
96,328,182571,6,0,L|96:216,1,99.0000030212403,8|0,0:0|0:0,0:0:0:0:
192,56,182857,2,0,L|192:168,1,99.0000030212403,8|0,0:0|0:0,0:0:0:0:
416,56,183142,1,0,0:0:0:0:
416,56,183285,1,0,0:0:0:0:
416,56,183428,6,0,L|416:176,1,99.0000030212403,8|0,0:0|0:0,0:0:0:0:
320,328,183714,2,0,L|320:224,1,99.0000030212403,8|0,0:0|0:0,0:0:0:0:
316,60,184000,1,0,0:0:0:0:
320,328,184142,1,0,0:0:0:0:
316,60,184285,6,0,L|316:176,1,99.0000030212403,10|0,0:0|0:0,0:0:0:0:
297,318,184571,5,8,0:0:0:0:
249,302,184642,1,0,0:0:0:0:
213,266,184714,1,0,0:0:0:0:
197,218,184785,1,0,0:0:0:0:
205,170,184857,1,0,0:0:0:0:
233,130,184928,1,0,0:0:0:0:
277,110,185000,1,0,0:0:0:0:
326,111,185071,1,0,0:0:0:0:
369,133,185142,5,2,0:0:0:0:
366,182,185214,1,0,0:0:0:0:
342,226,185285,1,0,0:0:0:0:
310,262,185357,1,0,0:0:0:0:
266,282,185428,1,0,0:0:0:0:
218,282,185500,1,0,0:0:0:0:
170,266,185571,1,0,0:0:0:0:
122,258,185642,1,0,0:0:0:0:
76,274,185714,5,12,0:0:0:0:
128,28,186285,5,0,0:0:0:0:
160,264,186571,1,0,0:0:0:0:
256,44,186857,6,0,B|320:36|320:36|480:64,2,216,8|8|0,1:0|0:0|0:0,0:0:0:0:
256,168,188000,6,0,B|192:160|192:160|32:188,2,216,8|8|0,2:0|0:0|0:0,0:0:0:0:
256,292,189142,6,0,B|320:284|320:284|480:312,2,216,8|8|8,2:0|0:0|2:0,0:0:0:0:
204,144,190285,6,0,P|256:16|308:148,1,360,10|0,1:0|0:0,0:0:0:0:
256,232,191142,1,0,0:0:0:0:
256,340,191285,5,0,0:0:0:0:
256,340,191357,1,0,0:0:0:0:
256,340,191428,2,0,B|200:332|200:332|152:312,1,99.0000030212403,10|0,1:0|0:0,0:0:0:0:
60,192,191714,1,0,0:0:0:0:
60,192,191785,1,0,0:0:0:0:
60,192,191857,1,0,0:0:0:0:
208,60,192000,2,0,B|264:52|264:52|336:60,1,99.0000030212403,8|0,0:0|0:0,0:0:0:0:
340,252,192285,2,0,P|264:256|216:296,1,99.0000030212403
154,135,192571,6,0,B|210:143|210:143|290:135,1,99.0000030212403,8|0,1:0|0:0,0:0:0:0:
404,203,192857,1,0,0:0:0:0:
232,292,193000,2,0,B|174:298|174:298|88:288,2,99.0000030212403,10|0|10,1:0|0:0|1:0,0:0:0:0:
424,244,193428,1,2,0:0:0:0:
424,244,193571,1,8,0:0:0:0:
120,128,193714,6,0,B|112:192|112:192|116:280,1,112.5,10|0,0:0|0:0,0:0:0:0:
392,256,194000,2,0,B|400:192|400:192|396:104,1,112.5,10|0,0:0|0:0,0:0:0:0:
256,192,194285,1,10,1:0:0:0:
256,192,194428,1,0,0:0:0:0:
84,108,194571,5,8,0:0:0:0:
124,84,194642,1,0,0:0:0:0:
168,76,194714,2,0,L|232:72,1,56.25
360,36,194857,1,10,1:0:0:0:
400,76,194928,1,0,0:0:0:0:
424,128,195000,1,0,0:0:0:0:
424,184,195071,1,0,0:0:0:0:
408,236,195142,1,8,0:0:0:0:
372,280,195214,1,0,0:0:0:0:
320,296,195285,1,0,0:0:0:0:
264,288,195357,1,0,0:0:0:0:
216,256,195428,5,10,2:0:0:0:
252,244,195500,1,0,0:0:0:0:
284,220,195571,1,0,0:0:0:0:
304,188,195642,1,0,0:0:0:0:
312,156,195714,1,8,0:0:0:0:
312,124,195785,1,0,0:0:0:0:
300,92,195857,1,0,0:0:0:0:
280,64,195928,1,0,0:0:0:0:
252,44,196000,6,0,B|176:68|176:68|104:112|76:196,1,225,10|8,0:0|0:0,0:0:0:0:
304,188,196428,1,0,0:0:0:0:
304,188,196500,1,0,0:0:0:0:
304,188,196571,1,8,0:0:0:0:
252,44,196714,1,0,0:0:0:0:
136,140,196857,2,0,B|124:204|124:204|132:268,1,112.5,8|0,0:0|0:0,0:0:0:0:
288,312,197142,5,8,0:0:0:0:
308,300,197214,1,0,0:0:0:0:
328,288,197285,1,0,0:0:0:0:
483,219,197428,1,8,0:0:0:0:
292,146,197571,1,0,0:0:0:0:
304,166,197642,1,0,0:0:0:0:
316,186,197714,1,8,0:0:0:0:
432,336,197857,1,0,0:0:0:0:
390,182,198000,2,0,B|371:126|374:58,1,112.5,8|0,0:0|0:0,0:0:0:0:
120,80,198285,6,0,B|112:160|112:160|140:220|140:220|132:316,1,225,10|0,0:0|0:0,0:0:0:0:
416,276,198714,2,0,B|452:208|432:108|364:64,1,225,8|0,0:0|0:0,0:0:0:0:
120,80,199142,1,8,0:0:0:0:
215,309,199285,1,0,0:0:0:0:
224,172,199428,1,0,0:0:0:0:
224,172,199571,1,0,0:0:0:0:
340,252,199714,5,8,1:0:0:0:
340,252,199785,1,0,0:0:0:0:
340,252,199857,1,0,0:0:0:0:
412,100,200000,2,0,P|340:92|272:112,1,112.5
100,284,200285,2,0,P|172:292|240:272,1,112.5,8|0,1:0|0:0,0:0:0:0:
144,64,200571,5,8,1:0:0:0:
148,76,200642,1,0,0:0:0:0:
152,88,200714,1,0,0:0:0:0:
156,100,200785,1,0,0:0:0:0:
160,112,200857,1,0,0:0:0:0:
164,124,200928,1,0,0:0:0:0:
168,136,201000,1,0,0:0:0:0:
172,148,201071,1,0,0:0:0:0:
176,160,201142,1,2,1:0:0:0:
351,306,201714,5,0,0:0:0:0:
371,279,201785,1,0,0:0:0:0:
384,247,201857,1,0,0:0:0:0:
394,214,201928,1,0,0:0:0:0:
398,180,202000,1,0,0:0:0:0:
394,146,202071,1,0,0:0:0:0:
383,114,202142,1,0,0:0:0:0:
368,83,202214,1,0,0:0:0:0:
350,54,202285,1,2,1:0:0:0:
256,192,202857,5,8,2:0:0:0:
256,192,202928,12,0,208857,0:0:0:0:
192,192,214857,6,0,L|188:292,1,72,2|0,1:0|0:0,0:0:0:0:
320,192,215232,2,0,L|324:292,1,72
192,168,215607,2,0,L|188:248,1,72,0|0,0:0|1:0,0:0:0:0:
320,168,215982,2,0,L|324:268,1,72
192,144,216357,6,0,L|188:244,1,72,0|0,1:0|0:0,0:0:0:0:
320,144,216732,2,0,L|324:244,1,72,0|0,0:0|1:0,0:0:0:0:
192,120,217107,2,0,L|188:200,1,72
320,120,217482,2,0,L|324:220,1,72,0|0,1:0|3:0,0:0:0:0:
196,264,217763,5,0,0:0:0:0:
196,264,217857,2,0,P|168:232|156:188,1,72,2|0,1:0|0:0,0:0:0:0:
316,120,218232,2,0,P|344:152|356:196,1,72
169,221,218607,2,0,P|154:181|157:136,1,72,0|0,0:0|1:0,0:0:0:0:
342,162,218982,2,0,P|357:202|354:247,1,72
144,180,219357,2,0,P|143:137|162:96,1,72,0|0,1:0|0:0,0:0:0:0:
368,204,219732,2,0,P|368:246|349:287,1,72,0|0,0:0|1:0,0:0:0:0:
116,144,220107,2,0,P|129:103|161:71,1,72,0|0,0:0|3:0,0:0:0:0:
396,240,220482,2,0,P|382:280|350:312,1,72,0|0,1:0|3:0,0:0:0:0:
320,192,220763,5,0,0:0:0:0:
320,192,220857,2,0,L|324:92,1,72,2|0,2:0|0:0,0:0:0:0:
192,192,221232,2,0,L|188:92,1,72
320,216,221607,2,0,L|324:136,1,72,0|0,0:0|2:0,0:0:0:0:
192,216,221982,2,0,L|188:116,1,72,0|0,0:0|2:0,0:0:0:0:
320,240,222357,6,0,L|324:140,1,72
192,240,222732,2,0,L|188:140,1,72,0|0,2:0|0:0,0:0:0:0:
320,264,223107,2,0,L|324:184,1,72,0|0,0:0|2:0,0:0:0:0:
192,264,223482,2,0,L|188:164,1,72,0|0,0:0|2:0,0:0:0:0:
256,88,223763,5,0,0:0:0:0:
256,88,223857,2,0,L|344:132,1,72,2|0,2:0|0:0,0:0:0:0:
256,296,224232,2,0,L|168:252,1,72
315,106,224607,2,0,L|362:193,1,72,0|0,0:0|2:0,0:0:0:0:
196,277,224982,2,0,L|149:190,1,72,0|0,0:0|2:0,0:0:0:0:
353,156,225357,2,0,L|342:254,1,72
158,227,225732,2,0,L|169:129,1,72,0|0,2:0|0:0,0:0:0:0:
356,218,226107,2,0,L|291:292,1,72,0|0,0:0|2:0,0:0:0:0:
155,165,226482,2,0,L|220:91,1,72,0|0,0:0|2:0,0:0:0:0:
192,312,226763,5,0,0:0:0:0:
192,312,226857,2,0,P|232:328|280:324,1,72,2|0,1:0|0:0,0:0:0:0:
256,132,227232,2,0,L|296:228,1,72,0|0,1:0|0:0,0:0:0:0:
312,268,227607,1,0,0:0:0:0:
392,76,227794,6,0,L|296:116,1,72,0|0,1:0|0:0,0:0:0:0:
256,132,228169,1,0,0:0:0:0:
448,212,228357,6,0,L|408:116,1,72,0|0,1:0|0:0,0:0:0:0:
392,76,228732,1,0,0:0:0:0:
312,268,228919,6,0,L|408:228,1,72,0|0,1:0|0:0,0:0:0:0:
448,212,229294,1,0,3:0:0:0:
336,136,229482,5,0,1:0:0:0:
176,248,229669,1,0,0:0:0:0:
336,248,229857,1,10,3:0:0:0:
176,136,230044,1,0,0:0:0:0:
120,308,230232,6,0,L|216:268,1,72,0|0,1:0|0:0,0:0:0:0:
256,252,230607,1,0,0:0:0:0:
64,172,230795,6,0,L|104:268,1,72,0|0,1:0|0:0,0:0:0:0:
120,308,231170,1,0,0:0:0:0:
200,116,231357,6,0,L|104:156,1,72,0|0,1:0|0:0,0:0:0:0:
64,172,231732,1,0,0:0:0:0:
256,252,231919,6,0,L|216:156,1,72,0|0,1:0|0:0,0:0:0:0:
200,116,232294,1,0,0:0:0:0:
308,80,232482,5,0,1:0:0:0:
204,304,232669,1,0,0:0:0:0:
308,304,232857,1,10,3:0:0:0:
204,80,233044,1,0,0:0:0:0:
316,120,233232,6,0,P|344:152|356:196,1,72,0|0,1:0|0:0,0:0:0:0:
196,264,233607,2,0,P|168:232|156:188,1,72,0|0,0:0|1:0,0:0:0:0:
343,163,233982,2,0,P|358:203|355:248,1,72,0|0,0:0|1:0,0:0:0:0:
170,222,234357,2,0,P|155:182|158:137,1,72
368,204,234732,2,0,P|369:247|350:288,1,72,0|0,1:0|0:0,0:0:0:0:
144,180,235107,2,0,P|144:138|163:97,1,72,0|0,0:0|1:0,0:0:0:0:
396,240,235482,2,0,P|383:281|351:313,1,72,0|0,0:0|1:0,0:0:0:0:
160,152,235857,6,0,L|236:92,1,72,2|0,3:0|0:0,0:0:0:0:
296,96,236232,2,0,L|356:172,1,72,0|0,1:0|0:0,0:0:0:0:
352,232,236607,2,0,L|276:292,1,72,0|0,0:0|1:0,0:0:0:0:
216,288,236982,2,0,L|156:212,1,72,0|0,0:0|1:0,0:0:0:0:
256,48,237357,6,0,L|256:136,1,72
256,336,237732,2,0,L|256:248,1,72,0|0,1:0|0:0,0:0:0:0:
400,192,238107,2,0,L|312:192,1,72,0|0,0:0|1:0,0:0:0:0:
112,192,238482,2,0,L|200:192,1,72,0|0,0:0|1:0,0:0:0:0:
256,192,238857,6,2,L|256:172,6,18,2|2|2|2|2|2|2,3:0|3:0|3:0|3:0|3:0|3:0|3:0,3:0:0:0:
176,104,242642,5,8,3:0:0:0:
312,104,247642,5,8,3:0:0:0:
456,156,248071,5,8,3:0:0:0:
184,180,248357,1,8,3:0:0:0:
132,104,249499,6,0,L|148:232,1,112.5
148,232,249927,1,0,0:0:0:0:
164,344,250070,5,8,0:0:0:0:
164,344,250141,1,0,0:0:0:0:
164,344,250212,1,0,0:0:0:0:
184,120,250356,1,0,0:0:0:0:
164,344,250499,1,0,0:0:0:0:
304,264,250641,5,8,0:0:0:0:
312,228,250713,1,0,0:0:0:0:
316,192,250784,2,0,L|324:128,1,45
228,40,250927,1,8,0:0:0:0:
192,60,250999,1,0,0:0:0:0:
156,80,251070,2,0,L|92:116,1,45
36,212,251213,5,8,0:0:0:0:
60,244,251284,1,0,0:0:0:0:
96,264,251356,1,0,0:0:0:0:
136,268,251427,1,0,0:0:0:0:
176,260,251499,1,8,0:0:0:0:
212,244,251570,1,0,0:0:0:0:
252,232,251641,1,0,0:0:0:0:
288,236,251713,2,0,L|348:248,1,45,0|8,0:0|0:0,0:0:0:0:
448,280,251856,5,0,0:0:0:0:
448,268,251927,1,0,0:0:0:0:
448,256,251999,1,0,0:0:0:0:
448,244,252070,1,0,0:0:0:0:
448,232,252141,1,0,0:0:0:0:
448,220,252213,1,0,0:0:0:0:
448,208,252284,1,0,0:0:0:0:
448,196,252356,1,8,1:0:0:0:
448,184,252427,1,0,0:0:0:0:
448,172,252499,1,0,0:0:0:0:
448,160,252570,1,0,0:0:0:0:
448,152,252641,1,0,0:0:0:0:
448,144,252713,1,0,0:0:0:0:
448,140,252784,2,0,L|448:88,1,45
312,88,252927,6,0,L|312:36,15,45,8|0|0|0|0|0|0|0|2|0|0|0|0|0|0|0,0:0|0:0|0:0|0:0|0:0|0:0|0:0|0:0|1:0|0:0|0:0|0:0|0:0|0:0|0:0|0:0,0:0:0:0:
176,44,254070,1,8,0:0:0:0:
176,60,254141,1,0,0:0:0:0:
176,80,254213,1,0,0:0:0:0:
176,96,254284,1,0,0:0:0:0:
176,116,254356,1,0,0:0:0:0:
176,132,254427,1,0,0:0:0:0:
176,152,254499,1,0,0:0:0:0:
176,168,254570,1,0,0:0:0:0:
176,184,254641,1,10,2:0:0:0:
176,204,254713,1,0,0:0:0:0:
176,220,254784,1,0,0:0:0:0:
176,240,254856,1,0,0:0:0:0:
176,256,254927,1,0,0:0:0:0:
176,276,254999,1,0,0:0:0:0:
176,296,255071,2,0,L|176:356,1,45
308,296,255213,6,0,L|364:296,7,45,8|0|0|0|0|0|0|0,0:0|0:0|0:0|0:0|0:0|0:0|0:0|0:0,0:0:0:0:
208,204,255784,6,0,L|152:204,7,45,10|0|0|0|0|0|0|0,0:0|0:0|0:0|0:0|0:0|0:0|0:0|0:0,0:0:0:0:
312,116,256356,5,8,0:0:0:0:
304,124,256427,1,0,0:0:0:0:
296,136,256499,1,0,0:0:0:0:
288,148,256570,1,0,0:0:0:0:
284,160,256641,1,0,0:0:0:0:
280,172,256713,1,0,0:0:0:0:
280,184,256784,1,0,0:0:0:0:
280,196,256856,1,0,0:0:0:0:
284,208,256927,1,2,0:0:0:0:
288,220,256999,1,0,0:0:0:0:
292,232,257070,1,0,0:0:0:0:
296,244,257141,1,0,0:0:0:0:
296,256,257213,1,0,0:0:0:0:
292,268,257284,1,0,0:0:0:0:
288,280,257356,2,0,B|272:308|268:336,1,45
112,212,257499,5,8,0:0:0:0:
120,196,257570,1,0,0:0:0:0:
132,180,257641,1,0,0:0:0:0:
148,168,257713,1,0,0:0:0:0:
164,160,257784,1,0,0:0:0:0:
180,156,257856,1,0,0:0:0:0:
196,156,257927,1,0,0:0:0:0:
212,160,257999,1,0,0:0:0:0:
228,168,258070,1,2,0:0:0:0:
240,180,258141,1,0,0:0:0:0:
252,188,258213,1,0,0:0:0:0:
264,192,258284,1,0,0:0:0:0:
276,192,258356,1,0,0:0:0:0:
288,188,258427,1,0,0:0:0:0:
300,188,258499,2,0,P|332:184|356:172,1,45
92,240,258641,5,8,0:0:0:0:
100,200,258713,1,0,0:0:0:0:
108,164,258784,2,0,L|120:100,1,45
272,32,258927,5,8,0:0:0:0:
280,72,258999,1,0,0:0:0:0:
288,108,259070,2,0,L|300:162,1,45
416,264,259213,1,8,0:0:0:0:
388,300,259285,1,0,0:0:0:0:
348,324,259356,1,0,0:0:0:0:
304,332,259428,1,0,0:0:0:0:
257,317,259499,5,8,0:0:0:0:
216,289,259570,1,0,0:0:0:0:
166,282,259642,1,0,0:0:0:0:
119,299,259713,1,0,0:0:0:0:
161,324,259784,5,8,0:0:0:0:
200,334,259856,1,0,0:0:0:0:
239,325,259927,1,0,0:0:0:0:
265,293,259999,1,0,0:0:0:0:
250,245,260070,5,8,0:0:0:0:
289,216,260141,1,0,0:0:0:0:
338,215,260213,1,0,0:0:0:0:
380,240,260284,1,0,0:0:0:0:
371,275,260356,5,8,0:0:0:0:
339,287,260427,1,0,0:0:0:0:
307,287,260499,1,0,0:0:0:0:
275,279,260570,1,0,0:0:0:0:
243,275,260641,1,8,0:0:0:0:
211,279,260713,1,0,0:0:0:0:
179,291,260784,1,0,0:0:0:0:
151,307,260856,1,0,0:0:0:0:
123,331,260927,6,0,P|80:350|32:347,1,90,10|0,1:0|0:0,0:0:0:0:
48,176,261213,2,0,B|56:132|56:132|96:64,1,90,8|0,0:0|0:0,0:0:0:0:
184,212,261499,2,0,B|228:240|228:240|280:248,1,90,8|0,0:0|0:0,0:0:0:0:
396,280,261784,2,0,B|436:316|436:316|456:372,1,90,8|0,0:0|0:0,0:0:0:0:
464,124,262070,6,0,B|456:68|456:68|428:24,1,90,10|0,1:0|0:0,0:0:0:0:
301,168,262356,2,0,L|297:284,1,90,8|0,0:0|0:0,0:0:0:0:
132,208,262641,2,0,L|136:92,1,90,8|0,0:0|0:0,0:0:0:0:
344,100,262927,2,0,B|372:136|372:136|388:204,1,90,8|0,0:0|0:0,0:0:0:0:
200,244,263213,5,2,2:0:0:0:
192,44,263356,1,0,0:0:0:0:
344,300,263499,5,8,1:0:0:0:
344,100,263642,1,0,0:0:0:0:
184,340,263784,5,0,2:0:0:0:
176,160,263927,1,0,0:0:0:0:
324,372,264070,5,8,1:0:0:0:
316,192,264213,1,0,0:0:0:0:
120,80,264356,5,2,1:0:0:0:
240,144,264499,1,0,0:0:0:0:
108,172,264641,5,8,1:0:0:0:
243,172,264784,1,0,0:0:0:0:
136,268,264927,5,0,1:0:0:0:
251,196,265070,1,0,0:0:0:0:
216,344,265212,5,8,0:0:0:0:
267,219,265355,1,0,0:0:0:0:
436,284,265499,6,0,B|396:312|396:312|320:324,1,90,10|0,1:0|0:0,0:0:0:0:
224,288,265784,2,0,P|160:292|112:320,1,90,8|0,0:0|0:0,0:0:0:0:
64,188,266070,2,0,L|80:88,1,90,8|0,2:0|0:0,0:0:0:0:
224,44,266356,2,0,L|232:148,1,90,8|0,0:0|0:0,0:0:0:0:
288,340,266642,6,0,B|352:328|352:328|412:288,1,107.999996704102,10|0,1:0|0:0,0:0:0:0:
224,44,266927,2,0,B|160:56|160:56|100:96,1,107.999996704102,8|0,0:0|0:0,0:0:0:0:
404,160,267213,2,0,B|392:96|392:96|352:36,1,107.999996704102,8|0,2:0|0:0,0:0:0:0:
108,224,267499,2,0,B|120:288|120:288|160:348,1,107.999996704102,8|0,0:0|0:0,0:0:0:0:
408,56,267784,6,0,L|276:56,1,125.999996154785,10|0,1:0|0:0,0:0:0:0:
104,328,268070,2,0,L|236:328,1,125.999996154785,8|0,0:0|0:0,0:0:0:0:
120,40,268356,2,0,L|120:172,1,125.999996154785,8|0,1:0|0:0,0:0:0:0:
392,344,268642,2,0,L|392:212,1,125.999996154785,8|0,0:0|0:0,0:0:0:0:
60,48,268927,6,0,L|184:140,1,125.999996154785,10|0,1:0|0:0,0:0:0:0:
452,336,269213,2,0,L|320:240,1,135.000005149842,8|0,1:0|0:0,0:0:0:0:
278,24,269499,6,0,P|305:73|298:168,1,135,10|0,2:0|0:0,0:0:0:0:
302,173,269999,1,0,0:0:0:0:
298,193,270070,5,10,0:0:0:0:
252,340,270213,1,0,0:0:0:0:
140,176,270356,1,0,0:0:0:0:
140,176,270427,1,0,0:0:0:0:
140,176,270499,1,0,0:0:0:0:
304,284,270641,2,0,B|364:308|428:284,1,99.0000030212403
414,124,270927,2,0,P|370:168|360:222,1,99.0000030212403
145,146,271213,5,10,0:0:0:0:
442,203,271356,1,0,0:0:0:0:
180,236,271499,1,0,0:0:0:0:
180,236,271570,1,0,0:0:0:0:
180,236,271641,1,0,0:0:0:0:
276,64,271784,2,0,B|292:108|292:108|296:196,1,103.500001974106
156,320,272070,2,0,B|112:288|112:288|72:224,1,103.500001974106
136,44,272356,5,10,0:0:0:0:
140,356,272499,1,0,0:0:0:0:
149,34,272641,5,8,0:0:0:0:
126,345,272784,1,0,0:0:0:0:
108,172,272927,1,10,0:0:0:0:
108,172,272999,1,0,0:0:0:0:
108,172,273070,1,0,0:0:0:0:
240,40,273213,5,8,0:0:0:0:
284,348,273356,1,0,0:0:0:0:
280,40,273499,5,10,0:0:0:0:
244,348,273642,1,0,0:0:0:0:
360,24,273784,5,8,0:0:0:0:
404,332,273927,1,0,0:0:0:0:
400,24,274070,5,10,0:0:0:0:
364,332,274213,1,0,0:0:0:0:
440,32,274356,5,8,0:0:0:0:
140,112,274499,1,0,0:0:0:0:
140,112,274570,1,0,0:0:0:0:
140,112,274641,5,10,0:0:0:0:
196,312,274784,1,0,0:0:0:0:
144,92,274927,5,0,0:0:0:0:
208,336,275070,1,0,0:0:0:0:
128,72,275213,5,8,0:0:0:0:
224,348,275356,1,0,0:0:0:0:
132,48,275499,5,0,0:0:0:0:
208,376,275641,1,0,0:0:0:0:
136,200,275784,5,10,0:0:0:0:
336,144,275927,1,0,0:0:0:0:
116,196,276070,5,0,0:0:0:0:
360,156,276213,1,0,0:0:0:0:
96,212,276356,5,8,0:0:0:0:
372,116,276499,1,0,0:0:0:0:
72,208,276642,5,0,0:0:0:0:
400,132,276784,1,0,0:0:0:0:
167,263,276927,1,0,0:0:0:0:
256,192,276999,12,8,278070,0:0:0:0:
68,56,279213,5,0,0:0:0:0:
100,324,279356,1,0,0:0:0:0:
132,56,279499,2,0,L|116:168,1,90,8|0,0:0|0:0,0:0:0:0:
132,324,279784,2,0,L|160:208,1,90,8|0,0:0|0:0,0:0:0:0:
200,56,280070,5,0,0:0:0:0:
196,324,280213,1,0,0:0:0:0:
264,60,280356,2,0,L|248:172,1,90,8|0,0:0|0:0,0:0:0:0:
256,328,280641,2,0,L|284:212,1,90,8|0,0:0|0:0,0:0:0:0:
324,60,280927,5,0,0:0:0:0:
356,328,281070,1,0,0:0:0:0:
384,60,281213,2,0,B|406:43|406:43|397:66|381:112,1,90,2|0,0:0|0:0,0:0:0:0:
157,42,281499,5,8,0:0:0:0:
151,77,281570,1,0,0:0:0:0:
145,112,281641,2,0,L|137:160,1,45
226,321,281784,5,8,0:0:0:0:
232,286,281855,1,0,0:0:0:0:
239,245,281927,2,0,L|247:197,1,45
368,36,282070,5,8,0:0:0:0:
384,80,282141,1,0,0:0:0:0:
384,124,282213,1,0,0:0:0:0:
368,168,282284,1,0,0:0:0:0:
336,200,282356,1,8,0:0:0:0:
300,228,282427,1,0,0:0:0:0:
272,264,282499,1,0,0:0:0:0:
256,304,282570,1,0,0:0:0:0:
260,348,282641,5,8,0:0:0:0:
444,328,283784,5,0,0:0:0:0:
412,60,283927,1,0,0:0:0:0:
380,328,284070,2,0,L|396:216,1,90,8|0,0:0|0:0,0:0:0:0:
380,60,284356,2,0,L|352:176,1,90,8|0,0:0|0:0,0:0:0:0:
312,328,284641,5,0,0:0:0:0:
316,60,284784,1,0,0:0:0:0:
248,324,284927,2,0,L|264:212,1,90,8|0,0:0|0:0,0:0:0:0:
256,56,285213,2,0,L|240:168,1,90,8|0,0:0|0:0,0:0:0:0:
188,324,285498,5,0,0:0:0:0:
156,56,285641,1,0,0:0:0:0:
125,320,285784,2,0,B|113:342|113:342|96:258,1,90,2|0,0:0|0:0,0:0:0:0:
72,76,286070,5,8,0:0:0:0:
112,60,286141,1,0,0:0:0:0:
156,56,286213,1,0,0:0:0:0:
200,64,286284,1,0,0:0:0:0:
240,84,286356,1,0,0:0:0:0:
268,112,286427,1,0,0:0:0:0:
284,152,286499,2,0,L|284:216,1,45
184,324,286641,5,8,0:0:0:0:
152,300,286712,1,0,0:0:0:0:
128,268,286784,2,0,L|116:224,1,45
328,60,286927,5,8,0:0:0:0:
360,84,286998,1,0,0:0:0:0:
384,116,287070,2,0,L|396:160,1,45
260,212,287212,5,8,0:0:0:0:
396,64,288356,5,0,0:0:0:0:
116,64,288499,1,0,0:0:0:0:
396,64,288641,2,0,L|284:64,1,90,8|0,0:0|0:0,0:0:0:0:
116,160,288927,2,0,L|240:160,1,90,8|0,0:0|0:0,0:0:0:0:
396,156,289213,5,0,0:0:0:0:
116,160,289356,1,0,0:0:0:0:
396,244,289499,2,0,L|296:244,1,90,8|0,0:0|0:0,0:0:0:0:
116,244,289784,2,0,L|216:244,1,90,8|0,0:0|0:0,0:0:0:0:
396,332,290070,5,0,0:0:0:0:
116,332,290213,1,0,0:0:0:0:
396,332,290356,2,0,B|377:318|377:318|346:333|312:322,1,90,2|0,0:0|0:0,0:0:0:0:
92,164,290641,5,8,0:0:0:0:
108,124,290713,1,0,0:0:0:0:
136,92,290784,1,0,0:0:0:0:
172,64,290856,1,0,0:0:0:0:
212,48,290927,1,0,0:0:0:0:
256,48,290999,1,0,0:0:0:0:
301,63,291070,2,0,P|334:80|359:111,1,45
416,196,291213,5,8,0:0:0:0:
372,184,291285,1,0,0:0:0:0:
332,180,291356,1,0,0:0:0:0:
296,196,291428,1,0,0:0:0:0:
264,220,291499,1,8,0:0:0:0:
228,236,291570,1,0,0:0:0:0:
188,232,291642,1,0,0:0:0:0:
152,212,291713,1,0,0:0:0:0:
128,180,291784,5,8,0:0:0:0:
180,28,292070,5,0,0:0:0:0:
180,328,292356,1,8,0:0:0:0:
308,28,292641,1,8,0:0:0:0:
308,328,292927,5,0,0:0:0:0:
444,204,293070,1,0,0:0:0:0:
348,56,293213,2,0,B|360:108|360:108|356:164,1,90,2|0,0:0|0:0,0:0:0:0:
357,144,293427,1,0,0:0:0:0:
357,144,293499,1,8,0:0:0:0:
384,356,293641,1,0,0:0:0:0:
240,136,293784,5,0,0:0:0:0:
264,336,293926,1,0,0:0:0:0:
112,72,294070,5,8,1:0:0:0:
131,252,294213,1,0,0:0:0:0:
310,233,294356,1,0,1:0:0:0:
291,54,294499,1,0,0:0:0:0:
112,72,294641,5,2,1:0:0:0:
112,72,294784,1,0,0:0:0:0:
408,160,294927,1,0,0:0:0:0:
408,160,295070,1,0,0:0:0:0:
263,145,295213,5,8,0:0:0:0:
158,316,295356,1,0,0:0:0:0:
291,291,295499,1,0,0:0:0:0:
133,170,295641,1,0,0:0:0:0:
256,172,295784,5,8,0:0:0:0:
172,296,295927,1,0,0:0:0:0:
272,272,296070,1,8,0:0:0:0:
156,192,296213,1,0,0:0:0:0:
372,316,296356,6,0,B|408:248|408:248|380:196|380:196|436:108|352:32,1,297.000009063721,8|0,0:0|0:0,0:0:0:0:
114,115,296927,1,10,1:0:0:0:
325,131,297070,1,0,0:0:0:0:
325,131,297141,1,0,0:0:0:0:
325,131,297213,1,0,0:0:0:0:
192,196,297356,1,0,0:0:0:0:
40,144,297499,5,8,2:0:0:0:
412,100,297641,1,0,0:0:0:0:
412,100,297712,1,0,0:0:0:0:
412,100,297784,1,0,0:0:0:0:
128,236,297927,1,0,0:0:0:0:
336,40,298070,5,8,1:0:0:0:
176,344,298213,1,0,0:0:0:0:
408,272,298356,1,8,0:0:0:0:
104,112,298499,1,0,0:0:0:0:
427,36,298641,5,8,1:0:0:0:
387,128,298784,1,0,0:0:0:0:
303,180,298927,1,0,0:0:0:0:
263,272,299070,1,0,0:0:0:0:
60,148,299213,6,0,P|120:164|160:204,1,99.0000030212403,10|0,1:0|0:0,0:0:0:0:
147,187,299427,1,0,0:0:0:0:
147,187,299499,1,0,0:0:0:0:
264,328,299641,1,0,0:0:0:0:
324,84,299784,5,8,2:0:0:0:
356,280,299927,1,0,0:0:0:0:
356,84,300070,1,0,0:0:0:0:
324,280,300213,1,0,0:0:0:0:
56,80,300356,5,8,0:0:0:0:
144,124,300499,1,0,0:0:0:0:
180,216,300641,1,8,1:0:0:0:
264,268,300784,1,0,0:0:0:0:
448,100,300927,2,0,B|372:104|372:104|316:140|316:140|244:144,1,198.000006042481,8|0,2:0|0:0,0:0:0:0:
168,300,301356,1,0,0:0:0:0:
80,140,301499,2,0,B|96:60|176:32|244:76,1,198.000006042481,2|0,0:0|0:0,0:0:0:0:
380,176,301927,1,0,0:0:0:0:
212,244,302070,2,0,B|152:244|152:244|120:224|120:224|56:224,2,148.50000453186,8|0|8,0:0|0:0|0:0,0:0:0:0:
412,244,302641,5,0,0:0:0:0:
412,244,302784,1,0,0:0:0:0:
384,56,302927,5,8,1:0:0:0:
256,116,303070,1,0,0:0:0:0:
128,56,303213,1,8,0:0:0:0:
256,156,303356,1,0,0:0:0:0:
384,96,303499,1,8,2:0:0:0:
256,192,303641,1,0,0:0:0:0:
107,137,303784,6,0,B|106:159|92:173|92:173|105:201|105:201|82:272|147:332,1,198.000006042481,2|0,0:0|0:0,0:0:0:0:
379,299,304213,1,0,0:0:0:0:
407,30,304356,5,8,1:0:0:0:
107,137,304499,1,0,0:0:0:0:
407,138,304641,1,0,0:0:0:0:
107,29,304784,1,0,0:0:0:0:
216,340,304927,5,2,1:0:0:0:
182,127,305070,1,8,0:0:0:0:
117,286,305213,1,0,0:0:0:0:
182,127,305356,1,8,0:0:0:0:
408,177,305499,2,0,B|339:196|339:196|263:172|263:172|201:240|133:203,1,297.000009063721
8,168,306070,5,2,1:0:0:0:
212,108,306213,1,0,0:0:0:0:
212,108,306284,1,0,0:0:0:0:
212,108,306356,1,8,0:0:0:0:
128,304,306499,1,0,0:0:0:0:
8,168,306641,5,4,1:0:0:0:
268,56,306784,1,0,0:0:0:0:
268,56,306855,1,0,0:0:0:0:
268,56,306927,1,8,0:0:0:0:
152,376,307070,1,0,0:0:0:0:
184,20,307213,5,0,1:0:0:0:
216,376,307356,1,0,0:0:0:0:
216,116,307499,1,8,2:0:0:0:
184,292,307641,1,0,0:0:0:0:
277,26,307784,5,8,1:0:0:0:
317,333,307927,1,0,0:0:0:0:
341,26,308070,5,8,1:0:0:0:
317,333,308213,1,0,0:0:0:0:
183,36,308356,6,0,B|171:84|171:84|183:164,1,99.0000030212403,2|0,1:0|0:0,0:0:0:0:
178,132,308570,1,0,0:0:0:0:
178,132,308641,1,0,0:0:0:0:
344,229,308784,1,0,0:0:0:0:
80,184,308927,5,8,0:0:0:0:
428,132,309070,1,0,0:0:0:0:
80,132,309213,1,0,0:0:0:0:
428,184,309356,1,0,0:0:0:0:
166,238,309499,5,0,0:0:0:0:
332,80,309642,1,8,0:0:0:0:
180,259,309784,5,0,0:0:0:0:
300,64,309927,1,8,0:0:0:0:
207,267,310070,6,0,P|141:297|195:247,1,198.000006042481,2|0,0:0|0:0,0:0:0:0:
309,165,310499,1,0,0:0:0:0:
404,276,310641,5,8,1:0:0:0:
364,308,310713,1,0,0:0:0:0:
316,324,310784,1,0,0:0:0:0:
268,332,310856,1,0,0:0:0:0:
220,328,310927,1,0,0:0:0:0:
172,312,310999,1,0,0:0:0:0:
132,284,311070,1,0,0:0:0:0:
104,244,311141,1,0,0:0:0:0:
153,274,311213,5,8,0:0:0:0:
214,289,311284,1,0,0:0:0:0:
275,273,311355,1,0,0:0:0:0:
322,231,311427,1,0,0:0:0:0:
344,171,311498,1,0,0:0:0:0:
335,108,311570,1,0,0:0:0:0:
298,57,311641,1,0,0:0:0:0:
241,29,311713,1,0,0:0:0:0:
178,31,311784,1,2,0:0:0:0:
167,255,328927,6,0,L|107:211,5,53.9999983520508,10|0|0|0|0|0,1:0|0:0|0:0|0:0|0:0|0:0,0:0:0:0:
193,173,329356,2,0,L|146:114,5,53.9999983520508,8|0|0|0|0|0,2:0|0:0|0:0|0:0|0:0|0:0,0:0:0:0:
235,98,329784,2,0,L|205:29,3,53.9999983520508,8|0|0|0,0:0|0:0|0:0|0:0,0:0:0:0:
344,128,330070,6,0,L|410:174,5,58.4999973220826,10|0|0|0|0|0,1:0|0:0|0:0|0:0|0:0|0:0,0:0:0:0:
319,211,330499,2,0,L|370:278,5,58.4999973220826,8|0|0|0|0|0,2:0|0:0|0:0|0:0|0:0|0:0,0:0:0:0:
277,286,330927,2,0,L|310:365,3,58.4999973220826,8|0|0|0,0:0|0:0|0:0|0:0,0:0:0:0:
256,102,331213,6,0,L|256:15,5,62.9999980773926,10|0|0|0|0|0,1:0|0:0|0:0|0:0|0:0|0:0,0:0:0:0:
151,192,331642,2,0,L|64:192,5,62.9999980773926,8|0|0|0|0|0,2:0|0:0|0:0|0:0|0:0|0:0,0:0:0:0:
361,192,332070,2,0,L|448:192,3,62.9999980773926,8|0|0|0,3:0|0:0|3:0|0:0,0:0:0:0:
257,193,332356,6,0,L|256:253,28,33.7500012874604,10|0|0|0|0|0|0|0|8|0|0|0|0|0|0|0|8|0|0|0|0|0|0|0|8|0|0|0|0,1:0|0:0|0:0|0:0|0:0|0:0|0:0|0:0|1:0|0:0|0:0|0:0|0:0|0:0|0:0|0:0|1:0|0:0|0:0|0:0|0:0|0:0|0:0|0:0|1:0|0:0|0:0|0:0|0:0,0:0:0:0:
123,83,333499,6,0,P|183:67|259:75,1,99.0000030212403,10|0,0:0|0:0,0:0:0:0:
379,242,333784,1,8,0:0:0:0:
379,242,333856,1,0,0:0:0:0:
379,242,333927,1,0,0:0:0:0:
192,270,334070,2,0,B|136:270|100:222,1,99.0000030212403,8|0,0:0|0:0,0:0:0:0:
219,66,334356,2,0,L|239:186,1,99.0000030212403,8|0,0:0|0:0,0:0:0:0:
272,336,334641,6,0,B|328:348|328:348|416:336,2,99.0000030212403,8|0|8,0:0|0:0|0:0,0:0:0:0:
164,232,335070,2,0,B|108:220|108:220|20:232,2,99.0000030212403,0|8|0,0:0|0:0|0:0,0:0:0:0:
329,269,335499,1,8,0:0:0:0:
329,269,335641,1,0,0:0:0:0:
292,36,335784,5,8,1:0:0:0:
252,332,335927,1,0,0:0:0:0:
328,40,336070,5,8,1:0:0:0:
216,328,336213,1,0,0:0:0:0:
364,52,336356,5,8,1:0:0:0:
180,320,336499,1,0,0:0:0:0:
88,96,336641,5,8,0:0:0:0:
100,132,336713,1,0,0:0:0:0:
112,168,336784,2,0,L|132:232,1,49.5000015106202
252,332,336927,5,8,1:0:0:0:
300,336,336999,1,0,0:0:0:0:
348,324,337070,1,0,0:0:0:0:
392,300,337141,1,0,0:0:0:0:
428,264,337213,1,8,0:0:0:0:
452,220,337284,1,0,0:0:0:0:
464,172,337356,1,0,0:0:0:0:
460,124,337427,1,0,0:0:0:0:
436,156,337499,5,8,1:0:0:0:
408,180,337570,1,0,0:0:0:0:
372,196,337641,1,0,0:0:0:0:
332,200,337713,1,0,0:0:0:0:
292,192,337784,1,8,0:0:0:0:
256,176,337856,1,0,0:0:0:0:
224,152,337927,1,0,0:0:0:0:
200,120,337999,1,0,0:0:0:0:
184,84,338070,6,8,B|160:36|160:36|96:96|88:172,1,198.000006042481,10|8,1:0|0:0,0:0:0:0:
104,328,338499,1,0,0:0:0:0:
104,328,338570,1,0,0:0:0:0:
104,328,338641,1,8,0:0:0:0:
272,312,338784,1,0,0:0:0:0:
200,128,338927,2,0,L|184:240,1,99.0000030212403,8|0,0:0|0:0,0:0:0:0:
164,352,339213,5,8,0:0:0:0:
164,352,339284,1,0,0:0:0:0:
164,352,339356,1,0,0:0:0:0:
361,134,339499,1,8,0:0:0:0:
276,364,339641,5,0,0:0:0:0:
276,364,339713,1,0,0:0:0:0:
276,364,339784,1,8,0:0:0:0:
240,95,339927,1,0,0:0:0:0:
80,160,340070,2,0,P|88:236|120:284,1,99.0000030212403,8|0,0:0|0:0,0:0:0:0:
336,328,340356,6,0,B|352:264|352:264|344:208|344:208|364:124,1,198.000006042481,8|0,1:0|0:0,0:0:0:0:
136,36,340784,2,0,B|168:72|168:72|148:257,1,215.999993408203,8|0,2:0|0:0,0:0:0:0:
236,28,341213,1,8,1:0:0:0:
56,324,341356,1,0,0:0:0:0:
296,252,341499,5,10,1:0:0:0:
296,252,341641,1,0,0:0:0:0:
236,28,341784,1,0,0:0:0:0:
236,28,341856,1,0,0:0:0:0:
236,28,341927,1,0,0:0:0:0:
88,132,342070,5,10,1:0:0:0:
60,160,342141,1,0,0:0:0:0:
32,188,342213,1,0,0:0:0:0:
292,284,342356,5,0,0:0:0:0:
292,244,342427,1,0,0:0:0:0:
292,204,342499,1,0,0:0:0:0:
88,68,342641,5,0,0:0:0:0:
88,84,342713,1,0,0:0:0:0:
88,100,342784,1,0,0:0:0:0:
88,116,342856,1,0,0:0:0:0:
88,132,342927,1,0,0:0:0:0:
88,148,342999,1,0,0:0:0:0:
88,164,343070,1,0,0:0:0:0:
88,180,343141,1,0,0:0:0:0:
88,196,343213,1,2,0:0:0:0:
200,284,343784,5,8,0:0:0:0:
252,304,343856,1,0,0:0:0:0:
304,308,343927,1,0,0:0:0:0:
356,296,343999,1,0,0:0:0:0:
404,268,344070,1,0,0:0:0:0:
436,224,344141,1,0,0:0:0:0:
452,172,344213,1,0,0:0:0:0:
448,116,344284,1,0,0:0:0:0:
424,148,344356,5,2,0:0:0:0:
392,172,344427,1,0,0:0:0:0:
352,180,344499,1,0,0:0:0:0:
312,176,344570,1,0,0:0:0:0:
279,139,344641,5,0,0:0:0:0:
319,110,344713,1,0,0:0:0:0:
366,121,344784,1,0,0:0:0:0:
381,168,344856,1,0,0:0:0:0:
360,212,344927,6,0,P|300:284|192:288,1,198.000006042481,0|0,1:0|0:0,0:0:0:0:
175,32,345499,5,0,0:0:0:0:
191,128,345641,1,0,0:0:0:0:
211,224,345784,1,8,1:0:0:0:
332,44,346070,6,0,B|344:108|344:108|320:168|320:168|332:248,1,198.000006042481,2|0,0:0|0:0,0:0:0:0:
120,316,346499,2,0,P|44:272|44:148,1,198.000006042481
220,8,346927,1,0,1:0:0:0:
260,252,347070,1,0,0:0:0:0:
304,84,347213,6,0,B|240:104|240:104|200:152|200:152|132:168,1,198.000006042481,10|0,2:0|0:0,0:0:0:0:
190,319,347641,2,0,P|285:338|362:259,1,198.000006042481
304,84,348070,1,8,1:0:0:0:
116,216,348356,5,0,0:0:0:0:
256,28,348641,1,0,0:0:0:0:
292,172,348784,1,0,0:0:0:0:
256,356,349070,5,0,0:0:0:0:
220,212,349213,1,8,1:0:0:0:
472,56,349499,6,0,B|408:48|408:48|344:80|344:80|268:72,1,198.000006042481
36,52,349927,2,0,P|24:160|80:228,1,198.000006042481
249,46,350356,1,8,1:0:0:0:
240,292,350499,1,0,0:0:0:0:
107,123,350641,6,0,B|187:115|187:115|223:139|223:139|311:131,1,198.000006042481,8|0,0:0|0:0,0:0:0:0:
429,298,351070,2,0,P|321:270|221:302,1,198.000006042481
76,356,351499,1,8,1:0:0:0:
120,64,351641,1,0,0:0:0:0:
330,270,351784,2,2,B|314:154|314:154|230:66,2,216,0|0|0,2:0|2:0|2:0,0:0:0:0:
336,360,352927,1,0,0:0:0:0:
140,208,353499,5,8,1:0:0:0:
208,132,353641,1,0,0:0:0:0:
372,176,353784,5,2,1:0:0:0:
304,252,353926,1,0,0:0:0:0:
120,56,354070,5,8,1:0:0:0:
112,72,354141,1,0,0:0:0:0:
104,88,354213,1,0,0:0:0:0:
100,104,354284,1,0,0:0:0:0:
100,120,354356,1,0,0:0:0:0:
104,136,354427,1,0,0:0:0:0:
108,152,354499,1,0,0:0:0:0:
116,168,354570,1,0,0:0:0:0:
124,184,354641,1,8,0:0:0:0:
128,200,354713,1,0,0:0:0:0:
128,216,354784,1,0,0:0:0:0:
124,232,354856,1,0,0:0:0:0:
116,248,354927,1,0,0:0:0:0:
108,264,354999,1,0,0:0:0:0:
104,280,355070,2,0,P|100:308|100:336,1,33.7500012874604
224,320,355213,5,2,1:0:0:0:
248,324,355284,1,0,0:0:0:0:
272,320,355356,1,0,0:0:0:0:
292,308,355427,1,0,0:0:0:0:
308,292,355499,1,0,0:0:0:0:
316,268,355570,1,0,0:0:0:0:
316,244,355641,1,0,0:0:0:0:
308,220,355713,1,0,0:0:0:0:
308,196,355784,1,8,0:0:0:0:
316,172,355856,1,0,0:0:0:0:
328,152,355927,1,0,0:0:0:0:
348,140,355999,1,0,0:0:0:0:
372,144,356070,1,0,0:0:0:0:
388,160,356141,1,0,0:0:0:0:
396,184,356213,2,0,P|400:216|396:232,1,33.7500012874604
364,336,356356,5,8,1:0:0:0:
340,340,356427,1,0,0:0:0:0:
316,336,356499,1,0,0:0:0:0:
296,324,356570,1,0,0:0:0:0:
280,308,356641,1,0,0:0:0:0:
272,288,356713,1,0,0:0:0:0:
276,264,356784,1,0,0:0:0:0:
284,240,356856,1,0,0:0:0:0:
288,216,356927,1,2,2:0:0:0:
288,192,356999,1,0,0:0:0:0:
276,172,357070,1,0,0:0:0:0:
256,164,357141,1,0,0:0:0:0:
232,168,357213,1,0,0:0:0:0:
208,164,357284,1,0,0:0:0:0:
188,152,357356,2,0,P|168:136|160:120,1,33.7500012874604
224,20,357499,5,8,1:0:0:0:
204,12,357570,1,0,0:0:0:0:
180,12,357641,1,0,0:0:0:0:
156,20,357713,1,0,0:0:0:0:
140,36,357784,1,0,0:0:0:0:
132,56,357856,1,0,0:0:0:0:
132,80,357927,1,0,0:0:0:0:
140,100,357999,1,0,0:0:0:0:
152,120,358070,1,8,0:0:0:0:
160,140,358141,1,0,0:0:0:0:
164,164,358213,1,0,0:0:0:0:
160,188,358284,1,0,0:0:0:0:
152,212,358356,1,8,0:0:0:0:
152,236,358427,1,0,0:0:0:0:
156,260,358499,2,0,P|156:284|164:304,1,33.7500012874604
328,220,358642,6,0,P|272:208|224:164,1,99.0000030212403,8|0,0:0|0:0,0:0:0:0:
68,104,358927,1,0,0:0:0:0:
68,104,358999,1,0,0:0:0:0:
68,104,359070,1,0,0:0:0:0:
196,220,359213,2,0,P|256:236|320:228,1,99.0000030212403,8|0,0:0|0:0,0:0:0:0:
460,128,359499,2,0,L|452:24,1,99.0000030212403
256,8,359784,5,8,0:0:0:0:
300,252,359927,1,0,0:0:0:0:
296,72,360070,5,0,0:0:0:0:
252,316,360213,1,0,0:0:0:0:
292,188,360356,1,8,0:0:0:0:
292,188,360427,1,0,0:0:0:0:
292,188,360499,1,0,0:0:0:0:
136,116,360641,2,0,P|116:176|124:232,1,99.0000030212403,2|0,1:0|0:0,0:0:0:0:
408,136,360927,1,8,0:0:0:0:
200,180,361070,1,0,0:0:0:0:
296,352,361213,5,0,0:0:0:0:
296,352,361284,1,0,0:0:0:0:
296,352,361356,1,0,0:0:0:0:
352,188,361499,2,0,P|312:148|248:116,1,99.0000030212403,8|0,0:0|0:0,0:0:0:0:
244,116,361713,1,0,0:0:0:0:
208,112,361784,1,0,0:0:0:0:
172,116,361856,1,0,0:0:0:0:
144,132,361927,1,0,0:0:0:0:
230,276,362070,5,8,0:0:0:0:
230,276,362213,1,0,0:0:0:0:
388,67,362356,5,8,0:0:0:0:
297,353,362499,1,0,0:0:0:0:
279,37,362641,5,8,0:0:0:0:
372,311,362784,1,0,0:0:0:0:
488,60,362927,5,8,0:0:0:0:
299,269,363070,1,0,0:0:0:0:
61,126,363213,6,0,B|113:166|113:166|181:154|181:154|261:174,1,198.000006042481,10|0,0:0|0:0,0:0:0:0:
488,60,363642,2,0,B|480:136|480:136|496:192|496:192|488:276,1,198.000006042481
264,52,364070,1,8,0:0:0:0:
288,348,364213,1,0,0:0:0:0:
440,92,364356,2,2,L|320:112,1,99.0000030212403,0|0,0:0|0:0,0:0:0:0:
72,292,364641,2,2,L|192:272,1,99.0000030212403,8|0,0:0|0:0,0:0:0:0:
342,108,364927,5,0,0:0:0:0:
196,292,365070,1,0,0:0:0:0:
432,216,365213,1,8,0:0:0:0:
163,155,365356,1,0,0:0:0:0:
163,155,365427,1,0,0:0:0:0:
163,155,365499,2,0,P|223:139|291:155,1,99.0000030212403,2|0,0:0|0:0,0:0:0:0:
220,312,365784,1,8,0:0:0:0:
220,312,365856,1,0,0:0:0:0:
220,312,365927,1,0,0:0:0:0:
380,200,366070,5,0,0:0:0:0:
163,155,366213,1,0,0:0:0:0:
135,171,366284,1,0,0:0:0:0:
111,195,366356,1,8,0:0:0:0:
95,223,366427,1,0,0:0:0:0:
91,259,366499,1,0,0:0:0:0:
96,88,366641,5,8,0:0:0:0:
172,324,366784,1,0,0:0:0:0:
104,68,366927,1,8,0:0:0:0:
176,344,367070,1,0,0:0:0:0:
96,52,367213,1,8,0:0:0:0:
172,360,367356,1,0,0:0:0:0:
104,36,367499,1,8,0:0:0:0:
176,376,367641,1,0,0:0:0:0:
296,40,367784,5,8,0:0:0:0:
244,28,367856,1,0,0:0:0:0:
192,40,367927,1,0,0:0:0:0:
152,80,367999,1,0,0:0:0:0:
140,132,368070,1,0,0:0:0:0:
152,184,368141,1,0,0:0:0:0:
192,224,368213,1,0,0:0:0:0:
244,244,368284,1,0,0:0:0:0:
296,232,368356,5,4,0:0:0:0:
340,200,368427,1,0,0:0:0:0:
392,188,368499,1,0,0:0:0:0:
444,200,368570,1,0,0:0:0:0:
484,236,368641,1,0,0:0:0:0:
496,288,368713,1,0,0:0:0:0:
480,340,368784,1,0,0:0:0:0:
433,357,368856,1,0,0:0:0:0:
445,297,368927,5,8,0:0:0:0:
440,237,368998,1,0,0:0:0:0:
418,180,369070,1,0,0:0:0:0:
379,133,369141,1,0,0:0:0:0:
329,99,369213,1,8,0:0:0:0:
271,82,369284,1,0,0:0:0:0:
210,82,369356,1,0,0:0:0:0:
152,100,369427,1,0,0:0:0:0:
102,135,369498,1,8,0:0:0:0:
64,182,369570,1,0,0:0:0:0:
42,239,369641,1,0,0:0:0:0:
38,299,369713,1,0,0:0:0:0:
51,358,369784,5,10,0:0:0:0:
352,304,370070,6,0,P|356:240|348:168,1,112.5,10|0,0:0|0:0,0:0:0:0:
324,48,370356,1,8,0:0:0:0:
324,48,370427,1,0,0:0:0:0:
324,48,370499,1,0,0:0:0:0:
120,136,370641,2,0,B|156:164|156:164|252:184,1,112.5,8|0,0:0|0:0,0:0:0:0:
436,224,370927,2,0,P|392:272|320:280,1,112.5,8|0,0:0|0:0,0:0:0:0:
124,248,371213,1,8,0:0:0:0:
335,177,371356,1,0,0:0:0:0:
90,135,371499,5,8,0:0:0:0:
436,224,371641,1,0,0:0:0:0:
175,98,371784,2,0,B|151:162|163:226,1,112.5,8|0,0:0|0:0,0:0:0:0:
320,287,372070,2,0,B|344:223|332:159,1,112.5,8|0,0:0|0:0,0:0:0:0:
176,288,372356,5,10,0:0:0:0:
212,8,372499,1,0,0:0:0:0:
360,176,372641,1,8,0:0:0:0:
348,188,372713,1,0,0:0:0:0:
336,200,372784,1,0,0:0:0:0:
284,28,372927,5,8,0:0:0:0:
312,336,373070,1,0,0:0:0:0:
312,28,373213,5,8,0:0:0:0:
284,336,373356,1,0,0:0:0:0:
88,136,373499,2,0,P|156:116|224:128,1,112.5,8|0,0:0|0:0,0:0:0:0:
424,248,373784,2,0,P|356:268|288:256,1,112.5,8|0,0:0|0:0,0:0:0:0:
388,80,374070,5,8,0:0:0:0:
80,220,374213,1,0,0:0:0:0:
256,80,374356,1,8,0:0:0:0:
304,300,374499,1,0,0:0:0:0:
96,112,374641,6,0,B|140:124|140:124|192:196,1,112.5,10|0,0:0|0:0,0:0:0:0:
116,340,374927,1,8,0:0:0:0:
116,340,374999,1,0,0:0:0:0:
116,340,375070,1,0,0:0:0:0:
360,288,375213,2,0,P|412:240|424:172,1,112.5,8|0,0:0|0:0,0:0:0:0:
152,96,375499,2,0,P|100:144|88:212,1,112.5,8|0,0:0|0:0,0:0:0:0:
270,322,375784,5,8,0:0:0:0:
303,42,375927,1,0,0:0:0:0:
298,322,376070,5,8,0:0:0:0:
267,42,376213,1,0,0:0:0:0:
148,166,376356,5,8,0:0:0:0:
428,196,376499,1,0,0:0:0:0:
149,194,376642,5,8,0:0:0:0:
428,160,376785,1,0,0:0:0:0:
232,324,376927,6,0,P|168:308|124:264,1,112.5,10|0,0:0|0:0,0:0:0:0:
84,116,377213,1,8,0:0:0:0:
84,116,377284,1,0,0:0:0:0:
84,116,377356,1,0,0:0:0:0:
300,52,377499,2,0,P|344:108|356:176,1,112.5,8|0,0:0|0:0,0:0:0:0:
212,332,377784,2,0,P|168:276|156:208,1,112.5,8|0,0:0|0:0,0:0:0:0:
356,28,378070,5,8,0:0:0:0:
168,152,378213,1,0,0:0:0:0:
480,216,378356,1,8,0:0:0:0:
339,349,378499,1,0,0:0:0:0:
340,124,378641,2,0,P|292:96|228:80,2,112.5,8|0|8,0:0|0:0|0:0,0:0:0:0:
260,328,379070,1,0,0:0:0:0:
244,328,379141,1,0,0:0:0:0:
228,328,379213,6,0,L|112:328,1,112.5,10|0,0:0|0:0,0:0:0:0:
64,108,379499,1,8,0:0:0:0:
64,108,379570,1,0,0:0:0:0:
64,108,379641,1,0,0:0:0:0:
276,32,379784,2,0,B|304:76|304:76|304:164,1,112.5,8|0,0:0|0:0,0:0:0:0:
236,352,380070,2,0,B|208:308|208:308|208:220,1,112.5,8|0,0:0|0:0,0:0:0:0:
456,192,380356,5,8,0:0:0:0:
72,104,380499,1,0,0:0:0:0:
344,300,380641,2,0,B|284:268|284:268|244:212,1,112.5,8|0,0:0|0:0,0:0:0:0:
168,84,380927,2,0,B|228:116|228:116|268:172,1,112.5,8|0,0:0|0:0,0:0:0:0:
224,320,381213,2,0,L|84:368,1,112.5,8|0,0:0|0:0,0:0:0:0:
128,16,381499,1,10,0:0:0:0:
136,240,381641,1,0,0:0:0:0:
376,92,381784,5,8,0:0:0:0:
376,92,381856,1,0,0:0:0:0:
376,92,381927,2,0,B|308:102|261:187,1,112.5,0|8,0:0|0:0,0:0:0:0:
188,292,382213,1,0,0:0:0:0:
60,180,382356,2,0,P|96:120|152:96,1,112.5,8|0,0:0|0:0,0:0:0:0:
284,28,382641,5,8,0:0:0:0:
248,336,382784,1,0,0:0:0:0:
228,112,382927,1,8,0:0:0:0:
362,244,383070,1,0,0:0:0:0:
207,38,383213,1,8,0:0:0:0:
327,315,383356,1,0,0:0:0:0:
64,196,383499,2,0,B|112:168|112:168|188:164,1,112.5,8|0,0:0|0:0,0:0:0:0:
452,160,383784,1,10,0:0:0:0:
275,259,383927,5,0,0:0:0:0:
188,40,384070,1,8,0:0:0:0:
188,40,384141,1,0,0:0:0:0:
188,40,384213,2,0,P|136:100|128:160,1,112.5,0|8,0:0|0:0,0:0:0:0:
152,356,384499,1,0,0:0:0:0:
404,236,384641,2,0,L|336:132,1,112.5,8|0,0:0|0:0,0:0:0:0:
236,8,384927,5,8,0:0:0:0:
180,284,385070,1,0,0:0:0:0:
456,228,385213,1,8,0:0:0:0:
176,58,385356,5,0,0:0:0:0:
217,336,385499,1,8,0:0:0:0:
457,189,385642,1,0,0:0:0:0:
116,112,385784,5,8,0:0:0:0:
288,368,385927,1,0,0:0:0:0:
424,104,386070,6,0,P|364:68|304:68,1,112.5,10|0,0:0|0:0,0:0:0:0:
140,196,386356,1,8,0:0:0:0:
140,196,386427,1,0,0:0:0:0:
140,196,386499,2,0,P|200:232|260:232,1,112.5,0|8,0:0|0:0,0:0:0:0:
404,192,386784,1,0,0:0:0:0:
184,111,386927,2,0,L|60:123,1,112.5,8|0,0:0|0:0,0:0:0:0:
328,8,387213,2,0,L|340:140,1,112.5,8|0,0:0|0:0,0:0:0:0:
128,204,387499,5,8,0:0:0:0:
428,352,387641,1,0,0:0:0:0:
488,136,387784,5,8,0:0:0:0:
188,284,387926,1,0,0:0:0:0:
435,253,388070,5,8,0:0:0:0:
259,148,388213,1,0,0:0:0:0:
259,148,388284,1,0,0:0:0:0:
259,148,388356,5,8,0:0:0:0:
215,112,388427,1,0,0:0:0:0:
159,98,388499,1,0,0:0:0:0:
104,109,388570,1,0,0:0:0:0:
58,141,388641,1,0,0:0:0:0:
26,188,388713,1,0,0:0:0:0:
23,243,388784,1,0,0:0:0:0:
51,292,388856,1,0,0:0:0:0:
75,240,388927,5,8,1:0:0:0:
115,200,388999,1,0,0:0:0:0:
167,184,389070,1,0,0:0:0:0:
223,192,389141,1,0,0:0:0:0:
275,216,389213,1,0,0:0:0:0:
311,260,389284,1,0,0:0:0:0:
335,312,389356,1,0,0:0:0:0:
331,368,389427,1,0,0:0:0:0:
279,344,389499,5,10,0:0:0:0:
243,300,389570,1,0,0:0:0:0:
223,248,389641,1,0,0:0:0:0:
219,192,389713,1,0,0:0:0:0:
231,136,389784,1,0,0:0:0:0:
259,88,389856,1,0,0:0:0:0:
307,60,389927,1,0,0:0:0:0:
363,52,389999,1,0,0:0:0:0:
292,34,390070,5,8,1:0:0:0:
221,52,390141,1,0,0:0:0:0:
167,102,390213,1,0,0:0:0:0:
144,171,390284,1,0,0:0:0:0:
150,244,390356,1,8,1:0:0:0:
194,301,390427,1,0,0:0:0:0:
257,338,390499,1,0,0:0:0:0:
329,334,390570,1,0,0:0:0:0:
394,301,390641,5,4,0:0:0:0:
