osu file format v14

[General]
AudioFilename: audio.mp3
AudioLeadIn: 0
PreviewTime: 344956
Countdown: 0
SampleSet: Soft
StackLeniency: 0.3
Mode: 0
LetterboxInBreaks: 0
WidescreenStoryboard: 0

[Editor]
Bookmarks: 20756,39042,48185,68756,84185,102470,118470,136755,157327,177898,187041,203041,215046,239046,242814,251956,261099,270242,279385,294814,313099,327956,345099,354242,370242,390814
DistanceSpacing: 1.5
BeatDivisor: 4
GridSize: 4
TimelineZoom: 1

[Metadata]
Title:Gekiai No Yobigoe Ga Dekiai No Sakebigoe Wo Kurau
TitleUnicode:劇愛の呼声が溺哀の叫声を喰らう
Artist:Imperial Circus Dead Decadence
ArtistUnicode:Imperial Circus Dead Decadence
Creator:sakebi
Version:sakebi
Source:
Tags:icdd death metal
BeatmapID:1956638
BeatmapSetID:936641

[Difficulty]
HPDrainRate:8
CircleSize:4
OverallDifficulty:9
ApproachRate:9.8
SliderMultiplier:2
SliderTickRate:1

[Events]
//Background and Video events
0,0,"wolf_bite_by_nanomortis_dcj3kri.png",0,0
//Break Periods
//Storyboard Layer 0 (Background)
//Storyboard Layer 1 (Fail)
//Storyboard Layer 2 (Pass)
//Storyboard Layer 3 (Foreground)
//Storyboard Sound Samples

[TimingPoints]
185,285.714285714286,4,2,0,100,1,0
18470,-133.333333333333,4,2,0,100,0,0
19542,-133.333333333333,4,2,0,5,0,0
19613,-133.333333333333,4,2,0,100,0,0
20113,-133.333333333333,4,2,0,5,0,0
20185,-133.333333333333,4,2,0,100,0,0
20399,-133.333333333333,4,2,0,5,0,0
20470,-400,4,2,0,100,0,0
20685,-400,4,2,0,5,0,0
20756,-100,4,2,0,100,0,0
102470,285.714285714286,4,2,0,100,1,0
203041,307.692307692308,4,2,0,100,1,0
205502,315.789473684211,4,2,0,100,1,0
206449,368.098159509202,4,2,0,100,1,0
207921,375,4,2,0,100,1,0
209046,375,4,2,0,100,1,0
239046,289.855072463768,4,2,0,100,1,0
242814,285.714285714286,4,2,0,100,1,0
294814,285.714285714286,4,2,0,100,1,0
345099,-66.6666666666667,4,2,0,100,0,0

[Colours]
Combo1 : 236,0,0
Combo2 : 155,119,196
Combo3 : 205,215,218
Combo4 : 188,92,148

[HitObjects]
239,358,185,5,0,0:0:0:0:
239,358,327,1,0,0:0:0:0:
379,87,470,1,0,0:0:0:0:
379,87,613,2,0,B|368:125|368:125|355:142|355:142|344:181,1,100
84,311,899,1,0,0:0:0:0:
84,311,970,1,0,0:0:0:0:
84,311,1042,2,0,B|73:272|73:272|60:255|60:255|52:217,1,100
198,153,1327,5,0,0:0:0:0:
362,363,1470,1,0,0:0:0:0:
455,227,1613,1,0,0:0:0:0:
204,318,1756,1,0,0:0:0:0:
353,97,1899,2,0,B|388:80|388:80|410:79|410:79|445:61,1,100
315,232,2185,1,0,0:0:0:0:
236,18,2327,1,0,0:0:0:0:
405,163,2470,5,0,0:0:0:0:
405,163,2613,1,0,0:0:0:0:
105,113,2756,1,0,0:0:0:0:
105,113,2899,2,0,B|144:108|144:108|164:114|164:114|203:109,1,100
458,297,3184,1,0,0:0:0:0:
458,297,3256,1,0,0:0:0:0:
458,297,3327,2,0,B|418:292|418:292|398:298|398:298|359:293,1,100
143,192,3613,5,0,0:0:0:0:
143,192,3685,1,0,0:0:0:0:
143,192,3756,1,0,0:0:0:0:
388,180,3899,1,0,0:0:0:0:
145,276,4042,1,0,0:0:0:0:
377,166,4185,1,0,0:0:0:0:
204,342,4327,1,0,0:0:0:0:
293,42,4470,1,0,0:0:0:0:
358,372,4613,1,0,0:0:0:0:
226,101,4756,5,0,0:0:0:0:
226,101,4899,1,0,0:0:0:0:
100,350,5042,1,0,0:0:0:0:
100,350,5185,2,0,B|111:312|111:312|108:291|108:291|119:253,1,100
418,249,5470,1,0,0:0:0:0:
418,249,5542,1,0,0:0:0:0:
418,249,5613,2,0,B|429:286|429:286|426:307|426:307|437:345,1,100
179,181,5899,5,0,0:0:0:0:
419,108,6042,1,0,0:0:0:0:
154,163,6185,1,0,0:0:0:0:
338,335,6328,1,0,0:0:0:0:
129,145,6470,2,0,B|90:136|90:136|70:140|70:140|31:132,1,100
362,182,6756,1,0,0:0:0:0:
95,243,6899,1,0,0:0:0:0:
266,52,7042,5,0,0:0:0:0:
266,52,7185,1,0,0:0:0:0:
359,352,7327,1,0,0:0:0:0:
359,352,7470,2,0,B|348:314|348:314|351:293|351:293|340:255,1,100
168,78,7756,1,0,0:0:0:0:
168,78,7827,1,0,0:0:0:0:
168,78,7899,2,0,B|157:116|157:116|160:137|160:137|149:175,1,100
261,322,8185,6,0,P|263:282|234:309,1,100
426,311,8470,1,0,0:0:0:0:
397,160,8613,1,0,0:0:0:0:
155,260,8756,1,0,0:0:0:0:
247,62,8899,1,0,0:0:0:0:
247,62,8970,1,0,0:0:0:0:
247,62,9042,1,0,0:0:0:0:
359,352,9185,1,0,0:0:0:0:
71,201,9327,5,0,0:1:0:0:
71,201,9470,1,0,0:1:0:0:
350,49,9613,1,0,0:1:0:0:
306,257,9756,2,0,B|297:295|297:295|285:312|285:312|277:351,1,100
123,82,10042,1,0,0:0:0:0:
123,82,10113,1,0,0:0:0:0:
123,82,10185,2,0,B|131:120|131:120|143:137|143:137|151:176,1,100
469,195,10470,5,0,0:0:0:0:
311,44,10613,2,0,B|272:52|272:52|255:64|255:64|216:71,1,100
111,266,10899,1,0,0:0:0:0:
306,127,11042,2,0,B|345:119|345:119|362:107|362:107|400:99,1,100
324,351,11327,1,0,0:0:0:0:
221,146,11470,1,0,0:0:0:0:
488,294,11613,5,0,0:0:0:0:
488,294,11756,1,0,0:0:0:0:
343,41,11899,1,0,0:0:0:0:
370,206,12042,2,0,B|376:244|376:244|387:262|387:262|392:301,1,100
139,151,12327,1,0,0:0:0:0:
139,151,12399,1,0,0:0:0:0:
139,151,12470,2,0,B|145:112|145:112|156:94|156:94|161:55,1,100
275,242,12756,6,0,P|265:279|247:245,1,100
363,118,13042,1,0,0:0:0:0:
363,118,13113,1,0,0:0:0:0:
363,118,13185,1,0,0:0:0:0:
328,354,13327,1,0,0:0:0:0:
221,173,13470,1,0,0:0:0:0:
488,210,13613,1,0,0:0:0:0:
174,343,13756,1,0,0:0:0:0:
207,86,13899,5,0,0:0:0:0:
207,86,14042,1,0,0:0:0:0:
402,317,14185,1,0,0:0:0:0:
163,262,14327,2,0,B|124:254|124:254|103:258|103:258|65:249,1,100
373,149,14613,1,0,0:0:0:0:
373,149,14685,1,0,0:0:0:0:
373,149,14756,2,0,B|412:141|412:141|433:145|433:145|471:136,1,100
123,76,15042,5,0,0:0:0:0:
307,239,15185,2,0,B|346:231|346:231|367:235|367:235|405:226,1,100
287,17,15470,1,0,0:0:0:0:
103,180,15613,2,0,B|64:172|64:172|43:176|43:176|5:167,1,100
306,102,15899,1,0,0:0:0:0:
195,334,16042,1,0,0:0:0:0:
129,101,16185,5,0,0:0:0:0:
129,101,16256,1,0,0:0:0:0:
129,101,16327,2,0,L|123:41,1,50
282,188,16470,1,0,0:0:0:0:
282,188,16541,1,0,0:0:0:0:
282,188,16613,2,0,L|276:248,1,50
51,350,16756,1,0,0:0:0:0:
37,315,16827,1,0,0:0:0:0:
30,278,16898,1,0,0:0:0:0:
31,240,16970,1,0,0:0:0:0:
38,204,17042,2,0,P|45:180|57:158,1,50
257,328,17185,1,0,0:0:0:0:
257,328,17256,1,0,0:0:0:0:
257,328,17327,6,0,B|217:323|217:323|196:329|196:329|158:323,1,100
383,275,17613,2,0,B|422:270|422:270|443:276|443:276|481:270,1,100
175,173,17899,1,0,0:0:0:0:
175,173,17970,1,0,0:0:0:0:
175,173,18042,1,0,0:0:0:0:
191,127,18113,1,0,0:0:0:0:
233,103,18184,1,0,0:0:0:0:
282,111,18256,1,0,0:0:0:0:
313,148,18327,1,0,0:0:0:0:
314,197,18399,1,0,0:0:0:0:
282,235,18470,6,0,B|260:251|232:265|199:270|164:265|164:265|139:247|99:239|54:259|35:296|32:325|50:350|77:360|105:357|121:327|121:327|139:366|139:366|167:347|205:359|205:359|242:370|283:327,1,562.500021457673
308,316,19613,6,0,P|407:363|404:253,1,262.500010013581
365,242,20185,6,0,P|380:188|367:134,1,112.500004291535
346,98,20470,6,0,L|371:71,1,37.5
404,33,20756,5,0,0:0:0:0:
268,205,20899,1,0,0:0:0:0:
155,83,21042,1,0,0:0:0:0:
155,83,21113,1,0,0:0:0:0:
155,83,21185,2,0,B|115:77|115:77|94:83|94:83|56:76,1,100
279,290,21470,1,0,0:0:0:0:
163,162,21613,2,0,B|123:156|123:156|102:162|102:162|64:155,1,100
221,354,21899,1,0,0:0:0:0:
337,226,22042,2,0,B|376:220|376:220|397:226|397:226|435:219,1,100
250,61,22327,2,0,B|230:54|200:52|171:58|153:68|153:68|136:77|105:85|75:83|56:76,1,200
35,70,22685,1,0,0:0:0:0:
35,70,22756,2,0,P|42:118|23:163,1,100
292,351,23042,5,0,0:0:0:0:
207,146,23185,1,0,0:0:0:0:
63,334,23327,1,0,0:0:0:0:
63,334,23399,1,0,0:0:0:0:
63,334,23470,1,0,0:0:0:0:
170,121,23613,1,0,0:0:0:0:
190,355,23756,1,0,0:0:0:0:
320,32,23899,1,0,0:0:0:0:
300,266,24042,1,0,0:0:0:0:
153,37,24185,5,0,0:0:0:0:
422,175,24327,1,0,0:0:0:0:
135,241,24470,1,0,0:0:0:0:
404,72,24613,1,0,0:0:0:0:
70,133,24756,1,0,0:0:0:0:
370,305,24899,1,0,0:0:0:0:
370,305,24970,1,0,0:0:0:0:
370,305,25042,2,0,P|381:327|340:315,1,100
484,93,25327,5,0,0:0:0:0:
484,93,25470,1,0,0:0:0:0:
162,184,25613,1,0,0:0:0:0:
366,213,25756,2,0,B|405:219|405:219|424:231|424:231|462:236,1,100
305,105,26042,1,0,0:0:0:0:
101,134,26185,2,0,B|61:140|61:140|42:152|42:152|4:157,1,100
162,26,26470,1,0,0:0:0:0:
366,55,26613,2,0,B|405:61|405:61|424:73|424:73|462:78,1,100
216,339,26899,2,0,B|205:320|198:291|199:263|206:242|206:242|212:221|214:192|207:162|197:145,1,200
187,124,27257,1,0,0:0:0:0:
187,124,27328,2,0,P|228:96|277:94,1,100
376,291,27613,5,0,0:0:0:0:
91,242,27756,1,0,0:0:0:0:
381,106,27899,1,0,0:0:0:0:
381,106,27970,1,0,0:0:0:0:
381,106,28042,1,0,0:0:0:0:
222,320,28185,1,0,0:0:0:0:
180,37,28327,1,0,0:0:0:0:
239,336,28470,1,0,0:0:0:0:
197,53,28612,1,0,0:0:0:0:
256,352,28756,5,0,0:0:0:0:
396,162,28899,1,0,0:0:0:0:
171,232,29042,1,0,0:0:0:0:
395,308,29184,1,0,0:0:0:0:
259,116,29327,1,0,0:0:0:0:
259,116,29399,1,0,0:0:0:0:
259,116,29470,1,0,0:0:0:0:
153,334,29613,1,0,0:0:0:0:
468,235,29756,1,0,0:0:0:0:
157,130,29899,5,0,0:0:0:0:
157,130,30042,1,0,0:0:0:0:
315,355,30185,1,0,0:0:0:0:
363,144,30327,2,0,B|371:104|371:104|366:82|366:82|374:44,1,100
169,5,30614,1,0,0:0:0:0:
217,216,30756,2,0,B|225:255|225:255|220:277|220:277|228:315,1,100
23,355,31043,1,0,0:0:0:0:
71,144,31185,2,0,B|79:104|79:104|74:82|74:82|82:44,1,100
293,158,31470,2,0,B|309:236|309:236|299:280|299:280|313:356,1,200
314,354,31827,1,0,0:0:0:0:
314,354,31899,2,0,B|415:332,1,100
296,38,32185,5,0,0:0:0:0:
211,350,32327,1,0,0:0:0:0:
463,147,32470,1,0,0:0:0:0:
463,147,32542,1,0,0:0:0:0:
463,147,32613,1,0,0:0:0:0:
139,163,32756,1,0,0:0:0:0:
428,239,32899,1,0,0:0:0:0:
119,139,33042,1,0,0:0:0:0:
464,61,33185,1,0,0:0:0:0:
361,334,33327,5,0,0:0:0:0:
294,51,33470,1,0,0:0:0:0:
149,282,33613,1,0,0:0:0:0:
260,28,33756,1,0,0:0:0:0:
240,325,33899,1,0,0:0:0:0:
210,363,33970,1,0,0:0:0:0:
164,383,34041,1,0,0:0:0:0:
115,378,34113,1,0,0:0:0:0:
74,351,34185,2,0,P|51:308|51:257,1,100
243,107,34470,5,0,0:0:0:0:
243,107,34613,1,0,0:0:0:0:
329,366,34756,1,0,0:0:0:0:
329,366,34827,1,0,0:0:0:0:
329,366,34899,2,0,B|290:351|290:351|273:336|273:336|236:323,1,100
483,255,35185,1,0,0:0:0:0:
236,190,35327,2,0,B|197:175|197:175|180:160|180:160|143:147,1,100
138,331,35613,1,0,0:0:0:0:
334,49,35756,2,0,B|340:89|340:89|335:111|335:111|343:149,1,100
36,237,36042,2,0,B|47:157|47:157|72:119|72:119|84:42,1,200
85,47,36399,1,0,0:0:0:0:
85,47,36470,2,0,B|184:60,1,100
321,351,36756,6,0,B|280:356|280:356|258:350|258:350|222:355,1,100
403,208,37042,2,0,B|502:221,1,100
150,302,37327,2,0,P|132:284|119:263,1,50
103,193,37470,2,0,P|106:168|115:145,1,50
162,90,37613,2,0,P|183:77|207:71,1,50
279,75,37756,2,0,P|301:85|321:100,1,50
149,302,37899,5,0,0:0:0:0:
111,332,37970,1,0,0:0:0:0:
62,337,38041,1,0,0:0:0:0:
19,313,38113,1,0,0:0:0:0:
0,269,38184,1,0,0:0:0:0:
3,220,38256,1,0,0:0:0:0:
35,183,38327,1,0,0:0:0:0:
83,170,38399,1,0,0:0:0:0:
129,187,38470,1,0,0:0:0:0:
175,204,38542,1,0,0:0:0:0:
223,191,38614,1,0,0:0:0:0:
255,154,38685,1,0,0:0:0:0:
261,105,38757,1,0,0:0:0:0:
239,61,38828,1,0,0:0:0:0:
195,36,38899,2,0,P|171:35|146:41,1,50
80,255,39042,5,0,0:0:0:0:
80,255,39185,1,0,0:0:0:0:
325,51,39327,1,0,0:0:0:0:
301,256,39470,2,0,B|296:295|296:295|285:314|285:314|279:354,1,100
484,238,39756,1,0,0:0:0:0:
484,238,39827,1,0,0:0:0:0:
484,238,39899,2,0,B|479:198|479:198|468:179|468:179|462:139,1,100,0|0,0:0|0:0,0:0:0:0:
178,119,40185,5,0,0:0:0:0:
398,233,40327,1,0,0:0:0:0:
141,280,40470,1,0,0:0:0:0:
388,213,40613,1,0,0:0:0:0:
131,193,40756,2,0,B|91:191|91:191|71:197|71:197|32:196,1,100
263,359,41042,1,0,0:0:0:0:
172,22,41185,1,0,0:0:0:0:
96,351,41327,5,0,0:0:0:0:
96,351,41470,1,0,0:0:0:0:
195,46,41613,1,0,0:0:0:0:
246,261,41756,2,0,B|256:299|256:299|253:321|253:321|263:359,1,100
44,273,42042,1,0,0:0:0:0:
80,123,42185,2,0,B|90:84|90:84|87:63|87:63|96:25,1,100
180,336,42470,5,0,0:0:0:0:
1,159,42613,1,0,0:0:0:0:
1,159,42685,1,0,0:0:0:0:
1,159,42756,1,0,0:0:0:0:
272,184,42899,1,0,0:0:0:0:
22,187,43042,1,0,0:0:0:0:
345,123,43185,1,0,0:0:0:0:
18,30,43327,1,0,0:0:0:0:
255,285,43470,1,0,0:0:0:0:
157,41,43613,5,0,0:0:0:0:
157,41,43756,1,0,0:0:0:0:
87,355,43899,1,0,0:0:0:0:
262,189,44042,2,0,B|269:149|269:149|264:128|264:128|271:90,1,100
59,171,44327,1,0,0:0:0:0:
59,171,44399,1,0,0:0:0:0:
59,171,44470,2,0,B|66:210|66:210|61:231|61:231|68:269,1,100
218,340,44756,5,0,0:0:0:0:
194,155,44899,2,0,B|186:115|186:115|174:97|174:97|167:59,1,100
356,2,45185,1,0,0:0:0:0:
332,187,45328,2,0,B|324:226|324:226|312:244|312:244|305:282,1,100
494,340,45613,1,0,0:0:0:0:
443,59,45756,1,0,0:0:0:0:
350,364,45899,5,0,0:0:0:0:
350,364,46042,1,0,0:0:0:0:
196,160,46185,2,0,B|201:120|201:120|211:101|211:101|217:62,1,100
421,170,46471,1,0,0:0:0:0:
431,218,46542,1,0,0:0:0:0:
441,267,46613,1,0,0:0:0:0:
159,344,46756,1,0,0:0:0:0:
169,296,46827,1,0,0:0:0:0:
179,247,46898,1,0,0:0:0:0:
306,30,47042,5,0,0:0:0:0:
308,61,47113,1,0,0:0:0:0:
310,92,47184,1,0,0:0:0:0:
313,123,47256,1,0,0:0:0:0:
315,154,47327,1,0,0:0:0:0:
317,185,47399,1,0,0:0:0:0:
320,216,47470,1,0,0:0:0:0:
322,248,47542,1,0,0:0:0:0:
325,279,47613,1,0,0:0:0:0:
303,330,47684,1,0,0:0:0:0:
259,365,47755,1,0,0:0:0:0:
205,376,47827,1,0,0:0:0:0:
151,360,47898,1,0,0:0:0:0:
111,321,47970,1,0,0:0:0:0:
94,268,48042,2,0,P|95:243|101:219,1,50
190,75,48185,5,0,0:0:0:0:
190,75,48327,1,0,0:0:0:0:
438,285,48470,1,0,0:0:0:0:
438,285,48542,1,0,0:0:0:0:
438,285,48613,2,0,B|433:244|433:244|424:225|424:225|418:186,1,100
308,41,48899,1,0,0:0:0:0:
284,257,49042,2,0,B|279:297|279:297|270:316|270:316|264:355,1,100
173,128,49327,1,0,0:0:0:0:
389,114,49470,2,0,B|429:111|429:111|449:117|449:117|489:115,1,100
221,209,49756,2,0,B|140:203|140:203|99:215|99:215|20:212,1,200
24,212,50113,1,0,0:0:0:0:
23,212,50185,2,0,B|19:314,1,100,0|0,0:0|0:0,2:0:0:0:
337,222,50470,5,0,0:0:0:0:
105,139,50613,1,0,0:0:0:0:
243,342,50756,1,0,0:0:0:0:
243,342,50827,1,0,0:0:0:0:
243,342,50899,1,0,0:0:0:0:
250,95,51042,1,0,0:0:0:0:
99,289,51185,1,0,0:0:0:0:
283,86,51327,1,0,0:0:0:0:
132,280,51470,1,0,0:0:0:0:
316,77,51613,5,0,0:0:0:0:
417,306,51756,1,0,0:0:0:0:
201,180,51899,1,0,0:0:0:0:
449,155,52042,1,0,0:0:0:0:
263,320,52185,2,0,P|238:327|214:330,1,50
140,317,52327,2,0,P|120:301|103:283,1,50
74,213,52470,2,0,B|67:173|67:173|71:152|71:152|66:113,1,100
250,32,52756,5,0,0:0:0:0:
250,32,52899,1,0,0:0:0:0:
388,247,53042,1,0,0:0:0:0:
388,247,53113,1,0,0:0:0:0:
388,247,53185,2,0,B|378:287|378:287|366:305|366:305|356:343,1,100
152,180,53470,1,0,0:0:0:0:
298,155,53613,2,0,B|339:150|339:150|360:154|360:154|399:151,1,100
272,337,53899,1,0,0:0:0:0:
126,312,54042,2,0,B|84:307|84:307|63:311|63:311|24:308,1,100
252,238,54327,2,0,B|335:228|335:228|376:237|376:237|450:231,1,200
450,231,54685,1,0,0:0:0:0:
450,231,54756,2,0,B|457:331,1,100
204,303,55042,5,0,0:0:0:0:
180,46,55185,1,0,0:0:0:0:
48,268,55327,1,0,0:0:0:0:
48,268,55399,1,0,0:0:0:0:
48,268,55470,1,0,0:0:0:0:
286,166,55613,1,0,0:0:0:0:
34,109,55756,1,0,0:0:0:0:
34,109,55827,1,0,0:0:0:0:
34,109,55899,1,0,0:0:0:0:
281,188,56042,1,0,0:0:0:0:
90,34,56185,5,0,0:0:0:0:
177,345,56327,1,0,0:0:0:0:
303,81,56470,1,0,0:0:0:0:
0,203,56613,1,0,0:0:0:0:
306,307,56756,1,0,0:0:0:0:
306,307,56827,1,0,0:0:0:0:
306,307,56899,1,0,0:0:0:0:
196,18,57042,1,0,0:0:0:0:
87,344,57185,1,0,0:0:0:0:
