osu file format v14

[General]
AudioFilename: audio.mp3
AudioLeadIn: 0
PreviewTime: 102048
Countdown: 0
SampleSet: Drum
StackLeniency: 0.3
Mode: 0
LetterboxInBreaks: 0
WidescreenStoryboard: 1

[Editor]
Bookmarks: 191,20762,39048,48191,68762,84191,102476,118476,136764,157333,177905,187048,203048,215048,227048,242832,251974,261116,270260,279403,294832,313117,329117,345117,354260,370260,390832
DistanceSpacing: 0.5
BeatDivisor: 4
GridSize: 8
TimelineZoom: 3.799997

[Metadata]
Title:Gekiai No Yobigoe Ga Dekiai No Sakebigoe Wo Kurau
TitleUnicode:劇愛の呼声が溺哀の叫声を喰らう
Artist:Imperial Circus Dead Decadence
ArtistUnicode:Imperial Circus Dead Decadence
Creator:Silomare
Version:Higeki
Source:
Tags:icdd symphonic extreme black death metal japanese j-rock daiyouseii- unknown anon fa featured artist 狂おしく咲いた凄惨な骸は奏で、愛おしく裂いた少女は聖餐の詞を謳う。 kurooshiku saita seisan na mukuro wa kanaderu itooshiku shoujo seisen kotoba wo utau bicycle rib rib:y(uhki)
BeatmapID:2034436
BeatmapSetID:945827

[Difficulty]
HPDrainRate:5
CircleSize:4.5
OverallDifficulty:9.4
ApproachRate:9.7
SliderMultiplier:2.1
SliderTickRate:2

[Events]
//Background and Video events
0,0,"nanomortis.png",0,0
//Break Periods
2,207923,213923
//Storyboard Layer 0 (Background)
//Storyboard Layer 1 (Fail)
//Storyboard Layer 2 (Pass)
//Storyboard Layer 3 (Foreground)
//Storyboard Layer 4 (Overlay)
//Storyboard Sound Samples

[TimingPoints]
191,285.714285714286,4,3,2,70,1,0
191,-76.9230769230769,4,3,1,70,0,0
476,-76.9230769230769,4,3,5,70,0,0
8905,-83.3333333333333,4,3,8,70,0,0
9333,-71.4285714285714,4,3,1,70,0,0
9619,-71.4285714285714,4,3,5,70,0,0
11762,-90.9090909090909,4,3,5,70,0,0
12048,-71.4285714285714,4,3,5,70,0,0
14476,-64.5161290322581,4,3,5,70,0,0
14762,-66.6666666666667,4,3,5,70,0,0
16191,-80,4,3,8,70,0,0
16762,-80,4,3,11,70,0,0
16905,-80,4,3,3,70,0,0
17333,-80,4,3,8,70,0,0
17476,-80,4,3,11,70,0,0
17619,-80,4,3,8,70,0,0
17762,-80,4,3,11,70,0,0
17905,-80,4,3,8,70,0,0
18048,-80,4,3,11,70,0,0
18191,-80,4,3,8,70,0,0
18333,-80,4,3,11,70,0,0
18476,-140.845070422535,4,3,1,80,0,0
18619,-140.845070422535,4,3,1,70,0,0
20405,-140.845070422535,4,3,99,5,0,0
20476,-71.4285714285714,4,3,8,70,0,0
20905,-71.4285714285714,4,3,5,70,0,0
25048,-71.4285714285714,4,3,8,70,0,0
25333,-71.4285714285714,4,3,1,70,0,0
25476,-90.9090909090909,4,3,5,70,0,0
26048,-71.4285714285714,4,3,5,70,0,0
29905,-71.4285714285714,4,3,8,70,0,0
30191,-71.4285714285714,4,3,5,70,0,0
32191,-66.6666666666667,4,3,5,70,0,0
33333,-90.9090909090909,4,3,5,70,0,0
34191,-90.9090909090909,4,3,8,70,0,0
34476,-90.9090909090909,4,3,1,70,0,0
34762,-90.9090909090909,4,3,5,70,0,0
36762,-90.9090909090909,4,3,1,70,0,0
37905,-85.4700854700855,4,3,11,70,0,0
38048,-85.4700854700855,4,3,5,70,0,0
38191,-71.4285714285714,4,3,1,70,0,0
38476,-71.4285714285714,4,3,11,70,0,0
38619,-71.4285714285714,4,3,1,70,0,0
39333,-71.4285714285714,4,3,5,70,0,0
46333,-90.9090909090909,4,3,1,70,0,0
46905,-90.9090909090909,4,3,11,70,0,0
47048,-90.9090909090909,4,3,8,70,0,0
47191,-90.9090909090909,4,3,11,70,0,0
47333,-90.9090909090909,4,3,1,70,0,0
47476,-90.9090909090909,4,3,11,70,0,0
47619,-90.9090909090909,4,3,1,70,0,0
47762,-90.9090909090909,4,3,12,70,0,0
47905,-90.9090909090909,4,3,1,70,0,0
48048,-90.9090909090909,4,3,8,70,0,0
48191,-90.9090909090909,4,3,1,70,0,0
48476,-90.9090909090909,4,3,5,70,0,0
48762,-58.8235294117647,4,3,5,70,0,0
49333,-66.6666666666667,4,3,5,70,0,0
49905,-90.9090909090909,4,3,5,70,0,0
50048,-71.4285714285714,4,3,5,70,0,0
51048,-62.5,4,3,5,70,0,0
52333,-66.6666666666667,4,3,8,70,0,0
52762,-66.6666666666667,4,3,1,70,0,0
53048,-66.6666666666667,4,3,5,70,0,0
57048,-62.5,4,3,5,70,0,0
57333,-62.5,4,3,1,70,0,0
57619,-62.5,4,3,5,70,0,0
61619,-62.5,4,3,1,70,0,0
61905,-62.5,4,3,3,70,0,0
62191,-62.5,4,3,5,70,0,0
64191,-62.5,4,3,1,70,0,0
65333,-62.5,4,3,11,70,0,0
65476,-83.3333333333333,4,3,1,70,0,0
65619,-83.3333333333333,4,3,11,70,0,0
65905,-83.3333333333333,4,3,1,70,0,0
66048,-83.3333333333333,4,3,12,70,0,0
66333,-62.5,4,3,1,70,0,0
66476,-62.5,4,3,1,70,0,1
67333,-62.5,4,3,11,80,0,1
67619,-62.5,4,3,9,90,0,0
67905,-133.333333333333,4,3,9,70,0,0
68762,-133.333333333333,4,3,1,70,0,0
69048,-76.9230769230769,4,3,5,70,0,0
70476,-100,4,3,1,70,0,0
71048,-83.3333333333333,4,3,8,70,0,0
71333,-76.9230769230769,4,3,1,70,0,0
71619,-90.9090909090909,4,3,11,70,0,0
71905,-76.9230769230769,4,3,11,70,0,0
72191,-76.9230769230769,4,3,9,70,0,0
72762,-133.333333333333,4,3,1,70,0,0
73619,-76.9230769230769,4,3,5,70,0,0
75048,-100,4,3,1,70,0,0
75619,-83.3333333333333,4,3,8,70,0,0
75905,-100,4,3,12,70,0,0
76191,-100,4,3,11,70,0,0
76476,-100,4,3,12,70,0,0
76762,-100,4,3,9,70,0,0
77333,-133.333333333333,4,3,1,70,0,0
78191,-76.9230769230769,4,3,5,70,0,0
79619,-100,4,3,1,70,0,0
80191,-83.3333333333333,4,3,8,70,0,0
80476,-90.9090909090909,4,3,8,70,0,0
81048,-90.9090909090909,4,3,12,70,0,0
81333,-133.333333333333,4,3,9,70,0,0
81905,-133.333333333333,4,3,3,70,0,0
82476,-133.333333333333,4,3,1,70,0,0
82762,-71.4285714285714,4,3,5,70,0,0
83333,-71.4285714285714,4,3,8,70,0,0
83619,-71.4285714285714,4,3,11,70,0,0
84095,-71.4285714285714,4,3,12,70,0,0
84191,285.714285714286,4,3,1,70,1,0
84333,-100,4,3,5,70,0,0
86191,-66.6666666666667,4,3,5,70,0,0
88762,-66.6666666666667,4,3,1,70,0,0
88905,-66.6666666666667,4,3,5,70,0,0
91048,-66.6666666666667,4,3,1,70,0,0
91191,-66.6666666666667,4,3,21,45,0,0
91333,-66.6666666666667,4,3,5,70,0,0
92191,-66.6666666666667,4,3,1,70,0,0
92333,-66.6666666666667,4,3,21,45,0,0
92476,-66.6666666666667,4,3,5,70,0,0
92762,-66.6666666666667,4,3,8,70,0,0
93333,-66.6666666666667,4,3,1,70,0,0
93476,-66.6666666666667,4,3,21,45,0,0
93619,-66.6666666666667,4,3,5,70,0,0
97905,-66.6666666666667,4,3,1,70,0,0
98048,-66.6666666666667,4,3,5,70,0,0
99048,-66.6666666666667,4,3,1,70,0,0
99191,-66.6666666666667,4,3,5,70,0,0
99905,-66.6666666666667,4,3,8,70,0,0
100048,-66.6666666666667,4,3,11,70,0,0
100191,-66.6666666666667,4,3,7,70,0,0
101333,-66.6666666666667,4,3,9,70,0,0
101619,-133.333333333333,4,3,1,45,0,0
102191,-133.333333333333,4,3,1,70,0,0
102476,-66.6666666666667,4,3,54,80,0,1
102619,-66.6666666666667,4,3,54,70,0,1
102691,-66.6666666666667,4,3,99,5,0,1
102762,-66.6666666666667,4,3,5,70,0,1
107048,-66.6666666666667,4,3,8,70,0,1
107191,-66.6666666666667,4,3,5,70,0,1
108619,-66.6666666666667,4,3,3,70,0,1
108905,-66.6666666666667,4,3,2,70,0,1
109191,-66.6666666666667,4,3,5,70,0,1
109476,-66.6666666666667,4,3,1,70,0,1
110762,-66.6666666666667,4,3,8,70,0,1
111048,-66.6666666666667,4,3,3,70,0,1
111333,-66.6666666666667,4,3,5,70,0,1
111619,-66.6666666666667,4,3,1,70,0,1
111762,-66.6666666666667,4,3,5,70,0,1
116191,-66.6666666666667,4,3,1,70,0,1
116762,-71.4285714285714,4,3,8,70,0,1
117476,-83.3333333333333,4,3,11,70,0,1
117762,-83.3333333333333,4,3,1,70,0,1
117905,-80,4,3,8,70,0,0
118619,-80,4,3,21,45,0,0
118762,-80,4,3,20,45,0,0
118905,-80,4,3,21,45,0,0
119048,-80,4,3,5,70,0,0
119619,-71.4285714285714,4,3,5,70,0,0
119762,-71.4285714285714,4,3,21,45,0,0
119905,-71.4285714285714,4,3,20,45,0,0
120048,-71.4285714285714,4,3,5,70,0,0
120905,-71.4285714285714,4,3,21,45,0,0
121048,-71.4285714285714,4,3,5,70,0,0
121333,-66.6666666666667,4,3,5,70,0,0
121905,-68.9655172413793,4,3,5,70,0,0
122048,-68.9655172413793,4,3,21,45,0,0
122191,-68.9655172413793,4,3,5,70,0,0
122476,-71.4285714285714,4,3,5,70,0,0
122619,-71.4285714285714,4,3,21,45,0,0
122762,-71.4285714285714,4,3,20,45,0,0
122905,-71.4285714285714,4,3,5,70,0,0
123048,-71.4285714285714,4,3,8,70,0,0
123191,-71.4285714285714,4,3,5,70,0,0
124905,-71.4285714285714,4,3,21,45,0,0
125048,-71.4285714285714,4,3,20,45,0,0
125191,-71.4285714285714,4,3,5,70,0,0
127619,-71.4285714285714,4,3,8,70,0,0
127762,-71.4285714285714,4,3,21,45,0,0
127905,-71.4285714285714,4,3,8,70,0,0
128048,-71.4285714285714,4,3,5,70,0,0
128191,-71.4285714285714,4,3,20,45,0,0
128333,-71.4285714285714,4,3,5,70,0,0
128905,-71.4285714285714,4,3,21,45,0,0
129048,-71.4285714285714,4,3,5,70,0,0
129905,-71.4285714285714,4,3,1,70,0,0
130048,-71.4285714285714,4,3,21,45,0,0
130191,-71.4285714285714,4,3,5,70,0,0
130476,-71.4285714285714,4,3,20,45,0,0
130619,-71.4285714285714,4,3,5,70,0,0
131191,-71.4285714285714,4,3,21,45,0,0
131333,-71.4285714285714,4,3,20,45,0,0
131476,-71.4285714285714,4,3,5,70,0,0
132191,-71.4285714285714,4,3,8,70,0,0
132333,-71.4285714285714,4,3,5,70,0,0
134476,-71.4285714285714,4,3,8,70,0,0
134619,-71.4285714285714,4,3,5,70,0,0
135048,-71.4285714285714,4,3,1,70,0,0
135191,-71.4285714285714,4,3,5,70,0,0
135619,-71.4285714285714,4,3,8,70,0,0
135762,-71.4285714285714,4,3,5,70,0,0
136191,-71.4285714285714,4,3,3,70,0,0
136762,-83.3333333333333,4,3,9,70,0,0
139048,-100,4,3,11,70,0,0
139191,-100,4,3,1,70,0,0
139333,-100,4,3,11,70,0,0
139619,-100,4,3,1,70,0,0
139762,-100,4,3,12,70,0,0
140048,-100,4,3,1,70,0,0
140333,-100,4,3,11,70,0,0
140476,-100,4,3,1,70,0,0
140619,-100,4,3,11,70,0,0
140762,-100,4,3,1,70,0,0
140905,-100,4,3,11,70,0,0
141048,-100,4,3,1,70,0,0
141191,-125,4,3,8,70,0,0
141333,-88.4955752212389,4,3,1,70,0,1
141619,-88.4955752212389,4,3,5,70,0,1
145619,-88.4955752212389,4,3,3,70,0,1
145905,-88.4955752212389,4,3,1,70,0,1
146191,-83.3333333333333,4,3,7,70,0,1
146762,-86.9565217391304,4,3,7,70,0,1
147143,-83.3333333333333,4,3,7,70,0,1
150476,-83.3333333333333,4,3,1,70,0,1
150762,-83.3333333333333,4,3,7,70,0,1
153333,-71.4285714285714,4,3,7,70,0,1
153619,-125,4,3,3,70,0,1
153905,-125,4,3,1,70,0,1
154191,-125,4,3,7,70,0,1
155048,-125,4,3,1,70,0,1
155619,-125,4,3,8,70,0,1
156191,-76.9230769230769,4,3,8,70,0,0
156762,-76.9230769230769,4,3,1,70,0,0
156976,-76.9230769230769,4,3,99,5,0,0
157048,-76.9230769230769,4,3,3,70,0,0
157262,-76.9230769230769,4,3,99,5,0,0
157333,-71.4285714285714,4,3,1,70,0,0
157619,-71.4285714285714,4,3,5,70,0,0
161476,-71.4285714285714,4,3,8,70,0,0
161619,-71.4285714285714,4,3,1,70,0,0
161905,-71.4285714285714,4,3,3,70,0,0
162048,-90.9090909090909,4,3,5,70,0,0
162619,-71.4285714285714,4,3,5,70,0,0
166476,-71.4285714285714,4,3,1,70,0,0
166619,-71.4285714285714,4,3,5,70,0,0
169905,-90.9090909090909,4,3,5,70,0,0
170619,-90.9090909090909,4,3,8,70,0,0
170762,-90.9090909090909,4,3,3,70,0,0
171048,-90.9090909090909,4,3,1,70,0,0
171191,-90.9090909090909,4,3,5,70,0,0
171905,-66.6666666666667,4,3,5,70,0,0
173333,-66.6666666666667,4,3,8,70,0,0
173619,-66.6666666666667,4,3,5,70,0,0
173905,-66.6666666666667,4,3,8,70,0,0
174476,-83.3333333333333,4,3,12,70,0,0
174619,-83.3333333333333,4,3,1,70,0,0
174762,-66.6666666666667,4,3,12,70,0,0
174905,-66.6666666666667,4,3,11,70,0,0
175048,-66.6666666666667,4,3,1,70,0,0
175333,-66.6666666666667,4,3,11,70,0,0
175619,-66.6666666666667,4,3,1,70,0,1
176476,-66.6666666666667,4,3,11,80,0,1
176762,-66.6666666666667,4,3,9,90,0,0
177048,-133.333333333333,4,3,9,70,0,0
177905,-133.333333333333,4,3,1,70,0,0
178191,-76.9230769230769,4,3,5,70,0,0
179619,-76.9230769230769,4,3,1,70,0,0
180191,-83.3333333333333,4,3,8,70,0,0
180476,-76.9230769230769,4,3,1,70,0,0
180762,-90.9090909090909,4,3,11,70,0,0
181048,-76.9230769230769,4,3,11,70,0,0
181334,-76.9230769230769,4,3,9,70,0,0
181905,-133.333333333333,4,3,1,70,0,0
182762,-76.9230769230769,4,3,5,70,0,0
184191,-90.9090909090909,4,3,1,70,0,0
184762,-83.3333333333333,4,3,8,70,0,0
185048,-76.9230769230769,4,3,12,70,0,0
185334,-76.9230769230769,4,3,11,70,0,0
185619,-76.9230769230769,4,3,12,70,0,0
185905,-76.9230769230769,4,3,9,70,0,0
186476,-133.333333333333,4,3,3,70,0,0
186762,-133.333333333333,4,3,1,70,0,0
187048,-66.6666666666667,4,3,54,70,0,1
187262,-66.6666666666667,4,3,99,5,0,1
187333,-66.6666666666667,4,3,5,70,0,1
191619,-66.6666666666667,4,3,8,70,0,1
191762,-66.6666666666667,4,3,5,70,0,1
193190,-66.6666666666667,4,3,3,70,0,1
193476,-66.6666666666667,4,3,2,70,0,1
193762,-66.6666666666667,4,3,5,70,0,1
194047,-66.6666666666667,4,3,1,70,0,1
194476,-66.6666666666667,4,3,2,70,0,1
195333,-66.6666666666667,4,3,8,70,0,1
195619,-66.6666666666667,4,3,3,70,0,1
195904,-66.6666666666667,4,3,5,70,0,1
196190,-66.6666666666667,4,3,1,70,0,1
196333,-66.6666666666667,4,3,5,70,0,1
200762,-66.6666666666667,4,3,1,70,0,1
201333,-76.9230769230769,4,3,8,70,0,1
202047,-76.9230769230769,4,3,11,70,0,1
202191,-83.3333333333333,4,3,11,70,0,1
202333,-83.3333333333333,4,3,1,70,0,1
202476,-83.3333333333333,4,3,8,70,0,1
203048,375,4,3,2,70,1,0
203048,-153.846153846154,4,3,1,80,0,0
203071,-153.846153846154,4,3,1,5,0,0
206423,-153.846153846153,4,3,99,50,0,0
215048,-153.846153846153,4,2,1,35,0,0
239048,-100,4,2,1,20,0,0
239110,-100,4,2,1,25,0,0
239173,-100,4,2,1,30,0,0
239235,-100,4,2,1,35,0,0
239298,-100,4,2,1,50,0,0
242704,-100,4,3,99,5,0,0
242832,285.714285714286,4,3,9,70,1,0
243117,-100,4,3,0,65,0,0
247832,-100,4,3,9,80,0,0
248832,-100,4,3,0,65,0,0
249689,-83.3333333333333,4,3,1,70,0,0
250260,-83.3333333333333,4,3,11,70,0,0
250403,-83.3333333333333,4,3,1,70,0,0
250546,-83.3333333333333,4,3,11,70,0,0
250689,-83.3333333333333,4,3,8,70,0,0
250974,-83.3333333333333,4,3,11,70,0,0
251117,-83.3333333333333,4,3,8,70,0,0
251546,-83.3333333333333,4,3,12,70,0,0
251689,-83.3333333333333,4,3,8,70,0,0
251832,-83.3333333333333,4,3,3,70,0,0
251974,-100,4,3,54,80,0,1
252046,-100,4,3,54,70,0,1
252117,-100,4,3,7,70,0,1
253117,-100,4,3,54,80,0,1
253189,-100,4,3,54,70,0,1
253260,-100,4,3,7,70,0,1
254260,-100,4,3,54,80,0,1
254332,-100,4,3,54,70,0,1
254403,-100,4,3,7,70,0,1
255403,-100,4,3,54,80,0,1
255474,-100,4,3,54,70,0,1
255546,-100,4,3,7,70,0,1
255974,-100,4,3,54,80,0,1
256046,-100,4,3,54,70,0,1
256117,-100,4,3,7,70,0,1
256546,-100,4,3,54,80,0,1
256617,-100,4,3,54,70,0,1
256689,-100,4,3,7,70,0,1
257689,-100,4,3,54,80,0,1
257760,-100,4,3,54,70,0,1
257832,-100,4,3,7,70,0,1
259974,-100,4,3,11,70,0,1
260117,-100,4,3,7,70,0,1
260260,-100,4,3,11,70,0,1
260546,-100,4,3,1,70,0,1
260617,-100,4,3,12,70,0,1
260974,-100,4,3,1,70,0,1
261117,-100,4,3,5,70,0,1
269689,-83.3333333333333,4,3,5,70,0,1
270260,-71.4285714285714,4,3,5,70,0,1
277117,-105.263157894737,4,3,8,80,0,1
277260,-105.263157894737,4,3,8,70,0,1
278189,-105.263157894737,4,3,99,5,0,1
278260,-133.333333333333,4,3,9,70,0,0
279403,-133.333333333333,4,3,1,70,0,0
279689,-76.9230769230769,4,3,5,70,0,0
281117,-100,4,3,1,70,0,0
281689,-83.3333333333333,4,3,8,70,0,0
281974,-76.9230769230769,4,3,1,70,0,0
282260,-90.9090909090909,4,3,11,70,0,0
282546,-76.9230769230769,4,3,11,70,0,0
282832,-76.9230769230769,4,3,9,70,0,0
283403,-133.333333333333,4,3,1,70,0,0
284260,-76.9230769230769,4,3,5,70,0,0
285689,-90.9090909090909,4,3,1,70,0,0
286260,-83.3333333333333,4,3,8,70,0,0
286546,-100,4,3,12,70,0,0
286832,-100,4,3,11,70,0,0
287117,-100,4,3,12,70,0,0
287403,-100,4,3,9,70,0,0
287974,-133.333333333333,4,3,1,70,0,0
288832,-76.9230769230769,4,3,5,70,0,0
290260,-76.9230769230769,4,3,1,70,0,0
290832,-83.3333333333333,4,3,8,70,0,0
291117,-90.9090909090909,4,3,11,70,0,0
291689,-90.9090909090909,4,3,12,70,0,0
291974,-133.333333333333,4,3,9,70,0,0
292546,-133.333333333333,4,3,3,70,0,0
293117,-133.333333333333,4,3,1,70,0,0
293403,-71.4285714285714,4,3,5,70,0,0
293974,-83.3333333333333,4,3,8,70,0,0
294260,-83.3333333333333,4,3,11,70,0,0
294736,-83.3333333333333,4,3,12,70,0,0
294832,285.714285714286,4,3,2,70,1,0
294974,-100,4,3,5,70,0,0
296546,-76.9230769230769,4,3,5,70,0,0
299117,-75.7575757575758,4,3,5,70,0,0
299403,-75.7575757575758,4,3,1,70,0,0
299689,-75.7575757575758,4,3,5,70,0,0
301403,-71.4285714285714,4,3,5,70,0,0
301689,-71.4285714285714,4,3,1,70,0,0
301832,-71.4285714285714,4,3,21,45,0,0
301974,-71.4285714285714,4,3,5,70,0,0
302832,-71.4285714285714,4,3,1,70,0,0
302974,-71.4285714285714,4,3,21,45,0,0
303117,-71.4285714285714,4,3,5,70,0,0
303403,-71.4285714285714,4,3,8,70,0,0
303974,-71.4285714285714,4,3,1,70,0,0
304117,-71.4285714285714,4,3,21,45,0,0
304260,-71.4285714285714,4,3,5,70,0,0
308546,-71.4285714285714,4,3,1,70,0,0
308689,-71.4285714285714,4,3,5,70,0,0
309689,-71.4285714285714,4,3,1,70,0,0
309832,-71.4285714285714,4,3,5,70,0,0
310546,-71.4285714285714,4,3,8,70,0,0
310689,-71.4285714285714,4,3,11,70,0,0
310832,-71.4285714285714,4,3,7,70,0,0
311974,-71.4285714285714,4,3,9,70,0,0
312260,-133.333333333333,4,3,1,70,0,0
313117,-166.666666666667,4,2,1,55,0,0
317117,-133.333333333333,4,2,1,55,0,0
317689,-166.666666666667,4,2,1,55,0,0
326260,-133.333333333333,4,2,1,55,0,0
326832,-166.666666666667,4,2,1,55,0,0
327974,-166.666666666667,4,3,10,70,0,0
329117,-66.6666666666667,4,3,54,80,0,1
329260,-66.6666666666667,4,3,54,70,0,1
329332,-66.6666666666667,4,3,99,5,0,1
329403,-66.6666666666667,4,3,5,70,0,1
333689,-66.6666666666667,4,3,8,70,0,1
333832,-66.6666666666667,4,3,5,70,0,1
335260,-66.6666666666667,4,3,3,70,0,1
335546,-66.6666666666667,4,3,2,70,0,1
335832,-66.6666666666667,4,3,5,70,0,1
336117,-66.6666666666667,4,3,1,70,0,1
337403,-66.6666666666667,4,3,8,70,0,1
337689,-66.6666666666667,4,3,3,70,0,1
337974,-66.6666666666667,4,3,5,70,0,1
338260,-66.6666666666667,4,3,1,70,0,1
338403,-66.6666666666667,4,3,5,70,0,1
342832,-66.6666666666667,4,3,1,70,0,1
343403,-66.6666666666667,4,3,8,70,0,1
344117,-83.3333333333333,4,3,11,70,0,1
344403,-83.3333333333333,4,3,1,70,0,1
344546,-83.3333333333333,4,3,8,70,0,1
344832,-83.3333333333333,4,3,11,70,0,1
344974,-83.3333333333333,4,3,1,70,0,1
345117,-71.4285714285714,4,3,1,70,0,0
345403,-71.4285714285714,4,3,7,70,0,0
347974,-71.4285714285714,4,3,20,45,0,0
348117,-71.4285714285714,4,3,7,70,0,0
348689,-71.4285714285714,4,3,20,45,0,0
348832,-71.4285714285714,4,3,7,70,0,0
352546,-71.4285714285714,4,3,20,45,0,0
352689,-71.4285714285714,4,3,7,70,0,0
353117,-100,4,3,8,70,0,0
353689,-71.4285714285714,4,3,11,70,0,0
353832,-71.4285714285714,4,3,1,70,0,0
353974,-71.4285714285714,4,3,11,70,0,0
354117,-71.4285714285714,4,3,1,70,0,0
354260,-66.6666666666667,4,3,54,80,0,1
354332,-66.6666666666667,4,3,54,70,0,1
354403,-66.6666666666667,4,3,5,70,0,1
356546,-66.6666666666667,4,3,54,80,0,1
356617,-66.6666666666667,4,3,54,70,0,1
356689,-66.6666666666667,4,3,5,70,0,1
358832,-66.6666666666667,4,3,8,70,0,1
358974,-66.6666666666667,4,3,21,45,0,1
359117,-66.6666666666667,4,3,5,70,0,1
359974,-66.6666666666667,4,3,1,70,0,1
360117,-66.6666666666667,4,3,5,70,0,1
361117,-66.6666666666667,4,3,8,70,0,1
361260,-66.6666666666667,4,3,21,45,0,1
361403,-66.6666666666667,4,3,5,70,0,1
363117,-66.6666666666667,4,3,1,70,0,1
363260,-66.6666666666667,4,3,3,70,0,1
363403,-66.6666666666667,4,3,8,70,0,1
363546,-66.6666666666667,4,3,21,45,0,1
363689,-66.6666666666667,4,3,5,70,0,1
364546,-66.6666666666667,4,3,1,70,0,1
364689,-66.6666666666667,4,3,5,70,0,1
365689,-66.6666666666667,4,3,8,70,0,1
365832,-66.6666666666667,4,3,5,70,0,1
366832,-66.6666666666667,4,3,1,70,0,1
366974,-100,4,3,5,70,0,1
367689,-66.6666666666667,4,3,1,70,0,1
367832,-66.6666666666667,4,3,3,70,0,1
369974,-66.6666666666667,4,3,8,70,0,0
370260,-66.6666666666667,4,3,1,70,0,1
370403,-66.6666666666667,4,3,5,70,0,1
374260,-74.0740740740741,4,3,5,70,0,1
374832,-62.5,4,3,8,70,0,1
374974,-62.5,4,3,5,70,0,1
375974,-68.9655172413793,4,3,5,70,0,1
377117,-66.6666666666667,4,3,5,70,0,1
378260,-66.6666666666667,4,3,8,70,0,1
378403,-66.6666666666667,4,3,5,70,0,1
379403,-66.6666666666667,4,3,8,70,0,1
379546,-66.6666666666667,4,3,5,70,0,1
381689,-66.6666666666667,4,3,8,70,0,1
381832,-66.6666666666667,4,3,5,70,0,1
383974,-66.6666666666667,4,3,8,70,0,1
384117,-66.6666666666667,4,3,5,70,0,1
386260,-66.6666666666667,4,3,8,70,0,1
386403,-66.6666666666667,4,3,5,70,0,1
387403,-62.5,4,3,5,70,0,1
387974,-68.9655172413793,4,3,5,70,0,1
388546,-68.9655172413793,4,3,1,70,0,1
388689,-68.9655172413793,4,3,11,70,0,1
388832,-68.9655172413793,4,3,1,70,0,1
388974,-68.9655172413793,4,3,11,70,0,1
389117,-68.9655172413793,4,3,1,70,0,1
389260,-68.9655172413793,4,3,12,70,0,1
389403,-68.9655172413793,4,3,1,70,0,1
389689,-68.9655172413793,4,3,11,70,0,1
389832,-68.9655172413793,4,3,1,70,0,1
389974,-68.9655172413793,4,3,11,70,0,1
390117,-68.9655172413793,4,3,1,70,0,1
390403,-68.9655172413793,4,3,12,70,0,1
390546,-68.9655172413793,4,3,1,70,0,1
390832,-68.9655172413793,4,3,3,95,0,1
390849,-68.9655172413793,4,3,1,95,0,0

[Colours]
Combo1 : 0,128,64
Combo2 : 128,64,64
Combo3 : 64,0,0
Combo4 : 0,0,160

[HitObjects]
436,38,191,6,0,B|338:85|338:85|365:90,1,136.499993751526,2|4,0:0|0:0,0:0:0:0:
493,339,476,1,10,0:0:0:0:
300,167,619,2,0,B|282:143|282:143|387:170,1,136.499993751526,4|10,0:0|0:0,0:0:0:0:
201,181,905,1,4,0:0:0:0:
201,181,976,1,4,0:0:0:0:
201,181,1048,2,0,B|201:153|201:153|265:240,1,136.499993751526,10|4,0:0|0:0,0:0:0:0:
49,346,1333,5,10,0:0:0:0:
259,102,1476,2,0,P|197:78|139:110,1,136.499993751526,4|10,0:0|0:0,0:0:0:0:
194,348,1762,1,4,0:0:0:0:
87,53,1905,2,0,P|63:115|95:173,1,136.499993751526,10|4,0:0|0:0,0:0:0:0:
405,232,2191,1,10,0:0:0:0:
139,109,2333,1,4,0:0:0:0:
313,321,2476,5,10,0:0:0:0:
161,222,2619,1,4,0:0:0:0:
393,103,2762,1,10,0:0:0:0:
139,109,2905,2,0,B|81:135|81:135|27:138|27:138|58:156,1,136.499993751526,4|10,0:0|0:0,0:0:0:0:
107,326,3191,1,4,0:0:0:0:
181,41,3333,2,0,B|117:43|117:43|67:64|67:64|87:34,1,136.499993751526,10|4,0:0|0:0,0:0:0:0:
237,272,3619,5,10,0:0:0:0:
299,14,3762,1,4,0:0:0:0:
342,119,3905,1,10,0:0:0:0:
435,187,4048,1,4,0:0:0:0:
435,187,4119,1,4,0:0:0:0:
435,187,4191,1,10,0:0:0:0:
479,293,4333,1,4,0:0:0:0:
260,115,4476,1,10,0:0:0:0:
328,358,4619,1,4,0:0:0:0:
88,180,4762,6,0,B|120:180|147:207|147:207|179:176|215:179,1,136.499993751526,10|4,0:0|0:0,0:0:0:0:
408,254,5048,1,10,0:0:0:0:
179,326,5191,2,0,B|110:340|74:275|74:275|82:269,1,136.499993751526,4|10,0:0|0:0,0:0:0:0:
448,325,5476,1,4,0:0:0:0:
448,325,5548,1,4,0:0:0:0:
448,325,5619,2,0,P|486:264|451:184,1,136.499993751526,10|4,0:0|0:0,0:0:0:0:
212,253,5905,5,10,0:0:0:0:
389,39,6048,2,0,B|419:56|419:56|428:202,1,136.499993751526,4|10,0:0|0:0,0:0:0:0:
222,50,6333,1,4,0:0:0:0:
374,227,6476,2,0,B|444:264|483:211|483:211|457:198,1,136.499993751526,10|4,0:0|0:0,0:0:0:0:
306,45,6762,1,10,0:0:0:0:
307,283,6905,1,4,0:0:0:0:
133,90,7048,5,10,0:0:0:0:
391,101,7191,1,4,0:0:0:0:
176,266,7333,1,10,0:0:0:0:
385,22,7476,2,0,P|456:54|465:127,1,136.499993751526,4|10,0:0|0:0,0:0:0:0:
424,327,7762,1,4,0:0:0:0:
102,241,7905,2,0,P|115:317|183:344,1,136.499993751526,10|4,0:0|0:0,0:0:0:0:
328,73,8191,5,10,0:0:0:0:
378,185,8333,1,4,0:0:0:0:
497,221,8476,1,10,0:0:0:0:
424,327,8619,1,4,0:0:0:0:
447,109,8762,1,10,0:0:0:0:
246,327,8905,1,4,0:0:0:0:
246,327,8976,1,4,0:0:0:0:
246,327,9048,1,10,0:0:0:0:
258,70,9191,1,4,0:0:0:0:
335,313,9333,6,0,P|300:253|229:237,1,146.999995513916,10|4,0:0|0:0,0:0:0:0:
328,73,9619,1,10,0:0:0:0:
246,327,9762,1,4,0:0:0:0:
463,167,9905,1,10,0:0:0:0:
252,154,10048,1,4,0:0:0:0:
252,154,10119,1,4,0:0:0:0:
252,154,10191,1,10,0:0:0:0:
431,284,10333,1,4,0:0:0:0:
145,191,10476,5,10,0:0:0:0:
357,23,10619,2,0,B|352:9|352:9|483:24,1,146.999995513916,4|10,0:0|0:0,0:0:0:0:
364,260,10905,1,4,0:0:0:0:
233,24,11048,2,0,B|363:38|363:38|357:23,1,146.999995513916,10|4,0:0|0:0,0:0:0:0:
200,233,11333,1,10,0:0:0:0:
436,322,11476,1,4,0:0:0:0:
207,91,11619,5,10,0:0:0:0:
207,91,11691,1,4,0:0:0:0:
207,91,11762,2,0,L|280:99,1,57.7500017623902,4|0,0:0|2:0,0:0:0:0:
453,227,11905,1,10,0:0:0:0:
107,222,12048,2,0,P|125:293|207:326,1,146.999995513916,4|10,0:0|0:0,0:0:0:0:
382,165,12333,1,4,0:0:0:0:
347,355,12476,1,10,0:0:0:0:
200,233,12619,1,4,0:0:0:0:
365,260,12762,5,10,0:0:0:0:
291,199,12905,1,4,0:0:0:0:
308,104,13048,1,10,0:0:0:0:
456,226,13191,1,4,0:0:0:0:
456,226,13262,1,4,0:0:0:0:
456,226,13333,2,0,B|477:260|455:304|455:304|473:337|513:340,1,146.999995513916,10|4,0:0|0:0,0:0:0:0:
446,52,13619,1,10,0:0:0:0:
273,294,13762,1,4,0:0:0:0:
394,107,13905,6,0,B|362:78|373:31|373:31|348:3|308:10,1,146.999995513916,10|4,0:0|0:0,0:0:0:0:
403,353,14191,1,10,0:0:0:0:
179,190,14333,1,4,0:0:0:0:
374,33,14476,2,0,P|373:73|393:107,1,81.375000620842,10|0,0:0|2:0,0:0:0:0:
510,177,14619,1,4,0:0:0:0:
510,177,14690,1,4,0:0:0:0:
510,177,14762,2,0,B|469:172|452:153|452:153|427:186|383:189|341:163,1,157.500006008148,10|4,0:0|0:0,0:0:0:0:
137,27,15048,5,10,0:0:0:0:
335,296,15191,2,0,P|390:245|367:174,1,157.500006008148,4|10,0:0|0:0,0:0:0:0:
69,383,15476,1,4,0:0:0:0:
245,117,15619,2,0,B|279:224|279:224|322:228,1,157.500006008148,10|4,0:0|0:0,0:0:0:0:
99,188,15905,1,10,0:0:0:0:
381,102,16048,1,4,0:0:0:0:
119,261,16191,6,0,L|198:269,1,65.625,10|0,0:0|2:0,0:0:0:0:
310,124,16333,1,4,0:0:0:0:
310,124,16405,1,4,0:0:0:0:
310,124,16476,2,0,L|230:115,1,65.625,10|0,0:0|2:0,0:0:0:0:
80,113,16619,2,0,L|159:121,1,65.625,4|0,0:0|2:0,0:0:0:0:
283,188,16762,2,0,L|203:179,1,65.625,8|0,0:0|2:0,0:0:0:0:
272,51,16904,1,4,0:0:0:0:
272,51,16976,1,4,0:0:0:0:
272,51,17048,2,0,L|337:58,1,65.625,10|0,0:0|2:0,0:0:0:0:
322,263,17191,2,0,L|242:254,1,65.625,0|0,0:0|2:0,0:0:0:0:
97,345,17333,5,6,0:0:0:0:
80,327,17404,1,4,0:0:0:0:
66,307,17475,1,10,0:0:0:0:
54,285,17547,1,8,0:0:0:0:
46,262,17618,1,4,0:0:0:0:
41,238,17690,1,4,0:0:0:0:
39,213,17761,1,4,0:0:0:0:
40,189,17833,1,4,0:0:0:0:
45,165,17904,5,4,0:0:0:0:
53,124,17976,1,4,0:0:0:0:
73,86,18047,1,8,0:0:0:0:
101,54,18119,1,8,0:0:0:0:
136,30,18190,1,4,0:0:0:0:
175,14,18262,1,4,0:0:0:0:
217,9,18333,1,4,0:0:0:0:
259,14,18405,1,4,0:0:0:0:
290,24,18476,6,0,B|386:58|382:199|278:213|240:198|240:198|297:250|266:320|266:320|329:279|370:266|370:266|365:198|336:88|254:57|160:69|123:147|106:237|198:289,1,1006.42494932247,6|0,0:0|0:0,0:0:0:0:
240,198,20476,1,6,0:0:0:0:
290,24,20762,5,6,0:0:0:0:
487,43,20905,1,8,0:0:0:0:
269,115,21048,1,6,0:0:0:0:
269,115,21119,1,4,0:0:0:0:
269,115,21191,1,8,0:0:0:0:
412,284,21333,2,0,P|345:327|265:296,1,146.999995513916,6|8,0:0|0:0,0:0:0:0:
67,227,21619,2,0,P|134:270|214:239,1,146.999995513916,6|8,0:0|0:0,0:0:0:0:
417,180,21905,2,0,P|350:223|270:192,1,146.999995513916,6|8,0:0|0:0,0:0:0:0:
149,80,22191,5,6,0:0:0:0:
468,103,22333,2,0,P|398:90|340:132,1,146.999995513916,8|6,0:0|0:0,0:0:0:0:
72,123,22619,2,0,P|139:166|219:135,1,146.999995513916,8|6,0:0|0:0,0:0:0:0:
468,257,22905,1,8,0:0:0:0:
110,341,23048,2,0,P|177:384|257:353,1,146.999995513916,6|8,0:0|0:0,0:0:0:0:
291,105,23333,5,6,0:0:0:0:
291,105,23405,1,4,0:0:0:0:
291,105,23476,1,8,0:0:0:0:
187,298,23619,2,0,L|202:145,1,146.999995513916,6|8,0:0|0:0,0:0:0:0:
453,207,23905,2,0,L|438:353,1,146.999995513916,6|8,0:0|0:0,0:0:0:0:
291,105,24191,2,0,L|277:252,1,146.999995513916,6|8,0:0|0:0,0:0:0:0:
473,102,24476,5,6,0:0:0:0:
187,298,24619,1,8,0:0:0:0:
359,284,24762,1,6,0:0:0:0:
359,284,24833,1,4,0:0:0:0:
359,284,24905,2,0,L|374:131,1,146.999995513916,8|6,0:0|0:0,0:0:0:0:
437,353,25191,1,8,0:0:0:0:
128,193,25333,5,6,0:0:0:0:
393,32,25476,2,0,L|293:23,1,57.7500017623902,8|0,0:0|2:0,0:0:0:0:
296,184,25619,1,6,0:0:0:0:
296,184,25691,1,4,0:0:0:0:
296,184,25762,1,8,0:0:0:0:
118,41,25905,1,6,0:0:0:0:
477,23,26048,2,0,P|455:89|363:110,1,146.999995513916,8|6,0:0|0:0,0:0:0:0:
226,33,26333,1,8,0:0:0:0:
163,344,26476,6,0,B|47:317|47:317|112:308,1,146.999995513916,6|8,0:0|0:0,0:0:0:0:
261,108,26762,1,6,0:0:0:0:
152,260,26905,2,0,B|47:317|47:317|75:313,1,146.999995513916,8|6,0:0|0:0,0:0:0:0:
374,274,27191,2,0,B|479:217|479:217|461:238,1,146.999995513916,8|6,0:0|0:0,0:0:0:0:
163,344,27476,1,8,0:0:0:0:
441,329,27619,2,0,B|480:217|480:217|462:238,1,146.999995513916,6|8,0:0|0:0,0:0:0:0:
327,136,27905,5,6,0:0:0:0:
327,136,27976,1,4,0:0:0:0:
327,136,28048,1,8,0:0:0:0:
127,108,28191,2,0,B|106:66|57:63|57:63|82:39|91:-5,1,146.999995513916,6|8,0:0|0:0,0:0:0:0:
256,170,28476,2,0,B|277:212|325:214|325:214|300:234|291:282,1,146.999995513916,6|8,0:0|0:0,0:0:0:0:
448,58,28762,5,6,0:0:0:0:
374,274,28905,1,8,0:0:0:0:
220,79,29048,1,6,0:0:0:0:
483,168,29191,1,8,0:0:0:0:
216,256,29333,1,6,0:0:0:0:
216,256,29405,1,4,0:0:0:0:
216,256,29476,1,8,0:0:0:0:
410,358,29619,2,0,P|461:299|447:219,1,146.999995513916,6|8,0:0|0:0,0:0:0:0:
219,350,29905,1,6,0:0:0:0:
280,101,30048,1,8,0:0:0:0:
310,348,30191,6,0,P|276:277|198:257,1,146.999995513916,6|8,0:0|0:0,0:0:0:0:
35,173,30476,2,0,P|68:243|146:263,1,146.999995513916,6|8,0:0|0:0,0:0:0:0:
372,100,30762,2,0,P|338:29|260:9,1,146.999995513916,6|8,0:0|0:0,0:0:0:0:
127,172,31048,1,6,0:0:0:0:
451,144,31191,2,0,B|446:195|446:195|454:236|454:236|428:310,1,146.999995513916,8|6,0:0|0:0,0:0:0:0:
202,90,31476,5,8,0:0:0:0:
362,322,31619,1,6,0:0:0:0:
362,322,31691,1,4,0:0:0:0:
362,322,31762,2,0,B|366:270|366:270|381:231|381:231|375:196|375:196|380:155,1,146.999995513916,8|6,0:0|0:0,0:0:0:0:
132,284,32048,1,8,0:0:0:0:
451,144,32191,2,0,P|387:96|304:145,1,157.500006008148,6|8,0:0|0:0,0:0:0:0:
247,303,32476,5,6,0:0:0:0:
247,303,32548,1,4,0:0:0:0:
247,303,32619,1,8,0:0:0:0:
172,56,32762,2,0,P|129:11|129:72,1,157.500006008148,6|8,0:0|0:0,0:0:0:0:
377,178,33048,2,0,P|382:236|340:186,1,157.500006008148,6|8,0:0|0:0,0:0:0:0:
238,9,33333,2,0,P|245:42|232:90,1,57.7500017623902,6|0,0:0|2:0,0:0:0:0:
78,153,33476,1,8,0:0:0:0:
247,303,33619,5,6,0:0:0:0:
183,141,33762,1,8,0:0:0:0:
384,280,33905,1,6,0:0:0:0:
384,280,33976,1,4,0:0:0:0:
384,280,34048,1,8,0:0:0:0:
90,258,34191,1,6,0:0:0:0:
242,219,34333,1,8,0:0:0:0:
212,371,34476,6,0,P|252:379|272:375,1,57.7500017623902,6|0,0:0|2:0,0:0:0:0:
348,204,34619,1,8,0:0:0:0:
420,357,34762,1,6,0:0:0:0:
420,357,34833,1,4,0:0:0:0:
420,357,34905,1,8,0:0:0:0:
454,189,35048,1,6,0:0:0:0:
227,295,35191,1,8,0:0:0:0:
390,111,35333,1,6,0:0:0:0:
473,291,35476,1,8,0:0:0:0:
294,36,35619,5,6,0:0:0:0:
380,231,35762,1,8,0:0:0:0:
435,39,35905,1,6,0:0:0:0:
304,303,36048,1,8,0:0:0:0:
473,291,36191,1,6,0:0:0:0:
473,291,36262,1,4,0:0:0:0:
473,291,36334,1,8,0:0:0:0:
210,243,36476,1,6,0:0:0:0:
380,231,36619,1,8,0:0:0:0:
117,184,36762,5,6,0:0:0:0:
286,172,36905,1,8,0:0:0:0:
304,303,37048,1,4,0:0:0:0:
198,115,37191,1,8,0:0:0:0:
416,130,37333,5,8,0:0:0:0:
449,152,37404,1,4,0:0:0:0:
472,183,37475,1,8,0:0:0:0:
482,221,37547,1,4,0:0:0:0:
478,260,37618,1,8,0:0:0:0:
460,294,37690,1,4,0:0:0:0:
431,321,37761,1,8,0:0:0:0:
394,335,37833,1,4,0:0:0:0:
355,334,37905,6,0,P|314:312|277:264,1,61.4250002343178,8|8,0:0|0:0,0:0:0:0:
380,231,38048,1,4,0:0:0:0:
380,231,38119,1,4,0:0:0:0:
380,231,38191,2,0,P|312:191|224:245,1,146.999995513916,4|4,0:0|0:0,0:0:0:0:
234,377,38476,1,4,0:0:0:0:
204,384,38547,1,4,0:0:0:0:
173,383,38618,1,4,0:0:0:0:
146,175,38762,1,4,0:0:0:0:
380,231,38905,1,4,0:0:0:0:
387,262,38976,1,4,0:0:0:0:
386,293,39047,5,10,0:0:0:0:
196,303,39191,1,4,0:0:0:0:
353,136,39333,1,10,0:0:0:0:
52,233,39476,1,4,0:0:0:0:
240,118,39619,1,10,0:0:0:0:
29,43,39762,1,4,0:0:0:0:
18,62,39833,1,4,0:0:0:0:
13,86,39904,1,10,0:0:0:0:
207,196,40048,1,4,0:0:0:0:
297,76,40191,5,10,0:0:0:0:
124,268,40333,1,4,0:0:0:0:
312,215,40476,1,10,0:0:0:0:
99,281,40619,1,4,0:0:0:0:
304,54,40761,1,10,0:0:0:0:
337,228,40905,1,4,0:0:0:0:
116,81,41048,1,10,0:0:0:0:
149,255,41192,1,4,0:0:0:0:
370,99,41333,5,10,0:0:0:0:
251,364,41476,1,4,0:0:0:0:
362,241,41619,1,10,0:0:0:0:
55,154,41762,2,0,B|4:103|32:39|32:39|2:-5,1,146.999995513916,4|10,0:0|0:0,0:0:0:0:
366,170,42048,1,4,0:0:0:0:
141,194,42191,2,0,B|105:256|36:245|36:245|1:286,1,146.999995513916,10|4,0:0|0:0,0:0:0:0:
253,256,42476,5,10,0:0:0:0:
345,301,42619,1,4,0:0:0:0:
415,228,42762,1,10,0:0:0:0:
507,273,42905,1,4,0:0:0:0:
507,273,42976,1,4,0:0:0:0:
507,273,43048,1,10,0:0:0:0:
393,392,43191,1,4,0:0:0:0:
403,119,43333,1,10,0:0:0:0:
496,374,43476,1,4,0:0:0:0:
171,221,43619,5,10,0:0:0:0:
480,129,43762,1,4,0:0:0:0:
325,109,43905,1,10,0:0:0:0:
488,348,44048,2,0,B|475:251|475:251|439:193,1,146.999995513916,4|10,0:0|0:0,0:0:0:0:
268,331,44333,1,4,0:0:0:0:
252,324,44405,1,4,0:0:0:0:
240,313,44476,1,10,0:0:0:0:
189,90,44619,1,4,0:0:0:0:
158,258,44762,5,10,0:0:0:0:
416,332,44905,2,0,B|408:275|408:275|384:237|384:237|379:192,1,146.999995513916,4|10,0:0|0:0,0:0:0:0:
73,305,45191,1,4,0:0:0:0:
342,305,45334,2,0,B|315:261|315:261|307:180|307:180|322:149,1,146.999995513916,10|4,0:0|0:0,0:0:0:0:
497,39,45619,1,10,0:0:0:0:
251,259,45762,1,4,0:0:0:0:
193,58,45905,5,10,0:0:0:0:
451,115,46048,1,4,0:0:0:0:
222,158,46191,1,10,0:0:0:0:
480,190,46333,2,0,B|469:218|446:235,1,57.7500017623902,4|0,0:0|2:0,0:0:0:0:
337,137,46476,1,8,0:0:0:0:
324,119,46548,1,4,0:0:0:0:
311,101,46619,1,4,0:0:0:0:
133,215,46762,1,8,0:0:0:0:
146,233,46834,1,8,0:0:0:0:
159,251,46905,1,8,0:0:0:0:
390,368,47048,5,6,0:0:0:0:
433,364,47119,1,4,0:0:0:0:
470,344,47190,1,10,0:0:0:0:
497,310,47262,1,8,0:0:0:0:
508,269,47333,1,4,0:0:0:0:
502,226,47405,1,4,0:0:0:0:
480,190,47476,2,0,B|458:166|430:160,1,57.7500017623902,4|0,0:0|2:0,0:0:0:0:
406,264,47619,5,4,0:0:0:0:
349,256,47690,1,4,0:0:0:0:
301,225,47761,1,8,0:0:0:0:
272,175,47833,1,8,0:0:0:0:
267,118,47904,1,4,0:0:0:0:
287,65,47976,1,4,0:0:0:0:
329,26,48048,2,0,B|351:9|391:10,1,57.7500017623902,10|0,0:0|2:0,0:0:0:0:
389,138,48191,5,6,0:0:0:0:
76,298,48333,1,8,0:0:0:0:
133,146,48476,1,6,0:0:0:0:
156,157,48548,1,4,0:0:0:0:
177,171,48619,1,8,0:0:0:0:
394,276,48762,2,0,B|338:289|321:332|321:332|283:328|283:328|250:354|208:338,1,178.500003404617,6|8,0:0|0:0,0:0:0:0:
87,206,49048,2,0,B|143:219|159:262|159:262|197:258|197:258|231:284|272:268,1,178.500003404617,6|8,0:0|0:0,0:0:0:0:
405,368,49334,2,0,P|484:294|409:188,1,157.500006008148,6|8,0:0|0:0,0:0:0:0:
244,204,49619,5,6,0:0:0:0:
503,153,49762,1,8,0:0:0:0:
245,76,49905,2,0,L|239:133,1,57.7500017623902,6|0,0:0|0:0,0:0:0:0:
394,276,50048,2,0,L|379:104,1,146.999995513916,8|6,0:0|0:0,0:0:0:0:
164,96,50333,1,8,0:0:0:0:
326,323,50476,5,6,0:0:0:0:
85,254,50619,1,8,0:0:0:0:
319,240,50762,1,6,0:0:0:0:
317,228,50833,1,4,0:0:0:0:
316,216,50905,1,8,0:0:0:0:
75,135,51048,2,0,B|85:253|85:253|112:192,1,168,6|8,0:0|0:0,0:0:0:0:
134,24,51333,2,0,B|144:142|144:142|171:81,1,168,6|8,0:0|0:0,0:0:0:0:
136,307,51619,2,0,B|184:198|184:198|190:264,1,168,6|8,0:0|0:0,0:0:0:0:
10,360,51905,5,6,0:0:0:0:
184,198,52048,1,8,0:0:0:0:
267,358,52191,1,6,0:0:0:0:
267,358,52262,1,4,0:0:0:0:
267,358,52333,2,0,L|250:159,1,157.500006008148,8|6,0:0|0:0,0:0:0:0:
430,29,52620,1,8,0:0:0:0:
322,204,52762,1,6,0:0:0:0:
194,71,52905,1,8,0:0:0:0:
428,176,53048,5,6,0:0:0:0:
428,176,53120,1,4,0:0:0:0:
428,176,53191,2,0,B|442:222|442:222|381:323,1,157.500006008148,8|6,0:0|0:0,0:0:0:0:
258,138,53476,2,0,B|201:231|201:231|215:277,1,157.500006008148,8|6,0:0|0:0,0:0:0:0:
464,288,53762,1,8,0:0:0:0:
179,165,53905,2,0,P|198:79|287:58,1,157.500006008148,6|8,0:0|0:0,0:0:0:0:
306,342,54191,1,6,0:0:0:0:
337,128,54333,1,8,0:0:0:0:
193,289,54476,5,6,0:0:0:0:
171,301,54548,1,4,0:0:0:0:
151,312,54619,2,0,B|110:333|110:333|54:316|33:281|44:211,1,157.500006008148,8|6,0:0|0:0,0:0:0:0:
23,74,54905,1,8,0:0:0:0:
321,235,55048,1,6,0:0:0:0:
61,161,55191,1,8,0:0:0:0:
370,91,55333,5,6,0:0:0:0:
360,103,55405,1,4,0:0:0:0:
350,115,55476,1,8,0:0:0:0:
286,318,55619,2,0,P|392:294|406:203,1,157.500006008148,6|8,0:0|0:0,0:0:0:0:
335,8,55905,2,0,P|441:31|455:122,1,157.500006008148,6|8,0:0|0:0,0:0:0:0:
229,156,56191,5,6,0:0:0:0:
484,134,56333,1,8,0:0:0:0:
410,258,56476,1,6,0:0:0:0:
370,91,56619,1,8,0:0:0:0:
286,318,56762,1,6,0:0:0:0:
286,318,56833,1,4,0:0:0:0:
286,318,56905,1,8,0:0:0:0:
157,255,57048,2,0,B|132:223|141:178|141:178|125:158|125:158|139:121|123:87,1,168,6|8,0:0|0:0,0:0:0:0:
362,214,57333,5,6,0:0:0:0:
55,124,57476,1,8,0:0:0:0:
212,205,57619,1,6,0:0:0:0:
226,221,57691,1,4,0:0:0:0:
231,243,57762,1,8,0:0:0:0:
86,373,57905,5,6,0:0:0:0:
199,72,58048,1,8,0:0:0:0:
405,205,58191,2,0,B|459:249|525:222|525:222|500:195|486:151,1,168,6|8,0:0|0:0,0:0:0:0:
320,224,58476,2,0,B|294:288|340:343|340:343|358:311|396:284,1,168,6|8,0:0|0:0,0:0:0:0:
276,150,58762,2,0,B|206:146|168:206|168:206|205:213|242:241,1,168,6|8,0:0|0:0,0:0:0:0:
333,86,59048,1,6,0:0:0:0:
307,68,59119,1,4,0:0:0:0:
275,66,59191,1,8,0:0:0:0:
412,119,59333,2,0,B|470:81|465:10|465:10|431:25|385:25,1,168,6|8,0:0|0:0,0:0:0:0:
476,293,59619,5,6,0:0:0:0:
245,41,59762,1,8,0:0:0:0:
362,181,59905,1,6,0:0:0:0:
388,199,59976,1,4,0:0:0:0:
420,201,60048,1,8,0:0:0:0:
412,347,60191,2,0,P|310:318|245:267,1,168,6|8,0:0|0:0,0:0:0:0:
74,233,60476,2,0,P|155:213|225:168,1,168,6|8,0:0|0:0,0:0:0:0:
412,119,60762,2,0,P|330:99|260:54,1,168,6|8,0:0|0:0,0:0:0:0:
93,163,61048,2,0,P|132:150|175:124,1,84,6|0,0:0|2:0,0:0:0:0:
393,49,61191,1,8,0:0:0:0:
337,249,61333,5,6,0:0:0:0:
315,267,61405,1,4,0:0:0:0:
289,278,61476,1,8,0:0:0:0:
168,128,61619,2,0,P|141:91|94:163,1,168,6|8,0:0|0:0,0:0:0:0:
260,282,61905,5,6,0:0:0:0:
308,73,62048,1,8,0:0:0:0:
171,276,62191,1,6,0:0:0:0:
175,305,62263,1,4,0:0:0:0:
186,331,62334,1,8,0:0:0:0:
358,186,62476,1,6,0:0:0:0:
204,353,62619,1,8,0:0:0:0:
389,104,62762,1,6,0:0:0:0:
445,342,62905,1,8,0:0:0:0:
276,154,63048,5,6,0:0:0:0:
470,135,63191,1,8,0:0:0:0:
244,235,63333,1,6,0:0:0:0:
503,55,63476,1,8,0:0:0:0:
284,64,63619,1,6,0:0:0:0:
255,68,63691,1,4,0:0:0:0:
229,79,63762,1,8,0:0:0:0:
345,289,63905,1,6,0:0:0:0:
207,97,64047,1,8,0:0:0:0:
136,380,64191,5,6,0:0:0:0:
126,106,64333,1,8,0:0:0:0:
203,305,64476,1,4,0:0:0:0:
45,115,64619,1,8,0:0:0:0:
301,280,64762,5,8,0:0:0:0:
345,289,64833,1,4,0:0:0:0:
388,274,64904,1,8,0:0:0:0:
417,237,64976,1,4,0:0:0:0:
423,192,65047,1,8,0:0:0:0:
403,151,65119,1,4,0:0:0:0:
365,124,65190,1,8,0:0:0:0:
320,123,65262,1,4,0:0:0:0:
280,145,65333,1,8,0:0:0:0:
166,352,65476,5,4,0:0:0:0:
150,313,65547,1,4,0:0:0:0:
137,277,65619,1,4,0:0:0:0:
337,206,65762,1,4,0:0:0:0:
204,352,65905,5,4,0:0:0:0:
190,315,65976,1,4,0:0:0:0:
175,277,66048,1,8,0:0:0:0:
162,239,66119,1,8,0:0:0:0:
148,202,66191,1,8,0:0:0:0:
242,353,66333,5,4,0:0:0:0:
228,316,66404,1,4,0:0:0:0:
215,278,66476,1,4,0:0:0:0:
315,42,66619,1,10,0:0:0:0:
134,165,66762,1,2,0:0:0:0:
348,104,66905,1,4,0:0:0:0:
104,93,67048,1,10,0:0:0:0:
383,168,67191,1,4,0:0:0:0:
78,23,67333,1,8,0:0:0:0:
417,230,67476,1,4,0:0:0:0:
29,359,67619,5,6,0:0:0:0:
215,278,67905,1,0,2:3:0:0:
248,100,68191,2,0,P|289:107|321:133,3,78.7500030040742,0|0|0|0,2:3|2:3|2:3|2:3,0:0:0:0:
466,354,68762,5,6,0:0:0:0:
318,130,68905,1,4,0:0:0:0:
493,206,69048,2,0,B|483:255|483:255|494:286|494:286|486:342,1,136.499993751526,10|0,0:0|0:0,0:0:0:0:
291,278,69333,2,0,B|301:229|301:229|290:198|290:198|298:142,1,136.499993751526,10|0,0:0|0:0,0:0:0:0:
53,79,69619,5,6,0:0:0:0:
201,303,69762,1,4,0:0:0:0:
26,227,69905,2,0,B|36:178|36:178|25:147|25:147|32:93,1,136.499993751526,10|0,0:0|0:0,0:0:0:0:
228,155,70190,2,0,B|218:204|218:204|229:235|229:235|221:288,1,136.499993751526,10|4,0:0|0:0,0:0:0:0:
466,354,70476,5,6,0:0:0:0:
308,176,70619,2,0,L|295:237,1,52.5,4|0,0:0|0:0,0:0:0:0:
259,360,70762,1,8,0:0:0:0:
146,133,70905,1,8,0:0:0:0:
388,197,71048,2,0,L|401:134,3,41.9999987182618,6|4|2|0,0:0|0:0|0:0|2:0,0:0:0:0:
495,84,71333,2,0,L|467:217,1,136.499993751526,4|4,0:0|0:0,0:0:0:0:
238,109,71619,1,8,0:0:0:0:
233,132,71690,1,8,0:0:0:0:
228,155,71762,2,0,L|215:218,1,57.7500017623902,4|0,0:0|2:0,0:0:0:0:
120,267,71905,2,0,L|147:133,1,136.499993751526,4|0,0:0|0:0,0:0:0:0:
439,15,72191,5,6,0:0:0:0:
471,92,72476,1,0,2:3:0:0:
503,169,72762,2,0,P|460:175|422:160,3,78.7500030040742,0|0|0|0,2:3|2:3|2:3|2:3,0:0:0:0:
304,101,73333,5,6,0:0:0:0:
375,364,73476,1,4,0:0:0:0:
218,225,73619,2,0,B|224:185|246:170|246:170|246:153|246:153|268:132|278:107,1,136.499993751526,10|0,0:0|0:0,0:0:0:0:
460,239,73905,2,0,B|453:278|431:293|431:293|431:310|431:310|409:331|399:356,1,136.499993751526,10|0,0:0|0:0,0:0:0:0:
304,101,74191,5,6,0:0:0:0:
99,282,74334,1,4,0:0:0:0:
306,251,74477,2,0,B|321:214|311:189|311:189|321:175|321:175|313:146|319:119,1,136.499993751526,10|0,0:0|0:0,0:0:0:0:
96,130,74763,2,0,B|80:166|90:191|90:191|80:205|80:205|88:234|82:261,1,136.499993751526,10|4,0:0|0:0,0:0:0:0:
424,359,75048,5,6,0:0:0:0:
242,349,75191,2,0,L|306:382,1,52.5,4|0,0:0|0:0,0:0:0:0:
437,335,75333,1,8,0:0:0:0:
229,325,75476,1,8,0:0:0:0:
444,223,75619,2,0,L|412:162,3,41.9999987182618,6|4|2|0,0:0|0:0|0:0|2:0,0:0:0:0:
364,232,75905,2,0,L|314:136,1,105,8|4,0:0|0:0,0:0:0:0:
284,241,76191,2,0,L|235:147,1,105,8|4,0:0|0:0,0:0:0:0:
204,250,76476,2,0,L|154:154,1,105,8|4,0:0|0:0,0:0:0:0:
124,259,76762,5,6,0:0:0:0:
75,165,77048,1,0,2:3:0:0:
102,65,77333,2,0,P|63:59|26:71,2,78.7500030040742,0|0|0,2:3|2:3|2:3,0:0:0:0:
480,58,77905,5,6,0:0:0:0:
196,183,78048,1,4,0:0:0:0:
335,26,78191,2,0,L|471:31,1,136.499993751526,10|0,0:0|0:0,0:0:0:0:
340,203,78476,2,0,L|203:208,1,136.499993751526,10|0,0:0|0:0,0:0:0:0:
200,73,78762,5,6,0:0:0:0:
484,198,78905,1,4,0:0:0:0:
344,53,79048,2,0,L|207:47,1,136.499993751526,10|0,0:0|0:0,0:0:0:0:
339,230,79333,2,0,L|475:224,1,136.499993751526,10|4,0:0|0:0,0:0:0:0:
361,364,79619,5,6,0:0:0:0:
185,264,79762,2,0,L|253:261,1,52.5,4|0,0:0|0:0,0:0:0:0:
494,332,79905,1,8,0:0:0:0:
273,314,80048,1,8,0:0:0:0:
475,224,80191,2,0,B|465:183,3,41.9999987182618,6|4|2|0,0:0|0:0|0:0|2:0,0:0:0:0:
403,228,80476,2,0,B|386:155|386:155|396:99,1,115.50000352478,8|4,0:0|0:0,0:0:0:0:
331,232,80762,1,8,0:0:0:0:
327,215,80833,1,8,0:0:0:0:
323,198,80904,2,0,B|314:160|314:160|318:121,1,57.7500017623902,4|0,0:0|2:0,0:0:0:0:
259,236,81048,2,0,B|242:163|242:163|252:107,1,115.50000352478,8|4,0:0|0:0,0:0:0:0:
127,69,81333,6,0,B|91:28|91:28|123:163,1,157.500006008148,6|0,0:0|0:0,0:0:0:0:
308,100,81905,1,6,0:0:0:0:
176,320,82191,1,6,0:0:0:0:
465,149,82476,5,6,0:0:0:0:
342,333,82619,1,0,0:0:0:0:
313,131,82762,2,0,L|476:197,1,146.999995513916,10|4,0:0|0:0,0:0:0:0:
494,351,83048,2,0,L|331:285,1,146.999995513916,10|4,0:0|0:0,0:0:0:0:
280,262,83238,1,4,0:0:0:0:
280,262,83286,1,4,0:0:0:0:
280,262,83333,6,0,B|235:231|235:231|222:171,2,97.9999970092774,4|8|10,0:0|0:0|0:0,0:0:0:0:
357,295,83619,2,0,B|352:349|352:349|307:390,2,97.9999970092774,8|8|4,0:0|0:0|0:0,0:0:0:0:
349,212,83905,2,0,B|398:188|398:188|456:207,2,97.9999970092774,4|4|8,0:0|0:0|0:0,0:0:0:0:
338,132,84191,5,6,0:0:0:0:
442,293,84333,1,10,0:0:0:0:
420,129,84476,1,4,0:0:0:0:
420,129,84548,1,0,0:0:0:0:
420,129,84619,1,10,0:0:0:0:
357,295,84762,5,4,0:0:0:0:
325,114,84905,1,10,0:0:0:0:
455,313,85048,1,4,0:0:0:0:
428,109,85191,1,10,0:0:0:0:
350,315,85333,5,4,0:0:0:0:
309,90,85476,1,10,0:0:0:0:
472,339,85619,1,4,0:0:0:0:
438,84,85762,1,10,0:0:0:0:
341,341,85905,5,4,0:0:0:0:
341,341,85976,1,0,0:0:0:0:
341,341,86048,1,10,0:0:0:0:
281,17,86191,2,0,P|362:30|381:118,1,157.500006008148,4|10,0:0|0:0,0:0:0:0:
116,263,86476,5,4,0:0:0:0:
88,98,86619,1,10,0:0:0:0:
201,282,86762,1,4,0:0:0:0:
201,282,86833,1,0,0:0:0:0:
201,282,86905,1,10,0:0:0:0:
229,117,87048,5,4,0:0:0:0:
104,281,87191,1,10,0:0:0:0:
70,75,87333,1,4,0:0:0:0:
212,305,87476,1,10,0:0:0:0:
246,99,87619,5,4,0:0:0:0:
27,227,87762,1,10,0:0:0:0:
288,250,87905,1,4,0:0:0:0:
13,147,88048,1,10,0:0:0:0:
216,27,88191,6,0,P|290:36|322:104,1,157.500006008148,4|10,0:0|0:0,0:0:0:0:
14,297,88476,2,0,P|46:365|121:374,1,157.500006008148,4|10,0:0|0:0,0:0:0:0:
454,141,88762,5,6,0:0:0:0:
268,167,88905,1,10,0:0:0:0:
457,247,89048,1,4,0:0:0:0:
457,247,89119,1,0,0:0:0:0:
457,247,89191,1,10,0:0:0:0:
271,221,89333,5,4,0:0:0:0:
453,108,89476,1,10,0:0:0:0:
266,146,89619,1,4,0:0:0:0:
457,279,89762,1,10,0:0:0:0:
272,241,89905,5,4,0:0:0:0:
452,75,90048,1,10,0:0:0:0:
264,125,90191,1,4,0:0:0:0:
457,311,90333,1,10,0:0:0:0:
273,261,90476,5,4,0:0:0:0:
273,261,90548,1,0,0:0:0:0:
273,261,90619,1,10,0:0:0:0:
490,7,90762,2,0,P|409:11|375:73,1,157.500006008148,4|10,0:0|0:0,0:0:0:0:
101,67,91048,6,0,B|106:146|174:161|174:161|170:209|170:209|260:202|280:308,1,315.000012016297,6|4,0:0|0:0,0:0:0:0:
193,72,91476,1,10,0:0:0:0:
473,145,91619,2,0,B|464:197|433:220|433:220|400:248|389:313,1,157.500006008148,4|10,0:0|0:0,0:0:0:0:
184,302,91905,1,4,0:0:0:0:
369,141,92048,1,10,0:0:0:0:
244,352,92191,6,0,P|108:282|249:259,1,315.000012016297,6|4,0:0|0:0,0:0:0:0:
421,274,92619,1,10,0:0:0:0:
187,125,92762,1,6,0:0:0:0:
317,93,92905,1,8,0:0:0:0:
275,203,93048,1,4,0:0:0:0:
230,16,93191,1,8,0:0:0:0:
230,16,93262,1,8,0:0:0:0:
230,16,93333,6,0,P|103:45|128:225,1,315.000012016297,6|4,0:0|0:0,0:0:0:0:
116,213,93691,1,4,0:0:0:0:
131,218,93762,1,10,0:0:0:0:
387,88,93905,5,4,0:0:0:0:
307,250,94048,1,10,0:0:0:0:
293,57,94191,1,4,0:0:0:0:
464,150,94333,1,10,0:0:0:0:
131,218,94476,5,4,0:0:0:0:
307,250,94619,1,10,0:0:0:0:
125,315,94762,1,4,0:0:0:0:
170,125,94904,1,10,0:0:0:0:
316,338,95048,5,4,0:0:0:0:
242,137,95191,1,10,0:0:0:0:
464,149,95333,2,0,B|457:122|466:91|466:91|440:43|353:47,1,157.500006008148,4|10,0:0|0:0,0:0:0:0:
243,232,95619,5,4,0:0:0:0:
390,273,95762,1,10,0:0:0:0:
274,142,95905,1,4,0:0:0:0:
242,137,95976,1,4,0:0:0:0:
210,142,96048,1,10,0:0:0:0:
485,349,96191,5,4,0:0:0:0:
413,178,96333,1,10,0:0:0:0:
316,338,96476,1,4,0:0:0:0:
501,269,96619,1,10,0:0:0:0:
126,330,96762,5,4,0:0:0:0:
242,137,96905,1,10,0:0:0:0:
365,258,97048,1,4,0:0:0:0:
146,209,97191,1,10,0:0:0:0:
400,103,97333,6,0,P|471:128|485:202,1,157.500006008148,4|10,0:0|0:0,0:0:0:0:
119,137,97619,2,0,P|70:194|94:265,1,157.500006008148,4|10,0:0|0:0,0:0:0:0:
420,326,97905,6,0,B|395:202|395:202|412:177,1,157.500006008148,6|10,0:0|0:0,0:0:0:0:
183,72,98191,1,4,0:0:0:0:
183,72,98262,1,4,0:0:0:0:
183,72,98333,1,10,0:0:0:0:
16,358,98476,5,4,0:0:0:0:
219,293,98619,1,10,0:0:0:0:
58,282,98762,1,4,0:0:0:0:
261,369,98905,1,10,0:0:0:0:
16,98,99048,5,6,0:0:0:0:
219,163,99191,1,10,0:0:0:0:
58,174,99334,1,4,0:0:0:0:
261,87,99477,1,10,0:0:0:0:
58,22,99619,5,4,0:0:0:0:
58,22,99691,1,0,0:0:0:0:
58,22,99762,1,10,0:0:0:0:
305,161,99905,2,0,P|268:233|165:232,1,157.500006008148,6|8,0:0|0:0,0:0:0:0:
270,46,100191,5,8,0:0:0:0:
285,20,100262,1,8,0:0:0:0:
312,8,100333,1,8,0:0:0:0:
340,9,100405,1,8,0:0:0:0:
365,24,100476,1,6,0:0:0:0:
380,50,100548,1,6,0:0:0:0:
380,79,100619,1,6,0:0:0:0:
366,104,100690,1,6,0:0:0:0:
343,120,100762,5,8,0:0:0:0:
314,114,100833,1,8,0:0:0:0:
283,115,100904,1,8,0:0:0:0:
257,124,100976,1,8,0:0:0:0:
231,141,101047,1,6,0:0:0:0:
211,163,101119,1,6,0:0:0:0:
201,190,101190,1,6,0:0:0:0:
195,219,101261,1,6,0:0:0:0:
198,247,101333,1,6,0:0:0:0:
318,188,101619,6,0,P|280:191|268:231,3,78.7500030040742,0|0|0|0,2:3|2:3|2:3|2:3,0:0:0:0:
52,337,102191,1,4,0:0:0:0:
52,337,102262,1,4,0:0:0:0:
52,337,102333,1,4,0:0:0:0:
52,337,102405,1,4,0:0:0:0:
52,337,102476,6,0,B|95:293|77:234|77:234|97:217|97:217|84:143|167:105,1,236.250009012223,10|0,0:0|0:0,0:0:0:0:
172,194,102762,1,10,0:0:0:0:
135,206,102833,1,4,0:0:0:0:
96,200,102904,1,2,0:0:0:0:
66,175,102976,1,4,0:0:0:0:
51,139,103047,1,10,0:0:0:0:
56,100,103119,1,4,0:0:0:0:
78,69,103190,1,2,0:0:0:0:
108,44,103261,1,4,0:0:0:0:
146,33,103333,1,10,0:0:0:0:
185,34,103405,1,4,0:0:0:0:
221,47,103476,1,2,0:0:0:0:
251,72,103548,1,4,0:0:0:0:
274,102,103619,5,10,0:0:0:0:
249,127,103691,1,4,0:0:0:0:
233,160,103762,1,2,0:0:0:0:
229,195,103833,1,4,0:0:0:0:
234,230,103905,1,10,0:0:0:0:
251,262,103976,1,4,0:0:0:0:
276,288,104048,1,2,0:0:0:0:
308,304,104119,1,4,0:0:0:0:
343,310,104191,1,10,0:0:0:0:
378,306,104262,1,4,0:0:0:0:
411,291,104333,1,2,0:0:0:0:
438,267,104405,1,4,0:0:0:0:
456,236,104476,1,10,0:0:0:0:
463,202,104548,1,4,0:0:0:0:
460,165,104619,1,2,0:0:0:0:
447,133,104691,1,4,0:0:0:0:
424,105,104762,5,10,0:0:0:0:
420,140,104833,1,4,0:0:0:0:
405,172,104905,1,2,0:0:0:0:
379,198,104976,1,4,0:0:0:0:
347,213,105048,1,10,0:0:0:0:
311,216,105119,1,4,0:0:0:0:
276,207,105191,1,2,0:0:0:0:
246,185,105262,1,4,0:0:0:0:
227,155,105333,1,10,0:0:0:0:
218,121,105405,1,4,0:0:0:0:
209,86,105476,1,2,0:0:0:0:
188,53,105548,1,4,0:0:0:0:
153,41,105619,1,10,0:0:0:0:
118,41,105691,1,4,0:0:0:0:
84,56,105762,1,2,0:0:0:0:
61,82,105833,1,4,0:0:0:0:
49,117,105905,5,10,0:0:0:0:
95,112,105976,1,4,0:0:0:0:
140,124,106048,1,2,0:0:0:0:
177,151,106119,1,4,0:0:0:0:
204,190,106191,1,10,0:0:0:0:
215,234,106262,1,4,0:0:0:0:
210,280,106333,1,2,0:0:0:0:
210,326,106405,1,4,0:0:0:0:
235,365,106476,1,10,0:0:0:0:
277,384,106548,1,4,0:0:0:0:
323,378,106619,1,2,0:0:0:0:
358,348,106691,1,4,0:0:0:0:
371,303,106762,1,10,0:0:0:0:
357,259,106833,1,4,0:0:0:0:
349,211,106905,1,10,0:0:0:0:
369,171,106976,1,4,0:0:0:0:
408,146,107048,5,6,0:0:0:0:
287,302,107191,1,8,0:0:0:0:
449,212,107333,1,4,0:0:0:0:
471,192,107405,1,4,0:0:0:0:
484,165,107476,1,10,0:0:0:0:
273,34,107619,1,4,0:0:0:0:
487,136,107762,1,10,0:0:0:0:
478,107,107833,1,4,0:0:0:0:
459,84,107905,1,4,0:0:0:0:
432,70,107976,1,4,0:0:0:0:
403,68,108048,1,10,0:0:0:0:
447,327,108191,5,4,0:0:0:0:
210,174,108333,1,10,0:0:0:0:
413,165,108476,1,4,0:0:0:0:
436,185,108548,1,4,0:0:0:0:
449,212,108619,1,10,0:0:0:0:
285,337,108762,1,4,0:0:0:0:
330,15,108905,1,10,0:0:0:0:
109,195,109048,1,4,0:0:0:0:
117,223,109119,1,4,0:0:0:0:
136,246,109191,1,10,0:0:0:0:
423,28,109333,5,8,0:0:0:0:
230,258,109476,1,4,0:0:0:0:
500,78,109619,1,10,0:0:0:0:
239,43,109762,1,4,0:0:0:0:
251,70,109833,1,4,0:0:0:0:
272,90,109905,1,8,0:0:0:0:
482,189,110048,5,4,0:0:0:0:
501,217,110119,1,4,0:0:0:0:
510,251,110190,1,4,0:0:0:0:
507,287,110262,1,4,0:0:0:0:
492,319,110333,1,12,0:0:0:0:
466,344,110405,1,4,0:0:0:0:
434,359,110476,1,4,0:0:0:0:
399,362,110547,1,4,0:0:0:0:
364,351,110619,1,4,0:0:0:0:
336,330,110690,1,4,0:0:0:0:
316,301,110762,1,6,0:0:0:0:
308,266,110833,1,4,0:0:0:0:
301,231,110905,1,4,0:0:0:0:
283,201,110976,1,4,0:0:0:0:
256,178,111048,5,10,0:0:0:0:
88,358,111191,1,4,0:0:0:0:
226,260,111333,1,8,0:0:0:0:
411,261,111476,1,4,0:0:0:0:
219,371,111619,5,6,0:0:0:0:
439,141,111762,1,10,0:0:0:0:
166,191,111905,1,4,0:0:0:0:
144,171,111976,1,4,0:0:0:0:
131,144,112047,1,10,0:0:0:0:
411,175,112191,1,4,0:0:0:0:
128,115,112334,1,10,0:0:0:0:
137,86,112405,1,4,0:0:0:0:
156,63,112477,1,4,0:0:0:0:
183,49,112548,1,4,0:0:0:0:
212,47,112619,1,10,0:0:0:0:
205,345,112762,5,4,0:0:0:0:
26,167,112905,1,10,0:0:0:0:
241,57,113048,1,4,0:0:0:0:
263,78,113119,1,4,0:0:0:0:
275,104,113190,1,10,0:0:0:0:
93,278,113333,1,4,0:0:0:0:
404,308,113476,1,10,0:0:0:0:
204,124,113619,1,4,0:0:0:0:
178,136,113690,1,4,0:0:0:0:
157,158,113761,1,10,0:0:0:0:
309,351,113905,5,4,0:0:0:0:
117,214,114048,1,10,0:0:0:0:
312,171,114191,1,4,0:0:0:0:
334,150,114262,1,4,0:0:0:0:
346,124,114333,1,10,0:0:0:0:
159,26,114476,1,4,0:0:0:0:
241,191,114620,1,10,0:0:0:0:
253,217,114691,1,4,0:0:0:0:
275,238,114762,1,4,0:0:0:0:
299,247,114833,1,4,0:0:0:0:
330,248,114904,1,10,0:0:0:0:
409,68,115048,5,4,0:0:0:0:
258,349,115191,1,10,0:0:0:0:
312,171,115334,1,4,0:0:0:0:
300,145,115405,1,4,0:0:0:0:
278,124,115476,1,10,0:0:0:0:
10,315,115619,1,4,0:0:0:0:
382,366,115762,1,10,0:0:0:0:
134,332,115905,1,4,0:0:0:0:
130,292,115976,1,4,0:0:0:0:
127,253,116047,1,10,0:0:0:0:
413,179,116191,5,6,0:0:0:0:
371,181,116262,1,4,0:0:0:0:
329,182,116333,1,4,0:0:0:0:
289,195,116405,1,4,0:0:0:0:
249,209,116476,1,4,0:0:0:0:
207,211,116548,1,4,0:0:0:0:
165,212,116619,1,4,0:0:0:0:
124,214,116690,1,4,0:0:0:0:
121,175,116762,2,0,B|248:170|248:170|320:144|320:144|472:138,1,293.999991027832,10|0,0:0|0:0,0:0:0:0:
467,341,117333,5,4,0:0:0:0:
467,341,117405,1,4,0:0:0:0:
467,341,117476,2,0,L|398:343,1,62.9999980773926,4|0,0:0|2:0,0:0:0:0:
244,119,117762,2,0,P|287:119|321:127,1,62.9999980773926,4|4,0:0|0:0,0:0:0:0:
335,371,117905,1,10,0:0:0:0:
335,371,118476,6,2,B|331:343|344:302|344:302|319:378|197:382|184:332|102:240|217:133|325:154|355:263,1,525,6|4,0:0|0:0,0:0:0:0:
357,62,119191,1,10,0:0:0:0:
269,270,119333,1,4,0:0:0:0:
493,208,119476,1,10,0:0:0:0:
268,114,119619,6,2,B|164:121|117:224|117:224|83:202|32:199|32:199|54:144|87:112|87:112|158:122|179:149,1,440.999986541749,4|10,0:0|0:0,0:0:0:0:
293,188,120191,2,2,P|231:196|190:314,1,146.999995513916,4|10,0:0|0:0,0:0:0:0:
441,356,120476,1,4,0:0:0:0:
272,277,120619,1,10,0:0:0:0:
465,222,120762,6,2,B|525:158|502:66|502:66|481:147|406:203,1,293.999991027832,4|4,0:0|0:0,0:0:0:0:
439,173,121119,1,0,0:0:0:0:
439,173,121191,1,10,0:0:0:0:
282,364,121333,2,2,P|319:350|355:304,1,78.7500030040742,4|0,0:0|0:0,0:0:0:0:
262,190,121476,1,10,0:0:0:0:
486,342,121619,1,4,0:0:0:0:
152,327,121762,1,10,0:0:0:0:
260,96,121905,6,2,B|184:94|133:194|197:258|197:258|139:227|78:277,1,304.500009292603,4|4,0:0|0:0,0:0:0:0:
58,133,122333,2,2,P|78:86|109:55,1,76.1250023231507,10|0,0:0|2:0,0:0:0:0:
326,50,122476,2,2,B|376:34|424:75|454:120|399:210|399:210|362:178|349:131|349:131|323:191|258:189,1,440.999986541749,4|10,0:0|0:0,0:0:0:0:
134,335,123048,1,6,0:0:0:0:
306,335,123191,1,10,0:0:0:0:
48,239,123333,1,4,0:0:0:0:
48,239,123405,1,4,0:0:0:0:
48,239,123476,1,10,0:0:0:0:
305,180,123619,5,4,0:0:0:0:
220,303,123762,1,10,0:0:0:0:
156,167,123905,5,4,0:0:0:0:
298,266,124048,1,10,0:0:0:0:
235,130,124191,5,4,0:0:0:0:
149,253,124333,1,10,0:0:0:0:
413,86,124476,5,4,0:0:0:0:
369,316,124619,1,10,0:0:0:0:
235,130,124762,6,2,B|313:94|377:162|377:162|360:129|360:129|444:200|508:107|496:55|456:16|393:16,1,440.999986541749,4|10,0:0|0:0,0:0:0:0:
287,234,125333,2,0,P|214:247|131:177,1,146.999995513916,4|10,0:0|0:0,0:0:0:0:
441,256,125619,1,4,0:0:0:0:
441,256,125691,1,4,0:0:0:0:
441,256,125762,1,10,0:0:0:0:
241,56,125905,1,4,0:0:0:0:
413,86,126048,1,10,0:0:0:0:
225,156,126191,1,4,0:0:0:0:
396,185,126333,1,10,0:0:0:0:
147,91,126476,5,4,0:0:0:0:
137,306,126619,2,2,P|158:271|214:244,1,73.4999977569581,10|0,0:0|0:0,0:0:0:0:
319,121,126762,1,4,0:0:0:0:
449,313,126905,1,10,0:0:0:0:
218,329,127048,1,4,0:0:0:0:
384,217,127191,1,10,0:0:0:0:
334,321,127333,1,4,0:0:0:0:
288,7,127476,1,8,0:0:0:0:
288,7,127548,1,8,0:0:0:0:
288,7,127619,6,2,B|217:25|167:108|229:200|229:200|202:178|162:184,1,293.999991027832,6|4,0:0|0:0,0:0:0:0:
63,270,127976,1,4,0:0:0:0:
63,270,128048,2,2,P|75:341|165:235,1,293.999991027832,10|10,0:0|0:0,0:0:0:0:
388,100,128476,2,2,P|353:36|287:6,1,146.999995513916,4|10,0:0|0:0,0:0:0:0:
128,294,128762,6,2,B|134:327|199:350|258:343|305:242|246:197|213:179|213:179|219:160,1,293.999991027832,4|4,0:0|0:0,0:0:0:0:
5,135,129191,2,2,P|2:63|44:4,1,146.999995513916,10|4,0:0|0:0,0:0:0:0:
128,294,129476,1,10,0:0:0:0:
325,208,129619,1,4,0:0:0:0:
94,155,129762,1,10,0:0:0:0:
320,235,129905,6,2,B|279:282|296:356|296:356|197:324|225:197,1,293.999991027832,6|4,0:0|0:0,0:0:0:0:
380,126,130262,1,4,0:0:0:0:
380,126,130333,2,2,B|421:79|404:5|404:5|503:37|475:164,1,293.999991027832,10|10,0:0|0:0,0:0:0:0:
139,157,130762,2,2,P|114:224|135:294,1,146.999995513916,4|10,0:0|0:0,0:0:0:0:
283,85,131048,6,2,B|257:166|319:213|319:213|323:247|323:247|433:285|379:437|266:402|245:347,1,440.999986541749,4|10,0:0|0:0,0:0:0:0:
380,126,131619,1,4,0:0:0:0:
309,318,131762,1,10,0:0:0:0:
486,202,131905,1,4,0:0:0:0:
252,147,132048,1,10,0:0:0:0:
375,34,132191,6,0,P|460:83|464:155,1,146.999995513916,6|10,0:0|0:0,0:0:0:0:
180,272,132476,1,4,0:0:0:0:
180,272,132548,1,4,0:0:0:0:
180,272,132619,1,10,0:0:0:0:
162,167,132762,1,4,0:0:0:0:
144,62,132905,1,10,0:0:0:0:
285,254,133048,1,4,0:0:0:0:
63,131,133191,1,10,0:0:0:0:
243,98,133333,5,4,0:0:0:0:
71,290,133476,1,10,0:0:0:0:
264,176,133619,1,4,0:0:0:0:
67,211,133762,1,10,0:0:0:0:
306,332,133905,1,4,0:0:0:0:
75,369,134048,1,10,0:0:0:0:
227,311,134191,1,4,0:0:0:0:
142,326,134333,1,10,0:0:0:0:
324,87,134476,6,2,P|371:63|344:124,1,146.999995513916,6|10,0:0|0:0,0:0:0:0:
306,332,134762,1,4,0:0:0:0:
306,332,134833,1,0,0:0:0:0:
306,332,134905,1,10,0:0:0:0:
221,88,135048,2,2,P|174:64|201:125,1,146.999995513916,6|10,0:0|0:0,0:0:0:0:
212,138,135262,1,0,0:0:0:0:
241,146,135333,1,4,0:0:0:0:
272,148,135405,1,0,0:0:0:0:
302,146,135476,1,10,0:0:0:0:
332,138,135548,1,0,0:0:0:0:
360,126,135619,5,10,0:0:0:0:
185,202,135762,1,6,0:0:0:0:
372,278,135905,1,4,0:0:0:0:
149,316,136048,1,10,0:0:0:0:
221,88,136191,5,6,0:0:0:0:
428,231,136333,1,8,0:0:0:0:
403,258,136405,1,8,0:0:0:0:
372,278,136477,1,8,0:0:0:0:
337,289,136548,1,8,0:0:0:0:
300,290,136620,1,8,0:0:0:0:
264,283,136691,1,8,0:0:0:0:
232,267,136762,6,0,P|193:232|196:161,5,83.9999974365235,6|0|0|0|0|0,1:3|2:3|2:3|2:3|2:3|2:3,0:0:0:0:
306,240,137333,2,0,P|255:246|221:285,5,83.9999974365235,6|0|0|0|0|0,1:3|2:3|2:3|2:3|2:3|2:3,0:0:0:0:
258,174,137905,2,0,P|297:209|294:280,5,83.9999974365235,6|0|0|0|0|0,1:3|2:3|2:3|2:3|2:3|2:3,0:0:0:0:
182,199,138476,2,0,P|233:193|268:155,5,83.9999974365235,6|0|0|0|0|0,1:3|2:3|2:3|2:3|2:3|2:3,0:0:0:0:
196,115,139048,6,0,L|173:47,7,52.5,8|8|4|4|4|0|4|0,1:3|1:3|1:3|1:3|1:3|1:3|1:3|1:3,0:0:0:0:
105,81,139619,2,0,L|86:135,7,52.5,4|4|8|8|4|4|4|4,1:3|1:3|1:3|1:3|1:3|1:3|1:3|1:3,0:0:0:0:
160,177,140191,5,4,1:3:0:0:
166,204,140262,1,4,1:3:0:0:
185,226,140333,1,8,1:3:0:0:
211,238,140405,1,8,1:3:0:0:
239,237,140476,1,4,1:3:0:0:
265,224,140548,1,4,1:3:0:0:
282,201,140619,1,4,1:3:0:0:
287,173,140691,1,0,1:3:0:0:
279,145,140762,1,4,1:3:0:0:
276,116,140833,1,4,1:3:0:0:
286,89,140904,1,4,1:3:0:0:
306,69,140976,1,4,1:3:0:0:
334,61,141047,1,0,1:3:0:0:
362,65,141119,1,0,1:3:0:0:
386,81,141191,2,0,L|431:127,1,42,10|0,1:3|2:0,0:0:0:0:
398,332,141333,5,6,1:3:0:0:
334,295,141428,1,0,1:3:0:0:
261,297,141523,1,0,1:3:0:0:
201,337,141619,1,6,1:3:0:0:
204,354,141714,1,0,1:3:0:0:
220,365,141809,1,0,1:3:0:0:
238,365,141904,5,6,1:3:0:0:
261,297,142000,1,0,1:3:0:0:
246,224,142095,1,0,1:3:0:0:
197,171,142191,1,6,1:3:0:0:
183,176,142286,1,0,1:3:0:0:
173,194,142381,1,0,1:3:0:0:
176,212,142476,5,6,1:3:0:0:
246,224,142571,1,0,1:3:0:0:
314,198,142666,1,0,1:3:0:0:
357,139,142762,1,6,1:3:0:0:
348,124,142857,1,0,1:3:0:0:
329,120,142952,1,0,1:3:0:0:
313,126,143047,5,6,1:3:0:0:
314,198,143143,1,0,1:3:0:0:
353,261,143238,1,0,1:3:0:0:
417,294,143334,1,6,1:3:0:0:
429,285,143429,1,0,1:3:0:0:
432,264,143524,1,0,1:3:0:0:
423,248,143619,5,6,1:3:0:0:
353,261,143714,1,0,1:3:0:0:
314,198,143810,1,0,1:3:0:0:
357,139,143905,1,6,1:3:0:0:
429,159,144000,1,0,1:3:0:0:
472,100,144095,1,0,1:3:0:0:
433,37,144191,5,6,1:3:0:0:
402,25,144286,1,0,1:3:0:0:
369,30,144381,1,0,1:3:0:0:
344,50,144476,1,6,1:3:0:0:
332,81,144571,1,0,1:3:0:0:
336,113,144667,1,0,1:3:0:0:
357,139,144762,6,0,P|397:161|450:149,1,79.100000241394,6|0,1:3|1:3,0:0:0:0:
371,238,144952,1,0,1:3:0:0:
294,220,145048,2,0,P|294:265|331:305,1,79.100000241394,6|0,1:3|1:3,0:0:0:0:
215,281,145238,1,0,1:3:0:0:
192,205,145334,2,0,P|152:228|136:280,1,79.100000241394,6|0,1:3|1:3,0:0:0:0:
100,167,145524,1,0,1:3:0:0:
72,194,145619,1,6,1:3:0:0:
72,232,145714,1,0,1:3:0:0:
100,259,145810,1,0,1:3:0:0:
137,256,145905,5,6,1:3:0:0:
192,205,146000,1,0,1:3:0:0:
266,221,146095,1,0,1:3:0:0:
309,285,146191,2,0,L|370:318,3,62.9999980773926,6|0|0|0,1:3|1:3|1:3|1:3,0:0:0:0:
434,283,146476,5,6,1:3:0:0:
406,216,146572,1,0,1:3:0:0:
333,191,146667,1,0,1:3:0:0:
266,221,146762,2,0,L|227:274,3,60.3750011515618,6|0|0|0,1:3|1:3|1:3|1:3,0:0:0:0:
331,289,147048,5,6,1:3:0:0:
265,353,147143,2,0,P|201:355|163:327,1,83.9999974365235,0|0,1:3|1:3,0:0:0:0:
85,329,147333,1,6,1:3:0:0:
150,264,147428,2,0,P|214:262|252:290,1,83.9999974365235,0|0,1:3|1:3,0:0:0:0:
275,205,147619,1,6,1:3:0:0:
237,187,147714,1,0,1:3:0:0:
196,179,147809,1,0,1:3:0:0:
155,182,147905,1,6,1:3:0:0:
163,141,148000,1,0,1:3:0:0:
191,110,148095,1,0,1:3:0:0:
230,96,148191,5,6,1:3:0:0:
160,73,148286,1,0,1:3:0:0:
87,87,148381,1,0,1:3:0:0:
30,134,148476,1,6,1:3:0:0:
2,202,148571,1,0,1:3:0:0:
10,275,148667,1,0,1:3:0:0:
51,336,148762,1,6,1:3:0:0:
117,370,148857,1,0,1:3:0:0:
191,368,148952,1,0,1:3:0:0:
255,331,149048,2,0,L|285:276,3,62.9999980773926,6|0|0|0,1:3|1:3|1:3|1:3,0:0:0:0:
193,251,149333,6,0,B|203:205|239:157|242:210|284:152|290:90,1,167.999994873047,6|0,1:3|1:3,0:0:0:0:
194,104,149619,2,0,L|220:47,3,62.9999980773926,6|0|0|0,1:3|1:3|1:3|1:3,0:0:0:0:
303,43,149905,1,6,1:3:0:0:
330,57,149976,1,0,1:3:0:0:
358,72,150047,1,0,1:3:0:0:
386,87,150119,1,0,1:3:0:0:
413,102,150190,1,6,1:3:0:0:
292,305,150333,1,0,1:3:0:0:
274,322,150405,1,0,1:3:0:0:
256,340,150476,5,6,1:3:0:0:
226,320,150548,1,0,1:3:0:0:
196,301,150619,1,0,1:3:0:0:
166,281,150691,1,0,1:3:0:0:
136,261,150762,2,0,P|102:277|62:333,2,83.9999974365235,6|0|0,1:3|1:3|1:3,0:0:0:0:
162,173,151048,2,0,P|193:151|223:90,2,83.9999974365235,6|0|0,1:3|1:3|1:3,0:0:0:0:
247,215,151333,1,6,1:3:0:0:
270,194,151404,1,0,1:3:0:0:
293,172,151475,1,0,1:3:0:0:
316,150,151547,1,0,1:3:0:0:
339,128,151619,6,0,P|358:167|405:192,2,83.9999974365235,6|0|0,1:3|1:3|1:3,0:0:0:0:
417,112,151905,2,0,P|436:73|483:48,2,83.9999974365235,6|0|0,1:3|1:3|1:3,0:0:0:0:
497,130,152191,1,6,1:3:0:0:
485,159,152262,1,0,1:3:0:0:
474,188,152333,1,0,1:3:0:0:
463,218,152405,1,0,1:3:0:0:
452,247,152476,2,0,P|424:279|363:301,2,83.9999974365235,6|0|0,1:3|1:3|1:3,0:0:0:0:
368,206,152762,6,0,P|353:165|306:121,2,83.9999974365235,6|0|0,1:3|1:3|1:3,0:0:0:0:
284,206,153048,1,6,1:3:0:0:
266,181,153119,1,0,1:3:0:0:
249,159,153191,1,0,1:3:0:0:
83,45,153333,2,0,P|52:62|24:125,2,97.9999970092774,6|0|0,1:3|1:3|1:3,0:0:0:0:
111,127,153619,2,0,L|172:177,3,42,6|0|0|0,1:3|1:3|1:3|1:3,0:0:0:0:
198,48,153905,5,6,1:3:0:0:
239,64,154000,1,0,1:3:0:0:
284,70,154095,1,0,1:3:0:0:
340,136,154191,5,6,1:3:0:0:
295,153,154286,1,0,1:3:0:0:
249,159,154381,1,0,1:3:0:0:
193,216,154476,5,6,1:3:0:0:
238,234,154571,1,0,1:3:0:0:
288,241,154666,1,0,1:3:0:0:
376,295,154762,5,6,1:3:0:0:
318,325,154857,1,0,1:3:0:0:
258,341,154952,1,0,1:3:0:0:
193,341,155048,5,6,1:3:0:0:
191,349,155143,1,0,1:3:0:0:
192,357,155238,1,0,1:3:0:0:
195,365,155333,1,0,1:3:0:0:
113,352,155429,1,0,1:3:0:0:
56,292,155523,1,0,1:3:0:0:
48,210,155619,5,6,1:3:0:0:
63,213,155714,1,0,1:3:0:0:
76,220,155810,1,0,1:3:0:0:
87,230,155905,1,0,1:3:0:0:
127,148,156000,1,0,1:3:0:0:
211,113,156095,1,0,1:3:0:0:
297,145,156191,6,0,P|272:183|224:206,2,90.9999958343508,6|0|0,1:3|1:3|1:3,0:0:0:0:
370,136,156476,1,8,0:0:0:0:
371,167,156548,1,8,0:0:0:0:
372,199,156619,1,8,0:0:0:0:
373,230,156691,1,8,0:0:0:0:
374,262,156762,2,0,B|374:318|374:318|246:225,1,204.749990627289,6|0,0:0|0:0,0:0:0:0:
271,151,157048,2,0,P|190:182|198:288,1,204.749990627289,6|0,0:0|0:0,0:0:0:0:
273,308,157333,5,6,0:0:0:0:
112,57,157476,5,8,0:0:0:0:
142,239,157619,1,6,0:0:0:0:
142,239,157691,1,4,0:0:0:0:
142,239,157762,1,8,0:0:0:0:
346,61,157905,2,0,B|451:42|451:42|431:92,1,146.999995513916,6|8,0:0|0:0,0:0:0:0:
269,95,158191,2,0,B|164:114|164:114|184:64,1,146.999995513916,6|8,0:0|0:0,0:0:0:0:
397,132,158476,2,0,B|502:113|502:113|482:163,1,146.999995513916,6|8,0:0|0:0,0:0:0:0:
271,345,158762,5,6,0:0:0:0:
90,111,158905,2,0,B|104:73|104:73|0:92,1,146.999995513916,8|6,0:0|0:0,0:0:0:0:
230,185,159191,2,0,B|334:204|334:204|320:166,1,146.999995513916,8|6,0:0|0:0,0:0:0:0:
37,159,159476,1,8,0:0:0:0:
271,345,159619,2,0,B|257:307|257:307|361:326,1,146.999995513916,6|8,0:0|0:0,0:0:0:0:
320,166,159905,5,6,0:0:0:0:
320,166,159976,1,4,0:0:0:0:
320,166,160048,1,8,0:0:0:0:
143,346,160191,2,0,P|207:376|271:344,1,146.999995513916,6|8,0:0|0:0,0:0:0:0:
377,102,160476,2,0,P|293:73|235:179,1,146.999995513916,6|8,0:0|0:0,0:0:0:0:
497,312,160762,2,0,P|434:343|369:313,1,146.999995513916,6|8,0:0|0:0,0:0:0:0:
169,130,161048,1,6,0:0:0:0:
434,260,161191,1,8,0:0:0:0:
311,49,161333,5,6,0:0:0:0:
311,49,161405,1,4,0:0:0:0:
311,49,161476,2,0,P|227:20|169:126,1,146.999995513916,10|6,0:0|0:0,0:0:0:0:
297,316,161762,1,8,0:0:0:0:
248,100,161905,1,6,0:0:0:0:
373,302,162048,6,0,B|414:301|414:301|467:268,1,57.7500017623902,8|0,0:0|2:0,0:0:0:0:
505,242,162191,1,6,0:0:0:0:
505,242,162262,1,4,0:0:0:0:
505,242,162333,1,8,0:0:0:0:
226,204,162476,1,6,0:0:0:0:
391,35,162619,2,0,B|482:84|482:84|496:137,1,146.999995513916,8|6,0:0|0:0,0:0:0:0:
203,307,162905,1,8,0:0:0:0:
58,116,163048,6,0,B|28:146|28:146|67:141|67:141|113:96,1,146.999995513916,6|8,0:0|0:0,0:0:0:0:
309,120,163333,1,6,0:0:0:0:
150,328,163476,2,0,B|119:358|119:358|159:352|159:352|204:307,1,146.999995513916,8|6,0:0|0:0,0:0:0:0:
168,73,163762,2,0,B|198:43|198:43|159:48|159:48|114:94,1,146.999995513916,8|6,0:0|0:0,0:0:0:0:
0,384,164048,1,8,0:0:0:0:
258,287,164191,2,0,B|288:256|288:256|248:262|248:262|203:307,1,146.999995513916,6|8,0:0|0:0,0:0:0:0:
110,143,164476,5,6,0:0:0:0:
110,143,164548,1,4,0:0:0:0:
110,143,164619,1,8,0:0:0:0:
291,182,164762,2,0,B|212:194|212:194|164:240,1,146.999995513916,6|8,0:0|0:0,0:0:0:0:
385,330,165048,2,0,B|464:318|464:318|512:272,1,146.999995513916,6|8,0:0|0:0,0:0:0:0:
401,15,165333,5,6,0:0:0:0:
338,256,165476,1,8,0:0:0:0:
245,109,165619,1,6,0:0:0:0:
500,192,165762,1,8,0:0:0:0:
297,333,165905,1,6,0:0:0:0:
297,333,165976,1,4,0:0:0:0:
297,333,166048,1,8,0:0:0:0:
451,104,166191,2,0,B|371:115|371:115|323:161,1,146.999995513916,6|8,0:0|0:0,0:0:0:0:
502,354,166476,1,6,0:0:0:0:
412,177,166619,1,8,0:0:0:0:
83,217,166762,6,0,B|123:217|148:245|148:245|134:200|168:141,1,146.999995513916,6|8,0:0|0:0,0:0:0:0:
422,254,167048,2,0,B|382:256|355:229|355:229|371:273|341:334,1,146.999995513916,6|8,0:0|0:0,0:0:0:0:
167,96,167333,2,0,B|206:100|235:74|235:74|216:117|243:180,1,146.999995513916,6|8,0:0|0:0,0:0:0:0:
102,363,167619,1,6,0:0:0:0:
367,159,167762,2,0,B|327:157|300:184|300:184|316:140|286:79,1,146.999995513916,8|6,0:0|0:0,0:0:0:0:
86,131,168048,5,8,0:0:0:0:
355,356,168191,1,6,0:0:0:0:
355,356,168262,1,4,0:0:0:0:
355,356,168333,2,0,P|386:292|354:229,1,146.999995513916,8|6,0:0|0:0,0:0:0:0:
77,285,168619,1,8,0:0:0:0:
291,183,168762,2,0,P|355:151|418:184,1,146.999995513916,6|8,0:0|0:0,0:0:0:0:
214,375,169048,5,6,0:0:0:0:
214,375,169119,1,4,0:0:0:0:
214,375,169191,1,8,0:0:0:0:
79,69,169333,2,0,B|98:84|98:84|121:173|121:173|134:144,1,146.999995513916,6|8,0:0|0:0,0:0:0:0:
379,26,169619,2,0,B|359:38|359:38|327:124|327:124|316:94,1,146.999995513916,6|8,0:0|0:0,0:0:0:0:
57,192,169905,2,0,P|77:227|118:245,1,57.7500017623902,6|0,0:0|2:0,0:0:0:0:
235,149,170048,1,8,0:0:0:0:
79,69,170191,5,6,0:0:0:0:
240,315,170333,1,8,0:0:0:0:
2,301,170476,1,6,0:0:0:0:
2,301,170548,1,4,0:0:0:0:
2,301,170619,1,8,0:0:0:0:
210,52,170762,1,6,0:0:0:0:
120,322,170905,1,8,0:0:0:0:
329,123,171048,6,0,L|390:141,1,57.7500017623902,6|0,0:0|2:0,0:0:0:0:
149,226,171191,1,8,0:0:0:0:
385,355,171333,1,6,0:0:0:0:
385,355,171405,1,4,0:0:0:0:
385,355,171476,1,8,0:0:0:0:
310,45,171619,2,0,L|365:61,1,57.7500017623902,6|0,0:0|2:0,0:0:0:0:
403,217,171762,2,0,L|348:201,1,57.7500017623902,8|0,0:0|0:0,0:0:0:0:
254,94,171905,2,0,L|202:270,1,157.500006008148,6|8,0:0|0:0,0:0:0:0:
7,352,172191,2,0,L|58:175,1,157.500006008148,6|8,0:0|0:0,0:0:0:0:
356,41,172476,5,6,0:0:0:0:
152,147,172619,1,8,0:0:0:0:
389,151,172762,1,6,0:0:0:0:
389,151,172833,1,4,0:0:0:0:
389,151,172905,1,8,0:0:0:0:
189,59,173047,1,6,0:0:0:0:
189,235,173190,1,8,0:0:0:0:
489,197,173333,1,4,0:0:0:0:
289,105,173476,1,8,0:0:0:0:
489,13,173619,1,8,0:0:0:0:
489,13,173691,1,0,0:0:0:0:
489,13,173762,1,8,0:0:0:0:
321,261,173905,5,6,0:0:0:0:
489,105,174047,1,6,0:0:0:0:
224,150,174190,1,4,0:0:0:0:
253,176,174262,1,4,0:0:0:0:
291,184,174333,1,4,0:0:0:0:
329,174,174405,1,4,0:0:0:0:
357,144,174476,6,0,P|369:106|336:52,1,62.9999980773926,8|0,0:0|0:0,0:0:0:0:
192,47,174619,1,4,0:0:0:0:
181,75,174690,1,4,0:0:0:0:
182,107,174762,2,0,P|215:187|275:214,1,157.500006008148,4|8,0:0|0:0,0:0:0:0:
465,160,175048,1,4,0:0:0:0:
476,132,175119,1,4,0:0:0:0:
475,100,175191,1,4,0:0:0:0:
289,105,175333,1,8,0:0:0:0:
497,274,175476,1,0,0:0:0:0:
465,285,175548,1,0,0:0:0:0:
436,299,175619,5,4,0:0:0:0:
341,82,175762,1,10,0:0:0:0:
374,323,175905,1,2,0:0:0:0:
394,63,176048,1,4,0:0:0:0:
313,347,176191,1,10,0:0:0:0:
449,49,176333,1,4,0:0:0:0:
252,372,176476,1,8,0:0:0:0:
504,35,176619,1,4,0:0:0:0:
111,5,176762,5,6,0:0:0:0:
289,105,177048,1,0,2:3:0:0:
307,248,177334,2,0,P|267:249|232:232,3,78.7500030040742,0|0|0|0,2:3|2:3|2:3|2:3,0:0:0:0:
82,98,177905,5,6,0:0:0:0:
317,336,178048,1,4,0:0:0:0:
112,267,178191,2,0,B|126:195|126:195|116:116,1,136.499993751526,10|0,0:0|0:0,0:0:0:0:
287,167,178476,2,0,B|273:239|273:239|283:318,1,136.499993751526,10|0,0:0|0:0,0:0:0:0:
148,301,178762,5,6,0:0:0:0:
251,133,178905,1,4,0:0:0:0:
317,336,179048,2,0,B|270:322|270:322|183:334,1,136.499993751526,10|0,0:0|0:0,0:0:0:0:
82,98,179333,2,0,B|128:111|128:111|215:99,1,136.499993751526,10|4,0:0|0:0,0:0:0:0:
354,301,179619,5,6,0:0:0:0:
45,133,179762,2,0,L|120:156,1,68.2499968757631,4|0,0:0|2:0,0:0:0:0:
332,181,179905,1,8,0:0:0:0:
67,253,180048,1,8,0:0:0:0:
347,226,180191,2,0,L|368:298,3,41.9999987182618,6|4|2|0,0:0|0:0|0:0|2:0,0:0:0:0:
400,150,180476,2,0,L|445:304,1,136.499993751526,4|4,0:0|0:0,0:0:0:0:
288,281,180762,1,8,0:0:0:0:
283,266,180833,1,8,0:0:0:0:
278,251,180905,2,0,L|257:179,1,57.7500017623902,4|0,0:0|2:0,0:0:0:0:
225,327,181048,2,0,L|179:172,1,136.499993751526,4|0,0:0|0:0,0:0:0:0:
90,70,181333,5,6,0:0:0:0:
55,146,181619,1,0,2:3:0:0:
94,220,181905,2,0,P|57:233|20:222,2,78.7500030040742,0|0|0,2:3|2:3|2:3,0:0:0:0:
492,90,182476,5,6,0:0:0:0:
256,262,182619,1,4,0:0:0:0:
318,96,182762,2,0,B|360:94|391:110|391:110|492:106,1,136.499993751526,10|0,0:0|0:0,0:0:0:0:
428,255,183048,2,0,B|385:256|354:240|354:240|253:244,1,136.499993751526,10|0,0:0|0:0,0:0:0:0:
20,90,183333,5,6,0:0:0:0:
256,262,183476,1,4,0:0:0:0:
194,96,183619,2,0,B|151:94|120:110|120:110|19:106,1,136.499993751526,10|0,0:0|0:0,0:0:0:0:
84,255,183905,2,0,B|126:256|157:240|157:240|258:244,1,136.499993751526,10|4,0:0|0:0,0:0:0:0:
356,76,184191,5,6,0:0:0:0:
331,262,184333,2,0,L|331:196,1,57.7500017623902,4|0,0:0|2:0,0:0:0:0:
156,76,184476,1,8,0:0:0:0:
181,262,184619,1,8,0:0:0:0:
256,67,184762,2,0,L|256:147,3,41.9999987182618,6|4|2|0,0:0|0:0|0:0|2:0,0:0:0:0:
404,238,185048,2,0,L|404:94,1,136.499993751526,8|4,0:0|0:0,0:0:0:0:
108,101,185333,2,0,L|108:261,1,136.499993751526,8|4,0:0|0:0,0:0:0:0:
256,352,185619,2,0,L|256:184,1,136.499993751526,8|4,0:0|0:0,0:0:0:0:
256,67,185905,5,6,0:0:0:0:
479,90,186476,2,0,P|460:21|422:68,1,157.500006008148,6|6,0:0|0:0,0:0:0:0:
6,255,187048,6,0,B|29:236|29:236|33:315|157:348|189:225,1,236.250009012223,10|0,0:0|0:0,0:0:0:0:
104,229,187333,1,10,0:0:0:0:
100,267,187404,1,4,0:0:0:0:
115,303,187475,1,2,0:0:0:0:
145,328,187547,1,4,0:0:0:0:
183,335,187618,1,10,0:0:0:0:
220,323,187690,1,4,0:0:0:0:
247,295,187761,1,2,0:0:0:0:
265,259,187833,1,4,0:0:0:0:
267,219,187904,1,10,0:0:0:0:
257,180,187975,1,4,0:0:0:0:
236,145,188047,1,2,0:0:0:0:
206,118,188119,1,4,0:0:0:0:
175,92,188191,5,10,0:0:0:0:
203,63,188262,1,4,0:0:0:0:
239,52,188333,1,2,0:0:0:0:
279,52,188405,1,4,0:0:0:0:
314,67,188476,1,10,0:0:0:0:
341,96,188548,1,4,0:0:0:0:
357,132,188619,1,2,0:0:0:0:
356,171,188691,1,4,0:0:0:0:
342,208,188762,1,10,0:0:0:0:
326,242,188833,1,4,0:0:0:0:
326,282,188905,1,2,0:0:0:0:
342,319,188976,1,4,0:0:0:0:
368,348,189048,1,10,0:0:0:0:
404,364,189119,1,4,0:0:0:0:
443,365,189191,1,2,0:0:0:0:
480,350,189262,1,4,0:0:0:0:
509,326,189333,5,10,0:0:0:0:
492,289,189405,1,4,0:0:0:0:
459,266,189476,1,2,0:0:0:0:
421,255,189547,1,4,0:0:0:0:
381,260,189619,1,10,0:0:0:0:
345,277,189690,1,4,0:0:0:0:
308,293,189762,1,2,0:0:0:0:
269,296,189833,1,4,0:0:0:0:
229,292,189905,1,10,0:0:0:0:
196,269,189976,1,4,0:0:0:0:
167,241,190048,1,2,0:0:0:0:
152,204,190119,1,4,0:0:0:0:
147,164,190191,1,10,0:0:0:0:
149,124,190262,1,4,0:0:0:0:
164,87,190333,1,2,0:0:0:0:
189,56,190405,1,4,0:0:0:0:
222,35,190476,5,10,0:0:0:0:
201,79,190548,1,4,0:0:0:0:
197,127,190619,1,2,0:0:0:0:
210,175,190691,1,4,0:0:0:0:
239,214,190762,1,10,0:0:0:0:
280,241,190833,1,4,0:0:0:0:
328,251,190905,1,2,0:0:0:0:
376,243,190976,1,4,0:0:0:0:
419,219,191048,1,10,0:0:0:0:
448,180,191119,1,4,0:0:0:0:
459,132,191191,1,2,0:0:0:0:
451,84,191262,1,4,0:0:0:0:
426,42,191333,1,10,0:0:0:0:
387,13,191405,1,4,0:0:0:0:
339,1,191476,1,10,0:0:0:0:
291,8,191548,1,4,0:0:0:0:
249,33,191619,5,6,0:0:0:0:
376,243,191762,1,8,0:0:0:0:
185,105,191905,1,4,0:0:0:0:
162,125,191976,1,4,0:0:0:0:
148,150,192047,1,10,0:0:0:0:
459,132,192191,1,4,0:0:0:0:
144,179,192333,1,10,0:0:0:0:
150,208,192404,1,4,0:0:0:0:
166,233,192476,1,4,0:0:0:0:
189,251,192547,1,4,0:0:0:0:
217,259,192619,1,10,0:0:0:0:
228,9,192762,5,4,0:0:0:0:
358,288,192905,1,10,0:0:0:0:
266,134,193048,1,4,0:0:0:0:
243,154,193119,1,4,0:0:0:0:
229,179,193190,1,10,0:0:0:0:
176,359,193333,1,4,0:0:0:0:
312,211,193476,1,10,0:0:0:0:
112,226,193619,1,4,0:0:0:0:
88,210,193690,1,4,0:0:0:0:
70,186,193761,1,10,0:0:0:0:
328,9,193905,5,8,0:0:0:0:
146,147,194048,1,4,0:0:0:0:
358,134,194191,1,10,0:0:0:0:
100,71,194333,1,4,0:0:0:0:
77,91,194404,1,4,0:0:0:0:
63,115,194475,1,10,0:0:0:0:
290,221,194619,5,4,0:0:0:0:
319,238,194691,1,4,0:0:0:0:
352,245,194762,1,4,0:0:0:0:
385,242,194834,1,4,0:0:0:0:
416,228,194905,1,12,0:0:0:0:
442,206,194977,1,4,0:0:0:0:
459,178,195048,1,4,0:0:0:0:
467,145,195119,1,4,0:0:0:0:
466,112,195191,1,4,0:0:0:0:
454,80,195262,1,4,0:0:0:0:
433,54,195334,1,6,0:0:0:0:
405,35,195405,1,4,0:0:0:0:
373,25,195477,1,4,0:0:0:0:
339,26,195548,1,4,0:0:0:0:
307,36,195619,5,10,0:0:0:0:
442,206,195762,1,4,0:0:0:0:
284,107,195905,1,8,0:0:0:0:
97,101,196048,1,4,0:0:0:0:
179,281,196191,5,6,0:0:0:0:
358,134,196333,1,10,0:0:0:0:
337,159,196405,1,4,0:0:0:0:
313,174,196476,1,4,0:0:0:0:
141,53,196619,1,10,0:0:0:0:
109,253,196762,1,4,0:0:0:0:
360,50,196905,1,10,0:0:0:0:
389,56,196976,1,4,0:0:0:0:
414,71,197047,1,0,0:0:0:0:
432,94,197119,1,4,0:0:0:0:
441,122,197191,1,10,0:0:0:0:
249,309,197333,5,4,0:0:0:0:
250,19,197476,1,10,0:0:0:0:
440,152,197619,1,4,0:0:0:0:
429,179,197690,1,4,0:0:0:0:
409,200,197762,1,10,0:0:0:0:
191,243,197905,1,4,0:0:0:0:
443,318,198048,1,10,0:0:0:0:
205,155,198191,1,4,0:0:0:0:
216,128,198262,1,4,0:0:0:0:
236,107,198333,1,10,0:0:0:0:
344,346,198476,5,4,0:0:0:0:
288,176,198619,1,10,0:0:0:0:
114,358,198762,1,4,0:0:0:0:
85,350,198833,1,4,0:0:0:0:
62,333,198904,1,10,0:0:0:0:
316,261,199048,1,4,0:0:0:0:
46,308,199191,1,10,0:0:0:0:
39,280,199263,1,4,0:0:0:0:
43,250,199334,1,4,0:0:0:0:
56,224,199405,1,4,0:0:0:0:
78,205,199477,1,10,0:0:0:0:
316,91,199619,5,4,0:0:0:0:
122,274,199762,1,10,0:0:0:0:
344,176,199905,1,4,0:0:0:0:
370,191,199976,1,4,0:0:0:0:
389,213,200047,1,10,0:0:0:0:
182,330,200191,1,4,0:0:0:0:
244,52,200334,1,10,0:0:0:0:
316,261,200477,1,4,0:0:0:0:
301,287,200548,1,4,0:0:0:0:
279,306,200619,1,10,0:0:0:0:
118,15,200762,5,8,0:0:0:0:
87,41,200833,1,4,0:0:0:0:
63,72,200904,1,4,0:0:0:0:
46,107,200976,1,4,0:0:0:0:
36,145,201047,1,4,0:0:0:0:
34,184,201119,1,4,0:0:0:0:
41,223,201190,1,4,0:0:0:0:
55,260,201262,1,4,0:0:0:0:
93,269,201333,2,0,P|62:120|153:27,1,272.999987503052,10|0,0:0|0:0,0:0:0:0:
378,256,201905,5,4,0:0:0:0:
361,227,201976,1,4,0:0:0:0:
340,202,202047,1,8,0:0:0:0:
314,181,202119,1,8,0:0:0:0:
284,166,202191,2,0,P|247:158|193:168,1,62.9999980773926,8|4,0:0|0:0,0:0:0:0:
82,271,202333,1,4,0:0:0:0:
99,300,202404,1,4,0:0:0:0:
120,325,202475,1,6,0:0:0:0:
370,249,203048,6,0,B|299:410|89:239|193:210|195:65|334:115|365:179|365:179|382:141|409:121|409:121|370:57|275:56|275:56|247:141|284:219|284:219|211:170|123:198|123:198|138:109|224:64,1,1228.49994376374,6|0,0:0|2:0,0:0:0:0:
66,57,215048,6,0,B|41:139,1,68.2499968757631,4|0,0:0|0:0,0:0:0:0:
115,223,215423,2,0,B|134:157,2,68.2499968757631,2|0|0,0:0|0:0|0:0,0:0:0:0:
183,323,215985,2,0,B|202:257,2,68.2499968757631,2|0|0,0:0|0:0|0:0,0:0:0:0:
289,291,216548,2,0,B|308:225,2,68.2499968757631,2|0|0,0:0|0:0|0:0,0:0:0:0:
370,365,217110,1,0,0:0:0:0:
394,258,217298,2,0,B|414:193,2,68.2499968757631,0|2|0,0:0|0:0|0:0,0:0:0:0:
281,189,217860,1,2,0:0:0:0:
383,27,218048,2,0,L|302:35,1,68.2499968757631,2|0,0:0|0:0,0:0:0:0:
267,110,218423,6,0,B|326:104|326:104|331:115,2,68.2499968757631,6|0|0,0:0|0:0|0:0,0:0:0:0:
219,187,218985,2,0,B|278:181|278:181|283:192,1,68.2499968757631,2|0,0:0|0:0,0:0:0:0:
171,264,219360,2,0,B|230:258|230:258|235:269,2,68.2499968757631,2|0|0,0:0|0:0|0:0,0:0:0:0:
191,335,219923,2,0,B|131:340|131:340|128:351,2,68.2499968757631,2|0|0,0:0|0:0|0:0,0:0:0:0:
336,337,220485,2,0,B|395:331|395:331|398:320,1,68.2499968757631,2|0,0:0|0:0,0:0:0:0:
450,216,220860,1,2,0:0:0:0:
367,248,221048,5,6,0:0:0:0:
380,160,221235,1,2,0:0:0:0:
463,128,221423,2,0,B|480:67|480:67|472:55,2,68.2499968757631,2|0|0,0:0|0:0|0:0,0:0:0:0:
362,63,221985,2,0,B|345:124|345:124|353:136,1,68.2499968757631,2|0,0:0|0:0,0:0:0:0:
426,191,222360,2,0,B|428:195|428:195|411:256,2,68.2499968757631,2|0|0,0:0|0:0|0:0,0:0:0:0:
310,191,222923,6,0,B|293:252|293:252|301:264,2,68.2499968757631,6|0|0,0:0|0:0|0:0,0:0:0:0:
280,61,223485,2,0,B|341:76|341:76|347:89,1,68.2499968757631,6|0,0:0|0:0,0:0:0:0:
230,141,223860,2,0,B|213:202|213:202|221:214,2,68.2499968757631,2|0|0,0:0|0:0|0:0,0:0:0:0:
40,105,224423,6,0,P|35:69|54:22,2,68.2499968757631,6|0|0,0:0|0:0|0:0,0:0:0:0:
99,181,224985,2,0,P|104:217|85:264,1,68.2499968757631,2|0,0:0|0:0,0:0:0:0:
179,290,225360,2,0,P|174:326|193:373,2,68.2499968757631,2|0|0,0:0|0:0|0:0,0:0:0:0:
347,290,225923,6,0,P|352:326|333:373,2,68.2499968757631,6|0|0,0:0|0:0|0:0,0:0:0:0:
311,202,226485,2,0,P|280:221|256:266,1,68.2499968757631,2|0,0:0|0:0,0:0:0:0:
262,356,226860,1,2,0:0:0:0:
169,273,227048,2,0,L|152:199,1,68.2499968757631,0|0,0:0|0:0,0:0:0:0:
235,208,227423,6,0,L|218:134,2,68.2499968757631,6|0|0,0:0|0:0|0:0,0:0:0:0:
301,143,227985,2,0,L|284:69,2,68.2499968757631,2|0|0,0:0|0:0|0:0,0:0:0:0:
367,78,228548,2,0,L|350:4,2,68.2499968757631,2|0|0,0:0|0:0|0:0,0:0:0:0:
465,107,229110,1,0,0:0:0:0:
391,178,229298,2,0,L|406:244,2,68.2499968757631,0|2|0,0:0|0:0|0:0,0:0:0:0:
302,183,229860,1,2,0:0:0:0:
480,173,230048,2,0,L|464:106,1,68.2499968757631,0|0,0:0|0:0,0:0:0:0:
379,34,230423,6,0,B|344:20|344:20|288:15,2,68.2499968757631,6|0|0,0:0|0:0|0:0,0:0:0:0:
312,88,230985,2,0,B|274:83|274:83|220:92,1,68.2499968757631,2|0,0:0|0:0,0:0:0:0:
262,161,231360,2,0,B|225:165|225:165|174:189,2,68.2499968757631,2|0|0,0:0|0:0|0:0,0:0:0:0:
231,243,231923,2,0,B|196:257|196:257|153:293,2,68.2499968757631,6|0|0,0:0|0:0|0:0,0:0:0:0:
283,304,232485,2,0,B|316:290|316:290|359:254,1,68.2499968757631,2|0,0:0|0:0,0:0:0:0:
415,191,232860,1,2,0:0:0:0:
435,263,233048,5,6,0:0:0:0:
435,338,233235,1,2,0:0:0:0:
435,263,233423,2,0,L|494:208,2,68.2499968757631,6|0|0,0:0|0:0|0:0,0:0:0:0:
415,191,233985,2,0,L|458:123,1,68.2499968757631,6|0,0:0|0:0,0:0:0:0:
377,127,234360,2,0,L|401:50,2,68.2499968757631,2|0|0,0:0|0:0|0:0,0:0:0:0:
323,76,234923,6,0,L|326:-5,2,68.2499968757631,6|0|0,0:0|0:0|0:0,0:0:0:0:
249,75,235485,2,0,L|245:-6,1,68.2499968757631,2|0,0:0|0:0,0:0:0:0:
195,126,235860,2,0,L|170:49,2,68.2499968757631,2|0|0,0:0|0:0|0:0,0:0:0:0:
156,190,236423,2,0,L|112:122,2,68.2499968757631,6|0|0,0:0|0:0|0:0,0:0:0:0:
83,216,236985,2,0,L|134:262,1,68.2499968757631,2|0,0:0|0:0,0:0:0:0:
175,330,237360,2,0,P|214:332|256:308,2,68.2499968757631,2|0|0,0:0|0:0|0:0,0:0:0:0:
288,231,237923,6,0,P|247:229|205:253,2,68.2499968757631,6|0|0,0:0|0:0|0:0,0:0:0:0:
305,313,238485,2,0,P|344:315|386:291,1,68.2499968757631,2|0,0:0|0:0,0:0:0:0:
353,222,238861,1,2,0:0:0:0:
366,108,239048,6,0,L|399:74,4,35,2|2|0|2|0,0:0|0:0|0:0|0:0|0:0,0:0:0:0:
256,192,239423,12,0,242704,0:0:0:0:
156,345,242832,5,6,0:0:0:0:
142,350,243117,1,2,0:1:0:0:
446,372,243260,2,0,P|469:330|400:252,1,105,2|0,0:1|2:0,0:0:0:0:
128,355,243546,1,2,0:1:0:0:
452,373,243689,2,0,P|475:331|406:253,1,105,2|0,0:1|2:0,0:0:0:0:
99,223,243974,5,6,0:1:0:0:
85,228,244259,1,2,0:1:0:0:
387,242,244403,2,0,P|410:200|341:122,1,105,2|0,0:1|2:0,0:0:0:0:
71,233,244688,1,2,0:1:0:0:
393,243,244832,2,0,P|416:201|347:123,1,105,2|0,0:1|2:0,0:0:0:0:
119,63,245117,5,6,0:1:0:0:
105,68,245402,1,2,0:1:0:0:
467,126,245546,2,0,P|490:84|421:6,1,105,2|0,0:1|2:0,0:0:0:0:
91,73,245831,1,2,0:1:0:0:
473,127,245975,2,0,P|496:85|427:7,1,105,2|0,0:1|2:0,0:0:0:0:
112,278,246260,5,6,0:1:0:0:
98,283,246545,1,2,0:1:0:0:
457,196,246689,2,0,P|448:257|459:314,1,105,2|0,0:1|2:0,0:0:0:0:
84,288,246974,1,2,0:1:0:0:
465,202,247117,2,0,P|456:263|467:320,1,105,2|0,0:1|2:0,0:0:0:0:
102,112,247403,5,6,0:1:0:0:
88,117,247689,1,2,0:1:0:0:
471,37,247832,5,6,0:0:0:0:
485,42,248117,1,2,0:1:0:0:
290,354,248260,1,6,0:0:0:0:
66,50,248546,1,6,0:0:0:0:
52,55,248831,5,2,0:1:0:0:
446,76,248974,2,0,B|457:152|457:152|436:191,1,105,2|0,0:1|2:0,0:0:0:0:
38,60,249260,1,2,0:1:0:0:
454,77,249403,2,0,B|465:153|465:153|444:192,1,105,2|0,0:1|2:0,0:0:0:0:
156,258,249689,6,0,P|237:367|298:300,1,251.999992309571,6|0,0:0|0:0,0:0:0:0:
150,81,250117,1,4,0:0:0:0:
223,293,250260,1,8,0:0:0:0:
229,277,250331,1,8,0:0:0:0:
239,263,250402,1,4,0:0:0:0:
251,252,250474,1,0,0:0:0:0:
266,244,250545,1,4,0:0:0:0:
282,239,250617,1,4,0:0:0:0:
298,238,250688,1,6,0:0:0:0:
315,241,250760,1,4,0:0:0:0:
331,247,250831,1,6,0:0:0:0:
344,256,250902,1,4,0:0:0:0:
356,269,250974,6,0,P|361:306|390:333,3,62.9999980773926,8|8|0|0,0:0|0:0|0:0|0:0,0:0:0:0:
423,219,251260,2,0,P|418:182|389:155,3,62.9999980773926,4|0|0|0,0:0|0:0|0:0|0:0,0:0:0:0:
318,168,251546,2,0,P|297:136|301:97,3,62.9999980773926,8|0|0|0,0:0|0:0|0:0|0:0,0:0:0:0:
363,62,251832,2,0,P|358:25|329:-2,1,62.9999980773926,10|0,0:0|0:0,0:0:0:0:
170,48,251974,5,6,0:0:0:0:
153,78,252045,1,0,0:0:0:0:
148,113,252116,1,6,0:0:0:0:
156,147,252188,1,0,0:0:0:0:
175,176,252259,1,6,0:0:0:0:
203,197,252331,1,0,0:0:0:0:
236,208,252402,1,6,0:0:0:0:
270,208,252474,1,0,0:0:0:0:
303,195,252545,1,6,0:0:0:0:
336,182,252617,1,0,0:0:0:0:
370,182,252689,1,6,0:0:0:0:
403,193,252760,1,0,0:0:0:0:
431,214,252832,1,6,0:0:0:0:
450,243,252903,1,0,0:0:0:0:
458,277,252975,1,6,0:0:0:0:
453,312,253046,1,0,0:0:0:0:
436,342,253117,5,6,0:0:0:0:
400,345,253188,1,0,0:0:0:0:
364,340,253259,1,6,0:0:0:0:
331,327,253331,1,0,0:0:0:0:
301,306,253402,1,6,0:0:0:0:
278,279,253474,1,0,0:0:0:0:
261,247,253545,1,6,0:0:0:0:
253,212,253617,1,0,0:0:0:0:
254,176,253688,1,6,0:0:0:0:
263,141,253759,1,0,0:0:0:0:
280,109,253831,1,6,0:0:0:0:
304,83,253902,1,0,0:0:0:0:
334,63,253974,1,6,0:0:0:0:
368,50,254045,1,0,0:0:0:0:
404,46,254117,1,6,0:0:0:0:
439,51,254188,1,0,0:0:0:0:
473,64,254260,5,6,0:0:0:0:
465,102,254331,1,0,0:0:0:0:
448,138,254402,1,6,0:0:0:0:
424,169,254474,1,0,0:0:0:0:
393,193,254545,1,6,0:0:0:0:
358,210,254617,1,0,0:0:0:0:
319,218,254688,1,6,0:0:0:0:
280,217,254760,1,0,0:0:0:0:
242,207,254832,1,6,0:0:0:0:
204,197,254903,1,0,0:0:0:0:
165,196,254975,1,6,0:0:0:0:
126,204,255046,1,0,0:0:0:0:
91,221,255118,1,6,0:0:0:0:
60,245,255189,1,0,0:0:0:0:
36,276,255261,1,6,0:0:0:0:
19,312,255332,1,0,0:0:0:0:
12,351,255403,5,6,0:0:0:0:
37,345,255474,1,0,0:0:0:0:
64,341,255545,1,6,0:0:0:0:
90,336,255617,1,0,0:0:0:0:
116,332,255688,1,6,0:0:0:0:
143,327,255760,1,0,0:0:0:0:
169,323,255831,1,6,0:0:0:0:
196,319,255903,1,0,0:0:0:0:
221,314,255975,5,6,0:0:0:0:
199,299,256046,1,0,0:0:0:0:
176,283,256117,1,6,0:0:0:0:
154,267,256189,1,0,0:0:0:0:
133,253,256260,1,6,0:0:0:0:
112,236,256332,1,0,0:0:0:0:
90,221,256403,1,6,0:0:0:0:
67,205,256475,1,0,0:0:0:0:
46,192,256546,5,6,0:0:0:0:
63,154,256617,1,0,0:0:0:0:
91,124,256689,1,6,0:0:0:0:
126,104,256760,1,0,0:0:0:0:
165,97,256831,1,6,0:0:0:0:
206,100,256903,1,0,0:0:0:0:
243,117,256974,1,6,0:0:0:0:
274,144,257046,1,0,0:0:0:0:
295,179,257117,1,6,0:0:0:0:
304,218,257188,1,0,0:0:0:0:
302,259,257260,1,6,0:0:0:0:
285,297,257331,1,0,0:0:0:0:
259,328,257403,1,6,0:0:0:0:
225,350,257474,1,0,0:0:0:0:
186,360,257546,1,6,0:0:0:0:
145,358,257617,1,0,0:0:0:0:
107,344,257689,5,6,0:0:0:0:
101,301,257760,1,0,0:0:0:0:
109,262,257831,1,6,0:0:0:0:
132,227,257903,1,0,0:0:0:0:
161,200,257974,1,6,0:0:0:0:
198,183,258046,1,0,0:0:0:0:
238,179,258117,1,6,0:0:0:0:
278,186,258189,1,0,0:0:0:0:
313,206,258260,1,6,0:0:0:0:
349,216,258331,1,0,0:0:0:0:
391,215,258403,1,6,0:0:0:0:
431,202,258474,1,0,0:0:0:0:
463,175,258546,1,6,0:0:0:0:
485,143,258617,1,0,0:0:0:0:
497,103,258689,1,6,0:0:0:0:
496,62,258760,1,0,0:0:0:0:
483,24,258832,5,8,0:0:0:0:
433,26,258903,1,8,0:0:0:0:
384,32,258974,1,8,0:0:0:0:
336,37,259046,1,8,0:0:0:0:
288,43,259117,5,6,0:0:0:0:
285,57,259189,1,4,0:0:0:0:
283,72,259260,1,4,0:0:0:0:
281,87,259332,1,6,0:0:0:0:
278,101,259403,5,8,0:0:0:0:
228,103,259474,1,8,0:0:0:0:
179,109,259545,1,8,0:0:0:0:
131,114,259617,1,8,0:0:0:0:
83,120,259688,5,6,0:0:0:0:
80,134,259760,1,4,0:0:0:0:
78,149,259831,1,4,0:0:0:0:
76,164,259903,1,6,0:0:0:0:
74,179,259974,6,0,L|65:254,3,52.5,8|8|4|4,0:0|0:0|0:0|0:0,0:0:0:0:
140,229,260260,2,0,L|131:304,3,52.5,4|4|4|4,0:0|0:0|0:0|0:0,0:0:0:0:
206,279,260546,2,0,L|197:354,3,52.5,4|8|8|8,0:0|0:0|0:0|0:0,0:0:0:0:
272,329,260832,2,0,L|263:404,3,52.5,4|4|4|4,0:0|0:0|0:0|0:0,0:0:0:0:
339,373,261117,5,10,0:0:0:0:
368,347,261188,1,4,0:0:0:0:
389,315,261259,1,2,0:0:0:0:
396,278,261331,1,4,0:0:0:0:
391,239,261402,1,10,0:0:0:0:
372,206,261474,1,4,0:0:0:0:
344,180,261545,1,2,0:0:0:0:
307,166,261617,1,4,0:0:0:0:
269,166,261688,1,10,0:0:0:0:
232,180,261759,1,4,0:0:0:0:
203,205,261832,1,2,0:0:0:0:
169,223,261903,1,4,0:0:0:0:
131,225,261974,1,10,0:0:0:0:
95,211,262046,1,4,0:0:0:0:
71,182,262117,1,2,0:0:0:0:
63,144,262189,1,4,0:0:0:0:
71,106,262260,5,10,0:0:0:0:
96,78,262332,1,4,0:0:0:0:
132,63,262403,1,2,0:0:0:0:
171,65,262474,1,4,0:0:0:0:
203,86,262546,1,10,0:0:0:0:
230,113,262617,1,4,0:0:0:0:
252,144,262688,1,2,0:0:0:0:
264,182,262760,1,4,0:0:0:0:
268,220,262831,1,10,0:0:0:0:
262,258,262903,1,4,0:0:0:0:
248,294,262974,1,2,0:0:0:0:
225,326,263046,1,4,0:0:0:0:
196,351,263117,1,10,0:0:0:0:
162,368,263188,1,4,0:0:0:0:
124,379,263260,1,2,0:0:0:0:
85,384,263331,1,4,0:0:0:0:
48,379,263403,5,10,0:0:0:0:
33,338,263474,1,4,0:0:0:0:
30,296,263545,1,2,0:0:0:0:
40,255,263617,1,4,0:0:0:0:
61,219,263688,1,10,0:0:0:0:
90,190,263760,1,4,0:0:0:0:
128,171,263832,1,2,0:0:0:0:
169,163,263903,1,4,0:0:0:0:
211,168,263974,1,10,0:0:0:0:
251,186,264045,1,4,0:0:0:0:
282,213,264117,1,2,0:0:0:0:
308,244,264189,1,4,0:0:0:0:
348,261,264260,1,10,0:0:0:0:
389,258,264332,1,4,0:0:0:0:
424,237,264403,1,2,0:0:0:0:
447,201,264475,1,4,0:0:0:0:
450,159,264546,5,10,0:0:0:0:
441,125,264617,1,4,0:0:0:0:
421,97,264688,1,2,0:0:0:0:
394,76,264760,1,4,0:0:0:0:
361,63,264831,1,10,0:0:0:0:
327,62,264903,1,4,0:0:0:0:
294,72,264974,1,2,0:0:0:0:
265,92,265046,1,4,0:0:0:0:
245,119,265117,1,10,0:0:0:0:
232,150,265188,1,4,0:0:0:0:
232,186,265260,1,2,0:0:0:0:
242,218,265331,1,4,0:0:0:0:
262,246,265403,1,10,0:0:0:0:
289,267,265474,1,4,0:0:0:0:
322,279,265546,1,2,0:0:0:0:
357,280,265617,1,4,0:0:0:0:
390,268,265689,5,10,0:0:0:0:
364,304,265760,1,4,0:0:0:0:
328,331,265831,1,2,0:0:0:0:
287,346,265903,1,4,0:0:0:0:
244,350,265974,1,10,0:0:0:0:
200,340,266046,1,4,0:0:0:0:
161,319,266117,1,2,0:0:0:0:
130,288,266189,1,4,0:0:0:0:
109,248,266260,1,10,0:0:0:0:
101,206,266332,1,4,0:0:0:0:
105,161,266403,1,2,0:0:0:0:
113,118,266474,1,4,0:0:0:0:
139,81,266546,1,10,0:0:0:0:
176,58,266617,1,4,0:0:0:0:
219,52,266689,1,2,0:0:0:0:
262,63,266760,1,4,0:0:0:0:
296,92,266832,5,10,0:0:0:0:
317,129,266903,1,4,0:0:0:0:
320,174,266974,1,2,0:0:0:0:
305,215,267046,1,4,0:0:0:0:
285,254,267117,1,10,0:0:0:0:
282,297,267188,1,4,0:0:0:0:
299,338,267260,1,2,0:0:0:0:
329,368,267331,1,4,0:0:0:0:
372,384,267403,1,10,0:0:0:0:
415,381,267474,1,4,0:0:0:0:
454,359,267546,1,2,0:0:0:0:
480,325,267617,1,4,0:0:0:0:
490,282,267689,1,10,0:0:0:0:
481,239,267760,1,4,0:0:0:0:
465,198,267832,1,2,0:0:0:0:
467,153,267903,1,4,0:0:0:0:
486,116,267974,5,10,0:0:0:0:
453,71,268046,1,4,0:0:0:0:
407,39,268117,1,2,0:0:0:0:
355,25,268189,1,4,0:0:0:0:
300,28,268260,1,10,0:0:0:0:
250,51,268332,1,4,0:0:0:0:
209,89,268403,1,2,0:0:0:0:
184,138,268474,1,4,0:0:0:0:
177,193,268546,1,10,0:0:0:0:
188,246,268617,1,4,0:0:0:0:
216,293,268689,1,2,0:0:0:0:
256,332,268760,1,4,0:0:0:0:
307,350,268832,1,10,0:0:0:0:
363,345,268903,1,4,0:0:0:0:
409,318,268974,1,2,0:0:0:0:
442,273,269046,1,4,0:0:0:0:
452,219,269117,5,10,0:0:0:0:
405,189,269189,1,4,0:0:0:0:
358,159,269260,1,2,0:0:0:0:
311,128,269332,1,4,0:0:0:0:
264,98,269403,1,10,0:0:0:0:
215,128,269474,1,4,0:0:0:0:
169,159,269546,1,2,0:0:0:0:
121,189,269617,1,4,0:0:0:0:
73,219,269689,2,0,L|64:287,3,62.9999980773926,10|4|2|4,0:0|0:0|0:0|0:0,0:0:0:0:
130,297,269974,5,8,0:0:0:0:
197,312,270045,1,8,0:0:0:0:
264,326,270117,1,4,0:0:0:0:
330,340,270189,1,0,0:0:0:0:
397,354,270260,6,0,B|473:303|473:303|481:248,1,146.999995513916,6|8,0:0|0:0,0:0:0:0:
192,93,270546,2,0,B|116:143|116:143|108:198,1,146.999995513916,6|8,0:0|0:0,0:0:0:0:
474,112,270832,1,6,0:0:0:0:
474,112,270903,1,4,0:0:0:0:
474,112,270974,1,8,0:0:0:0:
177,268,271117,1,6,0:0:0:0:
301,44,271260,1,8,0:0:0:0:
107,198,271403,5,6,0:0:0:0:
404,43,271546,1,8,0:0:0:0:
356,335,271689,1,6,0:0:0:0:
199,45,271832,1,8,0:0:0:0:
247,337,271975,1,6,0:0:0:0:
474,112,272117,1,8,0:0:0:0:
153,121,272260,1,6,0:0:0:0:
415,223,272403,1,8,0:0:0:0:
36,362,272546,6,0,B|17:255|17:255|42:195,1,146.999995513916,6|8,0:0|0:0,0:0:0:0:
271,131,272831,1,6,0:0:0:0:
356,335,272974,1,8,0:0:0:0:
92,170,273117,1,6,0:0:0:0:
92,170,273189,1,4,0:0:0:0:
92,170,273260,1,8,0:0:0:0:
404,107,273403,1,6,0:0:0:0:
318,344,273546,1,8,0:0:0:0:
295,26,273689,5,6,0:0:0:0:
195,149,273832,1,8,0:0:0:0:
375,185,273974,1,6,0:0:0:0:
243,287,274117,1,8,0:0:0:0:
301,128,274260,1,6,0:0:0:0:
347,266,274403,1,8,0:0:0:0:
167,227,274546,1,6,0:0:0:0:
167,227,274617,1,4,0:0:0:0:
167,227,274689,1,8,0:0:0:0:
474,30,274832,6,0,B|493:137|493:137|468:197,1,146.999995513916,6|8,0:0|0:0,0:0:0:0:
196,32,275117,1,6,0:0:0:0:
321,283,275260,1,8,0:0:0:0:
358,31,275403,1,6,0:0:0:0:
358,31,275474,1,4,0:0:0:0:
358,31,275546,1,8,0:0:0:0:
140,121,275689,1,6,0:0:0:0:
358,252,275832,1,8,0:0:0:0:
151,20,275974,5,6,0:0:0:0:
486,143,276117,1,8,0:0:0:0:
228,180,276260,1,6,0:0:0:0:
473,278,276403,1,8,0:0:0:0:
257,27,276546,1,6,0:0:0:0:
196,331,276689,1,8,0:0:0:0:
372,85,276832,1,6,0:0:0:0:
492,350,276974,1,8,0:0:0:0:
130,280,277117,6,0,B|64:288|20:223|0:115|147:71|196:118|228:195|194:246|194:246|125:56|125:56|200:63|242:99|267:153,1,748.124980022908,6|0,0:0|0:0,0:0:0:0:
276,184,278260,1,6,0:0:0:0:
363,185,278546,1,0,2:3:0:0:
389,104,278832,2,0,P|425:123|442:157,3,78.7500030040742,0|0|0|0,2:3|2:3|2:3|2:3,0:0:0:0:
279,314,279403,5,6,0:0:0:0:
75,138,279546,1,4,0:0:0:0:
128,312,279689,2,0,P|184:346|264:319,1,136.499993751526,10|0,0:0|0:0,0:0:0:0:
226,140,279974,2,0,P|170:106|90:133,1,136.499993751526,10|0,0:0|0:0,0:0:0:0:
221,314,280260,5,6,0:0:0:0:
425,138,280403,1,4,0:0:0:0:
372,312,280546,2,0,P|316:346|236:319,1,136.499993751526,10|0,0:0|0:0,0:0:0:0:
274,140,280831,2,0,P|330:106|410:133,1,136.499993751526,10|4,0:0|0:0,0:0:0:0:
400,295,281117,5,6,0:0:0:0:
268,87,281260,2,0,L|275:150,1,52.5,4|0,0:0|2:0,0:0:0:0:
455,223,281403,1,8,0:0:0:0:
237,235,281546,1,8,0:0:0:0:
455,71,281689,6,0,L|462:134,3,41.9999987182618,6|4|2|0,0:0|0:0|0:0|2:0,0:0:0:0:
397,237,281974,2,0,L|381:101,1,136.499993751526,4|4,0:0|0:0,0:0:0:0:
207,25,282260,1,8,0:0:0:0:
205,48,282332,1,8,0:0:0:0:
202,71,282403,2,0,L|194:134,1,57.7500017623902,4|0,0:0|0:0,0:0:0:0:
260,237,282546,2,0,L|275:101,1,136.499993751526,4|0,0:0|0:0,0:0:0:0:
455,71,282832,5,6,0:0:0:0:
464,153,283117,1,0,2:3:0:0:
473,235,283403,2,0,P|432:231|403:207,3,78.7500030040742,0|0|0|0,2:3|2:3|2:3|2:3,0:0:0:0:
65,88,283974,5,6,0:0:0:0:
288,283,284117,1,4,0:0:0:0:
228,80,284260,2,0,B|185:67|154:79|154:79|119:88|91:76,1,136.499993751526,10|0,0:0|0:0,0:0:0:0:
125,291,284546,2,0,B|168:304|199:292|199:292|234:283|261:294,1,136.499993751526,10|0,0:0|0:0,0:0:0:0:
453,87,284832,5,6,0:0:0:0:
230,282,284975,1,4,0:0:0:0:
290,79,285118,2,0,B|333:66|364:78|364:78|399:87|426:75,1,136.499993751526,10|0,0:0|0:0,0:0:0:0:
393,290,285404,2,0,B|350:303|319:291|319:291|284:282|256:293,1,136.499993751526,10|4,0:0|0:0,0:0:0:0:
57,110,285689,5,6,0:0:0:0:
265,99,285832,2,0,L|194:121,1,57.7500017623902,4|0,0:0|2:0,0:0:0:0:
56,226,285974,1,8,0:0:0:0:
158,52,286117,1,8,0:0:0:0:
195,270,286260,2,0,L|260:249,3,41.9999987182618,6|4|2|0,0:0|0:0|0:0|2:0,0:0:0:0:
324,156,286546,2,0,L|201:194,1,105,8|4,0:0|0:0,0:0:0:0:
248,328,286832,2,0,L|370:289,1,105,8|4,0:0|0:0,0:0:0:0:
211,117,287117,2,0,L|88:155,1,105,8|4,0:0|0:0,0:0:0:0:
54,350,287403,5,6,0:0:0:0:
148,301,287689,1,0,2:3:0:0:
242,252,287974,2,0,P|254:289|248:328,2,78.7500030040742,0|0|0,2:3|2:3|2:3,0:0:0:0:
423,56,288546,5,6,0:0:0:0:
168,175,288689,1,4,0:0:0:0:
270,15,288832,2,0,L|405:26,1,136.499993751526,10|0,0:0|0:0,0:0:0:0:
320,215,289117,2,0,L|184:203,1,136.499993751526,10|0,0:0|0:0,0:0:0:0:
96,45,289403,5,6,0:0:0:0:
340,178,289546,1,4,0:0:0:0:
242,15,289689,2,0,L|106:26,1,136.499993751526,10|0,0:0|0:0,0:0:0:0:
194,207,289974,2,0,L|329:195,1,136.499993751526,10|4,0:0|0:0,0:0:0:0:
447,306,290260,5,6,0:0:0:0:
208,359,290403,2,0,L|275:353,1,68.2499968757631,4|0,0:0|2:0,0:0:0:0:
506,362,290546,1,8,0:0:0:0:
194,285,290689,1,8,0:0:0:0:
392,233,290832,2,0,B|402:190,3,41.9999987182618,6|4|2|0,0:0|0:0|0:0|2:0,0:0:0:0:
468,99,291117,2,0,B|477:180|477:180|470:214,1,115.50000352478,8|4,0:0|0:0,0:0:0:0:
194,207,291403,1,8,0:0:0:0:
190,190,291474,1,8,0:0:0:0:
186,173,291546,2,0,B|177:135|177:135|181:96,1,57.7500017623902,4|0,0:0|0:0,0:0:0:0:
114,56,291689,2,0,B|105:137|105:137|112:171,1,115.50000352478,8|4,0:0|0:0,0:0:0:0:
257,327,291974,6,0,B|304:362|304:362|275:323|275:323|266:257,1,157.500006008148,6|0,0:0|0:0,0:0:0:0:
465,141,292546,1,6,0:0:0:0:
356,286,292832,1,6,0:0:0:0:
449,178,293117,5,6,0:0:0:0:
326,362,293260,1,0,0:0:0:0:
297,160,293403,2,0,L|460:226,1,146.999995513916,10|4,0:0|0:0,0:0:0:0:
478,380,293689,2,0,L|315:314,1,146.999995513916,10|4,0:0|0:0,0:0:0:0:
279,295,293879,1,4,0:0:0:0:
279,295,293927,1,4,0:0:0:0:
279,295,293974,6,0,P|235:273|216:243,2,83.9999974365235,4|8|10,0:0|0:0|0:0,0:0:0:0:
292,215,294260,2,0,P|333:187|368:186,2,83.9999974365235,8|8|4,0:0|0:0|0:0,0:0:0:0:
354,266,294546,2,0,P|356:315|340:346,2,83.9999974365235,4|4|8,0:0|0:0|0:0,0:0:0:0:
258,351,294832,5,6,0:0:0:0:
379,117,294974,1,10,0:0:0:0:
386,273,295117,1,4,0:0:0:0:
386,273,295189,1,0,0:0:0:0:
386,273,295260,1,10,0:0:0:0:
247,60,295403,5,4,0:0:0:0:
270,319,295546,1,10,0:0:0:0:
393,91,295689,1,4,0:0:0:0:
400,299,295832,1,10,0:0:0:0:
259,92,295974,5,4,0:0:0:0:
116,281,296117,1,10,0:0:0:0:
271,124,296260,1,4,0:0:0:0:
99,249,296403,1,10,0:0:0:0:
293,303,296546,5,4,0:0:0:0:
293,303,296618,1,0,0:0:0:0:
293,303,296689,1,10,0:0:0:0:
125,73,296832,2,0,P|182:40|246:59,1,136.499993751526,4|10,0:0|0:0,0:0:0:0:
281,271,297117,5,4,0:0:0:0:
459,77,297260,1,10,0:0:0:0:
418,264,297403,1,4,0:0:0:0:
418,264,297474,1,0,0:0:0:0:
418,264,297546,1,10,0:0:0:0:
327,5,297689,5,4,0:0:0:0:
290,244,297831,1,10,0:0:0:0:
471,57,297974,1,4,0:0:0:0:
429,284,298117,1,10,0:0:0:0:
336,33,298260,5,4,0:0:0:0:
75,130,298403,1,10,0:0:0:0:
362,198,298546,1,4,0:0:0:0:
213,18,298689,1,10,0:0:0:0:
244,265,298832,5,4,0:0:0:0:
244,265,298903,1,0,0:0:0:0:
244,265,298974,1,10,0:0:0:0:
130,52,299117,2,0,L|85:189,1,138.599999577026,4|10,0:0|0:0,0:0:0:0:
388,325,299403,5,6,0:0:0:0:
174,217,299546,1,10,0:0:0:0:
423,216,299689,1,4,0:0:0:0:
423,216,299760,1,0,0:0:0:0:
423,216,299832,1,10,0:0:0:0:
174,269,299974,5,4,0:0:0:0:
453,184,300117,1,10,0:0:0:0:
174,179,300260,1,4,0:0:0:0:
418,357,300403,1,10,0:0:0:0:
174,308,300546,5,4,0:0:0:0:
318,113,300689,1,10,0:0:0:0:
86,187,300832,1,4,0:0:0:0:
318,263,300974,1,10,0:0:0:0:
176,64,301117,5,4,0:0:0:0:
176,64,301189,1,0,0:0:0:0:
176,64,301260,1,10,0:0:0:0:
422,209,301403,2,0,P|421:144|351:86,1,146.999995513916,4|10,0:0|0:0,0:0:0:0:
149,340,301689,6,0,B|111:331|64:306|73:230|73:230|114:254|195:239|199:154,1,293.999991027832,6|4,0:0|0:0,0:0:0:0:
115,157,302046,1,0,0:0:0:0:
115,157,302117,1,10,0:0:0:0:
244,354,302260,2,0,P|309:353|367:283,1,146.999995513916,4|10,0:0|0:0,0:0:0:0:
136,81,302546,1,4,0:0:0:0:
277,269,302689,1,10,0:0:0:0:
195,26,302832,6,0,P|68:39|115:157,1,293.999991027832,6|4,0:0|0:0,0:0:0:0:
377,84,303260,1,10,0:0:0:0:
196,213,303403,1,6,0:0:0:0:
398,177,303546,1,8,0:0:0:0:
286,55,303689,1,4,0:0:0:0:
185,292,303832,1,8,0:0:0:0:
185,292,303903,1,8,0:0:0:0:
185,292,303974,6,0,B|140:287|103:237|121:187|121:187|94:173|94:173|114:109|31:60,1,293.999991027832,6|4,0:0|0:0,0:0:0:0:
39,65,304332,1,4,0:0:0:0:
32,61,304403,1,10,0:0:0:0:
196,213,304546,1,4,0:0:0:0:
159,54,304689,1,10,0:0:0:0:
317,234,304832,1,4,0:0:0:0:
85,281,304974,1,10,0:0:0:0:
342,133,305117,5,4,0:0:0:0:
206,302,305260,1,10,0:0:0:0:
263,64,305403,1,4,0:0:0:0:
342,335,305546,1,10,0:0:0:0:
430,141,305689,5,4,0:0:0:0:
430,141,305760,1,0,0:0:0:0:
430,141,305832,1,10,0:0:0:0:
149,370,305974,2,0,P|120:276|174:218,1,146.999995513916,4|10,0:0|0:0,0:0:0:0:
398,222,306260,5,4,0:0:0:0:
166,157,306403,1,10,0:0:0:0:
312,357,306546,1,4,0:0:0:0:
312,357,306617,1,4,0:0:0:0:
312,357,306689,1,10,0:0:0:0:
408,141,306832,1,4,0:0:0:0:
206,302,306974,1,10,0:0:0:0:
318,81,307117,1,4,0:0:0:0:
365,296,307260,1,10,0:0:0:0:
96,45,307403,5,4,0:0:0:0:
333,152,307546,1,10,0:0:0:0:
92,338,307689,1,4,0:0:0:0:
207,63,307832,1,10,0:0:0:0:
283,241,307974,6,0,B|407:214|407:214|420:184,1,146.999995513916,4|10,0:0|0:0,0:0:0:0:
96,45,308260,2,0,B|103:27|103:27|227:0,1,146.999995513916,4|10,0:0|0:0,0:0:0:0:
464,106,308546,6,0,B|456:125|456:125|332:152,1,146.999995513916,6|10,0:0|0:0,0:0:0:0:
79,136,308832,1,4,0:0:0:0:
79,136,308903,1,4,0:0:0:0:
79,136,308974,1,10,0:0:0:0:
224,285,309117,5,4,0:0:0:0:
279,75,309260,1,10,0:0:0:0:
27,206,309403,1,4,0:0:0:0:
201,186,309546,1,10,0:0:0:0:
10,345,309689,5,6,0:0:0:0:
299,215,309832,1,10,0:0:0:0:
27,206,309974,1,4,0:0:0:0:
149,355,310117,1,10,0:0:0:0:
84,87,310260,5,4,0:0:0:0:
84,87,310332,1,0,0:0:0:0:
84,87,310403,1,10,0:0:0:0:
224,285,310546,2,0,B|219:238|219:238|198:175|198:175|193:120,1,146.999995513916,6|8,0:0|0:0,0:0:0:0:
196,128,310760,1,0,0:0:0:0:
198,114,310832,5,8,0:0:0:0:
297,70,310974,1,8,0:0:0:0:
295,84,311046,1,8,0:0:0:0:
293,98,311117,2,0,B|296:132|296:132|317:195|317:195|322:242,1,146.999995513916,6|6,0:0|0:0,0:0:0:0:
399,352,311403,1,8,0:0:0:0:
401,338,311475,1,8,0:0:0:0:
403,324,311546,1,8,0:0:0:0:
420,199,311689,2,0,B|415:152|415:152|394:89|394:89|391:55,1,146.999995513916,6|6,0:0|0:0,0:0:0:0:
133,40,311974,5,6,0:0:0:0:
322,142,312260,2,0,P|287:156|258:131,5,78.7500030040742,0|0|0|0|0|0,2:3|2:3|2:3|2:3|2:3|2:3,0:0:0:0:
133,40,313117,6,0,P|47:108|95:176,2,188.999994232178,6|0|0,0:0|0:0|0:0,0:0:0:0:
119,110,314260,2,0,B|57:83|57:83|28:17|28:17|26:83,2,188.999994232178,2|0|0,0:0|0:0|0:0,0:0:0:0:
194,67,315403,2,0,B|96:23|96:23|15:72,2,188.999994232178,2|0|0,0:0|0:0|0:0,0:0:0:0:
72,163,316546,1,2,0:0:0:0:
393,75,317117,2,0,B|401:111|437:132|437:132|457:182|397:228,1,157.500006008148,2|2,0:0|0:0,0:0:0:0:
227,173,317689,6,0,B|241:266|241:266|244:210|274:193|315:183,2,188.999994232178,6|0|0,0:0|0:0|0:0,0:0:0:0:
318,262,318832,2,0,P|278:333|176:308,2,188.999994232178,2|0|0,0:0|0:0|0:0,0:0:0:0:
67,229,319974,2,0,B|196:226|196:226|240:265,2,188.999994232178,2|0|0,0:0|0:0|0:0,0:0:0:0:
183,317,321117,1,2,0:0:0:0:
256,192,322260,6,0,B|222:158|222:158|289:135|289:135|357:203,2,188.999994232178,6|0|0,0:0|0:0|0:0,0:0:0:0:
257,304,323403,2,0,B|284:348|284:348|187:251,2,188.999994232178,2|0|0,0:0|0:0|0:0,0:0:0:0:
121,286,324546,2,0,P|136:195|224:184,2,188.999994232178,2|0|0,0:0|0:0|0:0,0:0:0:0:
338,184,325689,1,2,0:0:0:0:
212,195,326260,2,0,B|187:322|187:322|207:297,1,157.500006008148,2|2,0:0|0:0,0:0:0:0:
426,262,326832,2,0,B|434:301|398:348|398:348|434:301|506:288,2,188.999994232178,6|0|0,0:0|0:0|0:0,0:0:0:0:
150,127,327974,5,6,0:0:0:0:
88,261,329117,6,0,P|64:142|182:159,1,236.250009012223,10|0,0:0|0:0,0:0:0:0:
116,193,329403,1,10,0:0:0:0:
87,166,329474,1,4,0:0:0:0:
76,129,329545,1,2,0:0:0:0:
85,91,329617,1,4,0:0:0:0:
112,63,329688,1,10,0:0:0:0:
149,53,329760,1,4,0:0:0:0:
187,63,329831,1,2,0:0:0:0:
214,91,329903,1,4,0:0:0:0:
223,128,329974,1,10,0:0:0:0:
220,167,330045,1,4,0:0:0:0:
230,205,330116,1,2,0:0:0:0:
249,239,330188,1,4,0:0:0:0:
278,265,330260,5,10,0:0:0:0:
249,293,330331,1,4,0:0:0:0:
214,309,330402,1,2,0:0:0:0:
175,314,330474,1,4,0:0:0:0:
137,306,330545,1,10,0:0:0:0:
103,286,330617,1,4,0:0:0:0:
77,257,330688,1,2,0:0:0:0:
62,221,330760,1,4,0:0:0:0:
59,182,330832,1,10,0:0:0:0:
62,143,330903,1,4,0:0:0:0:
76,106,330974,1,2,0:0:0:0:
101,76,331046,1,4,0:0:0:0:
134,55,331117,1,10,0:0:0:0:
172,45,331189,1,4,0:0:0:0:
211,47,331260,1,2,0:0:0:0:
248,61,331332,1,4,0:0:0:0:
278,85,331403,5,10,0:0:0:0:
244,107,331474,1,4,0:0:0:0:
229,142,331545,1,2,0:0:0:0:
236,180,331617,1,4,0:0:0:0:
262,209,331688,1,10,0:0:0:0:
301,218,331760,1,4,0:0:0:0:
337,206,331831,1,2,0:0:0:0:
362,175,331903,1,4,0:0:0:0:
365,137,331974,1,10,0:0:0:0:
368,99,332045,1,4,0:0:0:0:
393,68,332116,1,2,0:0:0:0:
429,56,332188,1,4,0:0:0:0:
467,66,332259,1,10,0:0:0:0:
493,93,332331,1,4,0:0:0:0:
500,132,332402,1,2,0:0:0:0:
485,169,332474,1,4,0:0:0:0:
453,190,332546,5,10,0:0:0:0:
434,144,332617,1,4,0:0:0:0:
403,107,332688,1,2,0:0:0:0:
360,82,332760,1,4,0:0:0:0:
312,73,332831,1,10,0:0:0:0:
264,79,332903,1,4,0:0:0:0:
220,102,332974,1,2,0:0:0:0:
186,137,333046,1,4,0:0:0:0:
165,181,333117,1,10,0:0:0:0:
165,229,333188,1,4,0:0:0:0:
191,270,333259,1,2,0:0:0:0:
235,292,333331,1,4,0:0:0:0:
283,288,333402,1,10,0:0:0:0:
322,260,333474,1,4,0:0:0:0:
342,215,333545,1,10,0:0:0:0:
335,167,333617,1,4,0:0:0:0:
304,130,333688,5,6,0:0:0:0:
88,35,333832,1,8,0:0:0:0:
252,203,333975,1,4,0:0:0:0:
232,224,334046,1,4,0:0:0:0:
205,236,334117,1,10,0:0:0:0:
213,18,334260,1,4,0:0:0:0:
176,240,334404,1,10,0:0:0:0:
147,231,334475,1,4,0:0:0:0:
124,212,334547,1,4,0:0:0:0:
109,185,334618,1,4,0:0:0:0:
107,156,334689,1,10,0:0:0:0:
339,2,334832,5,4,0:0:0:0:
188,158,334974,1,10,0:0:0:0:
465,219,335117,1,4,0:0:0:0:
445,240,335188,1,4,0:0:0:0:
418,252,335259,1,10,0:0:0:0:
267,84,335403,1,4,0:0:0:0:
291,314,335546,1,10,0:0:0:0:
463,64,335689,1,4,0:0:0:0:
443,43,335760,1,4,0:0:0:0:
416,31,335831,1,10,0:0:0:0:
124,235,335974,5,8,0:0:0:0:
376,142,336117,1,4,0:0:0:0:
164,376,336260,1,10,0:0:0:0:
84,94,336403,1,4,0:0:0:0:
104,73,336474,1,4,0:0:0:0:
131,61,336545,1,8,0:0:0:0:
270,259,336689,5,4,0:0:0:0:
301,282,336760,1,4,0:0:0:0:
339,287,336831,1,4,0:0:0:0:
375,272,336903,1,4,0:0:0:0:
399,241,336974,1,12,0:0:0:0:
404,203,337046,1,4,0:0:0:0:
390,167,337117,1,4,0:0:0:0:
359,142,337189,1,4,0:0:0:0:
321,137,337260,1,4,0:0:0:0:
282,131,337332,1,4,0:0:0:0:
251,107,337403,1,6,0:0:0:0:
237,71,337475,1,4,0:0:0:0:
242,32,337546,1,4,0:0:0:0:
266,1,337618,1,4,0:0:0:0:
302,0,337689,5,10,0:0:0:0:
330,212,337832,1,4,0:0:0:0:
184,164,337974,1,8,0:0:0:0:
51,239,338117,1,4,0:0:0:0:
311,298,338260,5,6,0:0:0:0:
325,41,338403,1,10,0:0:0:0:
65,184,338546,1,4,0:0:0:0:
53,209,338617,1,4,0:0:0:0:
51,239,338688,1,10,0:0:0:0:
306,127,338832,1,4,0:0:0:0:
57,268,338975,1,10,0:0:0:0:
75,292,339046,1,4,0:0:0:0:
101,307,339118,1,4,0:0:0:0:
131,312,339189,1,4,0:0:0:0:
159,304,339260,1,10,0:0:0:0:
357,173,339403,5,4,0:0:0:0:
130,228,339545,1,10,0:0:0:0:
325,41,339689,1,4,0:0:0:0:
389,304,339832,1,10,0:0:0:0:
228,134,339974,1,4,0:0:0:0:
259,266,340117,1,10,0:0:0:0:
111,60,340260,1,4,0:0:0:0:
85,69,340331,1,4,0:0:0:0:
63,88,340402,1,10,0:0:0:0:
29,308,340546,5,4,0:0:0:0:
193,61,340689,1,10,0:0:0:0:
336,281,340832,1,4,0:0:0:0:
327,307,340903,1,4,0:0:0:0:
308,329,340974,1,10,0:0:0:0:
124,138,341117,1,4,0:0:0:0:
283,346,341261,1,10,0:0:0:0:
253,350,341332,1,4,0:0:0:0:
224,342,341404,1,4,0:0:0:0:
199,324,341475,1,4,0:0:0:0:
185,299,341546,1,10,0:0:0:0:
193,61,341689,5,4,0:0:0:0:
259,266,341831,1,10,0:0:0:0:
341,8,341975,1,4,0:0:0:0:
367,17,342046,1,4,0:0:0:0:
389,36,342117,1,10,0:0:0:0:
82,142,342260,1,4,0:0:0:0:
351,216,342403,1,10,0:0:0:0:
97,64,342546,1,4,0:0:0:0:
92,90,342617,1,4,0:0:0:0:
87,116,342689,1,10,0:0:0:0:
41,343,342832,5,6,0:0:0:0:
81,340,342903,1,4,0:0:0:0:
120,338,342974,1,4,0:0:0:0:
159,335,343046,1,4,0:0:0:0:
199,333,343117,1,4,0:0:0:0:
238,330,343189,1,4,0:0:0:0:
277,328,343260,1,4,0:0:0:0:
317,326,343332,1,4,0:0:0:0:
356,323,343403,2,0,B|313:378|313:378|54:386,1,315.000012016297,10|0,0:0|0:0,0:0:0:0:
149,208,343974,5,4,0:0:0:0:
149,208,344046,1,4,0:0:0:0:
149,208,344117,2,0,P|158:166|193:131,1,62.9999980773926,4|8,0:0|0:0,0:0:0:0:
418,248,344403,1,4,0:0:0:0:
418,248,344474,1,4,0:0:0:0:
418,248,344546,1,10,0:0:0:0:
276,206,344689,1,4,0:0:0:0:
276,206,344761,1,4,0:0:0:0:
276,206,344832,2,0,P|285:248|320:283,1,62.9999980773926,4|0,0:0|0:0,0:0:0:0:
446,109,344974,1,4,0:0:0:0:
446,109,345046,1,4,0:0:0:0:
446,109,345117,6,0,B|505:145|487:220|414:247|375:195|375:195|445:182|406:302,1,293.999991027832,6|10,0:0|0:0,0:0:0:0:
62,45,345689,1,4,0:0:0:0:
18,225,345832,1,4,0:0:0:0:
175,77,345974,2,0,P|263:129|141:154,1,293.999991027832,10|4,0:0|0:0,0:0:0:0:
344,349,346546,1,10,0:0:0:0:
389,162,346689,2,0,B|306:145|303:68|303:68|251:67|251:67|233:-1|164:1,1,293.999991027832,4|4,0:0|0:0,0:0:0:0:
393,69,347117,1,10,0:0:0:0:
137,363,347403,6,0,B|59:343|59:343|84:280|84:280|130:252|130:252|90:169,1,293.999991027832,4|10,0:0|0:0,0:0:0:0:
285,300,347832,2,0,B|214:292|214:292|182:303|182:303|214:274|203:230|203:230|150:123,1,293.999991027832,0|4,0:0|0:0,0:0:0:0:
182,303,348260,1,10,0:0:0:0:
449,205,348546,2,0,B|425:137|425:137|436:73|436:73|376:20|376:20|357:136,1,293.999991027832,0|10,0:0|0:0,0:0:0:0:
350,339,348974,1,4,0:0:0:0:
243,251,349117,1,0,0:0:0:0:
128,171,349260,1,4,0:0:0:0:
128,171,349332,1,4,0:0:0:0:
128,171,349403,2,0,P|157:100|259:137,1,146.999995513916,10|0,0:0|0:0,0:0:0:0:
328,283,349689,6,0,B|350:338|350:338|359:227|359:227|436:123,1,293.999991027832,4|10,0:0|0:0,0:0:0:0:
196,158,350117,1,0,0:0:0:0:
276,90,350260,1,4,0:0:0:0:
117,225,350403,1,4,0:0:0:0:
178,54,350546,2,0,P|107:65|74:129,1,146.999995513916,10|0,0:0|0:0,0:0:0:0:
343,225,350832,2,0,P|381:327|303:232,1,293.999991027832,4|10,0:0|0:0,0:0:0:0:
372,41,351260,2,0,B|430:94|396:169|396:169|456:199|484:268|458:353,1,293.999991027832,4|4,0:0|0:0,0:0:0:0:
319,117,351689,1,10,0:0:0:0:
36,182,351974,6,0,P|86:297|177:212,1,293.999991027832,4|10,0:0|0:0,0:0:0:0:
336,42,352403,2,0,P|383:159|258:163,1,293.999991027832,0|4,0:0|0:0,0:0:0:0:
102,223,352832,1,10,0:0:0:0:
425,270,353117,2,0,L|379:371,1,105,6|0,0:0|0:0,0:0:0:0:
306,167,353403,2,0,L|278:275,1,105,0|4,0:0|0:0,0:0:0:0:
68,24,353689,2,0,L|55:175,1,146.999995513916,8|4,0:0|0:0,0:0:0:0:
132,339,353974,2,0,L|186:134,1,146.999995513916,4|4,0:0|0:0,0:0:0:0:
361,33,354260,5,10,0:0:0:0:
404,32,354331,1,4,0:0:0:0:
443,48,354402,1,2,0:0:0:0:
473,79,354474,1,4,0:0:0:0:
486,119,354545,1,10,0:0:0:0:
483,162,354617,1,4,0:0:0:0:
462,199,354688,1,2,0:0:0:0:
428,225,354760,1,4,0:0:0:0:
386,234,354831,1,10,0:0:0:0:
344,225,354902,1,4,0:0:0:0:
310,200,354974,1,2,0:0:0:0:
288,163,355045,1,4,0:0:0:0:
276,122,355117,1,10,0:0:0:0:
248,90,355188,1,4,0:0:0:0:
209,71,355260,1,2,0:0:0:0:
167,70,355331,1,4,0:0:0:0:
127,85,355403,5,10,0:0:0:0:
160,112,355474,1,4,0:0:0:0:
175,152,355545,1,2,0:0:0:0:
169,194,355617,1,4,0:0:0:0:
143,228,355688,1,10,0:0:0:0:
104,245,355760,1,4,0:0:0:0:
62,241,355831,1,2,0:0:0:0:
27,217,355903,1,4,0:0:0:0:
8,179,355974,1,10,0:0:0:0:
9,137,356045,1,4,0:0:0:0:
31,100,356117,1,2,0:0:0:0:
68,79,356189,1,4,0:0:0:0:
107,63,356260,1,10,0:0:0:0:
150,59,356331,1,4,0:0:0:0:
191,69,356403,1,2,0:0:0:0:
228,91,356474,1,4,0:0:0:0:
256,123,356546,5,10,0:0:0:0:
266,82,356617,1,4,0:0:0:0:
291,48,356688,1,2,0:0:0:0:
328,27,356760,1,4,0:0:0:0:
371,23,356831,1,10,0:0:0:0:
411,37,356903,1,4,0:0:0:0:
442,67,356974,1,2,0:0:0:0:
458,106,357046,1,4,0:0:0:0:
457,149,357117,1,10,0:0:0:0:
439,187,357188,1,4,0:0:0:0:
406,215,357260,1,2,0:0:0:0:
365,226,357332,1,4,0:0:0:0:
322,225,357403,1,10,0:0:0:0:
281,213,357474,1,4,0:0:0:0:
245,190,357546,1,2,0:0:0:0:
216,158,357617,1,4,0:0:0:0:
194,122,357689,5,10,0:0:0:0:
225,86,357760,1,4,0:0:0:0:
265,62,357831,1,2,0:0:0:0:
311,52,357903,1,4,0:0:0:0:
356,58,357974,1,10,0:0:0:0:
398,79,358046,1,4,0:0:0:0:
431,109,358117,1,2,0:0:0:0:
452,152,358189,1,4,0:0:0:0:
458,197,358260,1,10,0:0:0:0:
449,242,358331,1,4,0:0:0:0:
428,283,358403,1,2,0:0:0:0:
392,314,358474,1,4,0:0:0:0:
352,331,358546,1,10,0:0:0:0:
308,336,358618,1,4,0:0:0:0:
264,325,358689,1,2,0:0:0:0:
224,301,358760,1,4,0:0:0:0:
192,269,358832,6,0,B|159:227|99:217|99:217|170:126|289:161|316:218,1,315.000012016297,6|4,0:0|0:0,0:0:0:0:
53,384,359260,1,10,0:0:0:0:
91,90,359403,1,4,0:0:0:0:
301,261,359546,1,10,0:0:0:0:
337,243,359617,1,4,0:0:0:0:
360,212,359688,1,4,0:0:0:0:
364,173,359760,1,4,0:0:0:0:
348,137,359831,1,10,0:0:0:0:
95,17,359974,6,0,P|19:96|70:158,1,157.500006008148,6|10,0:0|0:0,0:0:0:0:
320,111,360260,1,4,0:0:0:0:
320,111,360332,1,4,0:0:0:0:
320,111,360403,1,10,0:0:0:0:
131,304,360546,2,0,P|55:225|106:163,1,157.500006008148,4|10,0:0|0:0,0:0:0:0:
219,53,360832,1,4,0:0:0:0:
219,53,360904,1,4,0:0:0:0:
219,53,360975,1,10,0:0:0:0:
485,222,361117,6,0,B|405:237|375:314|375:314|375:284|375:284|344:362|210:362,1,315.000012016297,6|4,0:0|0:0,0:0:0:0:
249,353,361474,1,4,0:0:0:0:
230,349,361546,1,10,0:0:0:0:
492,345,361689,1,4,0:0:0:0:
480,178,361831,1,10,0:0:0:0:
463,142,361902,1,4,0:0:0:0:
434,112,361974,1,4,0:0:0:0:
399,91,362045,1,4,0:0:0:0:
358,81,362117,1,10,0:0:0:0:
269,358,362260,5,4,0:0:0:0:
317,80,362403,1,10,0:0:0:0:
391,358,362546,1,4,0:0:0:0:
350,370,362618,1,4,0:0:0:0:
310,369,362689,1,10,0:0:0:0:
128,46,362832,2,0,B|63:75|73:149|73:149|51:177,1,157.500006008148,4|10,0:0|0:0,0:0:0:0:
147,358,363117,1,6,0:0:0:0:
188,370,363189,1,4,0:0:0:0:
228,369,363260,1,10,0:0:0:0:
314,16,363403,6,0,B|356:93|303:163|303:163|240:100|156:125,1,315.000012016297,6|4,0:0|0:0,0:0:0:0:
153,140,363760,1,4,0:0:0:0:
148,155,363832,1,10,0:0:0:0:
457,121,363974,1,4,0:0:0:0:
336,323,364117,1,10,0:0:0:0:
295,316,364189,1,4,0:0:0:0:
258,298,364260,1,4,0:0:0:0:
227,271,364332,1,4,0:0:0:0:
207,237,364403,1,10,0:0:0:0:
351,16,364546,6,0,B|450:83|450:83|459:127,1,157.500006008148,6|10,0:0|0:0,0:0:0:0:
170,153,364832,1,4,0:0:0:0:
139,180,364904,1,4,0:0:0:0:
119,214,364975,1,10,0:0:0:0:
384,355,365117,2,0,B|483:288|483:288|492:244,1,157.500006008148,4|10,0:0|0:0,0:0:0:0:
286,129,365403,1,4,0:0:0:0:
249,124,365474,1,4,0:0:0:0:
207,134,365546,1,10,0:0:0:0:
450,369,365689,5,6,0:0:0:0:
363,92,365832,1,10,0:0:0:0:
243,346,365974,1,4,0:0:0:0:
279,350,366045,1,4,0:0:0:0:
315,354,366117,1,10,0:0:0:0:
231,64,366260,1,4,0:0:0:0:
207,342,366403,1,10,0:0:0:0:
171,338,366474,1,4,0:0:0:0:
135,334,366546,1,4,0:0:0:0:
99,330,366617,1,4,0:0:0:0:
63,326,366688,1,10,0:0:0:0:
36,55,366832,5,6,0:0:0:0:
27,322,366974,1,10,0:0:0:0:
205,48,367117,1,4,0:0:0:0:
31,189,367260,1,10,0:0:0:0:
306,316,367403,1,4,0:0:0:0:
118,119,367546,1,10,0:0:0:0:
166,319,367689,1,4,0:0:0:0:
166,319,367760,1,4,0:0:0:0:
166,319,367832,1,10,0:0:0:0:
319,82,367974,5,4,0:0:0:0:
344,52,368045,1,4,0:0:0:0:
379,36,368116,1,4,0:0:0:0:
418,39,368188,1,4,0:0:0:0:
452,59,368259,1,4,0:0:0:0:
472,93,368331,1,4,0:0:0:0:
475,131,368402,1,4,0:0:0:0:
461,168,368474,1,4,0:0:0:0:
431,193,368545,1,4,0:0:0:0:
386,214,368617,1,4,0:0:0:0:
338,222,368688,1,4,0:0:0:0:
289,218,368760,1,4,0:0:0:0:
243,201,368831,1,4,0:0:0:0:
203,172,368903,1,4,0:0:0:0:
172,135,368974,1,4,0:0:0:0:
152,90,369046,1,4,0:0:0:0:
144,41,369117,5,4,0:0:0:0:
191,20,369188,1,4,0:0:0:0:
243,10,369259,1,4,0:0:0:0:
295,11,369331,1,4,0:0:0:0:
346,25,369402,1,4,0:0:0:0:
392,50,369474,1,4,0:0:0:0:
431,85,369545,1,4,0:0:0:0:
461,128,369617,1,4,0:0:0:0:
480,177,369688,1,4,0:0:0:0:
488,229,369759,1,4,0:0:0:0:
483,281,369831,1,4,0:0:0:0:
467,331,369902,1,4,0:0:0:0:
440,375,369974,1,10,0:0:0:0:
454,353,370260,6,0,B|428:306|428:306|431:267|431:267|400:210,1,157.500006008148,6|10,0:0|0:0,0:0:0:0:
266,47,370545,1,4,0:0:0:0:
266,47,370617,1,4,0:0:0:0:
266,47,370689,1,10,0:0:0:0:
238,359,370832,1,4,0:0:0:0:
333,128,370974,1,10,0:0:0:0:
90,214,371117,1,4,0:0:0:0:
349,269,371260,1,10,0:0:0:0:
71,192,371403,6,0,P|71:105|144:56,1,157.500006008148,4|10,0:0|0:0,0:0:0:0:
419,107,371689,1,4,0:0:0:0:
314,346,371832,1,10,0:0:0:0:
150,148,371974,1,4,0:0:0:0:
384,184,372117,1,10,0:0:0:0:
169,376,372260,1,4,0:0:0:0:
273,125,372403,1,10,0:0:0:0:
0,260,372546,6,0,P|22:332|91:366,1,157.500006008148,4|10,0:0|0:0,0:0:0:0:
432,299,372832,1,4,0:0:0:0:
432,299,372903,1,4,0:0:0:0:
432,299,372974,1,10,0:0:0:0:
154,169,373117,1,4,0:0:0:0:
392,81,373260,1,10,0:0:0:0:
328,355,373403,1,4,0:0:0:0:
251,66,373546,1,10,0:0:0:0:
153,354,373689,6,0,B|208:349|208:349|255:336|255:336|319:331,1,157.500006008148,4|10,0:0|0:0,0:0:0:0:
492,57,373974,1,4,0:0:0:0:
160,15,374117,1,10,0:0:0:0:
462,155,374260,2,0,B|428:188|428:188|411:228|411:228|348:290,1,141.750000540733,4|10,0:0|0:0,0:0:0:0:
17,176,374546,2,0,B|50:142|50:142|67:102|67:102|130:40,1,141.750000540733,4|10,0:0|0:0,0:0:0:0:
443,239,374832,6,0,P|425:316|333:322,1,168,6|10,0:0|0:0,0:0:0:0:
230,91,375117,1,4,0:0:0:0:
230,91,375189,1,4,0:0:0:0:
230,91,375260,1,10,0:0:0:0:
375,264,375403,1,4,0:0:0:0:
86,275,375546,1,10,0:0:0:0:
299,63,375689,1,4,0:0:0:0:
294,379,375832,1,10,0:0:0:0:
464,138,375974,6,0,L|272:175,1,152.250004646301,4|10,0:0|0:0,0:0:0:0:
47,198,376260,1,4,0:0:0:0:
230,65,376403,1,10,0:0:0:0:
143,339,376546,2,0,L|335:302,1,152.250004646301,4|10,0:0|0:0,0:0:0:0:
363,91,376832,1,4,0:0:0:0:
470,357,376974,1,10,0:0:0:0:
172,154,377117,6,0,B|155:138|155:138|291:164,1,157.500006008148,4|10,0:0|0:0,0:0:0:0:
38,344,377403,1,4,0:0:0:0:
38,344,377474,1,4,0:0:0:0:
38,344,377546,1,10,0:0:0:0:
76,112,377689,1,4,0:0:0:0:
318,306,377832,1,10,0:0:0:0:
57,228,377974,1,4,0:0:0:0:
330,75,378117,1,10,0:0:0:0:
179,325,378260,6,0,B|173:333|173:333|338:302,1,157.500006008148,4|10,0:0|0:0,0:0:0:0:
155,49,378546,1,4,0:0:0:0:
431,148,378689,1,10,0:0:0:0:
167,187,378832,1,4,0:0:0:0:
450,17,378974,1,10,0:0:0:0:
412,279,379117,1,4,0:0:0:0:
110,125,379260,1,10,0:0:0:0:
110,125,379332,1,8,0:0:0:0:
110,125,379403,6,0,P|90:217|141:270,1,157.500006008148,2|10,0:0|0:0,0:0:0:0:
454,218,379689,1,4,0:0:0:0:
454,218,379760,1,4,0:0:0:0:
454,218,379832,1,10,0:0:0:0:
341,35,379974,1,4,0:0:0:0:
157,281,380117,1,10,0:0:0:0:
226,80,380260,1,4,0:0:0:0:
454,340,380403,1,10,0:0:0:0:
477,61,380546,6,0,P|411:15|328:48,1,157.500006008148,4|10,0:0|0:0,0:0:0:0:
177,365,380832,1,4,0:0:0:0:
145,86,380974,1,10,0:0:0:0:
7,238,381117,1,4,0:0:0:0:
293,35,381260,1,10,0:0:0:0:
244,310,381403,2,0,P|301:367|389:348,1,157.500006008148,4|10,0:0|0:0,0:0:0:0:
494,101,381689,6,0,P|436:43|348:62,1,157.500006008148,6|10,0:0|0:0,0:0:0:0:
330,285,381974,1,4,0:0:0:0:
330,285,382046,1,4,0:0:0:0:
330,285,382117,1,10,0:0:0:0:
75,84,382260,2,0,B|136:42|181:70|201:89|201:89|233:43,1,157.500006008148,4|10,0:0|0:0,0:0:0:0:
468,273,382546,2,0,B|407:315|362:287|342:268|342:268|310:314,1,157.500006008148,4|10,0:0|0:0,0:0:0:0:
136,151,382832,6,0,B|106:184|50:187|8:149|8:149|48:126,1,157.500006008148,4|10,0:0|0:0,0:0:0:0:
234,353,383117,1,4,0:0:0:0:
249,132,383260,1,10,0:0:0:0:
111,347,383403,1,4,0:0:0:0:
387,121,383546,1,10,0:0:0:0:
123,78,383689,1,4,0:0:0:0:
357,359,383832,1,10,0:0:0:0:
260,66,383974,6,0,B|376:12|376:12|271:15,1,157.500006008148,6|10,0:0|0:0,0:0:0:0:
367,210,384260,1,4,0:0:0:0:
367,210,384332,1,4,0:0:0:0:
367,210,384403,1,10,0:0:0:0:
136,25,384546,1,4,0:0:0:0:
120,298,384689,1,10,0:0:0:0:
252,118,384832,1,4,0:0:0:0:
1,144,384974,1,10,0:0:0:0:
244,255,385117,6,0,P|326:265|366:183,1,157.500006008148,4|10,0:0|0:0,0:0:0:0:
136,25,385403,1,4,0:0:0:0:
156,302,385546,1,10,0:0:0:0:
253,28,385689,1,4,0:0:0:0:
26,171,385832,1,10,0:0:0:0:
322,124,385974,1,4,0:0:0:0:
52,272,386117,1,10,0:0:0:0:
430,234,386260,6,0,B|459:112|459:112|414:127,1,157.500006008148,6|10,0:0|0:0,0:0:0:0:
125,346,386546,1,4,0:0:0:0:
125,346,386617,1,4,0:0:0:0:
125,346,386689,1,10,0:0:0:0:
181,46,386832,1,4,0:0:0:0:
384,344,386974,1,10,0:0:0:0:
134,159,387117,1,4,0:0:0:0:
428,122,387260,1,10,0:0:0:0:
89,94,387403,6,0,P|58:177|120:240,1,168,4|10,0:0|0:0,0:0:0:0:
406,20,387689,1,4,0:0:0:0:
474,327,387832,1,10,0:0:0:0:
270,92,387974,2,0,L|134:159,1,152.250004646301,4|10,0:0|0:0,0:0:0:0:
294,361,388260,1,4,0:0:0:0:
488,124,388403,5,8,0:0:0:0:
467,80,388474,1,8,0:0:0:0:
442,46,388546,1,6,0:0:0:0:
406,20,388617,1,0,0:0:0:0:
365,7,388688,1,8,0:0:0:0:
322,7,388760,1,8,0:0:0:0:
282,17,388831,1,4,0:0:0:0:
245,40,388903,1,4,0:0:0:0:
214,69,388974,1,4,0:0:0:0:
194,109,389046,1,0,0:0:0:0:
186,150,389117,1,4,0:0:0:0:
190,193,389188,1,4,0:0:0:0:
207,233,389260,1,4,0:0:0:0:
236,265,389331,1,4,0:0:0:0:
273,288,389403,1,4,0:0:0:0:
314,301,389474,1,4,0:0:0:0:
357,296,389546,1,8,0:0:0:0:
396,281,389617,1,8,0:0:0:0:
430,257,389689,5,8,0:0:0:0:
421,204,389760,1,8,0:0:0:0:
398,156,389831,1,4,0:0:0:0:
359,120,389903,1,4,0:0:0:0:
316,95,389974,1,4,0:0:0:0:
264,82,390046,1,4,0:0:0:0:
210,88,390117,1,4,0:0:0:0:
162,108,390189,1,4,0:0:0:0:
121,142,390260,5,4,0:0:0:0:
131,202,390331,1,4,0:0:0:0:
162,255,390403,1,8,0:0:0:0:
206,297,390474,1,8,0:0:0:0:
261,324,390546,1,4,0:0:0:0:
320,333,390617,1,4,0:0:0:0:
381,323,390689,1,4,0:0:0:0:
437,300,390760,1,4,0:0:0:0:
484,259,390831,1,14,0:0:0:0:
