osu file format v14

[General]
AudioFilename: audio.mp3
AudioLeadIn: 0
PreviewTime: 329093
Countdown: 0
SampleSet: Drum
StackLeniency: 0.7
Mode: 2
LetterboxInBreaks: 0
WidescreenStoryboard: 1

[Editor]
Bookmarks: 191,20762,39048,48191,67619,84191,102476,118476,136762,157333,177905,187048,203048,215048,242832,251974,261117,270260,279403,294832,313117,327974,329117,345117,354260,358832,370260,388546,390832
DistanceSpacing: 1.2
BeatDivisor: 3
GridSize: 32
TimelineZoom: 2.7

[Metadata]
Title:Gekiai No Yobigoe Ga Dekiai No Sakebigoe Wo Kurau
TitleUnicode:劇愛の呼声が溺哀の叫声を喰らう
Artist:Imperial Circus Dead Decadence
ArtistUnicode:Imperial Circus Dead Decadence
Creator:Nelly
Version:Crimson Blood
Source:osu!
Tags:isomir isomirdiangelo fa featured artist mappers guild mg symphonic black japanese metal icdd 狂おしく咲いた凄惨な骸は奏で、愛おしく裂いた少女は聖餐の詞を謳う。 kurooshiku saita seisan na mukuro wa kanaderu itooshiku shoujo seisen kotoba wo utau bicycle rib rib:y(uhki)
BeatmapID:2832400
BeatmapSetID:1369800

[Difficulty]
HPDrainRate:6
CircleSize:4.2
OverallDifficulty:9.8
ApproachRate:9.8
SliderMultiplier:2.11
SliderTickRate:2

[Events]
//Background and Video events
0,0,"heartofstone nanomortis.jpg",0,0
//Break Periods
2,209248,214569
//Storyboard Layer 0 (Background)
//Storyboard Layer 1 (Fail)
//Storyboard Layer 2 (Pass)
//Storyboard Layer 3 (Foreground)
//Storyboard Layer 4 (Overlay)
//Storyboard Sound Samples

[TimingPoints]
191,285.714285714286,4,3,2,70,1,0
191,-100,4,3,2,70,0,0
476,-100,4,3,2,70,0,0
9048,-100,4,3,3,70,0,0
9333,-100,4,3,2,70,0,0
9619,-100,4,3,1,70,0,0
11619,-100,4,3,2,70,0,0
11905,-100,4,3,1,70,0,0
12762,-100,4,3,2,70,0,0
14047,-100,4,3,1,70,0,0
16191,-100,4,3,2,70,0,0
16476,-100,4,3,1,70,0,0
16761,-100,4,3,2,70,0,0
17048,-100,4,3,3,70,0,0
17333,-100,4,3,1,70,0,0
17476,-100,4,3,1,50,0,0
17619,-100,4,3,1,70,0,0
18048,-100,4,3,11,70,0,0
18476,-100,4,3,2,70,0,0
20762,-100,4,3,2,50,0,0
20904,-100,4,3,1,60,0,0
24905,-100,4,3,2,60,0,0
25191,-100,4,3,1,60,0,0
25333,-100,4,3,2,50,0,0
25475,-100,4,3,1,60,0,0
29905,-100,4,3,2,50,0,0
30047,-100,4,3,1,60,0,0
34048,-100,4,3,2,60,0,0
34262,-100,4,3,1,60,0,0
34476,-100,4,3,2,50,0,0
34618,-100,4,3,1,60,0,0
36762,-100,4,3,2,60,0,0
37333,-100,4,3,1,60,0,0
37905,-100,4,3,11,60,0,0
37976,-100,4,3,1,80,0,0
38191,-100,4,3,11,60,0,0
38476,-100,4,3,1,50,0,0
38547,-100,4,3,1,80,0,0
38618,-100,4,3,11,60,0,0
38905,-100,4,3,1,80,0,0
39048,-100,4,3,2,70,0,0
47048,-100,4,3,1,70,0,0
47333,-100,4,3,11,70,0,0
47404,-100,4,3,1,70,0,0
47476,-100,4,3,11,70,0,0
47547,-100,4,3,1,70,0,0
47619,-100,4,3,11,70,0,0
47690,-100,4,3,1,70,0,0
47762,-100,4,3,11,70,0,0
48048,-100,4,3,2,60,0,0
48119,-100,4,3,11,60,0,0
48191,-100,4,3,2,70,0,0
48333,-100,4,3,1,60,0,0
52333,-100,4,3,2,60,0,0
52619,-100,4,3,1,70,0,0
52762,-100,4,3,2,50,0,0
52904,-100,4,3,1,60,0,0
54191,-100,4,3,1,60,0,0
55048,-100,4,3,2,60,0,0
57333,-100,4,3,2,50,0,0
57475,-100,4,3,2,60,0,0
61905,-100,4,3,2,50,0,0
62047,-100,4,3,2,60,0,0
64762,-100,4,3,1,60,0,0
65333,-100,4,3,11,60,0,0
65405,-100,4,3,1,80,0,0
65619,-100,4,3,11,60,0,0
65905,-100,4,3,1,80,0,0
66048,-100,4,3,11,60,0,0
66333,-100,4,3,1,80,0,0
66476,-100,4,3,2,60,0,0
67333,-100,4,3,11,70,0,0
67619,-100,4,3,1,50,0,0
68762,-100,4,3,1,70,0,0
71048,-100,4,3,1,50,0,0
71619,-100,4,3,1,70,0,0
71691,-100,4,3,1,50,0,0
73333,-100,4,3,1,70,0,0
75619,-100,4,3,1,50,0,0
76191,-100,4,3,11,80,0,0
76262,-100,4,3,1,50,0,0
77905,-100,4,3,1,70,0,0
80191,-100,4,3,1,50,0,0
80333,-100,4,3,11,50,0,0
80476,-100,4,3,1,50,0,0
80762,-100,4,3,1,70,0,0
80833,-100,4,3,1,50,0,0
82476,-100,4,3,1,70,0,0
83190,-100,4,3,11,70,0,0
83333,-100,4,3,2,70,0,0
84191,285.714285714286,4,2,1,80,1,0
84333,-100,4,3,2,70,0,1
88762,-100,4,3,2,50,0,1
88905,-100,4,3,2,70,0,1
91048,-100,4,3,2,50,0,1
91120,-100,4,3,1,70,0,1
93048,-100,4,3,2,70,0,1
93191,-100,4,3,2,60,0,1
93333,-100,4,3,2,50,0,1
93475,-100,4,3,2,70,0,1
97905,-100,4,3,2,50,0,1
98048,-100,4,3,2,70,0,1
100191,-100,4,3,2,70,0,1
101333,-100,4,3,2,50,0,0
102191,-100,4,3,11,70,0,0
102476,-83.3333333333333,4,3,1,60,0,0
102690,-83.3333333333333,4,3,2,5,0,0
102762,-90.9090909090909,4,3,3,60,0,1
107048,-100,4,3,1,70,0,0
109333,-100,4,3,1,80,0,0
109905,-100,4,3,1,70,0,0
111048,-100,4,3,2,60,0,0
111333,-100,4,3,11,60,0,0
111619,-100,4,3,1,60,0,0
116191,-100,4,3,1,70,0,0
116262,-100,4,3,11,70,0,0
116762,-100,4,3,2,70,0,0
117333,-100,4,3,11,70,0,0
117905,-100,4,3,1,70,0,0
121119,-100,4,3,1,50,0,0
121762,-100,4,3,1,70,0,0
122476,-83.3333333333333,4,3,1,70,0,0
123047,-100,4,3,2,60,0,0
123191,-100,4,3,1,70,0,0
125262,-100,4,3,1,5,0,0
125333,-100,4,3,2,50,0,0
125619,-100,4,3,1,70,0,0
127619,-100,4,3,2,60,0,0
127762,-100,4,3,1,70,0,0
128762,-100,4,3,2,60,0,0
128905,-100,4,3,1,70,0,0
129905,-100,4,3,2,60,0,0
130048,-100,4,3,1,70,0,0
132190,-100,4,3,2,50,0,0
132333,-100,4,3,1,70,0,0
132476,-90.9090909090909,4,3,1,70,0,0
133333,-100,4,3,1,70,0,0
136762,-83.3333333333333,4,3,1,60,0,0
139048,-83.3333333333333,4,3,2,50,0,0
141333,-83.3333333333333,4,3,2,70,0,1
141429,-83.3333333333333,4,3,1,70,0,1
145905,-83.3333333333333,4,3,2,70,0,1
146000,-83.3333333333333,4,3,1,70,0,1
150476,-83.3333333333333,4,3,2,70,0,1
150571,-83.3333333333333,4,3,1,70,0,1
155048,-83.3333333333333,4,3,2,60,0,1
155143,-83.3333333333333,4,3,1,60,0,1
156191,-83.3333333333333,4,3,2,70,0,1
156286,-83.3333333333333,4,3,1,70,0,1
157333,-100,4,3,2,50,0,0
157475,-100,4,3,1,60,0,0
161476,-100,4,3,2,60,0,0
161762,-100,4,3,1,60,0,0
161905,-100,4,3,2,50,0,0
162047,-100,4,3,1,60,0,0
166476,-100,4,3,2,50,0,0
166618,-100,4,3,1,60,0,0
170619,-100,4,3,2,50,0,0
170833,-100,4,3,1,60,0,0
171048,-100,4,3,2,50,0,0
171190,-100,4,3,1,60,0,0
174191,-100,4,3,2,80,0,0
174476,-100,4,3,11,60,0,0
174548,-100,4,3,1,80,0,0
174762,-100,4,3,11,60,0,0
175048,-100,4,3,2,80,0,0
175191,-100,4,3,11,60,0,0
175476,-100,4,3,1,80,0,0
175619,-100,4,3,2,60,0,0
176191,-100,4,3,1,70,0,0
176476,-100,4,3,11,70,0,0
176762,-100,4,3,1,50,0,0
177905,-100,4,3,1,70,0,0
180191,-100,4,3,1,50,0,0
180762,-100,4,3,1,70,0,0
180833,-100,4,3,1,50,0,0
182476,-100,4,3,1,70,0,0
184762,-100,4,3,1,50,0,0
187048,-83.3333333333333,4,3,2,70,0,1
187262,-83.3333333333333,4,3,2,5,0,1
187333,-90.9090909090909,4,3,3,60,0,1
191619,-100,4,3,1,70,0,0
193905,-100,4,3,1,80,0,0
194476,-100,4,3,1,70,0,0
195619,-100,4,3,2,70,0,0
195905,-100,4,3,11,70,0,0
196191,-100,4,3,1,70,0,0
200833,-100,4,3,11,70,0,0
201333,-100,4,3,2,70,0,0
201905,-100,4,3,11,70,0,0
202476,-100,4,3,1,70,0,0
203048,375,4,2,1,80,1,0
209048,-100,4,2,2,50,0,0
215048,-125,4,2,4,40,0,0
239298,-250,4,2,4,40,0,0
242610,297.029702970297,4,2,1,80,1,0
242832,285.714285714286,4,3,1,70,1,0
242832,-100,4,3,1,70,0,0
250546,-100,4,3,1,55,0,0
250832,-100,4,3,1,70,0,0
250903,-100,4,3,11,70,0,0
251546,-100,4,3,1,70,0,0
251689,-100,4,3,2,70,0,0
251832,-100,4,3,2,70,0,0
251974,-100,4,3,1,70,0,1
258832,-90.9090909090909,4,3,2,60,0,1
259974,-90.9090909090909,4,3,11,70,0,1
260546,-90.9090909090909,4,3,1,70,0,1
261117,-90.9090909090909,4,3,1,80,0,1
261189,-90.9090909090909,4,3,3,80,0,1
261689,-90.9090909090909,4,3,3,80,0,1
262260,-90.9090909090909,4,3,3,80,0,1
263403,-90.9090909090909,4,3,1,80,0,1
263474,-90.9090909090909,4,3,3,80,0,1
265689,-90.9090909090909,4,3,1,80,0,1
265760,-90.9090909090909,4,3,3,80,0,1
267689,-90.9090909090909,4,3,3,80,0,1
267974,-90.9090909090909,4,3,1,80,0,1
268046,-90.9090909090909,4,3,3,80,0,1
269974,-90.9090909090909,4,3,1,80,0,1
270260,-100,4,3,1,50,0,1
270403,-100,4,3,1,80,0,1
277117,-100,4,3,2,80,0,1
278189,-100,4,3,1,5,0,1
278260,-100,4,3,1,50,0,0
279403,-100,4,3,1,70,0,0
281689,-100,4,3,1,50,0,0
282260,-100,4,3,1,70,0,0
282332,-100,4,3,1,50,0,0
283974,-100,4,3,1,70,0,0
286260,-100,4,3,1,50,0,0
286832,-100,4,3,11,70,0,0
286903,-100,4,3,1,50,0,0
288546,-100,4,3,1,70,0,0
290832,-100,4,3,1,50,0,0
290974,-100,4,3,11,50,0,0
291117,-100,4,3,1,50,0,0
291403,-100,4,3,1,70,0,0
291474,-100,4,3,1,50,0,0
293117,-100,4,3,1,70,0,0
293832,-100,4,3,11,70,0,0
293974,-100,4,3,1,70,0,0
294260,-100,4,3,11,70,0,0
294832,285.714285714286,4,2,1,80,1,0
294974,-100,4,3,2,70,0,1
299403,-100,4,3,2,50,0,1
299546,-100,4,3,2,70,0,1
301974,-100,4,3,1,70,0,1
303974,-100,4,3,2,50,0,1
304116,-100,4,3,2,70,0,1
310403,-100,4,3,2,60,0,1
310832,-100,4,3,1,60,0,1
311403,-100,4,3,2,60,0,1
311974,-100,4,3,2,60,0,0
312260,-100,4,3,1,60,0,0
313117,-142.857142857143,4,2,1,30,0,0
327974,-142.857142857143,4,3,1,60,0,0
329117,-83.3333333333333,4,3,1,60,0,1
329332,-83.3333333333333,4,3,1,5,0,1
329403,-90.9090909090909,4,3,3,60,0,1
333689,-100,4,3,1,70,0,0
335974,-100,4,3,1,80,0,0
336546,-100,4,3,1,70,0,0
337689,-100,4,3,2,70,0,0
337974,-100,4,3,11,70,0,0
338260,-100,4,3,1,70,0,0
342832,-100,4,3,2,70,0,0
342903,-100,4,3,11,70,0,0
343403,-100,4,3,2,60,0,0
343974,-100,4,3,11,70,0,0
344546,-100,4,3,1,70,0,0
344832,-100,4,3,11,70,0,0
345117,-100,4,3,1,70,0,0
347332,-100,4,3,1,5,0,0
347403,-100,4,3,1,70,0,0
349689,-100,4,3,1,70,0,0
351903,-100,4,3,1,5,0,0
351974,-100,4,3,1,70,0,0
353689,-100,4,3,11,60,0,0
354260,-90.9090909090909,4,3,3,60,0,1
358832,-100,4,3,1,70,0,0
367974,-100,4,3,1,60,0,0
368046,-100,4,3,11,60,0,0
369689,-100,4,3,1,60,0,0
369974,-100,4,3,2,60,0,0
370260,-100,4,3,1,60,0,0
370546,-100,4,3,1,60,0,0
374832,-100,4,3,1,50,0,0
374974,-100,4,3,1,60,0,0
383974,-100,4,3,2,50,0,0
384117,-100,4,3,1,60,0,0
387974,-100,4,3,2,60,0,0
388617,-100,4,3,11,60,0,0
389546,-90.9090909090909,4,3,2,60,0,0
389689,-100,4,3,11,60,0,0
390546,-90.9090909090909,4,3,2,60,0,0
390689,-90.9090909090909,4,3,2,70,0,1
390832,-90.9090909090909,4,3,2,70,0,1
391260,-83.3333333333333,4,3,2,40,0,0

[Colours]
Combo1 : 206,15,15
Combo2 : 104,132,66
Combo3 : 232,216,151

[HitObjects]
72,306,191,6,0,L|70:200,1,105.5,14|0,3:0|3:0,0:0:0:0:
302,122,476,1,8,3:0:0:0:
175,115,619,1,0,3:0:0:0:
419,293,762,1,8,3:0:0:0:
176,215,905,2,0,L|123:213,2,52.75,0|0|8,3:0|3:0|3:0,0:0:0:0:
304,218,1191,1,0,3:0:0:0:
62,322,1333,5,8,3:0:0:0:
312,323,1476,2,0,L|314:217,1,105.5,0|8,3:0|3:0,0:0:0:0:
186,189,1762,1,0,3:0:0:0:
451,73,1905,2,0,L|345:71,1,105.5,8|0,3:0|3:0,0:0:0:0:
122,185,2191,1,8,3:0:0:0:
249,178,2334,1,0,3:0:0:0:
29,293,2476,6,0,L|135:291,1,105.5,12|0,3:0|3:0,0:0:0:0:
358,294,2762,1,8,3:0:0:0:
136,290,2905,2,0,L|134:184,1,105.5,0|8,3:0|3:0,0:0:0:0:
262,156,3191,1,0,3:0:0:0:
41,56,3333,2,0,L|147:58,1,105.5,8|0,3:0|3:0,0:0:0:0:
412,246,3619,6,0,L|306:248,2,105.5,8|0|8,3:0|3:0|3:0,0:0:0:0:
157,289,4048,1,0,3:0:0:0:
160,236,4119,1,0,3:0:0:0:
163,183,4190,1,8,3:0:0:0:
290,164,4333,1,0,3:0:0:0:
79,90,4476,1,8,3:0:0:0:
295,74,4619,1,0,3:0:0:0:
31,329,4762,6,0,L|137:327,1,105.5,12|0,3:0|3:0,0:0:0:0:
360,237,5048,1,8,3:0:0:0:
233,230,5191,1,0,3:0:0:0:
454,141,5333,1,8,3:0:0:0:
190,326,5476,1,0,3:0:0:0:
188,273,5547,1,0,3:0:0:0:
186,220,5618,1,8,3:0:0:0:
314,169,5762,1,0,3:0:0:0:
92,78,5905,6,0,L|197:74,2,105.5,8|0|8,3:0|3:0|3:0,0:0:0:0:
314,255,6333,1,0,3:0:0:0:
49,306,6476,2,0,L|47:200,1,105.5,8|0,3:0|3:0,0:0:0:0:
290,122,6761,1,8,3:0:0:0:
163,115,6904,1,0,3:0:0:0:
398,261,7048,6,0,L|504:259,1,105.5,12|0,3:0|3:0,0:0:0:0:
261,188,7333,1,8,3:0:0:0:
388,177,7476,1,0,3:0:0:0:
391,68,7619,1,8,3:0:0:0:
148,48,7762,1,0,3:0:0:0:
401,284,7905,2,0,L|295:282,1,105.5,8|0,3:0|3:0,0:0:0:0:
51,182,8191,6,0,L|157:184,2,105.5,8|0|8,3:0|3:0|3:0,0:0:0:0:
294,81,8619,2,0,L|400:79,1,105.5,0|8,3:0|3:0,0:0:0:0:
155,284,8905,2,0,L|208:285,1,52.75,0|0,3:0|3:0,0:0:0:0:
378,268,9048,1,10,3:0:0:0:
135,182,9191,1,0,3:0:0:0:
397,115,9333,6,0,L|504:113,1,105.5,12|0,3:0|3:0,0:0:0:0:
258,217,9619,1,10,3:0:0:0:
385,224,9762,1,2,3:0:0:0:
152,100,9905,1,8,3:0:0:0:
384,60,10048,1,0,3:0:0:0:
331,58,10119,1,0,3:0:0:0:
278,56,10190,1,8,3:0:0:0:
151,70,10333,1,0,3:0:0:0:
395,203,10476,5,10,3:0:0:0:
152,323,10619,2,0,L|150:217,1,105.5,2|8,3:0|3:0,0:0:0:0:
426,118,10905,1,2,3:0:0:0:
130,133,11048,2,0,L|24:131,1,105.5,10|0,3:0|3:0,0:0:0:0:
267,272,11333,1,10,3:0:0:0:
24,277,11476,1,2,3:0:0:0:
362,347,11619,6,0,L|468:345,1,105.5,12|0,3:0|3:0,0:0:0:0:
244,213,11905,1,10,3:0:0:0:
466,218,12048,1,2,3:0:0:0:
223,275,12191,2,0,L|221:169,1,105.5,8|0,3:0|3:0,0:0:0:0:
358,134,12476,1,8,3:0:0:0:
115,102,12619,1,0,3:0:0:0:
368,36,12762,6,0,L|262:38,2,105.5,8|0|8,3:0|3:0|3:0,0:0:0:0:
145,259,13191,2,0,L|91:258,2,52.75,0|0|8,3:0|3:0|3:0,0:0:0:0:
272,250,13476,1,0,3:0:0:0:
39,165,13619,2,0,L|145:163,1,105.5,10|2,3:0|3:0,0:0:0:0:
442,341,13905,6,0,L|444:235,1,105.5,12|0,3:0|3:0,0:0:0:0:
221,145,14191,1,10,3:0:0:0:
348,138,14334,1,2,3:0:0:0:
128,77,14476,1,8,3:0:0:0:
381,255,14619,2,0,L|434:254,2,52.75,0|0|8,3:0|3:0|3:0,0:0:0:0:
254,246,14904,1,0,3:0:0:0:
489,170,15048,5,10,3:0:0:0:
246,333,15191,2,0,L|140:331,1,105.5,2|8,3:0|3:0,0:0:0:0:
436,81,15476,1,2,3:0:0:0:
98,188,15619,2,0,L|204:186,1,105.5,10|0,3:0|3:0,0:0:0:0:
469,110,15905,1,10,3:0:0:0:
205,94,16048,1,2,3:0:0:0:
490,322,16191,6,0,L|492:216,1,105.5,14|0,3:0|3:0,0:0:0:0:
428,207,16405,1,0,3:0:0:0:
260,147,16476,2,0,L|365:145,2,105.5,10|2|8,3:0|3:0|3:0,0:0:0:0:
494,60,16905,2,0,L|441:59,1,52.75,0|0,3:0|3:0,0:0:0:0:
250,250,17048,2,0,L|355:248,1,105.5,10|0,3:0|3:0,0:0:0:0:
113,324,17333,6,0,L|60:323,1,52.75,10|0,3:0|3:0,0:0:0:0:
252,309,17476,1,10,3:0:0:0:
299,291,17547,1,8,3:0:0:0:
328,251,17618,1,10,3:0:0:0:
330,200,17690,1,0,3:0:0:0:
305,157,17761,1,10,3:0:0:0:
260,136,17833,1,0,3:0:0:0:
111,125,17905,6,0,L|58:124,1,52.75,10|0,3:0|3:0,0:0:0:0:
261,222,18048,2,0,L|314:221,1,52.75,8|0,3:0|3:0,0:0:0:0:
261,137,18191,2,0,L|208:136,1,52.75,0|0,3:0|3:0,0:0:0:0:
261,222,18333,2,0,L|314:221,1,52.75,0|0,3:0|3:0,0:0:0:0:
59,303,18476,5,2,3:0:0:0:
438,287,20476,6,0,P|459:276|437:168,1,158.25,2|0,3:0|0:0,0:0:0:0:
215,151,20762,6,0,L|320:149,1,105.5,6|8,3:0|3:0,0:0:0:0:
97,297,21048,2,0,L|44:296,2,52.75,0|0|8,3:0|0:0|3:0,0:0:0:0:
329,293,21333,1,0,3:0:0:0:
202,273,21476,1,8,3:0:0:0:
200,167,21618,1,0,3:0:0:0:
445,101,21762,1,8,3:0:0:0:
197,77,21905,5,0,3:0:0:0:
446,303,22048,2,0,L|448:198,1,105.5,0|0,0:0|3:0,0:0:0:0:
206,167,22333,1,8,3:0:0:0:
333,298,22476,2,0,L|335:193,1,105.5,0|8,3:0|3:0,0:0:0:0:
112,109,22762,1,0,3:0:0:0:
239,102,22905,1,8,3:0:0:0:
17,249,23048,6,0,L|122:247,1,105.5,0|8,3:0|3:0,0:0:0:0:
344,184,23333,2,0,L|396:185,2,52.75,0|0|8,3:0|0:0|3:0,0:0:0:0:
216,95,23619,1,0,3:0:0:0:
343,88,23762,1,8,3:0:0:0:
111,300,23905,2,0,L|216:298,1,105.5,0|8,3:0|3:0,0:0:0:0:
461,244,24191,6,0,L|356:242,2,105.5,0|8|0,3:0|3:0|3:0,0:0:0:0:
208,184,24619,1,8,3:0:0:0:
345,78,24762,2,0,L|292:76,1,52.75,0|0,3:0|3:0,0:0:0:0:
143,88,24905,1,10,3:0:0:0:
386,189,25048,2,0,L|491:187,1,105.5,0|8,0:0|3:0,0:0:0:0:
217,346,25333,6,0,L|215:241,1,105.5,4|0,3:0|0:0,0:0:0:0:
460,105,25619,1,0,3:0:0:0:
407,103,25690,1,0,3:0:0:0:
354,102,25761,1,8,3:0:0:0:
226,213,25905,1,0,3:0:0:0:
353,206,26048,1,8,3:0:0:0:
131,47,26191,2,0,L|236:45,1,105.5,0|8,3:0|3:0,0:0:0:0:
15,210,26476,5,0,3:0:0:0:
258,307,26619,2,0,L|363:305,1,105.5,0|0,0:0|3:0,0:0:0:0:
140,187,26905,1,8,3:0:0:0:
267,181,27048,2,0,L|270:75,1,105.5,0|8,3:0|3:0,0:0:0:0:
48,62,27333,1,0,3:0:0:0:
270,45,27476,1,8,3:0:0:0:
37,345,27619,6,0,L|34:239,1,105.5,0|0,3:0|0:0,0:0:0:0:
279,200,27905,2,0,L|333:203,2,52.75,0|0|8,3:0|0:0|3:0,0:0:0:0:
151,295,28191,1,0,3:0:0:0:
279,288,28333,1,8,3:0:0:0:
36,78,28476,2,0,L|142:75,1,105.5,0|8,3:0|3:0,0:0:0:0:
365,294,28762,5,0,3:0:0:0:
238,279,28905,2,0,L|235:173,1,105.5,0|0,0:0|3:0,0:0:0:0:
470,96,29191,1,8,3:0:0:0:
229,85,29333,2,0,L|172:83,2,52.75,0|0|8,3:0|3:0|3:0,0:0:0:0:
357,119,29619,1,0,3:0:0:0:
124,191,29762,1,8,3:0:0:0:
377,245,29905,6,0,L|483:242,1,105.5,4|8,3:0|3:0,0:0:0:0:
259,138,30191,2,0,L|206:136,2,52.75,0|0|8,3:0|3:0|3:0,0:0:0:0:
386,147,30476,1,0,3:0:0:0:
164,314,30619,1,8,3:0:0:0:
301,299,30762,2,0,L|304:193,1,105.5,0|8,3:0|3:0,0:0:0:0:
69,156,31048,5,0,3:0:0:0:
344,172,31191,2,0,L|347:66,1,105.5,8|0,3:0|0:0,0:0:0:0:
220,43,31476,1,8,3:0:0:0:
453,251,31619,2,0,L|506:249,2,52.75,0|0|8,3:0|3:0|3:0,0:0:0:0:
230,180,31905,1,0,3:0:0:0:
357,173,32048,1,8,3:0:0:0:
124,339,32191,6,0,L|121:233,1,105.5,0|8,3:0|3:0,0:0:0:0:
343,229,32476,1,0,3:0:0:0:
344,176,32547,1,0,0:0:0:0:
345,123,32618,1,8,3:0:0:0:
217,289,32762,2,0,L|214:183,1,105.5,0|8,3:0|3:0,0:0:0:0:
449,207,33048,2,0,L|446:101,1,105.5,0|8,3:0|3:0,0:0:0:0:
214,195,33333,5,0,3:0:0:0:
341,184,33476,2,0,L|344:78,1,105.5,8|0,3:0|3:0,0:0:0:0:
98,265,33762,1,8,3:0:0:0:
204,175,33905,1,0,3:0:0:0:
151,173,33976,1,0,3:0:0:0:
98,172,34047,1,10,3:0:0:0:
321,95,34191,1,0,3:0:0:0:
101,97,34333,1,0,3:0:0:0:
333,290,34476,6,0,L|227:287,1,105.5,4|8,3:0|3:0,0:0:0:0:
451,185,34762,2,0,L|503:184,2,52.75,0|0|8,3:0|3:0|3:0,0:0:0:0:
228,72,35048,1,0,3:0:0:0:
355,65,35191,1,8,3:0:0:0:
135,216,35333,2,0,L|29:213,1,105.5,0|8,3:0|3:0,0:0:0:0:
284,331,35619,5,0,3:0:0:0:
31,111,35762,2,0,L|137:108,1,105.5,8|0,3:0|3:0,0:0:0:0:
381,233,36048,1,8,3:0:0:0:
244,152,36191,2,0,L|298:151,1,52.75,0|0,3:0|3:0,0:0:0:0:
444,146,36333,1,8,3:0:0:0:
222,58,36476,2,0,L|328:55,1,105.5,0|0,3:0|0:0,0:0:0:0:
72,327,36762,6,0,L|69:221,1,105.5,2|0,3:0|0:0,0:0:0:0:
367,132,37048,2,0,L|473:129,1,105.5,0|0,3:0|0:0,0:0:0:0:
177,287,37333,2,0,L|173:234,1,52.75,10|0,3:0|3:0,0:0:0:0:
322,93,37476,2,0,L|375:89,1,52.75,10|0,3:0|3:0,0:0:0:0:
172,132,37619,2,0,L|119:128,1,52.75,10|0,3:0|3:0,0:0:0:0:
322,93,37762,2,0,L|375:89,1,52.75,10|0,3:0|3:0,0:0:0:0:
130,340,37905,5,0,3:0:0:0:
83,317,37976,1,0,3:0:0:0:
56,273,38047,1,0,3:0:0:0:
58,221,38119,1,0,3:0:0:0:
88,178,38190,1,0,3:0:0:0:
137,160,38262,1,0,3:0:0:0:
329,148,38333,2,0,L|382:144,1,52.75,0|0,3:0|3:0,0:0:0:0:
174,320,38476,5,2,3:0:0:0:
141,282,38547,1,0,3:0:0:0:
150,234,38618,1,0,3:0:0:0:
193,212,38690,1,0,3:0:0:0:
399,202,38762,2,0,L|346:198,1,52.75,0|0,3:0|3:0,0:0:0:0:
207,185,38905,2,0,L|154:181,1,52.75,0|0,3:0|3:0,0:0:0:0:
390,74,39048,6,0,L|496:71,1,105.5,12|0,3:0|3:0,0:0:0:0:
274,198,39333,1,8,3:0:0:0:
401,195,39476,1,0,3:0:0:0:
168,303,39619,1,8,3:0:0:0:
295,289,39762,1,0,3:0:0:0:
293,236,39833,1,0,3:0:0:0:
292,183,39904,1,8,3:0:0:0:
69,162,40048,1,0,3:0:0:0:
312,111,40191,5,8,3:0:0:0:
81,353,40333,2,0,L|78:247,1,105.5,0|8,3:0|3:0,0:0:0:0:
355,110,40619,1,0,3:0:0:0:
80,73,40762,2,0,L|186:70,1,105.5,8|0,3:0|3:0,0:0:0:0:
409,214,41048,1,8,3:0:0:0:
282,211,41191,1,0,3:0:0:0:
502,120,41333,6,0,L|396:117,1,105.5,12|0,3:0|3:0,0:0:0:0:
163,294,41619,1,8,3:0:0:0:
290,291,41762,1,0,3:0:0:0:
67,195,41905,2,0,L|64:89,1,105.5,8|0,3:0|3:0,0:0:0:0:
298,46,42191,2,0,L|404:43,1,105.5,8|0,3:0|3:0,0:0:0:0:
129,313,42476,6,0,L|235:316,2,105.5,8|0|8,3:0|3:0|3:0,0:0:0:0:
352,188,42905,2,0,L|299:186,1,52.75,0|0,3:0|3:0,0:0:0:0:
150,97,43048,1,8,3:0:0:0:
277,94,43191,1,0,3:0:0:0:
46,210,43333,2,0,L|152:207,1,105.5,8|0,3:0|3:0,0:0:0:0:
375,299,43619,5,12,3:0:0:0:
248,273,43762,1,0,3:0:0:0:
245,167,43904,1,8,3:0:0:0:
468,93,44048,1,0,3:0:0:0:
241,81,44191,1,8,3:0:0:0:
367,254,44333,1,0,3:0:0:0:
369,201,44404,1,0,3:0:0:0:
370,148,44475,1,8,3:0:0:0:
147,125,44619,1,0,3:0:0:0:
374,71,44762,5,8,3:0:0:0:
152,319,44905,2,0,L|149:213,1,105.5,0|8,3:0|3:0,0:0:0:0:
404,112,45191,1,0,3:0:0:0:
152,111,45333,2,0,L|46:108,1,105.5,8|0,3:0|3:0,0:0:0:0:
270,242,45619,1,8,3:0:0:0:
48,253,45762,1,0,3:0:0:0:
323,141,45905,6,0,L|429:138,1,105.5,12|0,3:0|3:0,0:0:0:0:
205,46,46191,1,8,3:0:0:0:
332,43,46334,1,0,3:0:0:0:
101,211,46476,6,0,L|46:213,2,52.75,8|0|0,3:0|3:0|3:0,0:0:0:0:
399,232,46762,2,0,L|454:234,2,52.75,8|0|0,3:0|3:0|3:0,0:0:0:0:
101,341,47048,6,0,L|99:288,1,52.75,2|0,3:0|3:0,0:0:0:0:
293,257,47191,1,0,3:0:0:0:
341,237,47262,1,0,3:0:0:0:
370,195,47333,1,0,3:0:0:0:
371,143,47405,1,0,3:0:0:0:
343,99,47476,1,0,3:0:0:0:
295,79,47548,1,0,3:0:0:0:
107,69,47619,6,0,L|52:66,1,52.75,0|0,3:0|3:0,0:0:0:0:
296,289,47762,2,0,L|305:238,1,52.75,0|0,3:0|3:0,0:0:0:0:
252,182,47905,2,0,L|230:135,1,52.75,0|0,3:0|3:0,0:0:0:0:
171,103,48048,2,0,L|119:103,1,52.75,0|0,3:0|3:0,0:0:0:0:
342,72,48191,6,0,L|447:68,1,105.5,4|8,3:0|3:0,0:0:0:0:
215,236,48476,2,0,L|162:234,2,52.75,0|0|8,3:0|3:0|3:0,0:0:0:0:
343,231,48762,1,0,3:0:0:0:
215,236,48905,1,8,3:0:0:0:
458,158,49048,2,0,L|353:154,1,105.5,0|8,3:0|3:0,0:0:0:0:
120,322,49333,5,0,3:0:0:0:
247,308,49476,2,0,L|251:203,1,105.5,8|0,3:0|3:0,0:0:0:0:
17,157,49762,1,8,3:0:0:0:
260,206,49905,1,0,3:0:0:0:
312,203,49976,1,0,3:0:0:0:
365,201,50047,1,8,3:0:0:0:
237,118,50191,1,0,3:0:0:0:
363,116,50333,1,8,3:0:0:0:
131,321,50476,6,0,L|26:317,1,105.5,0|8,3:0|3:0,0:0:0:0:
153,253,50762,1,0,3:0:0:0:
155,200,50833,1,0,0:0:0:0:
157,147,50904,1,8,3:0:0:0:
285,113,51048,1,0,3:0:0:0:
157,147,51191,2,0,L|50:141,2,105.5,8|0|8,3:0|3:0|3:0,0:0:0:0:
400,293,51619,6,0,L|294:298,2,105.5,0|8|0,3:0|3:0|3:0,0:0:0:0:
272,222,52048,1,8,3:0:0:0:
399,199,52191,2,0,L|451:201,2,52.75,0|0|10,3:0|3:0|3:0,0:0:0:0:
177,131,52476,1,0,0:0:0:0:
304,120,52619,1,8,3:0:0:0:
61,286,52762,6,0,L|167:281,1,105.5,4|8,3:0|3:0,0:0:0:0:
411,197,53048,1,0,3:0:0:0:
358,194,53119,1,0,3:0:0:0:
305,192,53190,1,8,3:0:0:0:
178,182,53333,1,0,3:0:0:0:
421,60,53476,2,0,L|315:65,2,105.5,8|0|8,3:0|3:0|3:0,0:0:0:0:
166,298,53905,5,0,3:0:0:0:
293,216,54048,2,0,L|187:211,1,105.5,0|0,0:0|3:0,0:0:0:0:
409,151,54333,1,8,3:0:0:0:
282,292,54476,1,0,3:0:0:0:
229,289,54547,1,0,3:0:0:0:
176,287,54618,1,8,3:0:0:0:
304,184,54762,1,0,3:0:0:0:
177,194,54905,1,8,3:0:0:0:
420,62,55048,6,0,L|314:57,1,105.5,0|0,3:0|0:0,0:0:0:0:
82,169,55333,1,0,3:0:0:0:
135,166,55404,1,0,0:0:0:0:
188,164,55475,1,8,3:0:0:0:
311,156,55619,1,0,3:0:0:0:
184,65,55762,2,0,L|290:60,1,105.5,8|0,3:0|3:0,0:0:0:0:
417,71,56048,1,8,3:0:0:0:
174,279,56191,5,0,3:0:0:0:
300,254,56333,2,0,L|305:148,1,105.5,0|0,0:0|3:0,0:0:0:0:
82,118,56619,1,8,3:0:0:0:
209,27,56762,1,0,3:0:0:0:
156,24,56833,1,0,3:0:0:0:
103,22,56904,1,8,3:0:0:0:
326,232,57048,1,0,3:0:0:0:
104,226,57191,1,8,3:0:0:0:
356,321,57333,6,0,L|462:316,1,105.5,4|8,3:0|3:0,0:0:0:0:
238,183,57619,2,0,L|185:180,2,52.75,0|0|8,3:0|3:0|3:0,0:0:0:0:
366,175,57905,1,0,3:0:0:0:
238,183,58048,1,8,3:0:0:0:
481,68,58191,2,0,L|375:63,1,105.5,0|8,3:0|3:0,0:0:0:0:
143,304,58476,5,0,3:0:0:0:
365,288,58619,2,0,L|370:182,1,105.5,8|0,3:0|3:0,0:0:0:0:
125,166,58905,1,8,3:0:0:0:
252,73,59048,1,0,3:0:0:0:
199,71,59119,1,0,3:0:0:0:
146,70,59190,1,8,3:0:0:0:
368,175,59333,1,0,3:0:0:0:
240,183,59476,1,8,3:0:0:0:
462,340,59619,6,0,L|467:234,1,105.5,0|8,3:0|3:0,0:0:0:0:
339,261,59905,1,0,3:0:0:0:
336,208,59976,1,0,0:0:0:0:
334,155,60047,1,8,3:0:0:0:
206,117,60191,1,0,3:0:0:0:
332,105,60333,2,0,L|438:109,2,105.5,8|0|8,3:0|3:0|3:0,0:0:0:0:
109,279,60762,5,0,3:0:0:0:
236,271,60905,2,0,L|240:165,1,105.5,8|0,3:0|3:0,0:0:0:0:
112,131,61191,1,8,3:0:0:0:
332,96,61333,2,0,L|278:94,1,52.75,0|0,3:0|3:0,0:0:0:0:
139,106,61476,1,10,3:0:0:0:
361,207,61619,1,0,3:0:0:0:
233,199,61762,1,8,3:0:0:0:
476,354,61905,6,0,L|480:248,1,105.5,4|0,3:0|0:0,0:0:0:0:
235,80,62191,2,0,L|176:77,2,52.75,0|0|8,3:0|3:0|3:0,0:0:0:0:
362,73,62476,1,0,3:0:0:0:
119,189,62619,2,0,L|225:193,2,105.5,8|0|8,3:0|3:0|3:0,0:0:0:0:
364,319,63048,5,0,3:0:0:0:
89,326,63191,2,0,L|85:220,1,105.5,0|0,0:0|3:0,0:0:0:0:
339,160,63476,1,8,3:0:0:0:
212,279,63619,1,0,3:0:0:0:
213,226,63690,1,0,0:0:0:0:
215,173,63761,1,8,3:0:0:0:
438,92,63905,1,0,3:0:0:0:
216,84,64048,1,0,0:0:0:0:
491,293,64191,6,0,L|385:289,1,105.5,2|0,3:0|0:0,0:0:0:0:
143,271,64476,2,0,L|37:267,1,105.5,0|0,3:0|0:0,0:0:0:0:
325,218,64762,6,0,L|331:165,1,52.75,10|0,3:0|3:0,0:0:0:0:
171,106,64905,2,0,L|223:104,1,52.75,10|0,3:0|3:0,0:0:0:0:
391,79,65048,2,0,L|339:77,1,52.75,10|0,3:0|3:0,0:0:0:0:
168,187,65191,2,0,L|116:185,1,52.75,10|0,3:0|3:0,0:0:0:0:
349,335,65333,5,10,3:0:0:0:
393,308,65404,1,0,3:0:0:0:
415,260,65475,1,0,3:0:0:0:
407,209,65547,1,0,3:0:0:0:
372,171,65618,1,8,3:0:0:0:
321,158,65690,1,8,3:0:0:0:
151,163,65762,2,0,L|99:165,1,52.75,8|8,3:0|3:0,0:0:0:0:
273,291,65905,5,0,3:0:0:0:
323,281,65976,1,0,3:0:0:0:
345,236,66047,1,0,3:0:0:0:
323,191,66119,1,0,3:0:0:0:
120,120,66191,2,0,L|172:118,1,52.75,0|0,3:0|3:0,0:0:0:0:
324,102,66333,2,0,L|376:100,1,52.75,0|0,3:0|3:0,0:0:0:0:
155,39,66476,5,4,3:0:0:0:
460,328,66619,2,0,L|466:114,1,211,10|0,3:0|3:0,0:0:0:0:
220,260,67048,2,0,L|217:208,1,52.75,8|0,3:0|0:0,0:0:0:0:
292,191,67191,2,0,L|289:139,1,52.75,0|0,3:0|0:0,0:0:0:0:
87,239,67333,1,0,3:0:0:0:
75,188,67404,1,0,0:0:0:0:
97,142,67475,1,0,3:0:0:0:
144,121,67547,1,0,0:0:0:0:
370,111,67619,5,6,3:0:0:0:
47,288,68762,6,0,L|153:284,1,105.5,4|0,3:0|3:0,0:0:0:0:
397,264,69048,2,0,L|401:158,1,105.5,10|0,3:0|3:0,0:0:0:0:
158,201,69333,2,0,L|154:95,1,105.5,10|0,3:0|3:0,0:0:0:0:
282,66,69619,1,0,3:0:0:0:
155,64,69762,1,0,3:0:0:0:
377,223,69905,6,0,L|483:219,1,105.5,10|0,3:0|3:0,0:0:0:0:
238,322,70191,2,0,L|132:318,1,105.5,10|0,3:0|3:0,0:0:0:0:
354,170,70476,1,2,3:0:0:0:
227,168,70619,1,0,3:0:0:0:
470,244,70762,2,0,L|474:138,1,105.5,10|8,3:0|3:0,0:0:0:0:
198,84,71048,6,0,L|174:57,3,35.1666666666667,0|0|0|0,3:0|3:0|3:0|3:0,0:0:0:0:
420,242,71333,1,10,3:0:0:0:
446,198,71405,1,2,3:0:0:0:
427,151,71476,1,2,3:0:0:0:
379,136,71547,1,2,3:0:0:0:
209,263,71619,5,10,3:0:0:0:
161,248,71690,1,0,3:0:0:0:
142,201,71761,1,0,3:0:0:0:
168,157,71833,1,0,3:0:0:0:
317,138,71905,1,2,3:0:0:0:
365,123,71976,1,2,3:0:0:0:
384,76,72047,1,2,3:0:0:0:
358,32,72119,1,2,3:0:0:0:
165,27,72191,5,6,3:0:0:0:
433,322,73333,6,0,L|437:213,1,105.5,4|0,3:0|3:0,0:0:0:0:
192,110,73619,2,0,L|297:106,1,105.5,10|0,3:0|3:0,0:0:0:0:
53,227,73905,2,0,L|158:223,1,105.5,10|0,3:0|3:0,0:0:0:0:
286,315,74191,1,0,3:0:0:0:
160,313,74333,1,0,3:0:0:0:
403,279,74476,6,0,L|407:170,1,105.5,10|0,3:0|3:0,0:0:0:0:
162,129,74762,1,10,3:0:0:0:
405,82,74905,2,0,L|294:79,2,105.5,0|2|0,3:0|3:0|3:0,0:0:0:0:
162,234,75333,1,10,3:0:0:0:
288,233,75476,1,8,3:0:0:0:
45,325,75619,6,0,L|21:298,3,35.1666666666667,0|0|0|0,3:0|3:0|3:0|3:0,0:0:0:0:
268,343,75905,1,10,3:0:0:0:
318,335,75976,1,2,3:0:0:0:
339,289,76047,1,2,3:0:0:0:
314,245,76119,1,2,3:0:0:0:
144,204,76191,5,8,3:0:0:0:
119,160,76263,1,2,3:0:0:0:
140,114,76334,1,2,3:0:0:0:
190,106,76405,1,2,3:0:0:0:
358,106,76476,1,2,3:0:0:0:
408,114,76547,1,2,3:0:0:0:
429,160,76618,1,2,3:0:0:0:
404,204,76690,1,2,3:0:0:0:
211,233,76762,5,6,3:0:0:0:
444,321,77905,6,0,L|339:317,1,105.5,4|0,3:0|3:0,0:0:0:0:
94,201,78191,2,0,L|199:197,1,105.5,10|0,3:0|3:0,0:0:0:0:
442,185,78476,2,0,L|446:80,1,105.5,2|0,3:0|3:0,0:0:0:0:
318,76,78762,1,0,3:0:0:0:
444,74,78904,1,0,3:0:0:0:
199,319,79048,6,0,L|94:315,1,105.5,10|0,3:0|3:0,0:0:0:0:
220,229,79333,1,2,3:0:0:0:
94,227,79475,1,0,3:0:0:0:
339,147,79619,2,0,L|234:143,1,105.5,2|0,3:0|3:0,0:0:0:0:
106,48,79905,1,10,3:0:0:0:
232,46,80047,1,8,3:0:0:0:
455,185,80191,6,0,L|479:158,3,35.1666666666667,2|2|2|8,3:0|3:0|3:0|3:0,0:0:0:0:
233,342,80476,1,2,3:0:0:0:
208,298,80548,1,2,3:0:0:0:
229,252,80619,1,2,3:0:0:0:
279,244,80690,1,2,3:0:0:0:
449,231,80762,5,10,3:0:0:0:
474,187,80834,1,2,3:0:0:0:
453,141,80905,1,2,3:0:0:0:
403,133,80976,1,2,3:0:0:0:
233,133,81048,1,2,3:0:0:0:
183,141,81119,1,2,3:0:0:0:
162,187,81190,1,2,3:0:0:0:
187,231,81262,1,2,3:0:0:0:
377,293,81333,5,6,3:0:0:0:
56,175,81905,5,6,3:0:0:0:
470,163,82191,1,6,3:0:0:0:
61,339,82476,6,0,L|58:234,1,105.5,4|0,3:0|3:0,0:0:0:0:
281,164,82762,1,10,3:0:0:0:
154,156,82905,1,0,3:0:0:0:
397,273,83048,1,2,3:0:0:0:
154,260,83191,5,0,3:0:0:0:
109,265,83238,1,0,0:0:0:0:
154,260,83286,1,0,0:0:0:0:
324,206,83333,1,2,3:0:0:0:
240,191,83428,1,0,3:0:0:0:
155,176,83524,1,0,3:0:0:0:
379,336,83619,5,0,3:0:0:0:
445,317,83714,1,0,3:0:0:0:
487,262,83809,1,0,3:0:0:0:
487,193,83904,1,0,3:0:0:0:
446,137,83999,1,0,0:0:0:0:
380,117,84095,1,0,3:0:0:0:
160,57,84191,5,6,3:0:0:0:
380,31,84333,1,8,3:0:0:0:
160,149,84476,1,0,3:0:0:0:
287,141,84619,1,8,3:0:0:0:
65,207,84762,5,0,3:0:0:0:
287,269,84905,1,8,3:0:0:0:
160,261,85048,1,0,3:0:0:0:
287,269,85191,1,8,3:0:0:0:
65,207,85333,5,0,3:0:0:0:
287,141,85476,1,8,3:0:0:0:
160,149,85619,1,0,3:0:0:0:
382,210,85762,1,8,3:0:0:0:
139,325,85905,6,0,L|124:274,2,52.75,0|0|8,3:0|0:0|3:0,0:0:0:0:
362,208,86191,1,0,3:0:0:0:
235,200,86334,1,8,3:0:0:0:
476,116,86476,5,0,3:0:0:0:
349,108,86619,1,8,3:0:0:0:
127,116,86762,2,0,L|112:65,2,52.75,0|0|8,3:0|0:0|3:0,0:0:0:0:
350,216,87048,5,0,3:0:0:0:
128,278,87191,1,8,3:0:0:0:
255,270,87334,1,0,3:0:0:0:
128,278,87477,1,8,3:0:0:0:
348,136,87619,5,0,3:0:0:0:
221,128,87762,1,8,3:0:0:0:
464,55,87905,1,0,3:0:0:0:
221,45,88048,1,8,3:0:0:0:
464,55,88191,5,0,3:0:0:0:
244,275,88333,1,8,3:0:0:0:
242,175,88476,1,0,3:0:0:0:
369,165,88619,1,8,3:0:0:0:
126,122,88762,5,6,3:0:0:0:
348,264,88905,1,8,3:0:0:0:
221,254,89048,2,0,L|206:203,2,52.75,0|0|8,3:0|0:0|3:0,0:0:0:0:
464,120,89333,5,0,3:0:0:0:
242,54,89476,1,8,3:0:0:0:
369,62,89619,1,0,3:0:0:0:
147,122,89762,1,8,3:0:0:0:
369,163,89905,5,0,3:0:0:0:
147,225,90048,1,8,3:0:0:0:
274,217,90191,1,0,3:0:0:0:
147,225,90334,1,8,3:0:0:0:
388,331,90476,6,0,L|403:280,2,52.75,0|0|8,3:0|0:0|3:0,0:0:0:0:
166,198,90762,1,0,3:0:0:0:
388,189,90905,1,8,3:0:0:0:
145,315,91048,6,0,L|38:310,1,105.5,6|0,3:0|0:0,0:0:0:0:
261,224,91333,2,0,L|276:173,2,52.75,0|0|8,3:0|3:0|3:0,0:0:0:0:
38,123,91619,5,0,3:0:0:0:
260,57,91762,1,8,3:0:0:0:
133,65,91905,1,0,0:0:0:0:
355,125,92048,1,8,3:0:0:0:
112,215,92191,6,0,L|219:210,1,105.5,2|0,3:0|0:0,0:0:0:0:
344,314,92476,1,0,3:0:0:0:
217,306,92619,1,8,3:0:0:0:
460,240,92762,6,0,L|464:133,1,105.5,0|8,3:0|3:0,0:0:0:0:
219,93,93048,1,0,3:0:0:0:
462,58,93191,2,0,L|407:56,1,52.75,8|8,3:0|3:0,0:0:0:0:
219,186,93333,5,6,3:0:0:0:
346,178,93476,1,0,3:0:0:0:
124,317,93619,2,0,L|109:266,2,52.75,0|0|8,3:0|3:0|3:0,0:0:0:0:
347,317,93905,5,0,3:0:0:0:
124,317,94048,1,8,3:0:0:0:
347,225,94191,1,0,3:0:0:0:
220,217,94334,1,8,3:0:0:0:
461,121,94476,5,0,3:0:0:0:
334,113,94619,1,8,3:0:0:0:
461,121,94762,1,0,3:0:0:0:
239,49,94905,1,8,3:0:0:0:
461,204,95048,5,0,3:0:0:0:
334,196,95191,1,8,3:0:0:0:
114,287,95333,1,0,3:0:0:0:
241,279,95476,1,8,3:0:0:0:
19,185,95619,5,0,3:0:0:0:
146,177,95762,1,8,3:0:0:0:
368,166,95905,2,0,L|383:115,2,52.75,0|0|8,3:0|0:0|3:0,0:0:0:0:
146,259,96191,5,0,3:0:0:0:
368,297,96333,1,8,3:0:0:0:
241,289,96476,1,0,3:0:0:0:
368,297,96619,1,8,3:0:0:0:
146,259,96762,5,0,3:0:0:0:
368,175,96905,1,8,3:0:0:0:
241,183,97048,1,0,3:0:0:0:
463,100,97191,1,8,3:0:0:0:
243,91,97333,5,0,3:0:0:0:
473,175,97476,1,8,3:0:0:0:
362,175,97619,1,0,3:0:0:0:
129,176,97762,1,8,3:0:0:0:
370,304,97905,5,6,3:0:0:0:
243,296,98048,1,8,3:0:0:0:
21,285,98191,2,0,L|6:234,2,52.75,0|0|8,3:0|3:0|3:0,0:0:0:0:
243,118,98476,5,0,3:0:0:0:
21,156,98618,1,8,3:0:0:0:
148,148,98761,1,0,3:0:0:0:
21,156,98904,1,8,3:0:0:0:
244,239,99048,5,2,3:0:0:0:
21,72,99191,1,8,3:0:0:0:
148,64,99334,1,0,3:0:0:0:
368,75,99476,1,8,3:0:0:0:
148,237,99619,6,0,L|133:186,2,52.75,0|0|8,3:0|0:0|3:0,0:0:0:0:
368,252,99905,1,0,3:0:0:0:
148,237,100048,1,8,3:0:0:0:
391,337,100191,6,0,L|444:334,1,52.75,10|8,3:0|3:0,0:0:0:0:
255,336,100333,1,8,3:0:0:0:
205,323,100404,1,8,3:0:0:0:
187,276,100475,1,8,3:0:0:0:
214,233,100547,1,0,3:0:0:0:
390,194,100619,2,0,L|337:191,1,52.75,0|0,3:0|3:0,0:0:0:0:
146,177,100762,5,8,3:0:0:0:
119,134,100834,1,8,3:0:0:0:
137,87,100905,1,8,3:0:0:0:
187,74,100976,1,8,3:0:0:0:
381,94,101048,2,0,L|328:91,1,52.75,0|0,3:0|3:0,0:0:0:0:
187,74,101191,2,0,L|134:71,1,52.75,0|0,3:0|3:0,0:0:0:0:
376,206,101333,5,6,3:0:0:0:
219,316,101619,2,0,L|215:209,1,105.5,0|0,0:0|0:0,0:0:0:0:
321,233,101905,2,0,L|317:126,1,105.5,0|0,0:0|0:0,0:0:0:0:
208,125,102191,2,0,L|191:76,3,52.75,0|0|0|0,3:0|3:0|3:0|3:0,0:0:0:0:
409,320,102476,6,0,P|469:258|409:197,1,189.899994204712,6|0,3:0|3:0,0:0:0:0:
216,198,102762,6,0,L|158:200,1,58.0250017707825,10|0,3:0|3:0,0:0:0:0:
378,313,102905,2,0,L|382:255,1,58.0250017707825,10|0,3:0|3:0,0:0:0:0:
325,212,103048,2,0,L|267:209,1,58.0250017707825,10|0,3:0|3:0,0:0:0:0:
326,126,103191,2,0,L|383:123,1,58.0250017707825,10|0,3:0|3:0,0:0:0:0:
168,99,103333,2,0,L|110:96,1,58.0250017707825,10|0,3:0|3:0,0:0:0:0:
330,32,103476,2,0,L|387:29,1,58.0250017707825,10|0,3:0|3:0,0:0:0:0:
140,352,103619,6,0,L|131:293,1,58.0250017707825,10|0,3:0|3:0,0:0:0:0:
195,252,103762,2,0,L|226:203,1,58.0250017707825,10|0,3:0|3:0,0:0:0:0:
289,180,103905,2,0,L|350:174,1,58.0250017707825,10|0,3:0|3:0,0:0:0:0:
127,84,104048,2,0,L|188:78,1,58.0250017707825,10|0,3:0|3:0,0:0:0:0:
436,307,104191,6,0,L|440:249,1,58.0250017707825,10|0,3:0|3:0,0:0:0:0:
225,204,104333,2,0,L|167:201,1,58.0250017707825,10|0,3:0|3:0,0:0:0:0:
226,117,104476,2,0,L|283:114,1,58.0250017707825,10|0,3:0|3:0,0:0:0:0:
76,314,104619,2,0,L|133:311,1,58.0250017707825,10|0,3:0|3:0,0:0:0:0:
386,318,104762,6,0,L|394:259,1,58.0250017707825,10|0,3:0|3:0,0:0:0:0:
331,218,104905,2,0,L|299:169,1,58.0250017707825,10|0,3:0|3:0,0:0:0:0:
237,145,105048,2,0,L|175:139,1,58.0250017707825,10|0,3:0|3:0,0:0:0:0:
399,71,105191,2,0,L|460:65,1,58.0250017707825,10|0,3:0|3:0,0:0:0:0:
240,234,105333,6,0,L|178:228,1,58.0250017707825,10|0,3:0|3:0,0:0:0:0:
241,321,105476,2,0,L|302:315,1,58.0250017707825,10|0,3:0|3:0,0:0:0:0:
92,320,105619,2,0,L|30:314,1,58.0250017707825,10|0,3:0|3:0,0:0:0:0:
276,144,105762,2,0,L|337:138,1,58.0250017707825,10|0,3:0|3:0,0:0:0:0:
92,263,105905,6,0,L|87:205,1,58.0250017707825,10|0,3:0|3:0,0:0:0:0:
144,162,106048,2,0,L|201:159,1,58.0250017707825,10|0,3:0|3:0,0:0:0:0:
143,75,106191,2,0,L|85:72,1,58.0250017707825,10|0,3:0|3:0,0:0:0:0:
302,26,106333,2,0,L|359:23,1,58.0250017707825,10|0,3:0|3:0,0:0:0:0:
117,309,106476,5,10,3:0:0:0:
88,263,106548,1,0,3:0:0:0:
108,212,106619,1,10,3:0:0:0:
162,198,106690,1,0,3:0:0:0:
403,220,106762,2,0,L|345:216,1,58.0250017707825,10|0,3:0|3:0,0:0:0:0:
162,198,106905,2,0,L|104:194,1,58.0250017707825,10|0,3:0|3:0,0:0:0:0:
360,86,107048,5,2,3:0:0:0:
138,95,107191,1,8,3:0:0:0:
379,181,107333,2,0,L|433:183,2,52.75,0|0|8,3:0|3:0|3:0,0:0:0:0:
156,281,107619,1,0,3:0:0:0:
399,309,107762,2,0,L|346:306,1,52.75,8|0,3:0|3:0,0:0:0:0:
197,204,107905,2,0,L|250:201,1,52.75,0|0,3:0|3:0,0:0:0:0:
324,200,108048,1,8,3:0:0:0:
102,87,108191,5,2,3:0:0:0:
324,78,108334,1,8,3:0:0:0:
83,222,108476,2,0,L|140:219,1,52.75,0|0,3:0|3:0,0:0:0:0:
316,328,108619,2,0,L|211:325,1,105.5,8|0,3:0|3:0,0:0:0:0:
434,239,108905,1,8,3:0:0:0:
191,221,109048,1,0,3:0:0:0:
189,168,109119,1,0,3:0:0:0:
188,115,109190,1,8,3:0:0:0:
463,67,109333,6,0,L|357:63,1,105.5,10|0,3:0|3:0,0:0:0:0:
113,177,109619,1,8,3:0:0:0:
358,246,109762,2,0,L|304:243,1,52.75,0|0,3:0|3:0,0:0:0:0:
103,362,109905,6,0,L|99:256,1,105.5,10|0,3:0|3:0,0:0:0:0:
174,240,110119,1,0,3:0:0:0:
366,234,110191,1,2,3:0:0:0:
398,182,110263,1,0,3:0:0:0:
376,126,110334,1,0,3:0:0:0:
316,110,110405,1,0,3:0:0:0:
115,83,110476,6,0,L|168:80,1,52.75,2|0,3:0|3:0,0:0:0:0:
309,63,110619,2,0,L|362:60,1,52.75,0|0,3:0|3:0,0:0:0:0:
157,309,110762,1,2,3:0:0:0:
97,292,110833,1,0,3:0:0:0:
75,236,110904,1,0,3:0:0:0:
107,184,110976,1,0,3:0:0:0:
352,145,111048,5,10,3:0:0:0:
128,125,111191,1,0,3:0:0:0:
464,283,111333,2,0,L|358:279,1,105.5,8|0,3:0|3:0,0:0:0:0:
71,269,111619,5,2,3:0:0:0:
293,220,111762,1,8,3:0:0:0:
166,206,111905,1,0,3:0:0:0:
167,153,111976,1,0,3:0:0:0:
168,100,112047,1,8,3:0:0:0:
391,56,112191,1,0,3:0:0:0:
265,51,112333,1,8,3:0:0:0:
487,155,112476,1,0,3:0:0:0:
434,154,112547,1,0,3:0:0:0:
381,153,112618,1,8,3:0:0:0:
158,269,112762,5,2,3:0:0:0:
284,264,112904,1,8,3:0:0:0:
61,172,113048,2,0,L|8:173,2,52.75,0|0|8,3:0|3:0|3:0,0:0:0:0:
177,169,113333,1,0,3:0:0:0:
399,162,113476,1,8,3:0:0:0:
177,354,113619,1,0,3:0:0:0:
176,301,113690,1,0,3:0:0:0:
175,248,113761,1,8,3:0:0:0:
420,68,113905,5,2,3:0:0:0:
198,181,114048,1,8,3:0:0:0:
325,197,114191,2,0,L|377:193,2,52.75,0|0|8,3:0|3:0|3:0,0:0:0:0:
103,291,114476,1,0,3:0:0:0:
325,269,114619,2,0,L|328:217,1,52.75,8|0,3:0|3:0,0:0:0:0:
179,198,114762,2,0,L|182:146,1,52.75,0|0,3:0|3:0,0:0:0:0:
246,135,114905,1,8,3:0:0:0:
489,60,115048,6,0,L|380:57,1,105.5,2|8,3:0|3:0,0:0:0:0:
162,169,115333,1,0,3:0:0:0:
215,168,115404,1,0,3:0:0:0:
268,167,115475,1,8,3:0:0:0:
396,178,115619,1,0,3:0:0:0:
174,255,115762,1,8,3:0:0:0:
417,293,115905,2,0,L|474:290,2,52.75,0|0|8,3:0|3:0|3:0,0:0:0:0:
141,359,116191,5,2,3:0:0:0:
87,325,116262,1,0,3:0:0:0:
49,275,116333,1,0,3:0:0:0:
35,213,116405,1,0,3:0:0:0:
46,151,116476,1,0,3:0:0:0:
81,98,116548,1,0,3:0:0:0:
132,62,116619,1,0,3:0:0:0:
193,49,116690,1,0,3:0:0:0:
438,69,116762,6,0,L|445:280,1,211,14|0,3:0|3:0,0:0:0:0:
76,340,117333,5,0,3:0:0:0:
48,288,117405,1,0,3:0:0:0:
75,231,117476,1,8,3:0:0:0:
135,216,117547,1,8,3:0:0:0:
284,213,117619,2,0,L|337:215,1,52.75,0|0,3:0|3:0,0:0:0:0:
283,128,117762,2,0,L|230:130,1,52.75,0|0,3:0|3:0,0:0:0:0:
433,82,117905,1,6,3:0:0:0:
66,309,118476,6,0,P|40:274|121:158,1,211,2|0,3:0|0:0,0:0:0:0:
344,219,118905,1,0,0:0:0:0:
217,210,119048,2,0,L|214:105,1,105.5,0|8,3:0|3:0,0:0:0:0:
436,56,119333,1,2,3:0:0:0:
214,53,119476,1,8,3:0:0:0:
457,298,119619,6,0,P|481:271|409:143,1,211,2|0,3:0|0:0,0:0:0:0:
283,140,120048,1,8,3:0:0:0:
61,278,120191,2,0,L|167:274,1,105.5,0|8,3:0|3:0,0:0:0:0:
388,202,120476,1,2,3:0:0:0:
166,195,120619,1,8,3:0:0:0:
409,84,120762,6,0,L|412:189,1,105.5,2|8,3:0|3:0,0:0:0:0:
284,281,121048,1,0,0:0:0:0:
347,279,121119,1,0,0:0:0:0:
410,277,121190,1,8,0:0:0:0:
167,146,121333,1,2,0:0:0:0:
294,153,121476,1,8,0:0:0:0:
167,146,121619,1,2,0:0:0:0:
410,65,121762,1,10,3:0:0:0:
167,339,121905,6,0,P|105:329|89:202,1,211,2|0,3:0|3:0,0:0:0:0:
332,150,122333,2,0,L|386:148,1,52.75,0|0,3:0|0:0,0:0:0:0:
195,327,122476,2,0,B|68:324|68:324|194:318|194:318|68:312,1,379.799988409424,2|0,3:0|0:0,0:0:0:0:
312,231,123048,6,0,L|418:229,1,105.5,6|8,3:0|3:0,0:0:0:0:
196,119,123333,2,0,L|175:70,2,52.75,0|0|8,3:0|0:0|3:0,0:0:0:0:
324,129,123619,1,2,3:0:0:0:
102,237,123762,1,8,3:0:0:0:
229,243,123905,1,2,3:0:0:0:
102,237,124048,1,8,3:0:0:0:
324,335,124191,5,2,3:0:0:0:
197,329,124334,1,8,3:0:0:0:
324,335,124476,1,2,3:0:0:0:
102,237,124619,1,8,3:0:0:0:
377,302,124762,2,0,P|423:286|372:48,1,369.25,2|0,3:0|0:0,0:0:0:0:
182,51,125333,6,0,L|73:53,1,105.5,6|0,3:0|0:0,0:0:0:0:
300,153,125619,2,0,L|321:202,2,52.75,0|0|0,0:0|0:0|0:0,0:0:0:0:
77,143,125905,1,0,0:0:0:0:
299,329,126048,1,8,0:0:0:0:
304,231,126191,1,0,0:0:0:0:
178,214,126333,1,8,3:0:0:0:
421,161,126476,5,2,3:0:0:0:
178,119,126619,2,0,L|157:70,2,52.75,8|0|0,3:0|0:0|3:0,0:0:0:0:
306,125,126905,1,8,3:0:0:0:
74,224,127048,1,2,3:0:0:0:
296,250,127191,1,8,3:0:0:0:
170,256,127333,1,2,3:0:0:0:
392,315,127476,2,0,L|444:313,1,52.75,8|0,3:0|3:0,0:0:0:0:
242,344,127619,6,0,P|196:331|189:190,1,211,6|0,3:0|3:0,0:0:0:0:
240,185,127976,1,0,0:0:0:0:
293,178,128048,1,10,3:0:0:0:
71,156,128191,2,0,L|65:51,1,105.5,0|8,0:0|3:0,0:0:0:0:
287,83,128476,1,2,3:0:0:0:
160,76,128619,1,8,3:0:0:0:
403,322,128762,6,0,P|438:285|364:172,1,211,6|0,3:0|3:0,0:0:0:0:
121,277,129191,2,0,L|118:171,1,105.5,10|0,3:0|0:0,0:0:0:0:
340,121,129476,1,10,3:0:0:0:
213,113,129619,1,2,3:0:0:0:
435,247,129762,1,10,3:0:0:0:
160,331,129905,6,0,P|114:320|115:185,1,211,6|0,3:0|3:0,0:0:0:0:
348,138,130333,2,0,L|237:135,1,105.5,10|0,3:0|0:0,0:0:0:0:
115,127,130619,1,8,3:0:0:0:
390,345,130762,2,0,L|393:239,1,105.5,2|8,3:0|3:0,0:0:0:0:
84,296,131048,6,0,P|55:269|160:73,1,316.5,2|0,3:0|0:0,0:0:0:0:
400,227,131619,2,0,L|404:120,1,105.5,0|8,0:0|0:0,0:0:0:0:
127,352,131905,2,0,L|123:245,1,105.5,0|8,0:0|0:0,0:0:0:0:
400,132,132191,5,4,3:0:0:0:
127,122,132333,1,8,3:0:0:0:
405,384,132476,2,0,B|473:360|492:329|503:229|467:178|412:149|385:147|347:153|347:153|385:167|417:168|451:145|478:124|487:94|455:52|401:43,1,580.250017707825,2|8,3:0|0:0,0:0:0:0:
187,60,133333,6,0,L|81:58,1,105.5,2|8,0:0|0:0,0:0:0:0:
305,168,133619,2,0,L|199:166,1,105.5,0|8,0:0|0:0,0:0:0:0:
423,345,133905,2,0,L|425:239,1,105.5,0|8,0:0|0:0,0:0:0:0:
202,264,134191,2,0,L|308:262,1,105.5,0|8,3:0|3:0,0:0:0:0:
65,324,134476,6,0,P|60:286|103:236,1,105.5,2|8,3:0|3:0,0:0:0:0:
273,218,134691,2,0,P|278:180|235:130,1,105.5,2|0,3:0|3:0,0:0:0:0:
174,128,134905,1,10,0:0:0:0:
449,324,135048,6,0,P|454:286|411:236,1,105.5,2|8,3:0|3:0,0:0:0:0:
241,218,135263,2,0,P|236:180|279:130,1,105.5,2|8,3:0|3:0,0:0:0:0:
340,128,135477,1,10,3:0:0:0:
403,128,135548,1,8,3:0:0:0:
214,322,135619,6,0,L|108:317,1,105.5,2|8,3:0|3:0,0:0:0:0:
279,217,135833,2,0,L|385:212,1,105.5,2|0,3:0|3:0,0:0:0:0:
212,127,136048,1,10,3:0:0:0:
456,343,136191,6,0,P|469:292|459:233,1,105.5,2|8,3:0|3:0,0:0:0:0:
458,179,136405,1,8,3:0:0:0:
441,129,136476,1,8,3:0:0:0:
407,88,136548,1,8,3:0:0:0:
362,61,136619,1,8,3:0:0:0:
311,52,136691,1,8,3:0:0:0:
75,54,136762,5,6,3:0:0:0:
455,129,137333,5,6,3:0:0:0:
75,176,137905,5,6,3:0:0:0:
455,251,138476,5,6,3:0:0:0:
75,299,139048,6,0,L|72:213,1,84.3999974243165,6|0,2:3|2:0,0:0:0:0:
227,203,139238,1,0,2:0:0:0:
381,180,139333,2,0,L|468:184,2,84.3999974243165,2|0|0,2:3|2:0|2:0,0:0:0:0:
225,202,139619,6,0,L|222:116,1,84.3999974243165,2|0,2:3|2:0,0:0:0:0:
307,109,139810,1,0,2:0:0:0:
82,135,139905,2,0,L|79:49,1,84.3999974243165,2|0,2:3|2:0,0:0:0:0:
164,42,140096,1,0,2:0:0:0:
361,335,140191,5,2,2:3:0:0:
276,313,140287,2,0,L|273:227,1,84.3999974243165,0|0,2:0|0:0,0:0:0:0:
454,209,140476,2,0,L|458:123,1,84.3999974243165,0|0,2:0|2:0,0:0:0:0:
372,116,140667,1,0,2:0:0:0:
175,103,140762,6,0,L|90:109,2,84.3999974243165,2|0|0,2:3|2:0|2:0,0:0:0:0:
374,262,141048,2,0,L|289:256,1,84.3999974243165,0|0,2:0|2:0,0:0:0:0:
107,240,141238,1,0,2:0:0:0:
304,358,141333,5,2,2:3:0:0:
379,342,141428,1,0,2:0:0:0:
435,292,141523,1,0,2:0:0:0:
456,220,141618,1,0,2:0:0:0:
438,147,141713,1,0,2:0:0:0:
384,93,141809,1,0,2:0:0:0:
157,185,141905,6,0,L|154:99,1,84.3999974243165,2|0,2:3|2:0,0:0:0:0:
239,92,142096,1,0,2:0:0:0:
337,175,142191,2,0,L|250:170,2,84.3999974243165,0|0|0,2:0|2:0|2:0,0:0:0:0:
140,283,142476,6,0,L|56:286,2,84.3999974243165,2|0|0,2:3|2:0|2:0,0:0:0:0:
239,245,142762,2,0,L|243:159,1,84.3999974243165,0|0,2:0|2:0,0:0:0:0:
157,152,142953,1,0,2:0:0:0:
354,86,143048,6,0,L|440:89,2,84.3999974243165,2|0|0,2:3|2:0|2:0,0:0:0:0:
270,197,143333,2,0,L|356:192,1,84.3999974243165,0|0,2:0|2:0,0:0:0:0:
439,183,143524,1,0,2:0:0:0:
229,317,143619,6,0,L|225:233,1,84.3999974243165,2|0,2:3|2:0,0:0:0:0:
310,210,143810,1,0,2:0:0:0:
132,217,143905,2,0,L|47:220,2,84.3999974243165,2|0|0,2:3|2:0|2:0,0:0:0:0:
331,175,144191,5,2,2:3:0:0:
246,151,144287,2,0,L|243:65,1,84.3999974243165,0|0,2:3|2:0,0:0:0:0:
438,48,144476,2,0,L|353:51,2,84.3999974243165,2|0|0,2:3|2:3|2:0,0:0:0:0:
239,321,144762,6,0,L|236:235,1,84.3999974243165,2|0,2:3|2:0,0:0:0:0:
321,228,144953,1,0,2:3:0:0:
124,232,145048,2,0,L|121:146,1,84.3999974243165,2|0,2:3|2:3,0:0:0:0:
206,139,145239,1,0,2:0:0:0:
401,83,145333,6,0,L|316:86,2,84.3999974243165,2|0|0,2:3|2:0|2:0,0:0:0:0:
202,242,145619,2,0,L|75:237,1,126.599996136475,2|0,2:3|0:0,0:0:0:0:
139,202,145833,1,0,0:0:0:0:
331,182,145905,6,0,L|335:96,1,84.3999974243165,2|0,2:3|2:0,0:0:0:0:
249,89,146096,1,0,2:0:0:0:
52,42,146191,2,0,L|138:45,2,84.3999974243165,0|0|0,2:0|2:0|2:0,0:0:0:0:
249,261,146476,6,0,L|335:257,2,84.3999974243165,2|0|0,2:3|2:0|2:0,0:0:0:0:
50,259,146762,1,2,2:3:0:0:
40,197,146833,1,0,0:0:0:0:
71,145,146904,1,0,0:0:0:0:
130,125,146976,1,0,0:0:0:0:
300,112,147048,5,2,2:3:0:0:
214,99,147144,2,0,L|211:13,1,84.3999974243165,0|0,2:0|2:0,0:0:0:0:
407,34,147333,2,0,L|323:37,2,84.3999974243165,0|0|0,2:0|2:0|2:0,0:0:0:0:
208,297,147619,6,0,L|205:211,1,84.3999974243165,2|0,2:3|2:0,0:0:0:0:
290,204,147810,1,0,2:0:0:0:
374,190,147905,2,0,L|378:104,1,84.3999974243165,0|0,2:3|2:0,0:0:0:0:
292,97,148096,1,0,2:0:0:0:
95,338,148191,5,2,2:3:0:0:
50,284,148286,1,0,2:0:0:0:
36,216,148381,1,0,2:0:0:0:
55,150,148476,1,2,2:3:0:0:
103,100,148571,1,0,2:0:0:0:
170,79,148667,1,0,2:0:0:0:
376,197,148762,6,0,L|288:193,1,84.3999974243165,2|0,2:3|2:0,0:0:0:0:
207,191,148952,1,0,2:0:0:0:
420,343,149048,1,0,0:0:0:0:
460,310,149119,1,0,0:0:0:0:
457,259,149190,1,0,0:0:0:0:
416,230,149262,1,0,0:0:0:0:
248,226,149333,6,0,L|163:229,2,84.3999974243165,2|0|0,2:3|2:0|2:0,0:0:0:0:
49,184,149619,2,0,L|46:98,1,84.3999974243165,0|0,2:0|2:0,0:0:0:0:
131,91,149810,1,0,2:0:0:0:
328,239,149905,5,2,2:3:0:0:
243,215,150001,2,0,L|240:129,1,84.3999974243165,0|0,2:0|2:0,0:0:0:0:
437,156,150191,2,0,L|441:70,1,84.3999974243165,2|0,2:3|2:0,0:0:0:0:
355,63,150382,1,0,2:0:0:0:
160,335,150476,6,0,L|249:331,1,84.3999974243165,2|0,2:3|2:0,0:0:0:0:
329,329,150666,1,0,2:0:0:0:
116,218,150762,2,0,L|202:214,2,84.3999974243165,2|0|0,2:3|2:0|2:0,0:0:0:0:
315,124,151048,6,0,L|401:127,2,84.3999974243165,0|0|0,2:0|2:0|2:0,0:0:0:0:
118,262,151333,1,0,0:0:0:0:
78,229,151404,1,0,0:0:0:0:
81,178,151475,1,0,0:0:0:0:
122,149,151547,1,0,0:0:0:0:
292,242,151619,5,2,2:3:0:0:
207,218,151715,2,0,L|204:132,1,84.3999974243165,0|0,2:0|2:0,0:0:0:0:
401,101,151905,2,0,L|487:105,2,84.3999974243165,0|0|0,2:0|2:0|2:0,0:0:0:0:
202,323,152191,6,0,L|288:319,2,84.3999974243165,2|0|0,2:3|2:0|2:0,0:0:0:0:
399,266,152476,2,0,L|403:180,1,84.3999974243165,0|0,2:0|2:0,0:0:0:0:
317,173,152667,1,0,2:0:0:0:
120,161,152762,6,0,L|35:164,2,84.3999974243165,2|0|0,2:3|2:0|2:0,0:0:0:0:
319,301,153048,2,0,L|231:297,1,84.3999974243165,2|0,2:3|2:0,0:0:0:0:
150,295,153238,1,0,2:0:0:0:
361,180,153333,6,0,L|276:183,2,84.3999974243165,2|0|0,2:3|2:0|2:0,0:0:0:0:
162,207,153619,1,2,2:3:0:0:
160,144,153690,1,0,0:0:0:0:
195,93,153761,1,0,0:0:0:0:
254,72,153833,1,0,0:0:0:0:
424,258,153905,6,0,L|428:172,1,84.3999974243165,2|0,2:3|2:0,0:0:0:0:
342,165,154096,1,0,2:0:0:0:
145,126,154191,2,0,L|231:122,2,84.3999974243165,2|0|0,2:3|2:0|2:0,0:0:0:0:
342,249,154476,6,0,L|428:252,2,84.3999974243165,2|0|0,2:3|2:0|2:0,0:0:0:0:
115,228,154762,2,0,L|180:224,1,63.2999980682374,2|0,2:3|0:0,0:0:0:0:
338,204,154905,2,0,L|403:200,1,63.2999980682374
220,162,155048,5,2,2:3:0:0:
304,153,155143,2,0,L|308:69,1,84.3999974243165,0|0,2:0|2:0,0:0:0:0:
82,58,155333,2,0,L|147:54,1,63.2999980682374,10|0,2:3|0:0,0:0:0:0:
305,34,155476,2,0,L|370:30,1,63.2999980682374
187,304,155619,6,0,L|184:218,1,84.3999974243165,2|0,2:3|2:0,0:0:0:0:
269,211,155810,1,0,2:0:0:0:
489,155,155905,2,0,L|425:151,1,63.2999980682374,10|0,2:3|0:0,0:0:0:0:
271,133,156048,2,0,L|207:129,1,63.2999980682374,0|0,0:0|0:0,0:0:0:0:
389,331,156191,6,0,L|393:245,1,84.3999974243165,2|0,2:3|2:0,0:0:0:0:
193,220,156382,1,0,2:0:0:0:
415,204,156476,1,10,2:3:0:0:
458,176,156547,1,0,0:0:0:0:
455,126,156618,1,0,0:0:0:0:
410,103,156690,1,0,0:0:0:0:
208,73,156762,5,2,2:3:0:0:
292,67,156857,1,0,2:0:0:0:
208,73,156952,1,0,2:0:0:0:
415,204,157048,1,2,2:3:0:0:
331,198,157143,1,2,2:3:0:0:
415,204,157238,1,2,2:3:0:0:
190,286,157333,6,0,L|80:280,1,105.5,4|8,3:0|3:0,0:0:0:0:
329,210,157619,2,0,L|382:206,2,52.75,0|0|8,3:0|3:0|3:0,0:0:0:0:
84,190,157905,1,0,3:0:0:0:
306,101,158048,1,8,3:0:0:0:
179,106,158191,1,0,3:0:0:0:
306,101,158333,1,8,3:0:0:0:
63,295,158476,5,0,3:0:0:0:
285,265,158619,2,0,L|289:160,1,105.5,8|0,3:0|3:0,0:0:0:0:
161,134,158905,1,8,3:0:0:0:
404,113,159048,1,0,3:0:0:0:
163,41,159190,1,8,3:0:0:0:
290,46,159333,1,0,3:0:0:0:
163,41,159475,1,8,3:0:0:0:
408,316,159619,6,0,L|412:210,1,105.5,0|8,3:0|3:0,0:0:0:0:
167,150,159905,1,0,3:0:0:0:
220,147,159976,1,0,0:0:0:0:
273,145,160047,1,8,3:0:0:0:
401,162,160191,1,0,3:0:0:0:
273,145,160333,1,8,3:0:0:0:
495,292,160476,2,0,L|390:285,1,105.5,0|8,3:0|3:0,0:0:0:0:
145,289,160762,5,2,3:0:0:0:
272,272,160905,2,0,L|275:165,1,105.5,8|0,3:0|3:0,0:0:0:0:
52,81,161191,1,8,3:0:0:0:
272,60,161333,2,0,L|331:63,2,52.75,0|0|10,3:0|3:0|3:0,0:0:0:0:
144,61,161619,1,0,0:0:0:0:
387,177,161762,1,8,3:0:0:0:
165,293,161905,6,0,L|272:290,1,105.5,4|8,3:0|3:0,0:0:0:0:
26,186,162191,2,0,L|5:135,2,52.75,0|0|8,3:0|3:0|3:0,0:0:0:0:
248,218,162476,1,0,3:0:0:0:
121,205,162619,1,8,3:0:0:0:
343,120,162762,2,0,L|236:117,1,105.5,0|8,3:0|3:0,0:0:0:0:
482,242,163048,5,0,3:0:0:0:
260,335,163191,2,0,L|255:230,1,105.5,0|0,0:0|3:0,0:0:0:0:
382,203,163476,1,8,3:0:0:0:
160,122,163619,1,0,3:0:0:0:
213,120,163690,1,0,3:0:0:0:
266,119,163761,1,8,3:0:0:0:
138,30,163905,1,0,3:0:0:0:
381,137,164048,1,8,3:0:0:0:
138,277,164191,6,0,L|32:273,1,105.5,0|0,3:0|0:0,0:0:0:0:
275,201,164476,2,0,L|327:198,2,52.75,0|0|8,3:0|0:0|3:0,0:0:0:0:
147,192,164762,1,0,3:0:0:0:
274,112,164905,1,8,3:0:0:0:
31,61,165048,2,0,L|137:57,1,105.5,0|8,3:0|3:0,0:0:0:0:
379,323,165333,5,0,3:0:0:0:
252,316,165476,2,0,L|246:209,1,105.5,0|0,0:0|3:0,0:0:0:0:
469,160,165762,1,8,3:0:0:0:
247,127,165905,1,0,3:0:0:0:
195,125,165976,1,0,3:0:0:0:
142,123,166047,1,8,3:0:0:0:
365,247,166191,1,0,3:0:0:0:
145,231,166333,1,8,3:0:0:0:
388,344,166476,6,0,L|493:340,1,105.5,4|8,3:0|3:0,0:0:0:0:
249,221,166762,1,0,3:0:0:0:
302,218,166833,1,0,3:0:0:0:
355,216,166904,1,8,3:0:0:0:
132,147,167048,1,0,3:0:0:0:
259,138,167191,2,0,L|263:32,1,105.5,8|0,3:0|3:0,0:0:0:0:
41,27,167476,1,8,3:0:0:0:
284,276,167619,5,0,3:0:0:0:
41,219,167762,2,0,L|147:214,1,105.5,8|0,3:0|0:0,0:0:0:0:
391,220,168048,1,8,3:0:0:0:
264,203,168191,1,0,3:0:0:0:
262,150,168262,1,0,3:0:0:0:
260,97,168333,1,8,3:0:0:0:
387,71,168476,1,0,3:0:0:0:
144,49,168619,1,8,3:0:0:0:
387,323,168762,6,0,L|281:318,1,105.5,2|8,3:0|3:0,0:0:0:0:
409,237,169048,2,0,L|423:186,2,52.75,0|0|8,3:0|0:0|3:0,0:0:0:0:
282,114,169333,1,0,3:0:0:0:
409,106,169476,1,8,3:0:0:0:
282,308,169619,2,0,L|277:202,1,105.5,0|8,3:0|3:0,0:0:0:0:
54,212,169905,6,0,L|49:106,1,105.5,0|8,3:0|3:0,0:0:0:0:
177,64,170191,1,0,3:0:0:0:
51,54,170333,1,8,3:0:0:0:
294,173,170476,2,0,L|240:171,1,52.75,0|0,3:0|3:0,0:0:0:0:
71,163,170619,1,10,3:0:0:0:
314,287,170762,1,0,3:0:0:0:
188,277,170904,1,8,3:0:0:0:
433,239,171048,6,0,L|438:134,1,105.5,4|0,3:0|0:0,0:0:0:0:
195,68,171333,2,0,L|140:72,2,52.75,0|0|8,3:0|3:0|3:0,0:0:0:0:
323,98,171619,1,0,3:0:0:0:
101,173,171762,1,8,3:0:0:0:
344,247,171905,2,0,L|454:243,1,105.5,0|8,3:0|3:0,0:0:0:0:
205,330,172191,5,0,3:0:0:0:
446,158,172333,2,0,L|336:154,1,105.5,0|0,0:0|3:0,0:0:0:0:
117,197,172619,1,8,3:0:0:0:
244,218,172762,2,0,L|297:215,2,52.75,0|0|8,3:0|0:0|3:0,0:0:0:0:
117,197,173048,1,0,3:0:0:0:
360,133,173191,1,0,0:0:0:0:
66,68,173333,6,0,L|172:63,1,105.5,2|8,3:0|3:0,0:0:0:0:
395,220,173619,1,0,3:0:0:0:
343,217,173690,1,0,3:0:0:0:
290,215,173761,1,8,3:0:0:0:
418,320,173905,1,2,3:0:0:0:
175,325,174048,1,8,3:0:0:0:
450,313,174191,1,0,3:0:0:0:
485,261,174262,1,0,3:0:0:0:
467,203,174333,1,0,3:0:0:0:
411,181,174405,1,0,0:0:0:0:
212,167,174476,6,0,L|158:164,1,52.75,8|0,3:0|3:0,0:0:0:0:
329,258,174619,1,0,3:0:0:0:
364,206,174690,1,0,3:0:0:0:
346,148,174761,1,8,3:0:0:0:
290,126,174833,1,8,3:0:0:0:
120,101,174905,2,0,L|66:98,1,52.75,0|0,3:0|3:0,0:0:0:0:
238,344,175048,5,0,3:0:0:0:
301,336,175119,1,0,3:0:0:0:
349,297,175190,1,0,3:0:0:0:
367,237,175262,1,0,3:0:0:0:
349,177,175333,1,0,3:0:0:0:
301,137,175405,1,0,3:0:0:0:
65,60,175476,2,0,L|119:57,1,52.75,0|0,3:0|3:0,0:0:0:0:
288,47,175619,5,4,3:0:0:0:
16,345,175762,2,0,L|9:131,1,211,10|0,3:0|3:0,0:0:0:0:
307,229,176191,2,0,L|360:225,1,52.75,8|0,3:0|0:0,0:0:0:0:
307,143,176333,2,0,L|254:139,1,52.75,0|0,3:0|0:0,0:0:0:0:
425,344,176476,1,0,3:0:0:0:
472,304,176547,1,0,0:0:0:0:
468,243,176618,1,0,3:0:0:0:
416,211,176690,1,0,0:0:0:0:
86,201,176762,5,6,3:0:0:0:
376,171,177905,6,0,L|483:167,1,105.5,4|0,3:0|3:0,0:0:0:0:
237,51,178191,2,0,L|344:47,1,105.5,10|0,3:0|3:0,0:0:0:0:
68,330,178476,2,0,L|64:223,1,105.5,10|0,3:0|3:0,0:0:0:0:
192,146,178762,1,0,3:0:0:0:
65,139,178905,1,0,3:0:0:0:
340,285,179048,6,0,L|344:178,1,105.5,10|0,3:0|3:0,0:0:0:0:
101,106,179333,1,10,3:0:0:0:
344,96,179476,1,0,3:0:0:0:
217,101,179619,1,2,3:0:0:0:
344,96,179762,1,0,3:0:0:0:
122,203,179905,1,10,3:0:0:0:
249,198,180048,1,8,3:0:0:0:
471,191,180191,6,0,L|495:218,3,35.1666666666667,2|2|2|2,3:0|3:0|3:0|3:0,0:0:0:0:
251,160,180476,1,10,3:0:0:0:
204,172,180547,1,2,3:0:0:0:
183,216,180618,1,2,3:0:0:0:
201,261,180690,1,2,3:0:0:0:
371,202,180762,5,10,3:0:0:0:
389,157,180834,1,2,3:0:0:0:
368,113,180905,1,2,3:0:0:0:
321,101,180976,1,2,3:0:0:0:
151,101,181048,1,2,3:0:0:0:
104,113,181119,1,2,3:0:0:0:
83,157,181190,1,2,3:0:0:0:
101,202,181262,1,2,3:0:0:0:
300,246,181333,5,6,3:0:0:0:
43,289,182476,6,0,L|151:286,1,105.5,4|0,3:0|3:0,0:0:0:0:
393,262,182762,2,0,L|396:157,1,105.5,10|0,3:0|3:0,0:0:0:0:
119,260,183048,2,0,L|115:153,1,105.5,10|0,3:0|3:0,0:0:0:0:
243,76,183334,1,0,3:0:0:0:
116,69,183477,1,0,3:0:0:0:
391,215,183620,6,0,L|395:108,1,105.5,10|0,3:0|3:0,0:0:0:0:
152,24,183905,2,0,L|44:21,1,105.5,10|0,3:0|3:0,0:0:0:0:
291,140,184191,2,0,L|183:137,1,105.5,2|0,3:0|3:0,0:0:0:0:
428,256,184476,1,10,3:0:0:0:
185,241,184619,1,8,3:0:0:0:
438,349,184762,5,10,3:0:0:0:
471,307,184833,1,0,0:0:0:0:
487,257,184904,1,2,3:0:0:0:
485,205,184976,1,0,0:0:0:0:
466,156,185047,1,2,3:0:0:0:
431,116,185119,1,2,3:0:0:0:
385,91,185190,1,2,3:0:0:0:
333,83,185262,1,2,3:0:0:0:
74,349,185333,5,2,3:0:0:0:
42,307,185404,1,2,3:0:0:0:
26,257,185475,1,2,3:0:0:0:
28,205,185547,1,2,3:0:0:0:
47,156,185618,1,2,3:0:0:0:
82,116,185690,1,2,3:0:0:0:
128,91,185761,1,2,3:0:0:0:
180,83,185833,1,2,3:0:0:0:
438,83,185905,5,6,3:0:0:0:
60,269,186476,5,6,3:0:0:0:
488,250,186762,5,6,3:0:0:0:
60,269,187048,6,0,P|26:251|60:132,1,189.899994204712,4|0,3:0|3:0,0:0:0:0:
248,111,187333,6,0,L|309:109,1,58.0250017707825,10|0,3:0|3:0,0:0:0:0:
83,360,187476,2,0,L|74:300,1,58.0250017707825,10|0,3:0|3:0,0:0:0:0:
139,258,187619,2,0,L|171:208,1,58.0250017707825,10|0,3:0|3:0,0:0:0:0:
234,184,187762,2,0,L|297:178,1,58.0250017707825,10|0,3:0|3:0,0:0:0:0:
81,83,187905,2,0,L|24:77,1,58.0250017707825,10|0,3:0|3:0,0:0:0:0:
234,64,188048,2,0,L|297:58,1,58.0250017707825,10|0,3:0|3:0,0:0:0:0:
69,275,188191,6,0,L|132:270,1,58.0250017707825,10|0,3:0|3:0,0:0:0:0:
347,250,188333,2,0,L|409:244,1,58.0250017707825,10|0,3:0|3:0,0:0:0:0:
346,165,188476,2,0,L|283:160,1,58.0250017707825,10|0,3:0|3:0,0:0:0:0:
498,79,188619,2,0,L|436:73,1,58.0250017707825,10|0,3:0|3:0,0:0:0:0:
230,306,188762,6,0,L|227:249,1,58.0250017707825,10|0,3:0|3:0,0:0:0:0:
297,206,188905,2,0,L|360:200,1,58.0250017707825,10|0,3:0|3:0,0:0:0:0:
132,115,189048,2,0,L|69:109,1,58.0250017707825,10|0,3:0|3:0,0:0:0:0:
297,69,189191,2,0,L|360:64,1,58.0250017707825,10|0,3:0|3:0,0:0:0:0:
135,207,189333,6,0,L|198:201,1,58.0250017707825,10|0,3:0|3:0,0:0:0:0:
416,342,189476,2,0,L|425:283,1,58.0250017707825,10|0,3:0|3:0,0:0:0:0:
360,240,189619,2,0,L|328:190,1,58.0250017707825,10|0,3:0|3:0,0:0:0:0:
106,127,189762,2,0,L|168:121,1,58.0250017707825,10|0,3:0|3:0,0:0:0:0:
386,259,189905,5,10,3:0:0:0:
432,209,189976,1,0,3:0:0:0:
419,143,190047,1,10,3:0:0:0:
358,116,190119,1,0,3:0:0:0:
135,76,190191,2,0,L|198:71,1,58.0250017707825,10|0,3:0|3:0,0:0:0:0:
355,47,190333,2,0,L|418:42,1,58.0250017707825,10|0,3:0|3:0,0:0:0:0:
190,238,190476,6,0,L|128:232,1,58.0250017707825,10|0,3:0|3:0,0:0:0:0:
355,306,190619,2,0,L|359:249,1,58.0250017707825,10|0,3:0|3:0,0:0:0:0:
300,205,190762,2,0,L|238:199,1,58.0250017707825,10|0,3:0|3:0,0:0:0:0:
302,120,190905,2,0,L|364:115,1,58.0250017707825,10|0,3:0|3:0,0:0:0:0:
137,282,191048,5,10,3:0:0:0:
118,229,191119,1,0,3:0:0:0:
142,177,191190,1,10,3:0:0:0:
195,157,191262,1,0,3:0:0:0:
417,99,191334,2,0,L|354:94,1,58.0250017707825,10|0,3:0|3:0,0:0:0:0:
197,71,191476,2,0,L|134:65,1,58.0250017707825,10|0,3:0|3:0,0:0:0:0:
426,237,191619,5,2,3:0:0:0:
204,246,191762,1,8,3:0:0:0:
447,346,191905,1,0,3:0:0:0:
451,293,191976,1,0,3:0:0:0:
454,240,192047,1,8,3:0:0:0:
231,195,192191,1,0,3:0:0:0:
451,111,192333,2,0,L|397:109,1,52.75,8|0,3:0|3:0,0:0:0:0:
249,260,192476,2,0,L|302:257,1,52.75,0|0,3:0|3:0,0:0:0:0:
376,256,192619,1,8,3:0:0:0:
133,97,192762,5,2,3:0:0:0:
355,106,192905,1,8,3:0:0:0:
112,190,193048,2,0,L|59:192,2,52.75,0|0|10,3:0|3:0|3:0,0:0:0:0:
355,312,193333,2,0,L|461:309,1,105.5,0|8,3:0|3:0,0:0:0:0:
237,197,193619,1,0,3:0:0:0:
290,195,193690,1,0,3:0:0:0:
343,194,193761,1,8,3:0:0:0:
98,327,193905,6,0,L|92:219,1,105.5,10|0,3:0|3:0,0:0:0:0:
390,248,194191,2,0,L|396:140,1,105.5,8|0,3:0|3:0,0:0:0:0:
332,133,194405,1,0,3:0:0:0:
133,196,194476,2,0,L|238:192,1,105.5,2|0,3:0|3:0,0:0:0:0:
288,183,194690,1,0,3:0:0:0:
320,143,194761,1,2,3:0:0:0:
320,91,194833,1,0,3:0:0:0:
290,49,194904,1,0,3:0:0:0:
240,34,194976,1,0,3:0:0:0:
38,105,195048,6,0,L|95:103,1,52.75,2|0,3:0|3:0,0:0:0:0:
240,97,195191,2,0,L|297:95,1,52.75,0|0,3:0|3:0,0:0:0:0:
93,311,195333,1,2,3:0:0:0:
58,274,195404,1,0,3:0:0:0:
64,224,195475,1,0,3:0:0:0:
108,198,195547,1,0,3:0:0:0:
332,107,195619,5,10,3:0:0:0:
110,100,195762,1,0,3:0:0:0:
385,277,195905,2,0,L|491:273,1,105.5,8|0,3:0|3:0,0:0:0:0:
193,339,196191,5,2,3:0:0:0:
413,235,196333,2,0,L|416:128,1,105.5,8|0,3:0|3:0,0:0:0:0:
193,68,196619,1,8,3:0:0:0:
320,67,196762,1,0,3:0:0:0:
98,242,196905,2,0,L|151:238,1,52.75,8|0,3:0|3:0,0:0:0:0:
353,260,197048,2,0,L|357:207,1,52.75,0|0,3:0|3:0,0:0:0:0:
291,194,197191,1,8,3:0:0:0:
50,186,197333,5,2,3:0:0:0:
272,311,197476,2,0,L|384:308,1,105.5,8|0,3:0|3:0,0:0:0:0:
154,227,197762,1,8,3:0:0:0:
376,145,197905,2,0,L|264:142,1,105.5,0|8,3:0|3:0,0:0:0:0:
494,59,198191,1,0,3:0:0:0:
442,57,198262,1,0,3:0:0:0:
389,56,198333,1,8,3:0:0:0:
146,171,198476,5,2,3:0:0:0:
389,165,198619,1,8,3:0:0:0:
167,334,198762,1,0,3:0:0:0:
166,281,198833,1,0,3:0:0:0:
164,228,198904,1,8,3:0:0:0:
291,207,199048,1,0,3:0:0:0:
48,50,199191,2,0,L|102:48,1,52.75,8|0,3:0|3:0,0:0:0:0:
250,140,199334,2,0,L|197:137,1,52.75,0|0,3:0|3:0,0:0:0:0:
123,136,199477,1,8,3:0:0:0:
364,306,199619,6,0,L|470:300,1,105.5,2|8,3:0|3:0,0:0:0:0:
246,201,199905,1,0,3:0:0:0:
299,198,199976,1,0,3:0:0:0:
352,195,200047,1,8,3:0:0:0:
129,98,200191,1,0,3:0:0:0:
255,106,200333,1,8,3:0:0:0:
33,315,200476,1,0,3:0:0:0:
30,262,200547,1,0,3:0:0:0:
27,209,200618,1,8,3:0:0:0:
367,328,200762,5,2,3:0:0:0:
416,307,200833,1,0,3:0:0:0:
452,270,200904,1,0,3:0:0:0:
471,221,200976,1,0,3:0:0:0:
470,168,201047,1,0,3:0:0:0:
448,121,201119,1,0,3:0:0:0:
410,85,201190,1,0,3:0:0:0:
361,67,201262,1,0,3:0:0:0:
66,307,201333,6,0,L|56:95,1,211,10|0,3:0|3:0,0:0:0:0:
417,327,201905,5,0,3:0:0:0:
441,271,201976,1,0,3:0:0:0:
417,214,202047,1,8,3:0:0:0:
359,194,202119,1,8,3:0:0:0:
157,192,202191,1,8,3:0:0:0:
99,172,202263,1,0,3:0:0:0:
75,115,202334,1,0,3:0:0:0:
99,59,202405,1,0,3:0:0:0:
403,44,202476,1,6,3:0:0:0:
22,284,203048,5,6,3:0:0:0:
256,192,203141,12,0,209048,0:0:0:0:
347,236,215048,70,0,L|432:230,1,84.4,4|0,2:0|2:0,0:0:0:0:
245,127,215423,2,0,L|160:121,2,84.4,2|0|0,2:0|0:0|0:0,0:0:0:0:
430,329,215985,2,0,L|435:243,1,84.4,2|0,0:0|0:0,0:0:0:0:
333,220,216360,1,0,2:0:0:0:
147,204,216548,54,0,L|142:118,1,84.4,2|0,2:0|2:0,0:0:0:0:
244,95,216923,1,2,2:0:0:0:
429,162,217110,2,0,L|344:156,1,84.4,0|0,2:0|2:0,0:0:0:0:
159,303,217485,2,0,L|244:297,2,84.4,2|0|2,2:0|2:0|2:0,0:0:0:0:
345,276,218048,6,0,L|350:190,1,84.4,0|0,2:0|2:0,0:0:0:0:
164,136,218423,2,0,L|79:130,2,84.4,2|0|0,2:0|0:0|2:0,0:0:0:0:
349,311,218985,2,0,L|344:225,1,84.4,2|0,2:0|2:0,0:0:0:0:
158,207,219360,1,2,2:0:0:0:
344,139,219548,54,0,L|429:133,2,84.4,0|0|2,2:0|2:0|2:0,0:0:0:0:
243,153,220110,2,0,L|239:237,1,84.4,0|0,0:0|2:0,0:0:0:0:
424,231,220485,2,0,L|429:315,1,84.4,2|0,2:0|2:0,0:0:0:0:
327,331,220860,1,2,2:0:0:0:
141,255,221048,6,0,L|228:251,1,84.4,4|0,2:0|2:0,0:0:0:0:
39,152,221423,2,0,L|126:148,2,84.4,2|0|0,2:0|2:0|2:0,0:0:0:0:
224,149,221985,2,0,L|229:63,1,84.4,2|0,2:0|2:0,0:0:0:0:
127,40,222360,1,2,2:0:0:0:
313,59,222548,54,0,L|400:55,1,84.4,0|0,2:0|2:0,0:0:0:0:
211,172,222923,2,0,L|124:168,2,84.4,2|0|0,2:0|2:0|2:0,0:0:0:0:
396,349,223485,2,0,L|401:263,1,84.4,2|0,2:0|2:0,0:0:0:0:
215,242,223860,1,2,2:0:0:0:
401,162,224048,6,0,L|314:158,1,84.4,0|0,2:0|2:0,0:0:0:0:
130,179,224423,2,0,L|125:93,1,84.4,2|0,2:0|2:0,0:0:0:0:
227,70,224798,1,0,2:0:0:0:
42,289,224985,2,0,L|128:284,1,84.4,2|0,2:0|2:0,0:0:0:0:
313,266,225360,1,2,2:0:0:0:
127,179,225548,54,0,L|41:174,1,84.4,0|0,2:0|2:0,0:0:0:0:
229,69,225923,2,0,L|315:64,2,84.4,2|0|0,2:0|2:0|2:0,0:0:0:0:
414,267,226485,2,0,L|419:181,1,84.4,2|0,2:0|2:0,0:0:0:0:
317,158,226860,1,2,2:0:0:0:
130,140,227048,6,0,L|46:144,1,84.4,4|0,2:0|2:0,0:0:0:0:
232,337,227423,2,0,L|237:251,1,84.4,2|0,2:0|0:0,0:0:0:0:
135,228,227798,1,0,0:0:0:0:
320,168,227985,2,0,L|406:163,2,84.4,2|0|0,0:0|0:0|2:0,0:0:0:0:
134,163,228548,54,0,L|129:77,1,84.4,2|0,2:0|2:0,0:0:0:0:
231,54,228923,1,2,2:0:0:0:
416,36,229110,2,0,L|502:31,2,84.4,0|0|2,2:0|2:0|2:0,0:0:0:0:
230,239,229673,2,0,L|235:153,1,84.4,0|2,2:0|2:0,0:0:0:0:
421,214,230048,6,0,L|335:209,1,84.4,0|0,2:0|2:0,0:0:0:0:
150,196,230423,2,0,L|66:200,2,84.4,2|0|0,2:0|0:0|2:0,0:0:0:0:
335,189,230985,2,0,L|340:103,1,84.4,2|0,2:0|2:0,0:0:0:0:
154,83,231360,1,2,2:0:0:0:
340,36,231548,54,0,L|425:40,2,84.4,0|0|2,2:0|2:0|2:0,0:0:0:0:
155,273,232110,2,0,L|150:187,1,84.4,0|0,0:0|2:0,0:0:0:0:
336,240,232485,2,0,L|341:154,1,84.4,2|0,2:0|2:0,0:0:0:0:
155,129,232860,1,2,2:0:0:0:
341,76,233048,6,0,L|426:71,1,84.4,4|0,2:0|2:0,0:0:0:0:
239,187,233423,2,0,L|154:183,2,84.4,2|0|0,2:0|2:0|2:0,0:0:0:0:
54,189,233985,2,0,L|49:103,1,84.4,2|0,2:0|2:0,0:0:0:0:
151,80,234360,1,2,2:0:0:0:
337,242,234548,54,0,L|342:156,1,84.4,0|0,2:0|2:0,0:0:0:0:
156,274,234923,2,0,L|151:188,1,84.4,2|0,2:0|2:0,0:0:0:0:
253,165,235298,1,0,2:0:0:0:
438,69,235485,2,0,L|353:65,1,84.4,2|0,2:0|2:0,0:0:0:0:
167,70,235860,1,2,2:0:0:0:
353,289,236048,6,0,L|358:203,1,84.4,0|0,2:0|2:0,0:0:0:0:
172,161,236423,2,0,L|87:165,2,84.4,2|0|0,2:0|2:0|2:0,0:0:0:0:
357,292,236985,2,0,L|362:206,1,84.4,2|0,2:0|2:0,0:0:0:0:
176,161,237360,1,2,2:0:0:0:
362,109,237548,54,0,L|447:105,1,84.4,0|0,2:0|2:0,0:0:0:0:
260,242,237923,2,0,L|175:238,2,84.4,2|0|0,2:0|2:0|2:0,0:0:0:0:
445,140,238485,1,2,2:0:0:0:
259,147,238673,1,0,2:0:0:0:
445,140,238860,1,2,2:0:0:0:
259,298,239048,5,6,2:0:0:0:
225,281,239110,1,2,2:0:0:0:
212,248,239173,1,2,2:0:0:0:
225,213,239235,1,0,2:0:0:0:
259,196,239298,54,0,B|357:252|511:217|557:65|435:-46|316:8|165:255|22:102|20:66|28:29,1,745.533333333333,0|0,2:0|2:0,0:0:0:0:
483,328,242832,6,0,L|485:222,1,105.5,6|0,3:0|2:0,0:0:0:0:
263,202,243117,1,0,0:0:0:0:
390,186,243260,2,0,L|388:80,1,105.5,0|0,0:0|2:0,0:0:0:0:
154,49,243546,1,0,0:0:0:0:
376,351,243689,2,0,L|378:245,1,105.5,0|0,0:0|2:0,0:0:0:0:
135,315,243974,6,0,L|133:209,1,105.5,0|0,0:0|2:0,0:0:0:0:
261,185,244260,1,0,0:0:0:0:
39,177,244403,2,0,L|41:71,1,105.5,0|0,0:0|2:0,0:0:0:0:
275,316,244689,1,0,0:0:0:0:
148,297,244832,2,0,L|146:191,1,105.5,0|0,0:0|2:0,0:0:0:0:
389,274,245117,6,0,L|391:168,1,105.5,0|0,0:0|2:0,0:0:0:0:
168,209,245403,1,0,0:0:0:0:
295,190,245546,2,0,L|297:84,1,105.5,0|0,0:0|2:0,0:0:0:0:
169,54,245832,1,0,0:0:0:0:
410,362,245974,2,0,L|408:256,1,105.5,0|0,0:0|2:0,0:0:0:0:
163,323,246260,6,0,L|161:217,1,105.5,0|0,0:0|2:0,0:0:0:0:
267,191,246546,1,0,0:0:0:0:
404,181,246689,2,0,L|402:75,1,105.5,0|0,0:0|2:0,0:0:0:0:
275,51,246974,1,0,0:0:0:0:
497,344,247117,2,0,L|495:238,1,105.5,0|0,0:0|2:0,0:0:0:0:
250,309,247403,6,0,L|248:203,1,105.5,0|0,0:0|2:0,0:0:0:0:
375,159,247688,1,0,0:0:0:0:
130,268,247832,2,0,P|92:238|153:118,1,211,6|0,3:0|2:0,0:0:0:0:
394,107,248260,2,0,L|500:104,1,105.5,6|0,3:0|2:0,0:0:0:0:
255,346,248546,6,0,L|253:240,1,105.5,6|0,3:0|2:0,0:0:0:0:
381,209,248832,1,0,0:0:0:0:
161,244,248974,2,0,L|159:138,1,105.5,0|0,0:0|2:0,0:0:0:0:
287,107,249260,1,0,0:0:0:0:
55,180,249403,2,0,L|57:74,1,105.5,0|0,0:0|2:0,0:0:0:0:
355,327,249689,6,0,P|412:309|353:127,1,316.5,2|0,3:0|3:0,0:0:0:0:
130,128,250260,2,0,L|105:177,2,52.75,0|8|8,3:0|3:0|3:0,0:0:0:0:
258,104,250546,2,0,L|313:102,1,52.75,0|0,3:0|3:0,0:0:0:0:
108,277,250689,2,0,L|53:275,1,52.75,0|0,3:0|3:0,0:0:0:0:
258,325,250832,5,2,3:0:0:0:
308,315,250903,1,8,3:0:0:0:
330,269,250974,1,8,3:0:0:0:
306,224,251046,1,8,3:0:0:0:
138,190,251117,1,0,3:0:0:0:
115,144,251189,1,0,3:0:0:0:
137,98,251260,1,8,3:0:0:0:
187,88,251331,1,8,3:0:0:0:
389,321,251403,5,8,3:0:0:0:
420,278,251474,1,0,0:0:0:0:
428,227,251545,1,8,3:0:0:0:
412,177,251617,1,8,3:0:0:0:
374,141,251688,1,0,3:0:0:0:
324,127,251760,1,0,3:0:0:0:
121,110,251832,2,0,L|66:108,1,52.75,0|0,3:0|3:0,0:0:0:0:
268,248,251974,5,6,3:0:0:0:
46,232,252117,1,0,3:0:0:0:
268,167,252260,1,0,3:0:0:0:
141,158,252403,1,0,3:0:0:0:
363,93,252546,1,0,3:0:0:0:
236,84,252689,1,0,3:0:0:0:
363,93,252832,1,0,3:0:0:0:
141,158,252974,1,0,3:0:0:0:
363,258,253117,5,6,3:0:0:0:
490,249,253260,1,0,3:0:0:0:
268,168,253403,1,0,3:0:0:0:
490,152,253546,1,0,3:0:0:0:
268,67,253689,1,0,3:0:0:0:
395,58,253832,1,0,3:0:0:0:
175,272,253974,1,0,3:0:0:0:
302,263,254117,1,0,3:0:0:0:
80,234,254260,5,6,0:0:0:0:
302,169,254403,1,0,0:0:0:0:
175,160,254546,1,0,0:0:0:0:
302,169,254689,1,0,0:0:0:0:
80,234,254832,1,0,0:0:0:0:
302,169,254974,1,0,0:0:0:0:
175,160,255117,1,0,0:0:0:0:
399,97,255260,1,0,0:0:0:0:
177,67,255403,5,6,3:0:0:0:
50,58,255546,1,0,3:0:0:0:
272,178,255689,1,0,3:0:0:0:
50,162,255832,1,0,3:0:0:0:
335,67,255974,5,6,3:0:0:0:
462,58,256117,1,0,3:0:0:0:
240,178,256260,1,0,3:0:0:0:
462,162,256403,1,0,3:0:0:0:
240,269,256546,5,6,3:0:0:0:
367,260,256689,1,0,3:0:0:0:
145,211,256832,1,2,3:0:0:0:
367,260,256974,1,0,3:0:0:0:
240,269,257117,1,2,3:0:0:0:
367,260,257260,1,0,3:0:0:0:
145,125,257403,1,2,3:0:0:0:
367,109,257546,1,0,3:0:0:0:
145,269,257689,5,6,3:0:0:0:
18,260,257832,1,0,3:0:0:0:
238,174,257974,1,2,3:0:0:0:
111,165,258117,1,0,3:0:0:0:
333,90,258260,1,2,3:0:0:0:
206,81,258403,1,0,3:0:0:0:
428,188,258546,1,2,3:0:0:0:
206,172,258689,1,0,3:0:0:0:
449,328,258832,5,12,3:0:0:0:
477,285,258903,1,8,0:0:0:0:
461,236,258974,1,8,3:0:0:0:
413,219,259046,1,8,3:0:0:0:
209,183,259117,2,0,L|269:179,1,58.0250017707825,8|8,3:0|3:0,0:0:0:0:
411,175,259260,2,0,L|471:171,1,58.0250017707825
240,341,259403,5,12,3:0:0:0:
192,324,259475,1,8,0:0:0:0:
176,275,259546,1,8,3:0:0:0:
204,232,259617,1,8,3:0:0:0:
410,105,259689,2,0,L|351:101,1,58.0250017707825,8|8,3:0|3:0,0:0:0:0:
208,97,259832,2,0,L|149:93,1,58.0250017707825
376,335,259974,5,0,0:0:0:0:
392,284,260045,1,0,0:0:0:0:
386,232,260116,1,0,0:0:0:0:
359,187,260188,1,0,0:0:0:0:
317,157,260259,1,0,0:0:0:0:
265,146,260331,1,0,0:0:0:0:
413,54,260403,2,0,L|473:50,1,58.0250017707825,0|0,3:0|3:0,0:0:0:0:
242,337,260546,5,0,0:0:0:0:
214,294,260617,1,0,0:0:0:0:
230,245,260688,1,0,3:0:0:0:
278,228,260760,1,0,3:0:0:0:
482,192,260831,2,0,L|423:188,1,58.0250017707825
280,184,260974,2,0,L|221:180,1,58.0250017707825,0|0,3:0|3:0,0:0:0:0:
451,336,261117,6,0,L|455:278,1,58.0250017707825,14|0,3:0|3:0,0:0:0:0:
262,242,261260,2,0,L|203:237,1,58.0250017707825,10|0,3:0|3:0,0:0:0:0:
263,164,261403,2,0,L|323:159,1,58.0250017707825,10|0,3:0|3:0,0:0:0:0:
124,91,261546,2,0,L|65:86,1,58.0250017707825,10|0,3:0|3:0,0:0:0:0:
263,345,261689,6,0,L|267:287,1,58.0250017707825,10|0,3:0|3:0,0:0:0:0:
202,262,261832,2,0,L|143:257,1,58.0250017707825,10|0,3:0|3:0,0:0:0:0:
338,149,261974,2,0,L|398:144,1,58.0250017707825,10|0,3:0|3:0,0:0:0:0:
202,262,262117,2,0,L|143:257,1,58.0250017707825,10|0,3:0|3:0,0:0:0:0:
341,289,262260,6,0,L|345:231,1,58.0250017707825,10|0,3:0|3:0,0:0:0:0:
152,117,262403,2,0,L|212:112,1,58.0250017707825,10|0,3:0|3:0,0:0:0:0:
268,38,262546,2,0,L|209:33,1,58.0250017707825,10|0,3:0|3:0,0:0:0:0:
25,215,262689,2,0,L|85:210,1,58.0250017707825,10|0,3:0|3:0,0:0:0:0:
269,189,262832,6,0,L|329:184,1,58.0250017707825,10|0,3:0|3:0,0:0:0:0:
269,269,262974,2,0,L|210:264,1,58.0250017707825,10|0,3:0|3:0,0:0:0:0:
368,355,263117,2,0,L|428:350,1,58.0250017707825,10|0,3:0|3:0,0:0:0:0:
202,264,263260,2,0,L|143:259,1,58.0250017707825,10|0,3:0|3:0,0:0:0:0:
368,212,263403,6,0,L|428:207,1,58.0250017707825,14|0,3:0|3:0,0:0:0:0:
229,170,263546,2,0,L|226:112,1,58.0250017707825,10|0,3:0|3:0,0:0:0:0:
290,87,263689,2,0,L|350:82,1,58.0250017707825,10|0,3:0|3:0,0:0:0:0:
151,137,263832,2,0,L|148:79,1,58.0250017707825,10|0,3:0|3:0,0:0:0:0:
337,233,263974,6,0,L|280:229,1,58.0250017707825,10|0,3:0|3:0,0:0:0:0:
93,216,264117,2,0,L|36:212,1,58.0250017707825,10|0,3:0|3:0,0:0:0:0:
233,338,264260,2,0,L|293:342,1,58.0250017707825,10|0,3:0|3:0,0:0:0:0:
233,258,264402,2,0,L|174:262,1,58.0250017707825,10|0,3:0|3:0,0:0:0:0:
375,259,264546,6,0,L|380:201,1,58.0250017707825,10|0,3:0|3:0,0:0:0:0:
187,131,264689,2,0,L|130:126,1,58.0250017707825,10|0,3:0|3:0,0:0:0:0:
188,50,264832,2,0,L|247:45,1,58.0250017707825,10|0,3:0|3:0,0:0:0:0:
187,131,264974,2,0,L|130:126,1,58.0250017707825,10|0,3:0|3:0,0:0:0:0:
337,344,265117,5,10,3:0:0:0:
383,284,265188,1,0,3:0:0:0:
362,219,265259,1,10,3:0:0:0:
298,197,265331,1,0,3:0:0:0:
99,269,265403,1,10,3:0:0:0:
53,209,265474,1,0,3:0:0:0:
74,144,265545,1,10,3:0:0:0:
138,122,265617,1,0,3:0:0:0:
327,110,265689,6,0,L|385:105,1,58.0250017707825,14|0,3:0|3:0,0:0:0:0:
188,349,265832,2,0,L|184:291,1,58.0250017707825,10|0,3:0|3:0,0:0:0:0:
249,265,265975,2,0,L|307:260,1,58.0250017707825,10|0,3:0|3:0,0:0:0:0:
109,175,266118,2,0,L|168:170,1,58.0250017707825,10|0,3:0|3:0,0:0:0:0:
351,150,266260,6,0,L|410:145,1,58.0250017707825,10|0,3:0|3:0,0:0:0:0:
350,68,266403,2,0,L|292:63,1,58.0250017707825,10|0,3:0|3:0,0:0:0:0:
489,245,266546,2,0,L|431:240,1,58.0250017707825,10|0,3:0|3:0,0:0:0:0:
245,217,266689,2,0,L|187:212,1,58.0250017707825,10|0,3:0|3:0,0:0:0:0:
385,354,266832,6,0,L|390:296,1,58.0250017707825,10|0,3:0|3:0,0:0:0:0:
197,274,266974,2,0,L|193:216,1,58.0250017707825,10|0,3:0|3:0,0:0:0:0:
257,179,267117,2,0,L|316:174,1,58.0250017707825,10|0,3:0|3:0,0:0:0:0:
118,175,267260,2,0,L|114:117,1,58.0250017707825,10|0,3:0|3:0,0:0:0:0:
306,227,267403,6,0,L|311:169,1,58.0250017707825,10|0,0:0|0:0,0:0:0:0:
100,47,267546,2,0,L|43:44,1,58.0250017707825,10|0,0:0|0:0,0:0:0:0:
322,104,267689,2,0,L|380:101,1,58.0250017707825,10|0,3:0|3:0,0:0:0:0:
100,47,267832,2,0,L|43:44,1,58.0250017707825,10|0,3:0|3:0,0:0:0:0:
322,104,267974,6,0,L|380:101,1,58.0250017707825,14|0,3:0|3:0,0:0:0:0:
183,323,268117,2,0,L|179:265,1,58.0250017707825,10|0,3:0|3:0,0:0:0:0:
244,239,268260,2,0,L|302:234,1,58.0250017707825,10|0,3:0|3:0,0:0:0:0:
104,149,268403,2,0,L|163:144,1,58.0250017707825,10|0,3:0|3:0,0:0:0:0:
348,125,268546,6,0,L|353:67,1,58.0250017707825,10|0,3:0|3:0,0:0:0:0:
287,41,268689,2,0,L|230:36,1,58.0250017707825,10|0,3:0|3:0,0:0:0:0:
427,205,268832,2,0,L|485:200,1,58.0250017707825,10|0,3:0|3:0,0:0:0:0:
287,41,268974,2,0,L|230:36,1,58.0250017707825,10|0,3:0|3:0,0:0:0:0:
426,353,269117,6,0,L|431:295,1,58.0250017707825,10|0,3:0|3:0,0:0:0:0:
227,292,269260,2,0,L|219:232,1,58.0250017707825,10|0,3:0|3:0,0:0:0:0:
277,199,269403,2,0,L|309:149,1,58.0250017707825,10|0,3:0|3:0,0:0:0:0:
367,132,269546,2,0,L|430:126,1,58.0250017707825,10|0,3:0|3:0,0:0:0:0:
214,63,269689,6,0,L|152:57,1,58.0250017707825,10|0,3:0|3:0,0:0:0:0:
365,132,269832,2,0,L|428:126,1,58.0250017707825,0|0,3:0|3:0,0:0:0:0:
214,63,269974,2,0,L|152:57,2,58.0250017707825,8|8|8,3:0|3:0|3:0,0:0:0:0:
481,327,270260,6,0,L|484:221,1,105.5,4|8,3:0|3:0,0:0:0:0:
261,141,270546,2,0,L|369:137,1,105.5,0|8,3:0|3:0,0:0:0:0:
143,258,270832,1,0,3:0:0:0:
196,256,270903,1,0,0:0:0:0:
249,254,270974,1,8,3:0:0:0:
27,180,271117,1,0,3:0:0:0:
249,164,271260,1,8,3:0:0:0:
27,285,271403,6,0,L|24:179,1,105.5,0|8,3:0|3:0,0:0:0:0:
247,72,271689,2,0,L|139:68,1,105.5,0|8,3:0|3:0,0:0:0:0:
363,175,271974,2,0,L|471:171,1,105.5,0|8,3:0|3:0,0:0:0:0:
245,309,272260,1,0,3:0:0:0:
467,293,272403,1,8,3:0:0:0:
108,258,272546,6,0,L|105:152,1,105.5,2|0,3:0|0:0,0:0:0:0:
328,58,272832,2,0,L|220:54,1,105.5,0|8,3:0|3:0,0:0:0:0:
444,188,273117,2,0,L|500:184,2,52.75,0|0|8,3:0|3:0|3:0,0:0:0:0:
221,204,273403,1,0,3:0:0:0:
444,188,273546,1,8,3:0:0:0:
222,104,273689,6,0,L|330:100,1,105.5,0|8,3:0|3:0,0:0:0:0:
106,340,273974,2,0,L|103:234,1,105.5,0|8,3:0|3:0,0:0:0:0:
326,308,274260,2,0,L|323:202,1,105.5,0|8,3:0|3:0,0:0:0:0:
100,105,274546,2,0,L|44:101,2,52.75,0|0|8,3:0|3:0|3:0,0:0:0:0:
323,34,274832,6,0,L|215:30,1,105.5,4|8,3:0|3:0,0:0:0:0:
439,148,275117,2,0,L|331:144,1,105.5,0|8,3:0|3:0,0:0:0:0:
110,236,275403,1,0,3:0:0:0:
163,234,275474,1,0,3:0:0:0:
216,232,275545,1,8,3:0:0:0:
439,248,275689,1,0,3:0:0:0:
216,232,275832,1,8,3:0:0:0:
439,148,275974,6,0,L|331:144,1,105.5,0|8,3:0|3:0,0:0:0:0:
110,341,276260,2,0,L|107:235,1,105.5,0|8,3:0|3:0,0:0:0:0:
330,176,276546,1,0,3:0:0:0:
204,171,276689,1,8,3:0:0:0:
426,281,276832,1,0,3:0:0:0:
132,273,276974,1,8,3:0:0:0:
466,348,277117,6,0,P|256:77|48:350,1,791.25,2|0,3:0|3:0,0:0:0:0:
470,260,278260,5,6,3:0:0:0:
203,227,279403,6,0,L|309:223,1,105.5,4|0,3:0|3:0,0:0:0:0:
85,108,279689,2,0,L|191:104,1,105.5,10|0,3:0|3:0,0:0:0:0:
412,346,279974,2,0,L|415:240,1,105.5,2|0,3:0|3:0,0:0:0:0:
287,179,280260,1,0,3:0:0:0:
414,174,280403,1,0,3:0:0:0:
191,104,280546,6,0,L|85:100,1,105.5,10|0,3:0|3:0,0:0:0:0:
309,242,280832,1,2,3:0:0:0:
89,201,280974,1,0,3:0:0:0:
216,196,281117,1,2,3:0:0:0:
89,201,281260,1,0,3:0:0:0:
311,313,281403,1,10,3:0:0:0:
184,308,281546,1,8,3:0:0:0:
406,150,281689,6,0,L|430:123,3,35.1666666666667,2|2|2|2,3:0|3:0|3:0|3:0,0:0:0:0:
184,308,281974,1,2,3:0:0:0:
158,264,282046,1,2,3:0:0:0:
177,217,282117,1,2,3:0:0:0:
225,202,282188,1,2,3:0:0:0:
395,329,282260,5,10,3:0:0:0:
443,314,282331,1,2,3:0:0:0:
462,267,282402,1,2,3:0:0:0:
436,223,282474,1,2,3:0:0:0:
287,204,282546,1,2,3:0:0:0:
239,189,282617,1,2,3:0:0:0:
220,142,282688,1,2,3:0:0:0:
246,98,282760,1,2,3:0:0:0:
439,93,282832,5,6,3:0:0:0:
42,337,283974,6,0,L|39:231,1,105.5,4|0,3:0|3:0,0:0:0:0:
262,174,284260,2,0,L|368:170,1,105.5,10|0,3:0|3:0,0:0:0:0:
144,106,284546,1,2,3:0:0:0:
364,65,284688,1,0,3:0:0:0:
237,60,284831,1,0,3:0:0:0:
364,65,284974,1,0,3:0:0:0:
142,273,285117,6,0,L|248:269,1,105.5,10|0,3:0|3:0,0:0:0:0:
471,254,285403,2,0,L|474:148,1,105.5,2|0,3:0|3:0,0:0:0:0:
251,152,285689,1,2,3:0:0:0:
378,147,285832,1,0,3:0:0:0:
158,251,285974,1,10,3:0:0:0:
285,246,286117,1,8,3:0:0:0:
63,174,286260,6,0,L|39:147,3,35.1666666666667,2|2|2|2,3:0|3:0|3:0|3:0,0:0:0:0:
263,200,286546,1,2,3:0:0:0:
311,185,286617,1,2,3:0:0:0:
330,138,286688,1,2,3:0:0:0:
304,94,286760,1,2,3:0:0:0:
133,286,286832,5,8,3:0:0:0:
107,242,286904,1,2,3:0:0:0:
126,195,286975,1,2,3:0:0:0:
174,180,287046,1,2,3:0:0:0:
342,350,287117,1,2,3:0:0:0:
368,306,287189,1,2,3:0:0:0:
349,259,287260,1,2,3:0:0:0:
301,244,287331,1,2,3:0:0:0:
108,230,287403,5,6,3:0:0:0:
439,337,288546,6,0,L|442:231,1,105.5,4|0,3:0|3:0,0:0:0:0:
219,88,288832,2,0,L|113:84,1,105.5,10|0,3:0|3:0,0:0:0:0:
335,305,289117,2,0,L|338:199,1,105.5,2|0,3:0|3:0,0:0:0:0:
210,154,289403,1,0,3:0:0:0:
337,147,289546,1,0,3:0:0:0:
115,337,289689,6,0,L|112:231,1,105.5,10|0,3:0|3:0,0:0:0:0:
334,55,289974,2,0,L|228:51,1,105.5,2|0,3:0|3:0,0:0:0:0:
452,156,290260,1,2,3:0:0:0:
325,151,290403,1,0,3:0:0:0:
452,156,290546,1,10,3:0:0:0:
230,271,290689,1,8,3:0:0:0:
452,291,290832,6,0,L|476:318,3,35.1666666666667,0|0|0|0,3:0|3:0|3:0|3:0,0:0:0:0:
254,266,291117,1,2,3:0:0:0:
228,222,291189,1,2,3:0:0:0:
247,175,291260,1,2,3:0:0:0:
295,160,291331,1,2,3:0:0:0:
465,167,291403,5,10,3:0:0:0:
491,123,291475,1,2,3:0:0:0:
472,76,291546,1,2,3:0:0:0:
424,61,291617,1,2,3:0:0:0:
254,57,291689,1,2,3:0:0:0:
206,72,291760,1,2,3:0:0:0:
187,119,291831,1,2,3:0:0:0:
213,163,291903,1,2,3:0:0:0:
402,224,291974,5,6,3:0:0:0:
29,295,292546,5,6,3:0:0:0:
490,282,292832,5,6,3:0:0:0:
38,280,293117,6,0,L|34:175,1,105.5,4|0,3:0|3:0,0:0:0:0:
257,98,293403,2,0,L|151:93,1,105.5,10|0,3:0|3:0,0:0:0:0:
375,316,293689,2,0,L|379:211,1,105.5,2|0,3:0|3:0,0:0:0:0:
337,206,293879,1,0,3:0:0:0:
295,201,293927,1,0,3:0:0:0:
126,197,293974,6,0,L|52:201,2,70.3333333333333,2|0|0,3:0|3:0|3:0,0:0:0:0:
326,115,294260,1,0,3:0:0:0:
256,113,294355,1,0,3:0:0:0:
186,112,294450,1,0,3:0:0:0:
386,197,294546,2,0,L|460:201,2,70.3333333333333,0|0|0,3:0|3:0|3:0,0:0:0:0:
126,295,294832,5,6,3:0:0:0:
346,288,294974,1,8,3:0:0:0:
124,194,295117,2,0,L|70:197,2,52.75,0|0|8,3:0|0:0|3:0,0:0:0:0:
347,192,295403,5,0,3:0:0:0:
221,187,295545,1,8,3:0:0:0:
444,93,295689,1,0,3:0:0:0:
318,88,295832,1,8,3:0:0:0:
96,93,295974,5,0,3:0:0:0:
222,88,296116,1,8,3:0:0:0:
96,93,296260,1,0,3:0:0:0:
318,170,296403,1,8,3:0:0:0:
96,189,296546,6,0,L|70:234,2,52.75,0|0|8,3:0|0:0|3:0,0:0:0:0:
316,196,296832,1,0,3:0:0:0:
96,189,296974,1,8,3:0:0:0:
318,291,297117,5,0,3:0:0:0:
192,286,297261,1,8,3:0:0:0:
412,348,297403,1,0,3:0:0:0:
456,322,297474,1,0,0:0:0:0:
456,272,297545,1,8,3:0:0:0:
413,246,297617,1,0,0:0:0:0:
210,223,297689,5,0,3:0:0:0:
336,218,297831,1,8,3:0:0:0:
210,223,297975,1,0,3:0:0:0:
432,151,298118,1,8,3:0:0:0:
212,115,298260,5,0,3:0:0:0:
86,110,298404,1,8,3:0:0:0:
306,220,298546,1,0,3:0:0:0:
86,213,298688,1,8,3:0:0:0:
384,319,298832,6,0,L|437:316,2,52.75,0|0|8,3:0|0:0|3:0,0:0:0:0:
162,157,299117,1,0,3:0:0:0:
288,162,299261,1,8,3:0:0:0:
68,279,299403,5,6,3:0:0:0:
194,274,299547,1,8,3:0:0:0:
414,267,299689,2,0,L|440:312,2,52.75,0|0|8,3:0|0:0|3:0,0:0:0:0:
192,179,299974,5,0,3:0:0:0:
414,87,300117,1,8,3:0:0:0:
288,82,300261,1,0,3:0:0:0:
414,87,300403,1,8,3:0:0:0:
192,179,300546,5,0,3:0:0:0:
318,174,300688,1,8,3:0:0:0:
95,355,300832,1,0,3:0:0:0:
90,229,300974,1,8,3:0:0:0:
312,268,301117,6,0,L|365:270,2,52.75,0|0|8,3:0|0:0|3:0,0:0:0:0:
89,95,301403,1,0,3:0:0:0:
309,88,301545,1,8,3:0:0:0:
86,314,301689,5,6,3:0:0:0:
212,309,301831,1,0,0:0:0:0:
434,294,301974,2,0,L|460:249,2,52.75,0|0|8,3:0|3:0|3:0,0:0:0:0:
211,189,302260,5,0,3:0:0:0:
337,184,302404,1,8,3:0:0:0:
211,189,302546,1,0,0:0:0:0:
433,95,302689,1,8,3:0:0:0:
211,77,302832,5,2,3:0:0:0:
85,72,302974,1,0,0:0:0:0:
304,284,303117,1,0,3:0:0:0:
178,279,303260,1,8,3:0:0:0:
398,351,303403,5,2,3:0:0:0:
403,225,303545,1,8,3:0:0:0:
180,178,303689,1,8,3:0:0:0:
402,117,303832,2,0,L|455:113,1,52.75,8|8,3:0|3:0,0:0:0:0:
266,46,303974,5,6,3:0:0:0:
392,41,304118,1,8,3:0:0:0:
172,140,304260,2,0,L|119:138,2,52.75,0|0|8,3:0|3:0|3:0,0:0:0:0:
395,257,304546,5,0,3:0:0:0:
175,250,304688,1,8,3:0:0:0:
303,233,304832,1,0,3:0:0:0:
308,107,304974,1,8,3:0:0:0:
86,60,305117,5,0,3:0:0:0:
308,107,305260,1,8,3:0:0:0:
181,112,305403,1,0,3:0:0:0:
308,107,305546,1,8,3:0:0:0:
86,236,305689,6,0,L|60:191,2,52.75,0|0|8,3:0|3:0|3:0,0:0:0:0:
308,262,305974,1,0,3:0:0:0:
181,257,306117,1,8,3:0:0:0:
403,183,306260,5,0,3:0:0:0:
276,178,306403,1,8,3:0:0:0:
54,165,306546,2,0,L|28:120,2,52.75,0|0|8,3:0|3:0|3:0,0:0:0:0:
277,85,306832,5,0,3:0:0:0:
57,265,306974,1,8,3:0:0:0:
184,270,307117,1,0,3:0:0:0:
57,265,307260,1,8,3:0:0:0:
279,177,307403,5,0,3:0:0:0:
152,172,307546,1,8,3:0:0:0:
374,279,307689,1,0,3:0:0:0:
154,272,307831,1,8,3:0:0:0:
376,91,307974,5,0,3:0:0:0:
154,272,308116,1,8,3:0:0:0:
281,277,308259,1,0,3:0:0:0:
154,272,308402,1,8,3:0:0:0:
377,348,308546,5,6,3:0:0:0:
382,222,308688,1,8,3:0:0:0:
159,148,308832,2,0,L|102:152,2,52.75,0|0|8,3:0|3:0|3:0,0:0:0:0:
381,82,309117,5,0,3:0:0:0:
254,77,309260,1,8,3:0:0:0:
476,178,309403,1,0,3:0:0:0:
349,173,309546,1,8,3:0:0:0:
127,185,309689,5,0,3:0:0:0:
349,362,309832,1,8,3:0:0:0:
354,236,309974,1,0,3:0:0:0:
227,208,310117,1,8,3:0:0:0:
449,158,310260,6,0,L|475:113,2,52.75,0|0|8,3:0|0:0|3:0,0:0:0:0:
226,274,310546,1,0,3:0:0:0:
446,267,310688,1,8,3:0:0:0:
223,184,310832,6,0,L|169:181,1,52.75,2|0,3:0|3:0,0:0:0:0:
391,335,310974,1,0,3:0:0:0:
408,286,311045,1,0,3:0:0:0:
387,239,311116,1,0,3:0:0:0:
340,219,311188,1,0,3:0:0:0:
164,199,311260,2,0,L|110:196,1,52.75,0|0,3:0|3:0,0:0:0:0:
303,142,311403,6,0,L|357:139,1,52.75,0|0,3:0|3:0,0:0:0:0:
302,61,311546,2,0,L|248:58,1,52.75,0|0,3:0|3:0,0:0:0:0:
452,231,311689,2,0,L|398:228,1,52.75,0|0,3:0|3:0,0:0:0:0:
176,302,311832,2,0,L|122:299,1,52.75,0|0,3:0|3:0,0:0:0:0:
437,230,311974,5,10,3:0:0:0:
269,320,312260,2,0,L|264:214,1,105.5,0|0,2:0|2:0,0:0:0:0:
349,243,312546,2,0,L|344:137,1,105.5,0|0,2:0|2:0,0:0:0:0:
429,175,312832,2,0,L|424:69,1,105.5,0|0,2:0|2:0,0:0:0:0:
339,48,313117,6,0,L|118:41,2,221.549993238831,2|2|2,0:0|0:0|0:0,0:0:0:0:
58,193,314260,6,0,L|279:186,2,221.549993238831,2|2|2,0:0|0:0|0:0,0:0:0:0:
339,353,315403,6,0,L|345:131,1,221.549993238831,2|2,0:0|0:0,0:0:0:0:
124,104,316260,1,2,0:0:0:0:
405,247,316546,6,0,L|408:100,1,147.699995492554,2|2,0:0|0:0,0:0:0:0:
157,338,317117,2,0,L|154:191,1,147.699995492554,2|2,0:0|0:0,0:0:0:0:
406,52,317689,6,0,L|185:45,2,221.549993238831,2|2|2,0:0|0:0|0:0,0:0:0:0:
125,277,318832,5,2,0:0:0:0:
347,267,319260,2,0,L|353:45,1,221.549993238831,2|2,0:0|0:0,0:0:0:0:
72,138,319974,6,0,L|293:131,2,221.549993238831,2|2|2,0:0|0:0|0:0,0:0:0:0:
353,252,321117,1,2,0:0:0:0:
72,138,322260,6,0,L|293:131,2,221.549993238831,2|2|2,0:0|0:0|0:0,0:0:0:0:
353,309,323403,5,2,0:0:0:0:
131,299,323831,2,0,L|125:77,1,221.549993238831,2|2,0:0|0:0,0:0:0:0:
407,33,324546,6,0,L|186:26,2,221.549993238831,2|2|2,0:0|0:0|0:0,0:0:0:0:
126,279,325689,6,0,L|123:132,1,147.699995492554,2|2,0:0|0:0,0:0:0:0:
374,370,326260,2,0,L|377:223,1,147.699995492554,2|2,0:0|0:0,0:0:0:0:
125,111,326832,5,2,0:0:0:0:
346,123,327260,1,2,0:0:0:0:
125,111,327689,1,2,0:0:0:0:
478,72,327974,5,6,3:0:0:0:
86,327,329117,6,0,P|51:317|86:209,1,189.899994204712,6|0,3:0|3:0,0:0:0:0:
293,204,329403,6,0,L|355:206,1,58.0250017707825,10|0,3:0|3:0,0:0:0:0:
140,337,329546,2,0,L|128:279,1,58.0250017707825,10|0,3:0|3:0,0:0:0:0:
187,227,329689,2,0,L|214:173,1,58.0250017707825,10|0,3:0|3:0,0:0:0:0:
424,123,329832,2,0,L|481:121,1,58.0250017707825,10|0,3:0|3:0,0:0:0:0:
274,36,329974,2,0,L|216:34,1,58.0250017707825,10|0,3:0|3:0,0:0:0:0:
424,123,330117,2,0,L|481:121,1,58.0250017707825,10|0,3:0|3:0,0:0:0:0:
236,307,330260,6,0,L|230:249,1,58.0250017707825,10|0,3:0|3:0,0:0:0:0:
300,204,330403,2,0,L|358:202,1,58.0250017707825,10|0,3:0|3:0,0:0:0:0:
146,128,330546,2,0,L|89:126,1,58.0250017707825,10|0,3:0|3:0,0:0:0:0:
300,204,330689,2,0,L|358:202,1,58.0250017707825,10|0,3:0|3:0,0:0:0:0:
146,327,330832,6,0,L|141:270,1,58.0250017707825,10|0,3:0|3:0,0:0:0:0:
349,110,330974,2,0,L|292:107,1,58.0250017707825,10|0,3:0|3:0,0:0:0:0:
80,87,331117,2,0,L|23:84,1,58.0250017707825,10|0,3:0|3:0,0:0:0:0:
294,22,331260,2,0,L|351:19,1,58.0250017707825,10|0,3:0|3:0,0:0:0:0:
106,345,331403,6,0,L|94:287,1,58.0250017707825,10|0,3:0|3:0,0:0:0:0:
153,235,331546,2,0,L|179:181,1,58.0250017707825,10|0,3:0|3:0,0:0:0:0:
239,154,331689,2,0,L|296:151,1,58.0250017707825,10|0,3:0|3:0,0:0:0:0:
85,87,331832,2,0,L|28:84,1,58.0250017707825,10|0,3:0|3:0,0:0:0:0:
234,177,331974,6,0,L|294:172,1,58.0250017707825,10|0,3:0|3:0,0:0:0:0:
234,265,332117,2,0,L|175:260,1,58.0250017707825,10|0,3:0|3:0,0:0:0:0:
343,359,332260,2,0,L|403:355,1,58.0250017707825,10|0,3:0|3:0,0:0:0:0:
131,257,332403,2,0,L|72:253,1,58.0250017707825,10|0,3:0|3:0,0:0:0:0:
324,315,332546,5,10,3:0:0:0:
375,291,332617,1,0,3:0:0:0:
405,243,332688,1,10,3:0:0:0:
403,186,332760,1,0,3:0:0:0:
370,139,332831,1,10,3:0:0:0:
316,118,332903,1,0,3:0:0:0:
108,102,332974,2,0,L|49:98,1,58.0250017707825,10|0,3:0|3:0,0:0:0:0:
261,308,333117,6,0,L|266:248,1,58.0250017707825,10|0,3:0|3:0,0:0:0:0:
55,263,333260,2,0,L|61:203,1,58.0250017707825,10|0,3:0|3:0,0:0:0:0:
273,126,333403,2,0,L|330:121,1,58.0250017707825,10|0,3:0|3:0,0:0:0:0:
119,48,333546,2,0,L|176:43,1,58.0250017707825,10|8,3:0|3:0,0:0:0:0:
460,175,333689,5,2,3:0:0:0:
217,180,333832,1,8,3:0:0:0:
458,309,333974,2,0,L|487:265,2,52.75,0|0|8,3:0|3:0|3:0,0:0:0:0:
213,330,334260,1,0,3:0:0:0:
340,264,334403,2,0,L|283:260,1,52.75,8|0,3:0|3:0,0:0:0:0:
95,251,334546,2,0,L|42:254,2,52.75,0|0|8,3:0|3:0|3:0,0:0:0:0:
340,174,334832,5,2,3:0:0:0:
214,166,334974,1,8,3:0:0:0:
446,69,335117,2,0,L|391:70,1,52.75,0|0,3:0|3:0,0:0:0:0:
202,78,335260,1,10,3:0:0:0:
445,281,335403,2,0,L|449:176,1,105.5,0|8,3:0|3:0,0:0:0:0:
204,200,335689,1,0,3:0:0:0:
256,197,335760,1,0,3:0:0:0:
309,195,335831,1,8,3:0:0:0:
34,343,335974,6,0,L|30:238,1,105.5,10|0,3:0|3:0,0:0:0:0:
328,301,336260,2,0,L|332:196,1,105.5,10|0,3:0|3:0,0:0:0:0:
268,192,336474,1,0,3:0:0:0:
98,190,336546,1,2,3:0:0:0:
341,108,336689,6,0,L|287:105,1,52.75,0|0,3:0|3:0,0:0:0:0:
113,331,336832,1,2,3:0:0:0:
70,303,336903,1,0,3:0:0:0:
71,252,336974,1,0,3:0:0:0:
114,225,337046,1,0,3:0:0:0:
287,214,337117,6,0,L|341:217,1,52.75,2|0,3:0|3:0,0:0:0:0:
286,137,337260,2,0,L|232:140,1,52.75,0|0,3:0|3:0,0:0:0:0:
410,333,337403,1,2,3:0:0:0:
452,306,337474,1,0,3:0:0:0:
452,256,337545,1,0,3:0:0:0:
410,229,337617,1,0,3:0:0:0:
165,149,337689,5,10,3:0:0:0:
408,144,337832,1,0,3:0:0:0:
167,245,337974,1,8,3:0:0:0:
294,240,338117,1,0,3:0:0:0:
51,335,338260,6,0,L|47:229,1,105.5,2|8,3:0|3:0,0:0:0:0:
292,129,338546,1,0,3:0:0:0:
239,127,338617,1,0,3:0:0:0:
186,126,338688,1,8,3:0:0:0:
431,258,338832,2,0,L|325:254,1,105.5,0|8,3:0|3:0,0:0:0:0:
83,243,339117,2,0,L|30:241,2,52.75,0|0|8,3:0|3:0|3:0,0:0:0:0:
328,128,339403,5,2,3:0:0:0:
85,133,339546,1,8,3:0:0:0:
328,227,339689,2,0,L|381:229,2,52.75,0|0|8,3:0|3:0|3:0,0:0:0:0:
85,284,339974,1,0,3:0:0:0:
212,279,340117,1,8,3:0:0:0:
455,269,340260,2,0,L|490:229,2,52.75,0|0|8,3:0|3:0|3:0,0:0:0:0:
210,171,340546,5,2,3:0:0:0:
337,166,340689,1,8,3:0:0:0:
94,83,340832,2,0,L|41:81,2,52.75,0|0|8,3:0|3:0|3:0,0:0:0:0:
337,264,341117,1,0,3:0:0:0:
210,240,341260,2,0,L|213:187,1,52.75,8|0,3:0|3:0,0:0:0:0:
405,164,341403,2,0,L|408:111,1,52.75,0|0,3:0|3:0,0:0:0:0:
344,94,341546,1,8,3:0:0:0:
101,76,341689,5,2,3:0:0:0:
344,216,341832,1,8,3:0:0:0:
218,212,341974,1,0,3:0:0:0:
216,159,342045,1,0,3:0:0:0:
214,106,342116,1,8,3:0:0:0:
459,36,342260,1,0,3:0:0:0:
216,41,342403,1,8,3:0:0:0:
459,248,342546,2,0,L|494:208,2,52.75,0|0|8,3:0|3:0|3:0,0:0:0:0:
129,341,342832,5,2,3:0:0:0:
79,323,342903,1,0,3:0:0:0:
41,287,342974,1,0,3:0:0:0:
21,239,343046,1,0,3:0:0:0:
23,186,343117,1,0,3:0:0:0:
46,139,343189,1,0,3:0:0:0:
86,106,343260,1,0,3:0:0:0:
136,91,343332,1,0,3:0:0:0:
437,318,343403,2,0,L|440:107,1,211,10|0,3:0|3:0,0:0:0:0:
81,220,343974,6,0,L|138:215,1,52.75,8|8,3:0|3:0,0:0:0:0:
325,208,344117,1,8,3:0:0:0:
367,181,344188,1,8,3:0:0:0:
367,131,344259,1,8,3:0:0:0:
324,105,344331,1,8,3:0:0:0:
132,91,344403,2,0,L|75:86,1,52.75,8|8,3:0|3:0,0:0:0:0:
271,270,344546,6,0,L|328:265,1,52.75,10|0,3:0|3:0,0:0:0:0:
270,201,344689,2,0,L|213:196,1,52.75,0|0,3:0|3:0,0:0:0:0:
441,146,344832,1,8,3:0:0:0:
217,86,344974,2,0,L|274:81,1,52.75,8|8,3:0|3:0,0:0:0:0:
461,296,345117,6,0,L|316:137,2,211,2|8|0,3:0|3:0|3:0,0:0:0:0:
333,314,345832,1,0,3:0:0:0:
113,301,345974,2,0,L|109:194,1,105.5,8|0,3:0|3:0,0:0:0:0:
333,218,346260,6,0,P|337:183|221:76,1,211,2|8,3:0|3:0,0:0:0:0:
444,305,346689,2,0,P|480:284|424:159,1,211,0|0,3:0|3:0,0:0:0:0:
187,222,347117,2,0,L|347:218,1,158.25,8|0,3:0|3:0,0:0:0:0:
143,346,347403,6,0,P|87:334|86:203,1,211,2|8,3:0|3:0,0:0:0:0:
191,185,347832,1,0,3:0:0:0:
411,133,347974,2,0,L|306:127,1,105.5,0|0,3:0|3:0,0:0:0:0:
82,294,348260,2,0,L|78:187,1,105.5,8|0,3:0|3:0,0:0:0:0:
206,137,348546,5,2,3:0:0:0:
79,127,348689,1,0,3:0:0:0:
301,253,348832,1,8,3:0:0:0:
174,243,348975,1,0,3:0:0:0:
394,317,349117,2,0,L|499:314,1,105.5,2|0,3:0|3:0,0:0:0:0:
457,271,349308,1,0,3:0:0:0:
416,267,349355,1,0,3:0:0:0:
213,249,349403,1,8,3:0:0:0:
382,274,349689,6,0,P|413:236|339:119,1,211,2|8,3:0|3:0,0:0:0:0:
118,127,350117,2,0,L|225:123,2,105.5,0|0|0,3:0|3:0|3:0,0:0:0:0:
363,279,350546,2,0,L|367:173,1,105.5,8|0,3:0|3:0,0:0:0:0:
122,319,350832,6,0,P|71:292|126:176,1,211,2|8,3:0|3:0,0:0:0:0:
340,220,351260,2,0,L|344:115,1,105.5,0|2,3:0|3:0,0:0:0:0:
216,94,351546,1,0,3:0:0:0:
439,313,351689,2,0,P|476:296|442:208,1,158.25,8|0,3:0|0:0,0:0:0:0:
220,241,351974,6,0,P|220:204|345:104,1,211,2|8,3:0|3:0,0:0:0:0:
120,322,352403,2,0,L|225:319,2,105.5,0|0|0,3:0|3:0|3:0,0:0:0:0:
365,340,352832,2,0,L|369:233,1,105.5,8|0,3:0|0:0,0:0:0:0:
37,178,353117,5,10,3:0:0:0:
291,306,353689,2,0,L|296:201,1,105.5,8|8,3:0|3:0,0:0:0:0:
74,256,353974,2,0,L|69:151,1,105.5,8|8,3:0|3:0,0:0:0:0:
356,80,354260,6,0,L|415:77,1,58.0250017707825,10|0,3:0|3:0,0:0:0:0:
185,302,354403,2,0,L|172:245,1,58.0250017707825,10|0,3:0|3:0,0:0:0:0:
237,184,354546,2,0,L|263:132,1,58.0250017707825,10|0,3:0|3:0,0:0:0:0:
485,209,354689,2,0,L|426:205,1,58.0250017707825,10|0,3:0|3:0,0:0:0:0:
204,342,354832,6,0,L|199:280,1,58.0250017707825,10|0,3:0|3:0,0:0:0:0:
269,255,354974,2,0,L|328:251,1,58.0250017707825,10|0,3:0|3:0,0:0:0:0:
104,169,355117,2,0,L|44:166,1,58.0250017707825,10|0,3:0|3:0,0:0:0:0:
269,255,355260,2,0,L|328:251,1,58.0250017707825,10|0,3:0|3:0,0:0:0:0:
104,169,355403,6,0,L|44:166,1,58.0250017707825,10|0,3:0|3:0,0:0:0:0:
269,224,355546,2,0,L|277:165,1,58.0250017707825,10|0,3:0|3:0,0:0:0:0:
213,122,355689,2,0,L|181:72,1,58.0250017707825,10|0,3:0|3:0,0:0:0:0:
117,48,355832,2,0,L|54:42,1,58.0250017707825,10|0,3:0|3:0,0:0:0:0:
280,15,355974,6,0,L|342:9,1,58.0250017707825,10|0,3:0|3:0,0:0:0:0:
279,100,356117,2,0,L|216:94,1,58.0250017707825,10|0,3:0|3:0,0:0:0:0:
444,292,356260,2,0,L|450:235,1,58.0250017707825,10|0,3:0|3:0,0:0:0:0:
380,190,356403,2,0,L|317:184,1,58.0250017707825,10|0,3:0|3:0,0:0:0:0:
99,284,356546,6,0,L|162:279,1,58.0250017707825,10|0,3:0|3:0,0:0:0:0:
380,258,356689,2,0,L|386:201,1,58.0250017707825,10|0,3:0|3:0,0:0:0:0:
316,156,356832,2,0,L|253:150,1,58.0250017707825,10|0,3:0|3:0,0:0:0:0:
478,52,356974,2,0,L|415:47,1,58.0250017707825,10|0,3:0|3:0,0:0:0:0:
197,333,357117,6,0,L|191:276,1,58.0250017707825,10|0,3:0|3:0,0:0:0:0:
261,231,357260,2,0,L|324:225,1,58.0250017707825,10|0,3:0|3:0,0:0:0:0:
96,122,357403,2,0,L|33:116,1,58.0250017707825,10|0,3:0|3:0,0:0:0:0:
261,231,357546,2,0,L|324:225,1,58.0250017707825,10|0,3:0|3:0,0:0:0:0:
96,302,357689,6,0,L|87:243,1,58.0250017707825,10|0,3:0|3:0,0:0:0:0:
152,200,357832,2,0,L|184:150,1,58.0250017707825,10|0,3:0|3:0,0:0:0:0:
248,126,357975,2,0,L|310:121,1,58.0250017707825,10|0,3:0|3:0,0:0:0:0:
85,93,358117,2,0,L|22:88,1,58.0250017707825,10|0,3:0|3:0,0:0:0:0:
250,347,358260,6,0,L|257:290,1,58.0250017707825,10|0,3:0|3:0,0:0:0:0:
186,245,358403,2,0,L|123:239,1,58.0250017707825,10|0,3:0|3:0,0:0:0:0:
351,136,358546,2,0,L|414:130,1,58.0250017707825,10|0,3:0|3:0,0:0:0:0:
186,245,358689,2,0,L|123:239,1,58.0250017707825,10|0,3:0|3:0,0:0:0:0:
380,57,358832,5,2,3:0:0:0:
139,193,358974,2,0,L|135:86,1,105.5,8|0,3:0|3:0,0:0:0:0:
263,66,359260,1,8,3:0:0:0:
20,284,359403,2,0,L|23:179,1,105.5,0|8,3:0|3:0,0:0:0:0:
86,173,359617,1,0,3:0:0:0:
288,148,359689,2,0,L|227:145,1,52.75,0|0,3:0|3:0,0:0:0:0:
171,140,359832,1,8,3:0:0:0:
412,265,359974,6,0,L|305:258,1,105.5,2|8,3:0|3:0,0:0:0:0:
62,133,360260,1,0,3:0:0:0:
114,129,360331,1,0,3:0:0:0:
167,126,360402,1,8,3:0:0:0:
412,154,360546,1,0,3:0:0:0:
167,126,360689,1,8,3:0:0:0:
412,256,360832,2,0,L|464:252,2,52.75,0|0|8,3:0|3:0|3:0,0:0:0:0:
169,246,361117,5,2,3:0:0:0:
296,236,361260,1,8,3:0:0:0:
53,174,361403,2,0,L|29:126,2,52.75,0|0|8,3:0|0:0|3:0,0:0:0:0:
298,306,361689,2,0,L|302:199,1,105.5,0|8,3:0|3:0,0:0:0:0:
238,188,361903,1,0,3:0:0:0:
427,148,361974,2,0,L|481:151,2,52.75,0|0|8,0:0|3:0|3:0,0:0:0:0:
182,102,362260,5,2,3:0:0:0:
309,97,362403,1,8,3:0:0:0:
66,311,362546,2,0,L|42:263,2,52.75,0|0|8,3:0|3:0|3:0,0:0:0:0:
311,211,362832,1,0,3:0:0:0:
70,185,362974,1,8,3:0:0:0:
313,301,363117,2,0,L|365:298,2,52.75,2|0|8,3:0|3:0|3:0,0:0:0:0:
68,99,363403,5,2,3:0:0:0:
195,94,363546,1,8,3:0:0:0:
438,90,363689,2,0,L|490:92,2,52.75,0|0|8,3:0|3:0|3:0,0:0:0:0:
195,265,363974,2,0,L|301:264,1,105.5,0|8,3:0|3:0,0:0:0:0:
365,264,364189,1,0,3:0:0:0:
176,180,364260,2,0,L|123:182,2,52.75,0|0|8,3:0|3:0|3:0,0:0:0:0:
421,185,364546,6,0,L|422:79,1,105.5,2|8,3:0|3:0,0:0:0:0:
177,31,364832,1,0,3:0:0:0:
229,30,364903,1,0,3:0:0:0:
282,30,364974,1,8,3:0:0:0:
39,133,365117,1,0,3:0:0:0:
282,127,365260,1,8,3:0:0:0:
39,220,365403,2,0,L|15:268,2,52.75,0|0|8,3:0|3:0|3:0,0:0:0:0:
284,208,365689,5,2,3:0:0:0:
157,203,365832,1,8,3:0:0:0:
398,104,365974,2,0,L|450:106,2,52.75,0|0|8,3:0|0:0|3:0,0:0:0:0:
153,332,366260,2,0,L|151:225,1,105.5,0|8,3:0|3:0,0:0:0:0:
214,219,366474,1,0,3:0:0:0:
406,208,366546,2,0,L|458:210,2,52.75,0|0|8,3:0|3:0|3:0,0:0:0:0:
161,122,366832,5,2,3:0:0:0:
287,112,366974,1,8,3:0:0:0:
44,237,367117,2,0,L|20:285,2,52.75,0|0|8,3:0|0:0|3:0,0:0:0:0:
289,210,367403,1,2,3:0:0:0:
46,204,367546,1,8,3:0:0:0:
343,111,367689,2,0,L|287:109,1,52.75,2|0,3:0|0:0,0:0:0:0:
140,102,367832,1,8,3:0:0:0:
414,328,367974,5,2,3:0:0:0:
455,296,368045,1,0,3:0:0:0:
474,248,368116,1,0,3:0:0:0:
464,197,368188,1,0,3:0:0:0:
428,159,368259,1,0,3:0:0:0:
377,146,368331,1,0,3:0:0:0:
187,147,368403,2,0,L|133:148,1,52.75,8|8,3:0|3:0,0:0:0:0:
337,352,368546,6,0,L|345:298,1,52.75,8|8,3:0|3:0,0:0:0:0:
286,259,368689,2,0,L|257:214,1,52.75,8|8,3:0|3:0,0:0:0:0:
199,192,368832,2,0,L|142:187,1,52.75,0|0,3:0|3:0,0:0:0:0:
347,162,368974,2,0,L|404:157,1,52.75,0|0,3:0|3:0,0:0:0:0:
176,332,369117,5,0,3:0:0:0:
115,320,369188,1,0,3:0:0:0:
92,263,369259,1,0,3:0:0:0:
125,213,369331,1,0,3:0:0:0:
279,197,369403,1,8,3:0:0:0:
312,147,369475,1,8,3:0:0:0:
289,90,369546,1,8,3:0:0:0:
228,78,369617,1,8,3:0:0:0:
382,330,369689,1,2,3:0:0:0:
443,318,369760,1,0,3:0:0:0:
466,261,369831,1,0,3:0:0:0:
433,211,369903,1,0,3:0:0:0:
69,204,369974,5,10,3:0:0:0:
436,174,370260,6,0,L|440:68,1,105.5,2|0,3:0|0:0,0:0:0:0:
217,49,370546,1,0,3:0:0:0:
269,47,370617,1,0,3:0:0:0:
322,45,370688,1,8,3:0:0:0:
99,169,370832,1,0,3:0:0:0:
319,195,370974,1,8,3:0:0:0:
192,207,371117,1,0,3:0:0:0:
319,195,371260,1,8,3:0:0:0:
76,351,371403,6,0,L|72:245,1,105.5,0|8,3:0|3:0,0:0:0:0:
295,116,371689,1,0,3:0:0:0:
168,104,371832,1,8,3:0:0:0:
441,350,371974,2,0,L|445:244,1,105.5,0|8,3:0|3:0,0:0:0:0:
222,115,372260,1,0,3:0:0:0:
349,103,372403,1,8,3:0:0:0:
127,244,372546,6,0,L|21:240,1,105.5,2|8,3:0|3:0,0:0:0:0:
245,329,372832,2,0,L|270:283,2,52.75,0|0|8,3:0|3:0|3:0,0:0:0:0:
118,341,373117,1,0,3:0:0:0:
340,189,373260,1,8,3:0:0:0:
213,184,373403,1,0,3:0:0:0:
211,57,373546,1,8,3:0:0:0:
454,342,373689,6,0,L|458:236,1,105.5,0|8,3:0|3:0,0:0:0:0:
235,107,373975,1,0,3:0:0:0:
362,95,374118,1,8,3:0:0:0:
89,314,374260,2,0,L|196:312,1,105.5,0|8,3:0|3:0,0:0:0:0:
471,187,374546,2,0,L|364:185,1,105.5,0|8,3:0|3:0,0:0:0:0:
121,180,374832,6,0,L|14:178,1,105.5,2|0,3:0|0:0,0:0:0:0:
237,78,375117,1,0,3:0:0:0:
184,77,375188,1,0,3:0:0:0:
131,76,375259,1,8,3:0:0:0:
355,205,375403,1,0,3:0:0:0:
228,213,375546,1,8,3:0:0:0:
355,205,375689,1,0,3:0:0:0:
133,302,375832,1,8,3:0:0:0:
406,323,375974,6,0,L|409:217,1,105.5,0|8,3:0|3:0,0:0:0:0:
186,169,376260,1,0,3:0:0:0:
408,81,376403,1,8,3:0:0:0:
281,89,376546,1,0,3:0:0:0:
408,81,376689,1,8,3:0:0:0:
165,268,376832,1,0,3:0:0:0:
406,255,376974,1,8,3:0:0:0:
68,341,377117,6,0,L|65:236,1,105.5,2|0,3:0|0:0,0:0:0:0:
288,148,377403,1,0,3:0:0:0:
235,146,377474,1,0,3:0:0:0:
182,145,377545,1,8,3:0:0:0:
406,255,377689,1,0,3:0:0:0:
184,247,377832,1,8,3:0:0:0:
310,240,377974,1,0,3:0:0:0:
313,108,378117,1,8,3:0:0:0:
38,66,378260,6,0,L|144:63,1,105.5,0|8,3:0|3:0,0:0:0:0:
271,171,378546,1,0,3:0:0:0:
145,164,378688,1,8,3:0:0:0:
421,279,378832,2,0,L|315:276,2,105.5,0|8|0,3:0|3:0|3:0,0:0:0:0:
146,335,379260,2,0,L|200:333,1,52.75,8|8,3:0|3:0,0:0:0:0:
369,198,379403,6,0,L|263:195,1,105.5,2|0,3:0|0:0,0:0:0:0:
487,106,379689,1,0,3:0:0:0:
434,104,379760,1,0,3:0:0:0:
381,103,379831,1,8,3:0:0:0:
159,146,379974,1,0,3:0:0:0:
381,217,380117,1,8,3:0:0:0:
254,225,380260,1,0,3:0:0:0:
381,217,380403,1,8,3:0:0:0:
106,341,380546,6,0,L|104:236,1,105.5,0|8,3:0|3:0,0:0:0:0:
327,122,380832,1,0,3:0:0:0:
200,114,380975,1,8,3:0:0:0:
473,342,381117,2,0,L|475:237,1,105.5,0|8,3:0|3:0,0:0:0:0:
198,306,381403,2,0,L|196:201,1,105.5,0|8,3:0|3:0,0:0:0:0:
473,78,381689,6,0,L|366:75,1,105.5,2|0,3:0|0:0,0:0:0:0:
146,75,381974,2,0,L|93:76,2,52.75,0|0|8,3:0|3:0|3:0,0:0:0:0:
369,176,382260,1,0,3:0:0:0:
147,281,382403,1,8,3:0:0:0:
274,289,382546,1,0,3:0:0:0:
52,203,382689,1,8,3:0:0:0:
327,95,382832,6,0,L|433:93,1,105.5,0|8,3:0|3:0,0:0:0:0:
211,205,383117,2,0,L|317:203,1,105.5,0|8,3:0|3:0,0:0:0:0:
93,228,383403,1,0,3:0:0:0:
315,333,383546,1,8,3:0:0:0:
188,341,383689,1,0,3:0:0:0:
315,333,383832,1,8,3:0:0:0:
42,321,383974,6,0,L|40:213,1,105.5,2|0,3:0|0:0,0:0:0:0:
263,102,384260,1,0,3:0:0:0:
210,100,384331,1,0,3:0:0:0:
157,98,384402,1,8,3:0:0:0:
380,195,384546,1,0,3:0:0:0:
253,201,384689,1,8,3:0:0:0:
380,195,384832,1,0,3:0:0:0:
160,285,384974,1,8,3:0:0:0:
435,337,385117,6,0,L|437:232,1,105.5,0|8,3:0|3:0,0:0:0:0:
214,118,385403,1,0,3:0:0:0:
341,110,385546,1,8,3:0:0:0:
119,255,385689,1,0,3:0:0:0:
341,261,385832,1,8,3:0:0:0:
215,253,385974,1,0,3:0:0:0:
212,126,386117,1,8,3:0:0:0:
487,56,386260,6,0,L|379:52,1,105.5,2|0,3:0|0:0,0:0:0:0:
158,170,386546,1,0,3:0:0:0:
211,168,386617,1,0,3:0:0:0:
264,167,386688,1,8,3:0:0:0:
41,228,386832,1,0,3:0:0:0:
263,333,386975,1,8,3:0:0:0:
136,341,387118,1,0,3:0:0:0:
358,255,387261,1,8,3:0:0:0:
85,121,387403,6,0,L|191:117,1,105.5,2|8,3:0|3:0,0:0:0:0:
467,227,387689,2,0,L|361:223,1,105.5,0|8,3:0|3:0,0:0:0:0:
87,264,387974,1,0,3:0:0:0:
214,254,388117,1,8,3:0:0:0:
87,264,388260,1,0,3:0:0:0:
362,173,388403,2,0,L|301:170,1,52.75,8|8,3:0|3:0,0:0:0:0:
105,335,388546,5,2,3:0:0:0:
62,304,388617,1,8,3:0:0:0:
35,259,388688,1,8,3:0:0:0:
28,207,388760,1,8,3:0:0:0:
41,157,388831,1,8,3:0:0:0:
73,115,388903,1,8,3:0:0:0:
119,90,388974,1,8,3:0:0:0:
171,84,389046,1,8,3:0:0:0:
371,352,389117,5,8,3:0:0:0:
393,304,389188,1,8,3:0:0:0:
393,252,389259,1,8,3:0:0:0:
371,204,389331,1,8,3:0:0:0:
331,171,389402,1,8,3:0:0:0:
280,158,389474,1,8,3:0:0:0:
88,163,389546,2,0,L|145:158,1,58.0250017707825,8|8,3:0|3:0,0:0:0:0:
343,350,389689,5,8,3:0:0:0:
385,319,389760,1,8,3:0:0:0:
412,274,389831,1,8,3:0:0:0:
419,222,389903,1,8,3:0:0:0:
406,172,389974,1,8,3:0:0:0:
374,130,390046,1,8,3:0:0:0:
328,105,390117,1,8,3:0:0:0:
276,99,390189,1,8,3:0:0:0:
77,298,390260,5,8,3:0:0:0:
55,253,390332,1,8,3:0:0:0:
77,208,390403,1,8,3:0:0:0:
127,198,390474,1,8,3:0:0:0:
334,124,390546,2,0,L|276:121,1,58.0250017707825,8|8,3:0|3:0,0:0:0:0:
130,106,390688,2,0,L|72:103,1,58.0250017707825,8|8,3:0|3:0,0:0:0:0:
341,324,390832,6,0,P|390:307|343:87,1,348.150010624695,14|0,0:0|2:0,0:0:0:0:
