osu file format v14

[General]
AudioFilename: audio.mp3
AudioLeadIn: 0
PreviewTime: 329046
Countdown: 0
SampleSet: Normal
StackLeniency: 0.7
Mode: 1
LetterboxInBreaks: 0
WidescreenStoryboard: 1

[Editor]
Bookmarks: 242832,370260,388403
DistanceSpacing: 1.3
BeatDivisor: 8
GridSize: 32
TimelineZoom: 3.499999

[Metadata]
Title:Gekiai No Yobigoe Ga Dekiai No Sakebigoe Wo Kurau
TitleUnicode:劇愛の呼声が溺哀の叫声を喰らう
Artist:Imperial Circus Dead Decadence
ArtistUnicode:Imperial Circus Dead Decadence
Creator:Hivie
Version:Hivie & radar's Tragic Love Story
Source:
Tags:osu! radar fa featured artist mappers guild mpg symphonic black japanese metal icdd 狂おしく咲いた凄惨な骸は奏で、愛おしく裂いた少女は聖餐の詞を謳う。 kurooshiku saita seisan na mukuro wa kanaderu itooshiku shoujo seisen kotoba wo utau bicycle rib rib:y(uhki)
BeatmapID:3043966
BeatmapSetID:1484234

[Difficulty]
HPDrainRate:5
CircleSize:5
OverallDifficulty:7
ApproachRate:5
SliderMultiplier:1.4
SliderTickRate:1

[Events]
//Background and Video events
0,0,"blundered.jpg",0,120
//Break Periods
2,206248,213848
2,239623,241410
//Storyboard Layer 0 (Background)
//Storyboard Layer 1 (Fail)
//Storyboard Layer 2 (Pass)
//Storyboard Layer 3 (Foreground)
//Storyboard Layer 4 (Overlay)
//Storyboard Sound Samples

[TimingPoints]
191,285.714285714286,4,1,0,95,1,0
82476,285.714285714286,3,1,0,95,1,0
84191,285.714285714286,4,1,0,95,1,1
84191,-100,4,1,0,95,0,1
101333,-100,4,1,0,95,0,0
102191,-99.009900990099,4,1,0,95,0,0
102262,-98.0392156862745,4,1,0,95,0,0
102333,-97.0873786407767,4,1,0,95,0,0
102405,-96.1538461538461,4,1,0,95,0,0
102476,-95.2380952380952,4,1,0,95,0,1
107012,-95.2380952380952,4,1,0,95,0,1
107155,-95.5223880597015,4,1,0,95,0,1
107297,-95.8083832335329,4,1,0,95,0,1
107369,-95.9519779540736,4,1,0,95,0,1
107440,-96.0960960960961,4,1,0,95,0,1
107583,-96.3855421686747,4,1,0,95,0,1
107726,-96.6767371601208,4,1,0,95,0,1
107797,-96.8229485879825,4,1,0,95,0,1
107869,-96.969696969697,4,1,0,95,0,1
107940,-97.1167965441959,4,1,0,95,0,1
108012,-97.2644376899696,4,1,0,95,0,1
108155,-97.5609756097561,4,1,0,95,0,1
108297,-97.8593272171254,4,1,0,95,0,1
108440,-98.159509202454,4,1,0,95,0,1
108512,-98.3103401832701,4,1,0,95,0,1
108583,-98.4615384615385,4,1,0,95,0,1
108726,-98.7654320987654,4,1,0,95,0,1
108869,-99.0712074303406,4,1,0,95,0,1
108940,-99.2248554293856,4,1,0,95,0,1
109012,-99.3788819875776,4,1,0,95,0,1
109083,-99.5333874794961,4,1,0,95,0,1
109155,-99.6884735202492,4,1,0,95,0,1
109297,-100,4,1,0,95,0,1
117905,-100,4,1,0,95,0,0
141333,-100,4,1,0,95,0,1
157333,-100,4,1,0,95,0,0
187048,-95.2380952380952,4,1,0,95,0,1
191583,-95.2380952380952,4,1,0,95,0,1
191726,-95.5223880597015,4,1,0,95,0,1
191868,-95.8083832335329,4,1,0,95,0,1
191940,-95.9519779540736,4,1,0,95,0,1
192011,-96.0960960960961,4,1,0,95,0,1
192154,-96.3855421686747,4,1,0,95,0,1
192297,-96.6767371601208,4,1,0,95,0,1
192368,-96.8229485879825,4,1,0,95,0,1
192440,-96.969696969697,4,1,0,95,0,1
192511,-97.1167965441959,4,1,0,95,0,1
192583,-97.2644376899696,4,1,0,95,0,1
192726,-97.5609756097561,4,1,0,95,0,1
192868,-97.8593272171254,4,1,0,95,0,1
193011,-98.159509202454,4,1,0,95,0,1
193083,-98.3103401832701,4,1,0,95,0,1
193154,-98.4615384615385,4,1,0,95,0,1
193297,-98.7654320987654,4,1,0,95,0,1
193440,-99.0712074303406,4,1,0,95,0,1
193511,-99.2248554293856,4,1,0,95,0,1
193583,-99.3788819875776,4,1,0,95,0,1
193654,-99.5333874794961,4,1,0,95,0,1
193726,-99.6884735202492,4,1,0,95,0,1
193868,-100,4,1,0,95,0,1
202476,-100,4,1,0,95,0,0
203048,375,4,1,0,95,1,0
203048,-76.1904761904762,4,1,0,95,0,0
203141,-50,4,1,0,95,0,0
203235,-100,4,1,0,95,0,0
206048,-142.857142857143,4,1,0,40,0,0
214954,-133.333333333333,4,1,0,60,0,0
239423,-133.333333333333,4,1,0,40,0,0
242610,297.029702970297,4,1,0,40,1,8
242832,285.714285714286,4,1,0,95,1,0
251974,-95.2380952380952,4,1,0,95,0,1
278260,-95.2380952380952,4,1,0,95,0,0
279332,-100,4,1,0,95,0,0
293117,285.714285714286,3,1,0,95,1,0
294832,285.714285714286,4,1,0,95,1,1
294832,-100,4,1,0,95,0,1
311974,-100,4,1,0,95,0,0
313046,-100,4,1,0,70,0,0
327903,-100,4,1,0,90,0,0
329117,-95.2380952380952,4,1,0,95,0,1
333653,-95.2380952380952,4,1,0,95,0,1
333796,-95.5223880597015,4,1,0,95,0,1
333938,-95.8083832335329,4,1,0,95,0,1
334010,-95.9519779540736,4,1,0,95,0,1
334081,-96.0960960960961,4,1,0,95,0,1
334224,-96.3855421686747,4,1,0,95,0,1
334367,-96.6767371601208,4,1,0,95,0,1
334438,-96.8229485879825,4,1,0,95,0,1
334510,-96.969696969697,4,1,0,95,0,1
334581,-97.1167965441959,4,1,0,95,0,1
334653,-97.2644376899696,4,1,0,95,0,1
334796,-97.5609756097561,4,1,0,95,0,1
334938,-97.8593272171254,4,1,0,95,0,1
335081,-98.159509202454,4,1,0,95,0,1
335153,-98.3103401832701,4,1,0,95,0,1
335224,-98.4615384615385,4,1,0,95,0,1
335367,-98.7654320987654,4,1,0,95,0,1
335510,-99.0712074303406,4,1,0,95,0,1
335581,-99.2248554293856,4,1,0,95,0,1
335653,-99.3788819875776,4,1,0,95,0,1
335724,-99.5333874794961,4,1,0,95,0,1
335796,-99.6884735202492,4,1,0,95,0,1
335938,-100,4,1,0,95,0,1
345117,-100,4,1,0,95,0,0
354260,-95.2380952380952,4,1,0,95,0,1
358796,-95.2380952380952,4,1,0,95,0,1
358939,-95.5223880597015,4,1,0,95,0,1
359081,-95.8083832335329,4,1,0,95,0,1
359153,-95.9519779540736,4,1,0,95,0,1
359224,-96.0960960960961,4,1,0,95,0,1
359367,-96.3855421686747,4,1,0,95,0,1
359510,-96.6767371601208,4,1,0,95,0,1
359581,-96.8229485879825,4,1,0,95,0,1
359653,-96.969696969697,4,1,0,95,0,1
359724,-97.1167965441959,4,1,0,95,0,1
359796,-97.2644376899696,4,1,0,95,0,1
359939,-97.5609756097561,4,1,0,95,0,1
360081,-97.8593272171254,4,1,0,95,0,1
360224,-98.159509202454,4,1,0,95,0,1
360296,-98.3103401832701,4,1,0,95,0,1
360367,-98.4615384615385,4,1,0,95,0,1
360510,-98.7654320987654,4,1,0,95,0,1
360653,-99.0712074303406,4,1,0,95,0,1
360724,-99.2248554293856,4,1,0,95,0,1
360796,-99.3788819875776,4,1,0,95,0,1
360867,-99.5333874794961,4,1,0,95,0,1
360939,-99.6884735202492,4,1,0,95,0,1
361081,-100,4,1,0,95,0,1
367974,-95.2380952380952,4,1,0,95,0,1
370260,-100,4,1,0,95,0,0
388403,-97.5609756097561,4,1,0,95,0,0
388474,-96.3855421686747,4,1,0,95,0,0
388546,-95.2380952380952,4,1,0,95,0,0

[HitObjects]
395,71,191,5,12,0:0:0:0:
421,289,333,1,0,0:0:0:0:
421,289,476,1,8,0:0:0:0:
413,281,619,1,0,0:0:0:0:
413,281,691,1,8,0:0:0:0:
413,281,762,1,0,0:0:0:0:
404,266,905,1,0,0:0:0:0:
404,266,976,1,0,0:0:0:0:
404,266,1048,1,8,0:0:0:0:
404,266,1191,1,0,0:0:0:0:
404,266,1333,1,8,0:0:0:0:
404,266,1476,1,8,0:0:0:0:
404,266,1619,1,0,0:0:0:0:
404,266,1762,1,8,0:0:0:0:
404,266,1833,1,8,0:0:0:0:
404,266,1905,1,0,0:0:0:0:
404,266,2048,1,0,0:0:0:0:
404,266,2191,1,8,0:0:0:0:
404,266,2262,1,0,0:0:0:0:
404,266,2333,1,8,0:0:0:0:
403,287,2476,1,0,0:0:0:0:
403,287,2619,1,0,0:0:0:0:
398,286,2762,1,8,0:0:0:0:
396,286,2905,1,0,0:0:0:0:
396,286,2976,1,0,0:0:0:0:
396,286,3048,1,8,0:0:0:0:
396,286,3191,1,0,0:0:0:0:
396,286,3333,1,8,0:0:0:0:
388,283,3405,1,8,0:0:0:0:
388,283,3476,1,0,0:0:0:0:
388,283,3619,1,8,0:0:0:0:
388,283,3762,1,0,0:0:0:0:
388,283,3905,1,8,0:0:0:0:
376,291,4048,1,0,0:0:0:0:
376,291,4119,1,8,0:0:0:0:
376,291,4191,1,0,0:0:0:0:
392,299,4333,1,0,0:0:0:0:
380,292,4476,1,8,0:0:0:0:
380,292,4548,1,0,0:0:0:0:
380,292,4619,1,8,0:0:0:0:
380,292,4691,1,8,0:0:0:0:
380,292,4762,1,0,0:0:0:0:
421,289,4905,1,0,0:0:0:0:
421,289,5048,1,8,0:0:0:0:
413,281,5191,1,0,0:0:0:0:
413,281,5262,1,8,0:0:0:0:
413,281,5333,1,0,0:0:0:0:
404,266,5476,1,0,0:0:0:0:
404,266,5548,1,0,0:0:0:0:
404,266,5619,1,8,0:0:0:0:
404,266,5762,1,0,0:0:0:0:
404,266,5905,1,8,0:0:0:0:
404,266,6048,1,8,0:0:0:0:
404,266,6191,1,0,0:0:0:0:
404,266,6333,1,8,0:0:0:0:
404,266,6405,1,8,0:0:0:0:
404,266,6476,1,0,0:0:0:0:
404,266,6619,1,0,0:0:0:0:
404,266,6762,1,8,0:0:0:0:
404,266,6833,1,0,0:0:0:0:
404,266,6905,1,8,0:0:0:0:
403,287,7048,1,0,0:0:0:0:
403,287,7191,1,0,0:0:0:0:
398,286,7333,1,8,0:0:0:0:
396,286,7476,1,0,0:0:0:0:
396,286,7548,1,0,0:0:0:0:
396,286,7619,1,8,0:0:0:0:
396,286,7762,1,0,0:0:0:0:
396,286,7905,1,8,0:0:0:0:
388,283,7976,1,8,0:0:0:0:
388,283,8048,1,0,0:0:0:0:
395,283,8191,1,8,0:0:0:0:
390,281,8333,1,0,0:0:0:0:
389,279,8476,1,8,0:0:0:0:
383,274,8619,1,0,0:0:0:0:
383,274,8691,1,8,0:0:0:0:
383,274,8762,1,0,0:0:0:0:
388,261,8905,1,8,0:0:0:0:
388,261,8976,1,8,0:0:0:0:
388,261,9048,1,0,0:0:0:0:
408,280,9119,1,0,0:0:0:0:
394,265,9191,1,8,0:0:0:0:
386,76,9333,1,4,0:0:0:0:
421,289,9476,1,0,0:0:0:0:
421,289,9619,1,8,0:0:0:0:
413,281,9691,1,8,0:0:0:0:
413,281,9762,1,0,0:0:0:0:
413,281,9905,1,0,0:0:0:0:
379,274,9976,1,8,0:0:0:0:
404,266,10048,1,0,0:0:0:0:
404,266,10119,1,0,0:0:0:0:
404,266,10191,1,8,0:0:0:0:
404,266,10333,1,0,0:0:0:0:
404,266,10476,1,8,0:0:0:0:
360,250,10548,1,0,0:0:0:0:
404,266,10619,1,8,0:0:0:0:
404,266,10762,1,0,0:0:0:0:
404,266,10905,1,0,0:0:0:0:
404,266,10976,1,8,0:0:0:0:
404,266,11048,1,8,0:0:0:0:
404,266,11191,1,0,0:0:0:0:
404,266,11333,1,8,0:0:0:0:
404,266,11405,1,0,0:0:0:0:
404,266,11476,1,8,0:0:0:0:
406,273,11548,1,8,0:0:0:0:
403,287,11619,1,0,0:0:0:0:
403,287,11762,1,0,0:0:0:0:
398,286,11905,1,8,0:0:0:0:
396,286,12048,1,0,0:0:0:0:
396,286,12119,1,0,0:0:0:0:
396,286,12191,1,8,0:0:0:0:
396,286,12333,1,0,0:0:0:0:
396,286,12476,1,8,0:0:0:0:
388,283,12548,1,8,0:0:0:0:
388,283,12619,1,0,0:0:0:0:
397,285,12762,1,8,0:0:0:0:
398,286,12905,1,0,0:0:0:0:
396,286,13048,1,8,0:0:0:0:
396,286,13191,1,0,0:0:0:0:
396,286,13262,1,0,0:0:0:0:
396,286,13333,1,8,0:0:0:0:
396,286,13405,1,0,0:0:0:0:
388,284,13476,1,0,0:0:0:0:
388,283,13619,1,8,0:0:0:0:
388,284,13691,1,0,0:0:0:0:
388,284,13762,1,8,0:0:0:0:
388,284,13905,1,0,0:0:0:0:
421,289,14048,1,0,0:0:0:0:
421,289,14191,1,8,0:0:0:0:
413,281,14262,1,0,0:0:0:0:
413,281,14333,1,0,0:0:0:0:
413,281,14476,1,8,0:0:0:0:
379,274,14548,1,8,0:0:0:0:
404,266,14619,1,0,0:0:0:0:
404,266,14691,1,8,0:0:0:0:
404,266,14762,1,0,0:0:0:0:
404,266,14905,1,0,0:0:0:0:
404,266,15048,1,8,0:0:0:0:
360,250,15119,1,0,0:0:0:0:
404,266,15191,1,8,0:0:0:0:
404,266,15333,1,0,0:0:0:0:
404,266,15476,1,0,0:0:0:0:
404,266,15548,1,8,0:0:0:0:
404,266,15619,1,8,0:0:0:0:
404,266,15762,1,0,0:0:0:0:
404,266,15905,1,8,0:0:0:0:
404,266,15976,1,0,0:0:0:0:
404,266,16048,1,8,0:0:0:0:
406,273,16119,1,8,0:0:0:0:
403,287,16191,1,0,0:0:0:0:
404,266,16333,1,0,0:0:0:0:
404,266,16405,1,0,0:0:0:0:
404,266,16476,1,8,0:0:0:0:
399,281,16619,1,8,0:0:0:0:
399,281,16762,1,0,0:0:0:0:
399,281,16833,1,8,0:0:0:0:
399,281,16905,1,0,0:0:0:0:
399,281,16976,1,0,0:0:0:0:
399,281,17048,1,8,0:0:0:0:
382,272,17191,1,0,0:0:0:0:
382,272,17333,1,8,0:0:0:0:
382,272,17405,1,0,0:0:0:0:
382,272,17476,1,8,0:0:0:0:
382,272,17619,1,0,0:0:0:0:
382,272,17691,1,8,0:0:0:0:
382,272,17762,1,0,0:0:0:0:
382,272,17833,1,0,0:0:0:0:
382,272,17905,1,8,0:0:0:0:
382,272,17976,1,0,0:0:0:0:
382,272,18048,1,8,0:0:0:0:
382,272,18119,1,8,0:0:0:0:
382,272,18191,1,0,0:0:0:0:
382,272,18262,1,0,0:0:0:0:
382,272,18333,1,8,0:0:0:0:
404,279,18405,1,0,0:0:0:0:
382,272,18476,1,8,0:0:0:0:
401,66,20476,1,12,0:0:0:0:
401,66,20762,1,4,0:0:0:0:
421,289,20905,1,0,0:0:0:0:
421,289,21048,1,8,0:0:0:0:
413,281,21119,1,8,0:0:0:0:
413,281,21191,1,0,0:0:0:0:
413,281,21333,1,8,0:0:0:0:
379,274,21405,1,8,0:0:0:0:
404,266,21476,1,0,0:0:0:0:
404,266,21548,1,0,0:0:0:0:
404,266,21619,1,8,0:0:0:0:
404,266,21762,1,0,0:0:0:0:
404,266,21905,1,8,0:0:0:0:
360,250,21976,1,8,0:0:0:0:
404,266,22048,1,8,0:0:0:0:
404,266,22191,1,0,0:0:0:0:
404,266,22333,1,0,0:0:0:0:
404,266,22405,1,8,0:0:0:0:
404,266,22476,1,8,0:0:0:0:
421,283,22548,1,0,0:0:0:0:
419,283,22619,1,8,0:0:0:0:
404,266,22762,1,0,0:0:0:0:
404,266,22905,1,8,0:0:0:0:
406,273,22976,1,8,0:0:0:0:
403,287,23048,1,0,0:0:0:0:
421,288,23191,1,0,0:0:0:0:
421,288,23333,1,8,0:0:0:0:
421,288,23405,1,0,0:0:0:0:
421,288,23476,1,0,0:0:0:0:
421,288,23619,1,8,0:0:0:0:
421,288,23762,1,0,0:0:0:0:
421,288,23833,1,0,0:0:0:0:
421,288,23905,1,8,0:0:0:0:
421,288,23976,1,8,0:0:0:0:
421,288,24048,1,8,0:0:0:0:
421,288,24191,1,0,0:0:0:0:
421,288,24333,1,0,0:0:0:0:
421,288,24476,1,8,0:0:0:0:
415,278,24548,1,0,0:0:0:0:
415,278,24619,1,8,0:0:0:0:
421,288,24691,1,8,0:0:0:0:
415,278,24762,1,0,0:0:0:0:
426,289,24833,1,0,0:0:0:0:
426,288,24905,1,8,0:0:0:0:
429,274,25048,1,0,0:0:0:0:
429,272,25191,1,8,0:0:0:0:
429,272,25333,1,0,0:0:0:0:
421,289,25476,1,0,0:0:0:0:
421,289,25619,1,8,0:0:0:0:
413,281,25691,1,8,0:0:0:0:
413,281,25762,1,0,0:0:0:0:
379,274,25833,1,8,0:0:0:0:
413,281,25905,1,0,0:0:0:0:
404,266,26048,1,0,0:0:0:0:
404,266,26119,1,0,0:0:0:0:
404,266,26191,1,8,0:0:0:0:
404,266,26333,1,0,0:0:0:0:
404,266,26476,1,8,0:0:0:0:
360,250,26548,1,8,0:0:0:0:
404,266,26619,1,8,0:0:0:0:
404,266,26762,1,0,0:0:0:0:
404,266,26905,1,8,0:0:0:0:
404,266,26976,1,8,0:0:0:0:
404,266,27048,1,0,0:0:0:0:
421,283,27119,1,0,0:0:0:0:
419,283,27191,1,8,0:0:0:0:
404,266,27333,1,0,0:0:0:0:
404,266,27476,1,0,0:0:0:0:
406,273,27548,1,0,0:0:0:0:
403,287,27619,1,8,0:0:0:0:
421,288,27762,1,8,0:0:0:0:
421,288,27905,1,0,0:0:0:0:
421,288,27976,1,8,0:0:0:0:
421,288,28048,1,0,0:0:0:0:
421,288,28191,1,8,0:0:0:0:
421,288,28333,1,0,0:0:0:0:
421,288,28405,1,8,0:0:0:0:
421,288,28476,1,0,0:0:0:0:
421,288,28548,1,0,0:0:0:0:
421,288,28619,1,8,0:0:0:0:
421,288,28762,1,0,0:0:0:0:
415,278,28833,1,0,0:0:0:0:
421,288,28905,1,0,0:0:0:0:
421,288,29048,1,0,0:0:0:0:
415,278,29191,1,8,0:0:0:0:
421,288,29262,1,8,0:0:0:0:
415,278,29333,1,8,0:0:0:0:
426,289,29405,1,8,0:0:0:0:
426,288,29476,1,0,0:0:0:0:
426,288,29548,1,0,0:0:0:0:
429,274,29619,1,8,0:0:0:0:
429,272,29762,1,8,0:0:0:0:
429,272,29905,1,0,0:0:0:0:
421,289,30048,1,0,0:0:0:0:
421,289,30191,1,8,0:0:0:0:
413,281,30262,1,0,0:0:0:0:
413,281,30333,1,8,0:0:0:0:
413,281,30476,1,0,0:0:0:0:
379,274,30548,1,0,0:0:0:0:
404,266,30619,1,8,0:0:0:0:
404,266,30691,1,0,0:0:0:0:
404,266,30762,1,0,0:0:0:0:
404,266,30905,1,8,0:0:0:0:
404,266,31048,1,0,0:0:0:0:
360,250,31119,1,0,0:0:0:0:
404,266,31191,1,8,0:0:0:0:
404,266,31333,1,0,0:0:0:0:
404,266,31476,1,8,0:0:0:0:
404,266,31548,1,0,0:0:0:0:
404,266,31619,1,8,0:0:0:0:
421,283,31691,1,0,0:0:0:0:
419,283,31762,1,0,0:0:0:0:
404,266,31905,1,0,0:0:0:0:
404,266,32048,1,8,0:0:0:0:
406,273,32119,1,8,0:0:0:0:
403,287,32191,1,0,0:0:0:0:
421,288,32333,1,8,0:0:0:0:
421,288,32476,1,0,0:0:0:0:
421,288,32548,1,0,0:0:0:0:
421,288,32619,1,8,0:0:0:0:
421,288,32762,1,8,0:0:0:0:
421,288,32905,1,0,0:0:0:0:
421,288,32976,1,0,0:0:0:0:
421,288,33048,1,8,0:0:0:0:
421,288,33119,1,8,0:0:0:0:
421,288,33191,1,8,0:0:0:0:
421,288,33333,1,0,0:0:0:0:
421,288,33476,1,8,0:0:0:0:
421,288,33619,1,0,0:0:0:0:
415,278,33691,1,0,0:0:0:0:
415,278,33762,1,8,0:0:0:0:
421,288,33833,1,0,0:0:0:0:
415,278,33905,1,0,0:0:0:0:
426,289,33976,1,0,0:0:0:0:
426,288,34048,1,8,0:0:0:0:
429,274,34191,1,0,0:0:0:0:
429,272,34333,1,8,0:0:0:0:
423,271,34405,1,8,0:0:0:0:
429,272,34476,1,0,0:0:0:0:
421,289,34619,1,8,0:0:0:0:
421,289,34762,1,0,0:0:0:0:
413,281,34833,1,0,0:0:0:0:
413,281,34905,1,8,0:0:0:0:
413,281,35048,1,0,0:0:0:0:
379,274,35119,1,0,0:0:0:0:
404,266,35191,1,8,0:0:0:0:
404,266,35262,1,0,0:0:0:0:
404,266,35333,1,8,0:0:0:0:
404,266,35476,1,0,0:0:0:0:
404,266,35619,1,8,0:0:0:0:
360,250,35691,1,8,0:0:0:0:
404,266,35762,1,8,0:0:0:0:
404,266,35905,1,0,0:0:0:0:
404,266,36048,1,0,0:0:0:0:
404,266,36119,1,8,0:0:0:0:
404,266,36191,1,0,0:0:0:0:
399,277,36262,1,0,0:0:0:0:
399,277,36333,1,8,0:0:0:0:
404,266,36476,1,0,0:0:0:0:
404,266,36548,1,0,0:0:0:0:
404,266,36619,1,8,0:0:0:0:
388,81,36762,1,4,0:0:0:0:
385,269,37048,1,8,0:0:0:0:
386,270,37191,1,0,0:0:0:0:
386,270,37262,1,0,0:0:0:0:
407,273,37333,1,8,0:0:0:0:
406,271,37405,1,0,0:0:0:0:
405,271,37476,1,8,0:0:0:0:
405,271,37548,1,0,0:0:0:0:
405,271,37619,1,8,0:0:0:0:
406,273,37691,1,8,0:0:0:0:
394,279,37762,1,0,0:0:0:0:
392,277,37833,1,0,0:0:0:0:
392,274,37905,1,8,0:0:0:0:
378,285,37976,1,8,0:0:0:0:
384,274,38048,1,8,0:0:0:0:
386,270,38119,1,8,0:0:0:0:
386,270,38191,1,0,0:0:0:0:
386,270,38262,1,0,0:0:0:0:
390,273,38333,1,8,0:0:0:0:
390,273,38405,1,8,0:0:0:0:
390,273,38476,1,8,0:0:0:0:
390,273,38548,1,8,0:0:0:0:
390,273,38619,1,0,0:0:0:0:
384,269,38762,1,8,0:0:0:0:
383,268,38905,1,8,0:0:0:0:
386,76,39048,1,4,0:0:0:0:
421,289,39191,1,0,0:0:0:0:
421,289,39333,1,8,0:0:0:0:
413,281,39405,1,8,0:0:0:0:
413,281,39476,1,0,0:0:0:0:
413,281,39619,1,0,0:0:0:0:
379,274,39691,1,8,0:0:0:0:
404,266,39762,1,0,0:0:0:0:
404,266,39833,1,0,0:0:0:0:
404,266,39905,1,8,0:0:0:0:
404,266,40048,1,0,0:0:0:0:
404,266,40191,1,8,0:0:0:0:
360,250,40262,1,0,0:0:0:0:
404,266,40333,1,8,0:0:0:0:
404,266,40476,1,0,0:0:0:0:
404,266,40619,1,0,0:0:0:0:
404,266,40691,1,8,0:0:0:0:
404,266,40762,1,8,0:0:0:0:
404,266,40905,1,0,0:0:0:0:
404,266,41048,1,8,0:0:0:0:
404,266,41119,1,0,0:0:0:0:
404,266,41191,1,8,0:0:0:0:
406,273,41262,1,8,0:0:0:0:
403,287,41333,1,0,0:0:0:0:
403,287,41476,1,0,0:0:0:0:
398,286,41619,1,8,0:0:0:0:
396,286,41762,1,0,0:0:0:0:
396,286,41833,1,0,0:0:0:0:
396,286,41905,1,8,0:0:0:0:
396,286,42048,1,0,0:0:0:0:
396,286,42191,1,8,0:0:0:0:
388,283,42262,1,8,0:0:0:0:
388,283,42333,1,0,0:0:0:0:
397,285,42476,1,8,0:0:0:0:
398,286,42619,1,0,0:0:0:0:
396,286,42762,1,8,0:0:0:0:
396,286,42905,1,0,0:0:0:0:
396,286,42976,1,0,0:0:0:0:
396,286,43048,1,8,0:0:0:0:
396,286,43119,1,0,0:0:0:0:
388,284,43191,1,0,0:0:0:0:
388,283,43333,1,8,0:0:0:0:
388,284,43405,1,0,0:0:0:0:
388,284,43476,1,8,0:0:0:0:
388,284,43619,1,0,0:0:0:0:
421,289,43762,1,0,0:0:0:0:
421,289,43905,1,8,0:0:0:0:
413,281,44048,1,0,0:0:0:0:
413,281,44119,1,0,0:0:0:0:
413,281,44191,1,8,0:0:0:0:
379,274,44262,1,0,0:0:0:0:
404,266,44333,1,0,0:0:0:0:
404,266,44405,1,8,0:0:0:0:
404,266,44476,1,8,0:0:0:0:
404,266,44619,1,0,0:0:0:0:
404,266,44762,1,8,0:0:0:0:
360,250,44833,1,0,0:0:0:0:
404,266,44905,1,8,0:0:0:0:
404,266,45048,1,0,0:0:0:0:
404,266,45191,1,8,0:0:0:0:
404,266,45262,1,8,0:0:0:0:
404,266,45333,1,8,0:0:0:0:
404,266,45476,1,0,0:0:0:0:
404,266,45619,1,8,0:0:0:0:
404,266,45691,1,0,0:0:0:0:
404,266,45762,1,8,0:0:0:0:
406,273,45833,1,8,0:0:0:0:
403,287,45905,1,0,0:0:0:0:
394,278,46048,1,0,0:0:0:0:
395,275,46191,1,8,0:0:0:0:
395,274,46333,1,0,0:0:0:0:
395,274,46405,1,0,0:0:0:0:
396,270,46476,1,8,0:0:0:0:
396,268,46548,1,8,0:0:0:0:
396,268,46619,1,0,0:0:0:0:
397,266,46762,1,8,0:0:0:0:
397,266,46833,1,8,0:0:0:0:
397,267,46905,1,0,0:0:0:0:
407,282,47048,1,0,0:0:0:0:
407,282,47119,1,8,0:0:0:0:
407,281,47191,1,0,0:0:0:0:
407,281,47262,1,8,0:0:0:0:
407,281,47333,1,0,0:0:0:0:
407,281,47405,1,0,0:0:0:0:
406,279,47476,1,8,0:0:0:0:
404,276,47619,1,8,0:0:0:0:
404,276,47691,1,0,0:0:0:0:
416,291,47762,1,8,0:0:0:0:
416,291,47833,1,0,0:0:0:0:
416,291,47905,1,8,0:0:0:0:
409,288,47976,1,8,0:0:0:0:
404,286,48048,1,0,0:0:0:0:
382,267,48191,1,12,0:0:0:0:
421,289,48333,1,0,0:0:0:0:
421,289,48476,1,8,0:0:0:0:
413,281,48548,1,8,0:0:0:0:
413,281,48619,1,0,0:0:0:0:
413,281,48762,1,8,0:0:0:0:
379,274,48833,1,8,0:0:0:0:
404,266,48905,1,0,0:0:0:0:
404,266,48976,1,0,0:0:0:0:
404,266,49048,1,8,0:0:0:0:
404,266,49191,1,0,0:0:0:0:
404,266,49333,1,8,0:0:0:0:
360,250,49405,1,8,0:0:0:0:
404,266,49476,1,8,0:0:0:0:
404,266,49619,1,0,0:0:0:0:
404,266,49691,1,0,0:0:0:0:
404,266,49762,1,8,0:0:0:0:
421,283,49833,1,0,0:0:0:0:
404,266,49905,1,0,0:0:0:0:
419,283,50048,1,8,0:0:0:0:
406,273,50119,1,8,0:0:0:0:
404,266,50191,1,0,0:0:0:0:
404,266,50333,1,8,0:0:0:0:
403,287,50476,1,0,0:0:0:0:
421,288,50619,1,0,0:0:0:0:
421,288,50762,1,8,0:0:0:0:
421,288,50833,1,0,0:0:0:0:
421,288,50905,1,0,0:0:0:0:
421,288,51048,1,8,0:0:0:0:
421,288,51191,1,0,0:0:0:0:
421,288,51262,1,0,0:0:0:0:
421,288,51333,1,8,0:0:0:0:
421,288,51405,1,8,0:0:0:0:
421,288,51476,1,8,0:0:0:0:
421,288,51619,1,0,0:0:0:0:
421,288,51762,1,0,0:0:0:0:
421,288,51905,1,8,0:0:0:0:
415,278,51976,1,0,0:0:0:0:
415,278,52048,1,8,0:0:0:0:
421,288,52119,1,8,0:0:0:0:
415,278,52191,1,0,0:0:0:0:
426,289,52262,1,0,0:0:0:0:
426,288,52333,1,8,0:0:0:0:
429,274,52476,1,0,0:0:0:0:
429,272,52619,1,8,0:0:0:0:
429,272,52762,1,0,0:0:0:0:
421,289,52905,1,0,0:0:0:0:
421,289,53048,1,8,0:0:0:0:
413,281,53119,1,8,0:0:0:0:
413,281,53191,1,0,0:0:0:0:
379,274,53262,1,8,0:0:0:0:
413,281,53333,1,0,0:0:0:0:
404,266,53476,1,0,0:0:0:0:
404,266,53548,1,0,0:0:0:0:
404,266,53619,1,8,0:0:0:0:
404,266,53762,1,0,0:0:0:0:
404,266,53905,1,8,0:0:0:0:
360,250,53976,1,8,0:0:0:0:
404,266,54048,1,8,0:0:0:0:
404,266,54191,1,0,0:0:0:0:
404,266,54333,1,8,0:0:0:0:
404,266,54476,1,0,0:0:0:0:
421,283,54548,1,0,0:0:0:0:
419,283,54619,1,8,0:0:0:0:
411,279,54691,1,0,0:0:0:0:
404,266,54762,1,0,0:0:0:0:
404,266,54905,1,8,0:0:0:0:
403,287,55048,1,0,0:0:0:0:
421,288,55191,1,8,0:0:0:0:
421,288,55333,1,0,0:0:0:0:
421,288,55405,1,8,0:0:0:0:
421,288,55476,1,0,0:0:0:0:
421,288,55619,1,8,0:0:0:0:
404,266,55691,1,8,0:0:0:0:
421,288,55762,1,0,0:0:0:0:
421,288,55833,1,8,0:0:0:0:
421,288,55905,1,0,0:0:0:0:
421,288,55976,1,0,0:0:0:0:
421,288,56048,1,8,0:0:0:0:
421,288,56191,1,0,0:0:0:0:
415,278,56262,1,0,0:0:0:0:
421,288,56333,1,0,0:0:0:0:
421,288,56476,1,0,0:0:0:0:
415,278,56619,1,8,0:0:0:0:
421,288,56691,1,8,0:0:0:0:
415,278,56762,1,8,0:0:0:0:
426,289,56833,1,8,0:0:0:0:
426,288,56905,1,0,0:0:0:0:
429,274,57048,1,8,0:0:0:0:
429,272,57191,1,8,0:0:0:0:
429,272,57333,1,0,0:0:0:0:
421,289,57476,1,0,0:0:0:0:
421,289,57619,1,8,0:0:0:0:
413,281,57691,1,0,0:0:0:0:
413,281,57762,1,8,0:0:0:0:
413,281,57905,1,0,0:0:0:0:
379,274,57976,1,0,0:0:0:0:
404,266,58048,1,8,0:0:0:0:
404,266,58119,1,0,0:0:0:0:
404,266,58191,1,8,0:0:0:0:
404,266,58333,1,0,0:0:0:0:
404,266,58476,1,8,0:0:0:0:
360,250,58548,1,8,0:0:0:0:
404,266,58619,1,8,0:0:0:0:
404,266,58762,1,0,0:0:0:0:
404,266,58905,1,8,0:0:0:0:
404,266,58976,1,8,0:0:0:0:
404,266,59048,1,0,0:0:0:0:
421,283,59119,1,0,0:0:0:0:
419,283,59191,1,8,0:0:0:0:
403,278,59262,1,0,0:0:0:0:
404,266,59333,1,0,0:0:0:0:
404,266,59476,1,8,0:0:0:0:
406,273,59548,1,8,0:0:0:0:
403,287,59619,1,0,0:0:0:0:
421,288,59762,1,8,0:0:0:0:
421,288,59905,1,0,0:0:0:0:
421,288,59976,1,0,0:0:0:0:
421,288,60048,1,8,0:0:0:0:
421,288,60191,1,0,0:0:0:0:
421,288,60333,1,8,0:0:0:0:
421,288,60405,1,8,0:0:0:0:
421,288,60476,1,0,0:0:0:0:
421,288,60548,1,8,0:0:0:0:
421,288,60619,1,8,0:0:0:0:
421,288,60762,1,0,0:0:0:0:
421,288,60905,1,8,0:0:0:0:
421,288,61048,1,0,0:0:0:0:
415,278,61119,1,0,0:0:0:0:
415,278,61191,1,8,0:0:0:0:
421,288,61262,1,0,0:0:0:0:
415,278,61333,1,0,0:0:0:0:
426,289,61405,1,0,0:0:0:0:
426,288,61476,1,8,0:0:0:0:
429,274,61619,1,0,0:0:0:0:
429,272,61762,1,8,0:0:0:0:
423,271,61833,1,8,0:0:0:0:
429,272,61905,1,0,0:0:0:0:
421,289,62048,1,8,0:0:0:0:
421,289,62191,1,0,0:0:0:0:
413,281,62262,1,0,0:0:0:0:
413,281,62333,1,8,0:0:0:0:
413,281,62476,1,0,0:0:0:0:
379,274,62548,1,0,0:0:0:0:
404,266,62619,1,8,0:0:0:0:
404,266,62691,1,0,0:0:0:0:
404,266,62762,1,8,0:0:0:0:
404,266,62905,1,0,0:0:0:0:
404,266,63048,1,8,0:0:0:0:
360,250,63119,1,8,0:0:0:0:
404,266,63191,1,8,0:0:0:0:
404,266,63333,1,0,0:0:0:0:
404,266,63476,1,8,0:0:0:0:
404,266,63548,1,8,0:0:0:0:
404,266,63619,1,8,0:0:0:0:
399,277,63691,1,0,0:0:0:0:
399,277,63762,1,8,0:0:0:0:
404,266,63833,1,8,0:0:0:0:
404,266,63905,1,0,0:0:0:0:
404,266,64048,1,8,0:0:0:0:
403,287,64191,1,0,0:0:0:0:
404,266,64333,1,8,0:0:0:0:
385,269,64476,1,0,0:0:0:0:
404,266,64548,1,8,0:0:0:0:
404,266,64619,1,8,0:0:0:0:
386,270,64691,1,0,0:0:0:0:
407,273,64762,1,8,0:0:0:0:
406,271,64833,1,0,0:0:0:0:
405,271,64905,1,8,0:0:0:0:
405,271,64976,1,0,0:0:0:0:
405,271,65048,1,8,0:0:0:0:
406,273,65119,1,8,0:0:0:0:
394,279,65191,1,0,0:0:0:0:
392,277,65262,1,0,0:0:0:0:
392,274,65333,1,8,0:0:0:0:
378,285,65405,1,8,0:0:0:0:
384,274,65476,1,8,0:0:0:0:
386,270,65548,1,8,0:0:0:0:
386,270,65619,1,0,0:0:0:0:
386,270,65691,1,0,0:0:0:0:
390,273,65762,1,8,0:0:0:0:
390,273,65833,1,8,0:0:0:0:
390,273,65905,1,0,0:0:0:0:
390,273,65976,1,0,0:0:0:0:
390,273,66048,1,0,0:0:0:0:
392,260,66119,1,0,0:0:0:0:
384,269,66191,1,8,0:0:0:0:
392,259,66262,1,8,0:0:0:0:
383,268,66333,1,8,0:0:0:0:
393,305,66405,1,8,0:0:0:0:
376,309,66476,1,0,0:0:0:0:
367,76,66619,1,12,0:0:0:0:
411,328,66762,1,0,0:0:0:0:
380,285,66905,1,0,0:0:0:0:
381,283,67048,1,8,0:0:0:0:
368,286,67191,1,0,0:0:0:0:
368,286,67333,1,8,0:0:0:0:
368,286,67476,1,8,0:0:0:0:
367,76,67619,1,4,0:0:0:0:
387,65,68762,1,4,0:0:0:0:
385,286,69048,1,8,0:0:0:0:
385,286,69191,1,8,0:0:0:0:
385,286,69333,1,0,0:0:0:0:
379,300,69476,1,0,0:0:0:0:
381,288,69619,1,8,0:0:0:0:
381,288,69762,1,0,0:0:0:0:
381,288,69905,1,8,0:0:0:0:
381,288,70048,1,0,0:0:0:0:
381,288,70191,1,8,0:0:0:0:
381,288,70333,1,0,0:0:0:0:
381,288,70476,1,0,0:0:0:0:
381,288,70619,1,8,0:0:0:0:
381,288,70762,1,0,0:0:0:0:
381,288,70905,1,8,0:0:0:0:
398,288,71048,1,0,0:0:0:0:
398,288,71095,1,0,0:0:0:0:
398,288,71143,1,0,0:0:0:0:
398,288,71191,1,8,0:0:0:0:
370,280,71333,1,0,0:0:0:0:
370,280,71405,1,0,0:0:0:0:
370,280,71476,1,0,0:0:0:0:
381,288,71619,1,8,0:0:0:0:
381,288,71691,1,8,0:0:0:0:
373,291,71762,1,0,0:0:0:0:
351,284,71833,1,0,0:0:0:0:
370,284,71905,1,8,0:0:0:0:
359,278,72048,1,8,0:0:0:0:
377,76,72191,1,4,0:0:0:0:
382,61,73333,1,4,0:0:0:0:
385,286,73619,1,8,0:0:0:0:
385,286,73762,1,0,0:0:0:0:
385,286,73905,1,8,0:0:0:0:
379,300,74048,1,0,0:0:0:0:
381,288,74191,1,8,0:0:0:0:
381,288,74333,1,0,0:0:0:0:
381,288,74476,1,8,0:0:0:0:
381,288,74619,1,8,0:0:0:0:
381,288,74762,1,0,0:0:0:0:
381,288,74905,1,0,0:0:0:0:
381,288,75048,1,8,0:0:0:0:
381,288,75191,1,8,0:0:0:0:
381,288,75333,1,0,0:0:0:0:
381,288,75476,1,8,0:0:0:0:
383,278,75619,1,0,0:0:0:0:
383,278,75667,1,0,0:0:0:0:
383,278,75714,1,0,0:0:0:0:
383,278,75762,1,8,0:0:0:0:
373,279,75905,1,0,0:0:0:0:
362,288,75976,1,0,0:0:0:0:
366,281,76048,1,0,0:0:0:0:
366,281,76191,1,8,0:0:0:0:
366,281,76262,1,0,0:0:0:0:
366,281,76333,1,0,0:0:0:0:
382,300,76405,1,0,0:0:0:0:
366,281,76476,1,8,0:0:0:0:
388,287,76619,1,8,0:0:0:0:
373,83,76762,1,4,0:0:0:0:
382,61,77905,1,4,0:0:0:0:
385,286,78191,1,8,0:0:0:0:
385,286,78333,1,0,0:0:0:0:
385,286,78476,1,8,0:0:0:0:
379,300,78619,1,8,0:0:0:0:
381,288,78762,1,0,0:0:0:0:
381,288,78905,1,0,0:0:0:0:
381,288,79048,1,8,0:0:0:0:
381,288,79191,1,0,0:0:0:0:
381,288,79333,1,8,0:0:0:0:
381,288,79476,1,0,0:0:0:0:
381,288,79619,1,0,0:0:0:0:
381,288,79762,1,0,0:0:0:0:
381,288,79905,1,8,0:0:0:0:
381,288,80048,1,8,0:0:0:0:
383,278,80191,1,0,0:0:0:0:
383,278,80238,1,0,0:0:0:0:
383,278,80286,1,0,0:0:0:0:
383,278,80333,1,8,0:0:0:0:
373,279,80476,1,8,0:0:0:0:
362,288,80548,1,0,0:0:0:0:
395,302,80619,1,0,0:0:0:0:
366,281,80762,1,8,0:0:0:0:
366,281,80833,1,8,0:0:0:0:
366,281,80905,1,0,0:0:0:0:
368,286,80976,1,0,0:0:0:0:
366,281,81048,1,8,0:0:0:0:
388,287,81191,1,8,0:0:0:0:
406,83,81333,1,4,0:0:0:0:
346,79,81905,1,12,0:0:0:0:
346,79,82191,1,12,0:0:0:0:
353,103,82476,1,4,0:0:0:0:
373,310,82761,1,8,0:0:0:0:
373,310,82904,1,8,0:0:0:0:
373,309,83047,1,0,0:0:0:0:
373,309,83190,1,0,0:0:0:0:
365,288,83237,1,0,0:0:0:0:
367,290,83285,1,0,0:0:0:0:
369,290,83333,1,8,0:0:0:0:
360,291,83428,1,8,0:0:0:0:
360,291,83523,1,0,0:0:0:0:
360,291,83618,1,8,0:0:0:0:
360,291,83714,1,0,0:0:0:0:
360,291,83809,1,0,0:0:0:0:
370,290,83904,1,8,0:0:0:0:
370,290,83999,1,0,0:0:0:0:
370,290,84095,1,0,0:0:0:0:
367,63,84190,1,12,0:0:0:0:
387,294,84333,1,0,0:0:0:0:
380,285,84476,1,8,0:0:0:0:
380,285,84548,1,8,0:0:0:0:
380,285,84619,1,0,0:0:0:0:
375,286,84762,1,8,0:0:0:0:
375,286,84905,1,0,0:0:0:0:
375,286,85048,1,8,0:0:0:0:
375,286,85119,1,0,0:0:0:0:
375,286,85191,1,8,0:0:0:0:
375,286,85333,1,0,0:0:0:0:
375,286,85476,1,0,0:0:0:0:
374,280,85548,1,0,0:0:0:0:
375,286,85619,1,8,0:0:0:0:
375,286,85691,1,0,0:0:0:0:
375,286,85762,1,0,0:0:0:0:
375,286,85905,1,8,0:0:0:0:
375,286,85976,1,0,0:0:0:0:
375,286,86048,1,8,0:0:0:0:
375,286,86119,1,0,0:0:0:0:
375,286,86191,1,8,0:0:0:0:
375,286,86262,1,8,0:0:0:0:
375,286,86333,1,0,0:0:0:0:
370,276,86476,1,8,0:0:0:0:
370,276,86619,1,8,0:0:0:0:
370,276,86762,1,0,0:0:0:0:
367,276,86833,1,8,0:0:0:0:
370,276,86905,1,0,0:0:0:0:
382,272,87048,1,8,0:0:0:0:
382,272,87191,1,0,0:0:0:0:
382,272,87333,1,8,0:0:0:0:
382,271,87405,1,8,0:0:0:0:
382,271,87476,1,0,0:0:0:0:
382,268,87619,1,8,0:0:0:0:
382,272,87762,1,8,0:0:0:0:
382,266,87905,1,0,0:0:0:0:
382,266,88048,1,0,0:0:0:0:
382,271,88191,1,8,0:0:0:0:
382,271,88262,1,8,0:0:0:0:
382,268,88333,1,8,0:0:0:0:
382,268,88405,1,0,0:0:0:0:
382,266,88476,1,0,0:0:0:0:
382,266,88619,1,0,0:0:0:0:
411,19,88762,1,12,0:0:0:0:
382,271,88905,1,0,0:0:0:0:
382,271,89048,1,8,0:0:0:0:
382,268,89119,1,8,0:0:0:0:
382,268,89191,1,0,0:0:0:0:
383,270,89333,1,8,0:0:0:0:
383,270,89476,1,0,0:0:0:0:
382,271,89619,1,8,0:0:0:0:
382,271,89691,1,0,0:0:0:0:
382,271,89762,1,8,0:0:0:0:
382,268,89905,1,0,0:0:0:0:
383,270,90048,1,8,0:0:0:0:
377,271,90119,1,0,0:0:0:0:
383,270,90191,1,8,0:0:0:0:
383,284,90262,1,8,0:0:0:0:
382,271,90333,1,0,0:0:0:0:
382,271,90476,1,0,0:0:0:0:
382,271,90548,1,0,0:0:0:0:
382,268,90619,1,0,0:0:0:0:
382,268,90691,1,0,0:0:0:0:
383,270,90762,1,8,0:0:0:0:
383,270,90833,1,0,0:0:0:0:
383,270,90905,1,8,0:0:0:0:
383,270,90976,1,8,0:0:0:0:
383,270,91048,1,0,0:0:0:0:
382,271,91191,1,8,0:0:0:0:
376,265,91333,1,0,0:0:0:0:
426,288,91405,1,0,0:0:0:0:
376,265,91476,1,8,0:0:0:0:
376,265,91548,1,0,0:0:0:0:
383,278,91619,1,8,0:0:0:0:
377,264,91691,1,0,0:0:0:0:
378,270,91762,1,0,0:0:0:0:
379,284,91833,1,8,0:0:0:0:
382,271,91905,1,8,0:0:0:0:
382,271,91976,1,8,0:0:0:0:
378,270,92048,1,0,0:0:0:0:
415,40,92191,1,12,0:0:0:0:
391,269,92333,1,8,0:0:0:0:
391,269,92476,1,0,0:0:0:0:
391,269,92619,1,0,0:0:0:0:
370,80,92762,1,12,0:0:0:0:
391,269,92905,1,0,0:0:0:0:
401,268,92976,1,0,0:0:0:0:
391,269,93048,1,8,0:0:0:0:
376,258,93119,1,8,0:0:0:0:
391,269,93191,1,8,0:0:0:0:
406,48,93333,1,4,0:0:0:0:
388,271,93476,1,0,0:0:0:0:
388,271,93619,1,8,0:0:0:0:
392,275,93691,1,8,0:0:0:0:
388,271,93762,1,0,0:0:0:0:
388,271,93833,1,0,0:0:0:0:
388,271,93905,1,8,0:0:0:0:
397,268,93976,1,0,0:0:0:0:
388,271,94048,1,8,0:0:0:0:
388,271,94191,1,0,0:0:0:0:
388,271,94333,1,8,0:0:0:0:
388,271,94405,1,8,0:0:0:0:
388,271,94476,1,0,0:0:0:0:
388,271,94619,1,8,0:0:0:0:
388,271,94762,1,0,0:0:0:0:
383,271,94905,1,0,0:0:0:0:
383,271,95048,1,8,0:0:0:0:
388,271,95119,1,8,0:0:0:0:
388,271,95191,1,0,0:0:0:0:
397,303,95262,1,0,0:0:0:0:
388,271,95333,1,8,0:0:0:0:
388,271,95476,1,0,0:0:0:0:
431,35,95619,1,12,0:0:0:0:
393,309,95762,1,0,0:0:0:0:
387,280,95905,1,8,0:0:0:0:
387,280,95976,1,0,0:0:0:0:
387,280,96048,1,8,0:0:0:0:
393,293,96191,1,0,0:0:0:0:
408,319,96333,1,8,0:0:0:0:
413,286,96476,1,0,0:0:0:0:
413,286,96548,1,8,0:0:0:0:
413,286,96619,1,0,0:0:0:0:
414,319,96691,1,0,0:0:0:0:
408,300,96762,1,8,0:0:0:0:
407,305,96905,1,0,0:0:0:0:
407,303,97048,1,0,0:0:0:0:
407,303,97191,1,0,0:0:0:0:
407,303,97333,1,8,0:0:0:0:
408,300,97405,1,0,0:0:0:0:
420,301,97476,1,0,0:0:0:0:
407,305,97548,1,8,0:0:0:0:
407,305,97619,1,0,0:0:0:0:
407,303,97762,1,0,0:0:0:0:
398,49,97905,1,12,0:0:0:0:
402,300,98048,1,0,0:0:0:0:
401,289,98191,1,8,0:0:0:0:
401,289,98262,1,8,0:0:0:0:
401,289,98333,1,0,0:0:0:0:
401,289,98476,1,8,0:0:0:0:
401,289,98619,1,0,0:0:0:0:
401,289,98762,1,8,0:0:0:0:
401,289,98833,1,0,0:0:0:0:
401,289,98905,1,8,0:0:0:0:
401,289,99048,1,0,0:0:0:0:
401,289,99191,1,8,0:0:0:0:
401,289,99333,1,0,0:0:0:0:
401,289,99405,1,0,0:0:0:0:
401,289,99476,1,0,0:0:0:0:
401,289,99619,1,8,0:0:0:0:
401,289,99691,1,8,0:0:0:0:
401,289,99762,1,0,0:0:0:0:
401,289,99905,1,8,0:0:0:0:
401,289,100048,1,0,0:0:0:0:
401,289,100191,5,8,0:0:0:0:
401,289,100262,1,8,0:0:0:0:
401,289,100333,1,8,0:0:0:0:
401,289,100405,1,8,0:0:0:0:
401,289,100476,1,0,0:0:0:0:
401,289,100548,1,0,0:0:0:0:
401,289,100619,1,8,0:0:0:0:
401,289,100691,1,0,0:0:0:0:
401,289,100762,1,8,0:0:0:0:
401,289,100833,1,8,0:0:0:0:
401,289,100905,1,0,0:0:0:0:
401,289,100976,1,0,0:0:0:0:
401,289,101048,1,8,0:0:0:0:
401,289,101119,1,8,0:0:0:0:
401,289,101191,1,8,0:0:0:0:
401,289,101262,1,8,0:0:0:0:
405,257,101333,5,0,0:0:0:0:
413,290,102191,1,0,0:0:0:0:
404,289,102262,1,0,0:0:0:0:
401,289,102333,1,0,0:0:0:0:
401,289,102405,1,0,0:0:0:0:
394,292,102476,1,8,0:0:0:0:
397,283,102762,1,8,0:0:0:0:
397,283,102833,1,0,0:0:0:0:
397,283,102905,1,8,0:0:0:0:
397,283,102976,1,0,0:0:0:0:
397,283,103048,1,8,0:0:0:0:
397,283,103119,1,0,0:0:0:0:
397,283,103191,1,0,0:0:0:0:
397,283,103262,1,0,0:0:0:0:
397,283,103333,1,8,0:0:0:0:
397,283,103405,1,8,0:0:0:0:
397,283,103476,1,0,0:0:0:0:
397,283,103548,1,0,0:0:0:0:
397,283,103619,1,8,0:0:0:0:
397,283,103691,1,8,0:0:0:0:
397,283,103762,1,8,0:0:0:0:
397,283,103833,1,8,0:0:0:0:
397,283,103905,1,0,0:0:0:0:
397,283,103976,1,0,0:0:0:0:
397,283,104048,1,8,0:0:0:0:
397,283,104119,1,0,0:0:0:0:
397,283,104191,1,8,0:0:0:0:
397,283,104262,1,8,0:0:0:0:
397,283,104333,1,0,0:0:0:0:
397,283,104405,1,0,0:0:0:0:
397,283,104476,1,8,0:0:0:0:
397,283,104548,1,8,0:0:0:0:
397,283,104619,1,8,0:0:0:0:
397,283,104691,1,0,0:0:0:0:
397,283,104762,1,8,0:0:0:0:
405,279,104833,1,8,0:0:0:0:
402,279,104905,1,8,0:0:0:0:
402,279,104976,1,8,0:0:0:0:
402,279,105048,1,0,0:0:0:0:
401,278,105119,1,0,0:0:0:0:
401,278,105191,1,8,0:0:0:0:
401,278,105262,1,0,0:0:0:0:
401,278,105333,1,8,0:0:0:0:
403,284,105405,1,8,0:0:0:0:
402,280,105476,1,0,0:0:0:0:
401,280,105548,1,0,0:0:0:0:
399,276,105619,1,8,0:0:0:0:
399,276,105691,1,8,0:0:0:0:
394,269,105762,1,8,0:0:0:0:
394,269,105833,1,0,0:0:0:0:
382,293,105905,1,8,0:0:0:0:
383,293,105976,1,8,0:0:0:0:
383,293,106048,1,8,0:0:0:0:
383,293,106119,1,8,0:0:0:0:
385,293,106191,1,8,0:0:0:0:
385,293,106262,1,8,0:0:0:0:
377,298,106333,1,0,0:0:0:0:
377,297,106405,1,0,0:0:0:0:
377,297,106476,1,8,0:0:0:0:
388,269,106548,1,0,0:0:0:0:
388,269,106619,1,8,0:0:0:0:
388,269,106691,1,0,0:0:0:0:
382,271,106762,1,8,0:0:0:0:
382,271,106833,1,8,0:0:0:0:
382,271,106905,1,8,0:0:0:0:
382,271,106976,1,8,0:0:0:0:
385,286,107048,1,0,0:0:0:0:
396,313,107191,1,8,0:0:0:0:
384,304,107333,1,0,0:0:0:0:
384,304,107405,1,0,0:0:0:0:
384,304,107476,1,8,0:0:0:0:
384,304,107619,1,0,0:0:0:0:
384,304,107762,1,8,0:0:0:0:
384,304,107833,1,8,0:0:0:0:
384,304,107905,1,0,0:0:0:0:
384,304,107976,1,0,0:0:0:0:
384,304,108048,1,8,0:0:0:0:
384,304,108191,1,0,0:0:0:0:
384,304,108333,1,8,0:0:0:0:
384,304,108476,1,0,0:0:0:0:
384,304,108548,1,0,0:0:0:0:
384,304,108619,1,8,0:0:0:0:
384,304,108762,1,8,0:0:0:0:
384,304,108905,1,0,0:0:0:0:
384,304,108976,1,0,0:0:0:0:
384,304,109048,1,8,0:0:0:0:
384,304,109119,1,0,0:0:0:0:
384,304,109191,1,0,0:0:0:0:
396,46,109333,1,12,0:0:0:0:
381,297,109476,1,0,0:0:0:0:
381,297,109619,1,8,0:0:0:0:
380,297,109762,1,0,0:0:0:0:
380,297,109833,1,0,0:0:0:0:
380,297,109905,1,8,0:0:0:0:
380,297,110048,1,0,0:0:0:0:
380,297,110119,1,0,0:0:0:0:
381,297,110191,1,8,0:0:0:0:
381,297,110262,1,8,0:0:0:0:
381,297,110333,1,0,0:0:0:0:
380,276,110405,1,0,0:0:0:0:
381,297,110476,1,8,0:0:0:0:
367,289,110548,1,8,0:0:0:0:
367,289,110619,1,8,0:0:0:0:
367,289,110691,1,8,0:0:0:0:
367,289,110762,1,0,0:0:0:0:
367,289,110833,1,0,0:0:0:0:
367,289,110905,1,8,0:0:0:0:
367,289,110976,1,0,0:0:0:0:
367,289,111048,1,8,0:0:0:0:
369,294,111191,1,0,0:0:0:0:
369,294,111262,1,0,0:0:0:0:
369,294,111333,1,8,0:0:0:0:
369,294,111405,1,8,0:0:0:0:
370,296,111476,1,0,0:0:0:0:
396,38,111619,1,12,0:0:0:0:
370,295,111762,1,0,0:0:0:0:
370,295,111905,1,0,0:0:0:0:
370,295,111976,1,0,0:0:0:0:
370,295,112048,1,8,0:0:0:0:
370,295,112191,1,8,0:0:0:0:
370,295,112333,1,0,0:0:0:0:
370,295,112405,1,8,0:0:0:0:
370,295,112476,1,8,0:0:0:0:
370,295,112548,1,8,0:0:0:0:
370,295,112619,1,0,0:0:0:0:
370,295,112762,1,0,0:0:0:0:
370,295,112905,1,8,0:0:0:0:
370,295,113048,1,0,0:0:0:0:
370,295,113119,1,0,0:0:0:0:
370,295,113191,1,8,0:0:0:0:
370,295,113333,1,0,0:0:0:0:
370,295,113476,1,8,0:0:0:0:
370,295,113548,1,0,0:0:0:0:
370,295,113619,1,0,0:0:0:0:
370,295,113691,1,8,0:0:0:0:
370,295,113762,1,8,0:0:0:0:
370,295,113833,1,8,0:0:0:0:
370,295,113905,1,0,0:0:0:0:
370,295,114048,1,8,0:0:0:0:
370,295,114191,1,0,0:0:0:0:
370,295,114262,1,0,0:0:0:0:
370,295,114333,1,8,0:0:0:0:
370,295,114405,1,8,0:0:0:0:
370,295,114476,1,0,0:0:0:0:
370,295,114619,1,8,0:0:0:0:
370,295,114691,1,0,0:0:0:0:
370,295,114762,1,8,0:0:0:0:
370,295,114833,1,8,0:0:0:0:
370,295,114905,1,8,0:0:0:0:
364,285,115048,1,0,0:0:0:0:
370,295,115191,1,8,0:0:0:0:
370,295,115333,1,0,0:0:0:0:
370,295,115405,1,0,0:0:0:0:
370,295,115476,1,8,0:0:0:0:
370,295,115619,1,0,0:0:0:0:
370,295,115762,1,8,0:0:0:0:
370,295,115905,1,0,0:0:0:0:
370,295,115976,1,0,0:0:0:0:
370,295,116048,1,0,0:0:0:0:
370,295,116191,1,8,0:0:0:0:
370,295,116262,1,8,0:0:0:0:
370,295,116333,1,8,0:0:0:0:
370,295,116405,1,8,0:0:0:0:
370,295,116476,1,0,0:0:0:0:
370,295,116548,1,0,0:0:0:0:
370,295,116619,1,0,0:0:0:0:
380,291,116691,1,0,0:0:0:0:
380,291,116762,1,8,0:0:0:0:
379,272,116905,1,0,0:0:0:0:
380,291,117048,1,8,0:0:0:0:
379,288,117119,1,8,0:0:0:0:
379,288,117191,1,0,0:0:0:0:
379,288,117333,1,8,0:0:0:0:
389,275,117405,1,8,0:0:0:0:
366,281,117476,1,0,0:0:0:0:
416,265,117548,1,0,0:0:0:0:
416,265,117619,1,0,0:0:0:0:
416,265,117691,1,0,0:0:0:0:
428,288,117762,1,8,0:0:0:0:
416,265,117833,1,8,0:0:0:0:
416,265,117905,1,0,0:0:0:0:
406,51,118476,1,4,0:0:0:0:
396,277,118619,1,8,0:0:0:0:
396,275,118762,1,0,0:0:0:0:
396,275,118833,1,0,0:0:0:0:
396,275,118905,1,8,0:0:0:0:
396,277,119048,1,0,0:0:0:0:
396,277,119191,1,8,0:0:0:0:
398,271,119333,1,0,0:0:0:0:
398,271,119405,1,0,0:0:0:0:
398,271,119476,1,8,0:0:0:0:
398,271,119548,1,0,0:0:0:0:
398,271,119619,1,8,0:0:0:0:
396,275,119762,1,0,0:0:0:0:
396,275,119905,1,0,0:0:0:0:
398,271,120048,1,8,0:0:0:0:
398,271,120119,1,8,0:0:0:0:
398,269,120191,1,0,0:0:0:0:
398,271,120333,1,0,0:0:0:0:
401,275,120405,1,0,0:0:0:0:
398,271,120476,1,8,0:0:0:0:
398,271,120548,1,0,0:0:0:0:
398,271,120619,1,8,0:0:0:0:
403,286,120762,1,8,0:0:0:0:
403,286,120905,1,0,0:0:0:0:
403,283,121048,1,0,0:0:0:0:
403,283,121119,1,8,0:0:0:0:
404,282,121191,1,0,0:0:0:0:
404,282,121333,1,8,0:0:0:0:
413,293,121405,1,0,0:0:0:0:
404,278,121476,1,8,0:0:0:0:
403,278,121548,1,8,0:0:0:0:
403,278,121619,1,0,0:0:0:0:
403,278,121691,1,8,0:0:0:0:
403,278,121762,1,0,0:0:0:0:
403,278,121905,1,8,0:0:0:0:
403,283,122048,1,0,0:0:0:0:
404,282,122191,1,0,0:0:0:0:
424,302,122333,1,0,0:0:0:0:
424,302,122405,1,8,0:0:0:0:
424,302,122476,1,8,0:0:0:0:
397,291,122548,1,8,0:0:0:0:
424,302,122619,1,0,0:0:0:0:
416,279,122762,1,8,0:0:0:0:
416,279,122905,1,8,0:0:0:0:
378,64,123048,1,4,0:0:0:0:
406,291,123191,1,8,0:0:0:0:
406,291,123333,1,0,0:0:0:0:
406,291,123405,1,0,0:0:0:0:
406,291,123476,1,8,0:0:0:0:
406,291,123619,1,8,0:0:0:0:
406,291,123762,1,0,0:0:0:0:
406,291,123905,1,8,0:0:0:0:
406,291,123976,1,0,0:0:0:0:
406,291,124048,1,0,0:0:0:0:
406,291,124191,1,8,0:0:0:0:
406,291,124262,1,8,0:0:0:0:
406,291,124333,1,0,0:0:0:0:
406,291,124476,1,8,0:0:0:0:
406,291,124619,1,0,0:0:0:0:
406,291,124691,1,0,0:0:0:0:
406,291,124762,1,8,0:0:0:0:
401,286,124833,1,8,0:0:0:0:
401,286,124905,1,8,0:0:0:0:
404,313,124976,1,8,0:0:0:0:
406,310,125048,1,0,0:0:0:0:
406,310,125191,1,8,0:0:0:0:
406,310,125262,1,8,0:0:0:0:
406,291,125333,1,0,0:0:0:0:
406,291,125476,1,8,0:0:0:0:
406,291,125619,1,0,0:0:0:0:
406,291,125691,1,0,0:0:0:0:
406,291,125762,1,8,0:0:0:0:
400,306,125905,1,0,0:0:0:0:
386,300,126048,1,8,0:0:0:0:
386,300,126191,1,0,0:0:0:0:
374,293,126262,1,0,0:0:0:0:
374,293,126333,1,0,0:0:0:0:
396,293,126476,1,8,0:0:0:0:
392,293,126619,1,0,0:0:0:0:
392,293,126691,1,0,0:0:0:0:
392,293,126762,1,8,0:0:0:0:
396,293,126833,1,0,0:0:0:0:
396,293,126905,1,0,0:0:0:0:
390,289,127048,1,8,0:0:0:0:
395,289,127191,1,0,0:0:0:0:
392,287,127262,1,8,0:0:0:0:
391,286,127333,1,0,0:0:0:0:
383,282,127476,1,8,0:0:0:0:
369,80,127619,1,4,0:0:0:0:
375,279,127762,1,8,0:0:0:0:
375,279,127905,1,0,0:0:0:0:
375,279,127976,1,0,0:0:0:0:
375,279,128048,1,8,0:0:0:0:
375,279,128119,1,8,0:0:0:0:
375,279,128191,1,8,0:0:0:0:
375,280,128333,1,0,0:0:0:0:
375,280,128476,1,8,0:0:0:0:
376,279,128548,1,0,0:0:0:0:
376,279,128619,1,0,0:0:0:0:
375,279,128762,1,8,0:0:0:0:
375,279,128905,1,0,0:0:0:0:
375,279,129048,1,0,0:0:0:0:
375,279,129119,1,0,0:0:0:0:
375,280,129191,1,8,0:0:0:0:
375,280,129262,1,8,0:0:0:0:
375,280,129333,1,8,0:0:0:0:
407,306,129476,1,0,0:0:0:0:
407,306,129548,1,0,0:0:0:0:
407,306,129619,1,8,0:0:0:0:
407,306,129691,1,0,0:0:0:0:
402,299,129762,1,8,0:0:0:0:
382,59,129905,1,4,0:0:0:0:
366,281,130048,1,8,0:0:0:0:
366,281,130191,1,0,0:0:0:0:
366,281,130262,1,8,0:0:0:0:
366,281,130333,1,0,0:0:0:0:
366,281,130405,1,8,0:0:0:0:
366,281,130476,1,8,0:0:0:0:
368,297,130619,1,0,0:0:0:0:
368,297,130762,1,8,0:0:0:0:
368,297,130833,1,0,0:0:0:0:
368,297,130905,1,0,0:0:0:0:
368,297,131048,1,8,0:0:0:0:
368,297,131191,1,0,0:0:0:0:
395,302,131262,1,8,0:0:0:0:
368,297,131333,1,0,0:0:0:0:
368,297,131405,1,8,0:0:0:0:
368,297,131476,1,0,0:0:0:0:
391,299,131548,1,0,0:0:0:0:
368,297,131619,1,8,0:0:0:0:
368,297,131762,1,8,0:0:0:0:
376,301,131833,1,8,0:0:0:0:
376,301,131905,1,0,0:0:0:0:
376,301,132048,1,8,0:0:0:0:
361,69,132191,1,4,0:0:0:0:
362,298,132333,1,0,0:0:0:0:
362,298,132476,1,8,0:0:0:0:
362,298,132548,1,8,0:0:0:0:
362,298,132619,1,8,0:0:0:0:
362,298,132691,1,0,0:0:0:0:
362,298,132762,1,8,0:0:0:0:
362,298,132905,1,0,0:0:0:0:
362,298,133048,1,8,0:0:0:0:
362,298,133191,1,8,0:0:0:0:
362,298,133333,1,0,0:0:0:0:
362,298,133405,1,8,0:0:0:0:
362,298,133476,1,0,0:0:0:0:
362,298,133548,1,0,0:0:0:0:
362,298,133619,1,8,0:0:0:0:
398,302,133691,1,8,0:0:0:0:
402,290,133762,1,0,0:0:0:0:
402,290,133905,1,8,0:0:0:0:
402,290,134048,1,8,0:0:0:0:
402,290,134119,1,8,0:0:0:0:
402,290,134191,1,0,0:0:0:0:
402,290,134333,1,8,0:0:0:0:
380,79,134476,1,4,0:0:0:0:
374,273,134619,1,8,0:0:0:0:
401,283,134762,1,8,0:0:0:0:
401,305,134833,1,0,0:0:0:0:
401,283,134905,1,8,0:0:0:0:
401,283,134976,1,8,0:0:0:0:
401,283,135048,1,0,0:0:0:0:
397,286,135191,1,8,0:0:0:0:
381,288,135333,1,0,0:0:0:0:
380,276,135476,1,8,0:0:0:0:
380,276,135548,1,8,0:0:0:0:
377,306,135619,1,0,0:0:0:0:
359,289,135762,1,8,0:0:0:0:
360,290,135833,1,0,0:0:0:0:
359,289,135905,1,0,0:0:0:0:
359,290,135976,1,8,0:0:0:0:
360,290,136048,1,8,0:0:0:0:
369,292,136191,1,0,0:0:0:0:
369,292,136262,1,0,0:0:0:0:
367,292,136333,1,8,0:0:0:0:
367,292,136405,1,8,0:0:0:0:
366,289,136476,1,8,0:0:0:0:
366,289,136548,1,8,0:0:0:0:
366,289,136619,1,8,0:0:0:0:
389,73,136762,5,4,0:0:0:0:
389,73,137333,1,4,0:0:0:0:
389,73,137905,1,12,0:0:0:0:
389,73,138476,1,12,0:0:0:0:
385,286,139048,1,0,0:0:0:0:
385,286,139119,1,0,0:0:0:0:
385,286,139191,1,0,0:0:0:0:
385,286,139262,1,8,0:0:0:0:
385,286,139333,1,0,0:0:0:0:
385,286,139405,1,0,0:0:0:0:
385,286,139476,1,8,0:0:0:0:
385,286,139548,1,0,0:0:0:0:
385,286,139619,1,8,0:0:0:0:
389,278,139691,1,8,0:0:0:0:
389,278,139762,1,0,0:0:0:0:
389,278,139833,1,0,0:0:0:0:
389,278,139905,1,0,0:0:0:0:
389,278,139976,1,0,0:0:0:0:
389,278,140048,1,8,0:0:0:0:
389,278,140119,1,8,0:0:0:0:
389,278,140191,1,8,0:0:0:0:
389,278,140262,1,8,0:0:0:0:
389,278,140333,1,0,0:0:0:0:
389,278,140405,1,0,0:0:0:0:
389,278,140476,1,8,0:0:0:0:
389,278,140548,1,0,0:0:0:0:
389,278,140619,1,8,0:0:0:0:
399,293,140691,1,0,0:0:0:0:
404,297,140762,1,0,0:0:0:0:
404,297,140833,1,0,0:0:0:0:
404,297,140905,1,8,0:0:0:0:
404,297,140976,1,0,0:0:0:0:
404,297,141048,1,8,0:0:0:0:
404,297,141119,1,8,0:0:0:0:
404,297,141191,1,0,0:0:0:0:
398,65,141333,5,12,0:0:0:0:
404,297,141476,1,0,0:0:0:0:
421,298,141619,1,8,0:0:0:0:
421,298,141714,1,0,0:0:0:0:
421,298,141810,1,0,0:0:0:0:
421,298,141905,1,8,0:0:0:0:
421,298,142000,1,8,0:0:0:0:
421,298,142095,1,8,0:0:0:0:
421,298,142191,1,0,0:0:0:0:
396,303,142286,1,0,0:0:0:0:
396,303,142381,1,8,0:0:0:0:
396,303,142476,1,8,0:0:0:0:
396,303,142571,1,8,0:0:0:0:
396,303,142667,1,0,0:0:0:0:
396,303,142762,1,0,0:0:0:0:
396,303,142857,1,8,0:0:0:0:
396,303,142952,1,0,0:0:0:0:
396,303,143048,1,8,0:0:0:0:
396,303,143143,1,8,0:0:0:0:
396,303,143238,1,0,0:0:0:0:
396,303,143333,1,0,0:0:0:0:
396,303,143429,1,8,0:0:0:0:
396,303,143524,1,0,0:0:0:0:
396,303,143619,1,8,0:0:0:0:
396,303,143714,1,0,0:0:0:0:
396,303,143810,1,8,0:0:0:0:
396,303,143905,1,8,0:0:0:0:
396,303,144000,1,8,0:0:0:0:
396,303,144095,1,0,0:0:0:0:
396,303,144191,1,8,0:0:0:0:
396,303,144286,1,8,0:0:0:0:
396,303,144381,1,0,0:0:0:0:
396,303,144476,1,8,0:0:0:0:
396,303,144571,1,0,0:0:0:0:
396,303,144667,1,8,0:0:0:0:
396,303,144762,1,0,0:0:0:0:
396,303,144857,1,0,0:0:0:0:
396,303,144952,1,8,0:0:0:0:
396,303,145048,1,0,0:0:0:0:
396,303,145143,1,8,0:0:0:0:
396,303,145238,1,8,0:0:0:0:
396,303,145333,1,0,0:0:0:0:
396,303,145429,1,0,0:0:0:0:
396,303,145524,1,8,0:0:0:0:
396,303,145619,1,8,0:0:0:0:
396,303,145714,1,0,0:0:0:0:
396,303,145810,1,8,0:0:0:0:
396,303,145905,1,0,0:0:0:0:
396,303,146000,1,0,0:0:0:0:
396,303,146095,1,8,0:0:0:0:
396,303,146191,1,8,0:0:0:0:
396,303,146286,1,0,0:0:0:0:
396,303,146381,1,8,0:0:0:0:
396,303,146476,1,0,0:0:0:0:
396,303,146571,1,8,0:0:0:0:
396,303,146667,1,8,0:0:0:0:
396,303,146762,1,0,0:0:0:0:
396,303,146857,1,0,0:0:0:0:
365,287,146952,1,0,0:0:0:0:
365,287,147048,1,8,0:0:0:0:
381,314,147143,1,0,0:0:0:0:
381,314,147238,1,8,0:0:0:0:
381,304,147333,1,8,0:0:0:0:
381,304,147429,1,0,0:0:0:0:
381,304,147524,1,8,0:0:0:0:
380,304,147619,1,8,0:0:0:0:
380,306,147714,1,0,0:0:0:0:
380,306,147810,1,0,0:0:0:0:
380,306,147905,1,8,0:0:0:0:
380,306,148000,1,0,0:0:0:0:
381,304,148095,1,8,0:0:0:0:
381,304,148191,1,0,0:0:0:0:
381,304,148262,1,0,0:0:0:0:
410,317,148333,1,0,0:0:0:0:
381,304,148405,1,8,0:0:0:0:
381,304,148476,1,0,0:0:0:0:
380,304,148548,1,0,0:0:0:0:
380,306,148619,1,8,0:0:0:0:
406,307,148691,1,0,0:0:0:0:
380,306,148762,1,8,0:0:0:0:
387,303,148857,1,8,0:0:0:0:
406,301,148952,1,8,0:0:0:0:
387,303,149048,1,0,0:0:0:0:
387,303,149143,1,0,0:0:0:0:
396,304,149238,1,8,0:0:0:0:
387,303,149333,1,0,0:0:0:0:
387,303,149429,1,0,0:0:0:0:
393,303,149524,1,8,0:0:0:0:
387,303,149619,1,0,0:0:0:0:
406,298,149714,1,8,0:0:0:0:
392,303,149810,1,8,0:0:0:0:
392,303,149905,1,0,0:0:0:0:
387,303,149976,1,0,0:0:0:0:
393,303,150048,1,8,0:0:0:0:
409,309,150119,1,8,0:0:0:0:
387,303,150191,1,0,0:0:0:0:
406,298,150286,1,8,0:0:0:0:
392,303,150381,1,8,0:0:0:0:
392,303,150476,1,0,0:0:0:0:
401,303,150571,1,0,0:0:0:0:
406,298,150667,1,8,0:0:0:0:
401,298,150762,1,8,0:0:0:0:
401,298,150857,1,0,0:0:0:0:
401,298,150952,1,8,0:0:0:0:
401,298,151048,1,0,0:0:0:0:
383,293,151143,1,0,0:0:0:0:
383,293,151238,1,8,0:0:0:0:
383,293,151333,1,0,0:0:0:0:
383,293,151429,1,8,0:0:0:0:
383,293,151524,1,8,0:0:0:0:
383,293,151619,1,0,0:0:0:0:
383,293,151714,1,0,0:0:0:0:
383,293,151810,1,8,0:0:0:0:
383,293,151905,1,8,0:0:0:0:
383,293,152000,1,0,0:0:0:0:
383,293,152095,1,8,0:0:0:0:
383,293,152191,1,0,0:0:0:0:
383,293,152286,1,8,0:0:0:0:
383,293,152381,1,8,0:0:0:0:
383,293,152476,1,0,0:0:0:0:
383,293,152571,1,0,0:0:0:0:
383,293,152667,1,8,0:0:0:0:
383,293,152762,1,0,0:0:0:0:
383,293,152857,1,0,0:0:0:0:
383,293,152952,1,8,0:0:0:0:
383,293,153048,1,8,0:0:0:0:
383,293,153143,1,0,0:0:0:0:
383,293,153238,1,0,0:0:0:0:
383,293,153333,1,8,0:0:0:0:
383,293,153429,1,0,0:0:0:0:
383,293,153524,1,8,0:0:0:0:
383,293,153619,1,8,0:0:0:0:
383,293,153714,1,8,0:0:0:0:
383,293,153810,1,0,0:0:0:0:
383,293,153905,1,8,0:0:0:0:
383,293,154000,1,0,0:0:0:0:
383,293,154095,1,0,0:0:0:0:
383,293,154191,1,8,0:0:0:0:
383,293,154286,1,0,0:0:0:0:
383,293,154381,1,0,0:0:0:0:
383,293,154476,1,8,0:0:0:0:
383,293,154571,1,8,0:0:0:0:
383,293,154667,1,0,0:0:0:0:
383,293,154762,1,8,0:0:0:0:
383,293,154857,1,8,0:0:0:0:
383,293,154952,1,8,0:0:0:0:
350,286,155048,1,0,0:0:0:0:
368,295,155333,1,8,0:0:0:0:
362,282,155405,1,8,0:0:0:0:
366,278,155476,1,8,0:0:0:0:
371,283,155548,1,8,0:0:0:0:
367,289,155619,1,0,0:0:0:0:
365,282,155905,1,0,0:0:0:0:
365,282,155976,1,0,0:0:0:0:
365,282,156048,1,0,0:0:0:0:
365,282,156119,1,0,0:0:0:0:
365,282,156191,1,8,0:0:0:0:
366,278,156476,1,8,0:0:0:0:
365,281,156548,1,8,0:0:0:0:
365,282,156619,1,8,0:0:0:0:
365,282,156691,1,8,0:0:0:0:
399,290,156762,1,0,0:0:0:0:
399,290,157048,1,8,0:0:0:0:
371,69,157333,1,4,0:0:0:0:
421,289,157476,1,0,0:0:0:0:
421,289,157619,1,8,0:0:0:0:
413,281,157691,1,8,0:0:0:0:
413,281,157762,1,0,0:0:0:0:
413,281,157905,1,8,0:0:0:0:
379,274,157976,1,0,0:0:0:0:
404,266,158048,1,0,0:0:0:0:
404,266,158119,1,0,0:0:0:0:
404,266,158191,1,8,0:0:0:0:
404,266,158333,1,0,0:0:0:0:
404,266,158476,1,8,0:0:0:0:
360,250,158548,1,8,0:0:0:0:
404,266,158619,1,8,0:0:0:0:
404,266,158762,1,0,0:0:0:0:
404,266,158833,1,0,0:0:0:0:
404,266,158905,1,8,0:0:0:0:
421,283,158976,1,0,0:0:0:0:
404,266,159048,1,0,0:0:0:0:
419,283,159191,1,8,0:0:0:0:
406,273,159262,1,8,0:0:0:0:
404,266,159333,1,0,0:0:0:0:
404,266,159476,1,8,0:0:0:0:
403,287,159619,1,0,0:0:0:0:
421,288,159762,1,0,0:0:0:0:
421,288,159905,1,8,0:0:0:0:
421,288,159976,1,0,0:0:0:0:
421,288,160048,1,0,0:0:0:0:
421,288,160191,1,8,0:0:0:0:
421,288,160333,1,0,0:0:0:0:
421,288,160405,1,0,0:0:0:0:
421,288,160476,1,8,0:0:0:0:
421,288,160548,1,8,0:0:0:0:
421,288,160619,1,8,0:0:0:0:
444,294,160691,1,8,0:0:0:0:
421,288,160762,1,0,0:0:0:0:
421,288,160905,1,0,0:0:0:0:
421,288,161048,1,8,0:0:0:0:
415,278,161119,1,0,0:0:0:0:
415,278,161191,1,8,0:0:0:0:
421,288,161262,1,8,0:0:0:0:
415,278,161333,1,0,0:0:0:0:
426,289,161405,1,0,0:0:0:0:
426,288,161476,1,8,0:0:0:0:
429,274,161619,1,0,0:0:0:0:
429,272,161762,1,8,0:0:0:0:
429,272,161905,1,0,0:0:0:0:
421,289,162048,1,0,0:0:0:0:
421,289,162191,1,8,0:0:0:0:
413,281,162262,1,8,0:0:0:0:
413,281,162333,1,0,0:0:0:0:
379,274,162405,1,8,0:0:0:0:
413,281,162476,1,0,0:0:0:0:
404,266,162619,1,0,0:0:0:0:
404,266,162691,1,0,0:0:0:0:
404,266,162762,1,8,0:0:0:0:
404,266,162905,1,0,0:0:0:0:
404,266,163048,1,8,0:0:0:0:
360,250,163119,1,8,0:0:0:0:
404,266,163191,1,8,0:0:0:0:
404,266,163333,1,0,0:0:0:0:
404,266,163476,1,8,0:0:0:0:
404,266,163619,1,0,0:0:0:0:
421,283,163691,1,0,0:0:0:0:
419,283,163762,1,8,0:0:0:0:
411,279,163833,1,0,0:0:0:0:
404,266,163905,1,0,0:0:0:0:
404,266,164048,1,8,0:0:0:0:
403,287,164191,1,0,0:0:0:0:
421,288,164333,1,8,0:0:0:0:
421,288,164476,1,0,0:0:0:0:
421,288,164548,1,8,0:0:0:0:
421,288,164619,1,0,0:0:0:0:
421,288,164762,1,8,0:0:0:0:
404,266,164833,1,8,0:0:0:0:
421,288,164905,1,0,0:0:0:0:
421,288,164976,1,8,0:0:0:0:
421,288,165048,1,0,0:0:0:0:
421,288,165119,1,0,0:0:0:0:
421,288,165191,1,8,0:0:0:0:
421,288,165333,1,0,0:0:0:0:
415,278,165405,1,0,0:0:0:0:
421,288,165476,1,0,0:0:0:0:
421,288,165619,1,0,0:0:0:0:
415,278,165762,1,8,0:0:0:0:
421,288,165833,1,8,0:0:0:0:
415,278,165905,1,0,0:0:0:0:
426,289,165976,1,0,0:0:0:0:
426,288,166048,1,0,0:0:0:0:
424,306,166119,1,0,0:0:0:0:
429,274,166191,1,8,0:0:0:0:
429,272,166333,1,8,0:0:0:0:
429,272,166476,1,0,0:0:0:0:
421,289,166619,1,0,0:0:0:0:
421,289,166762,1,8,0:0:0:0:
413,281,166833,1,0,0:0:0:0:
413,281,166905,1,8,0:0:0:0:
413,281,167048,1,0,0:0:0:0:
379,274,167119,1,0,0:0:0:0:
404,266,167191,1,8,0:0:0:0:
404,266,167262,1,0,0:0:0:0:
404,266,167333,1,8,0:0:0:0:
404,266,167476,1,0,0:0:0:0:
404,266,167619,1,8,0:0:0:0:
360,250,167691,1,8,0:0:0:0:
404,266,167762,1,8,0:0:0:0:
404,266,167905,1,0,0:0:0:0:
404,266,168048,1,8,0:0:0:0:
404,266,168119,1,8,0:0:0:0:
404,266,168191,1,0,0:0:0:0:
421,283,168262,1,0,0:0:0:0:
419,283,168333,1,8,0:0:0:0:
403,278,168405,1,0,0:0:0:0:
404,266,168476,1,0,0:0:0:0:
404,266,168619,1,8,0:0:0:0:
406,273,168691,1,8,0:0:0:0:
403,287,168762,1,0,0:0:0:0:
421,288,168905,1,8,0:0:0:0:
421,288,169048,1,0,0:0:0:0:
421,288,169119,1,0,0:0:0:0:
421,288,169191,1,8,0:0:0:0:
421,288,169333,1,0,0:0:0:0:
421,288,169476,1,8,0:0:0:0:
421,288,169548,1,0,0:0:0:0:
421,288,169619,1,0,0:0:0:0:
421,288,169691,1,0,0:0:0:0:
421,288,169762,1,8,0:0:0:0:
421,288,169905,1,0,0:0:0:0:
421,288,170048,1,8,0:0:0:0:
421,288,170191,1,0,0:0:0:0:
415,278,170262,1,0,0:0:0:0:
415,278,170333,1,8,0:0:0:0:
421,288,170405,1,0,0:0:0:0:
415,278,170476,1,0,0:0:0:0:
426,289,170548,1,0,0:0:0:0:
426,288,170619,1,8,0:0:0:0:
429,274,170762,1,0,0:0:0:0:
429,272,170905,1,8,0:0:0:0:
423,271,170976,1,8,0:0:0:0:
429,272,171048,1,0,0:0:0:0:
421,289,171191,1,8,0:0:0:0:
421,289,171333,1,0,0:0:0:0:
413,281,171405,1,0,0:0:0:0:
413,281,171476,1,8,0:0:0:0:
413,281,171619,1,0,0:0:0:0:
379,274,171691,1,0,0:0:0:0:
404,266,171762,1,8,0:0:0:0:
404,266,171833,1,0,0:0:0:0:
404,266,171905,1,8,0:0:0:0:
404,266,172048,1,0,0:0:0:0:
404,266,172191,1,8,0:0:0:0:
360,250,172262,1,8,0:0:0:0:
404,266,172333,1,8,0:0:0:0:
404,266,172476,1,0,0:0:0:0:
404,266,172619,1,8,0:0:0:0:
404,266,172691,1,8,0:0:0:0:
404,266,172762,1,8,0:0:0:0:
399,277,172833,1,0,0:0:0:0:
399,277,172905,1,8,0:0:0:0:
404,266,172976,1,8,0:0:0:0:
404,266,173048,1,0,0:0:0:0:
404,266,173191,1,8,0:0:0:0:
403,287,173333,1,0,0:0:0:0:
404,266,173476,1,8,0:0:0:0:
385,269,173619,1,0,0:0:0:0:
404,266,173691,1,8,0:0:0:0:
404,266,173762,1,8,0:0:0:0:
386,270,173833,1,0,0:0:0:0:
407,273,173905,1,8,0:0:0:0:
415,298,173976,1,8,0:0:0:0:
405,271,174048,1,0,0:0:0:0:
405,271,174191,1,8,0:0:0:0:
406,273,174262,1,8,0:0:0:0:
394,279,174333,1,0,0:0:0:0:
392,277,174405,1,0,0:0:0:0:
392,274,174476,1,8,0:0:0:0:
378,285,174548,1,8,0:0:0:0:
384,274,174619,1,8,0:0:0:0:
386,270,174691,1,8,0:0:0:0:
386,270,174762,1,0,0:0:0:0:
386,270,174833,1,0,0:0:0:0:
390,273,174905,1,8,0:0:0:0:
390,273,174976,1,8,0:0:0:0:
390,273,175048,1,0,0:0:0:0:
390,273,175119,1,0,0:0:0:0:
390,273,175191,1,8,0:0:0:0:
392,260,175262,1,0,0:0:0:0:
384,269,175333,1,8,0:0:0:0:
392,259,175405,1,8,0:0:0:0:
383,268,175476,1,8,0:0:0:0:
393,305,175548,1,8,0:0:0:0:
410,307,175619,1,0,0:0:0:0:
383,67,175762,1,12,0:0:0:0:
411,328,176048,1,0,0:0:0:0:
429,311,176191,1,8,0:0:0:0:
420,321,176333,1,0,0:0:0:0:
420,321,176476,1,8,0:0:0:0:
420,321,176619,1,8,0:0:0:0:
381,60,176762,1,4,0:0:0:0:
382,61,177905,1,4,0:0:0:0:
385,286,178191,1,8,0:0:0:0:
385,286,178333,1,0,0:0:0:0:
385,286,178476,1,8,0:0:0:0:
379,300,178619,1,8,0:0:0:0:
381,288,178762,1,0,0:0:0:0:
381,288,178905,1,0,0:0:0:0:
381,288,179048,1,8,0:0:0:0:
381,288,179191,1,0,0:0:0:0:
381,288,179333,1,8,0:0:0:0:
381,288,179476,1,0,0:0:0:0:
381,288,179619,1,0,0:0:0:0:
381,288,179762,1,8,0:0:0:0:
381,288,179905,1,0,0:0:0:0:
381,288,180048,1,8,0:0:0:0:
383,278,180191,1,0,0:0:0:0:
383,278,180238,1,0,0:0:0:0:
383,278,180286,1,0,0:0:0:0:
383,278,180333,1,8,0:0:0:0:
373,279,180476,1,0,0:0:0:0:
362,288,180548,1,0,0:0:0:0:
366,281,180619,1,0,0:0:0:0:
366,281,180762,1,8,0:0:0:0:
366,281,180833,1,0,0:0:0:0:
366,281,180905,1,0,0:0:0:0:
377,270,180976,1,0,0:0:0:0:
366,281,181048,1,8,0:0:0:0:
388,287,181191,1,8,0:0:0:0:
406,83,181333,1,4,0:0:0:0:
382,61,182476,1,4,0:0:0:0:
385,286,182762,1,8,0:0:0:0:
385,286,182905,1,0,0:0:0:0:
385,286,183048,1,8,0:0:0:0:
379,300,183191,1,8,0:0:0:0:
381,288,183333,1,0,0:0:0:0:
381,288,183476,1,0,0:0:0:0:
381,288,183619,1,8,0:0:0:0:
381,288,183762,1,0,0:0:0:0:
381,288,183905,1,8,0:0:0:0:
381,288,184048,1,0,0:0:0:0:
381,288,184191,1,0,0:0:0:0:
381,288,184333,1,0,0:0:0:0:
381,288,184476,1,8,0:0:0:0:
381,288,184619,1,0,0:0:0:0:
383,278,184762,1,8,0:0:0:0:
383,278,184810,1,8,0:0:0:0:
383,278,184857,1,8,0:0:0:0:
383,278,184905,1,0,0:0:0:0:
373,279,185048,1,0,0:0:0:0:
362,288,185119,1,0,0:0:0:0:
375,279,185191,1,0,0:0:0:0:
366,281,185333,1,8,0:0:0:0:
366,281,185405,1,8,0:0:0:0:
366,281,185476,1,8,0:0:0:0:
372,292,185548,1,8,0:0:0:0:
366,281,185619,1,0,0:0:0:0:
406,83,185905,1,4,0:0:0:0:
346,79,186476,1,12,0:0:0:0:
346,79,186762,1,12,0:0:0:0:
379,80,187048,1,4,0:0:0:0:
397,283,187333,1,8,0:0:0:0:
397,283,187405,1,0,0:0:0:0:
397,283,187476,1,8,0:0:0:0:
397,283,187548,1,0,0:0:0:0:
397,283,187619,1,8,0:0:0:0:
397,283,187691,1,0,0:0:0:0:
397,283,187762,1,0,0:0:0:0:
397,283,187833,1,0,0:0:0:0:
397,283,187905,1,8,0:0:0:0:
397,283,187976,1,8,0:0:0:0:
397,283,188048,1,0,0:0:0:0:
397,283,188119,1,0,0:0:0:0:
397,283,188191,1,8,0:0:0:0:
397,283,188262,1,8,0:0:0:0:
397,283,188333,1,8,0:0:0:0:
397,283,188405,1,8,0:0:0:0:
397,283,188476,1,0,0:0:0:0:
397,283,188548,1,0,0:0:0:0:
397,283,188619,1,8,0:0:0:0:
397,283,188691,1,0,0:0:0:0:
397,283,188762,1,8,0:0:0:0:
397,283,188833,1,8,0:0:0:0:
397,283,188905,1,0,0:0:0:0:
397,283,188976,1,0,0:0:0:0:
397,283,189048,1,8,0:0:0:0:
397,283,189119,1,8,0:0:0:0:
397,283,189191,1,8,0:0:0:0:
397,283,189262,1,0,0:0:0:0:
397,283,189333,1,8,0:0:0:0:
405,279,189405,1,8,0:0:0:0:
402,279,189476,1,8,0:0:0:0:
402,279,189548,1,8,0:0:0:0:
402,279,189619,1,0,0:0:0:0:
401,278,189691,1,0,0:0:0:0:
401,278,189762,1,8,0:0:0:0:
401,278,189833,1,8,0:0:0:0:
401,278,189905,1,0,0:0:0:0:
403,284,189976,1,0,0:0:0:0:
402,280,190048,1,0,0:0:0:0:
401,280,190119,1,0,0:0:0:0:
399,276,190191,1,8,0:0:0:0:
399,276,190262,1,8,0:0:0:0:
394,269,190333,1,8,0:0:0:0:
394,269,190405,1,0,0:0:0:0:
382,293,190476,1,8,0:0:0:0:
383,293,190548,1,8,0:0:0:0:
383,293,190619,1,8,0:0:0:0:
383,293,190691,1,8,0:0:0:0:
385,293,190762,1,8,0:0:0:0:
385,293,190833,1,8,0:0:0:0:
377,298,190905,1,0,0:0:0:0:
377,297,190976,1,0,0:0:0:0:
377,297,191048,1,8,0:0:0:0:
388,269,191119,1,0,0:0:0:0:
388,269,191191,1,8,0:0:0:0:
388,269,191262,1,0,0:0:0:0:
382,271,191333,1,8,0:0:0:0:
382,271,191405,1,8,0:0:0:0:
382,271,191476,1,8,0:0:0:0:
382,271,191548,1,8,0:0:0:0:
396,295,191619,1,0,0:0:0:0:
396,313,191762,1,8,0:0:0:0:
384,304,191905,1,0,0:0:0:0:
384,304,191976,1,0,0:0:0:0:
384,304,192048,1,8,0:0:0:0:
384,304,192191,1,0,0:0:0:0:
384,304,192333,1,8,0:0:0:0:
384,304,192405,1,8,0:0:0:0:
384,304,192476,1,0,0:0:0:0:
384,304,192548,1,0,0:0:0:0:
384,304,192619,1,0,0:0:0:0:
384,304,192762,1,8,0:0:0:0:
384,304,192905,1,8,0:0:0:0:
384,304,193048,1,0,0:0:0:0:
384,304,193119,1,0,0:0:0:0:
384,304,193191,1,8,0:0:0:0:
384,304,193333,1,8,0:0:0:0:
384,304,193476,1,0,0:0:0:0:
384,304,193548,1,0,0:0:0:0:
384,304,193619,1,8,0:0:0:0:
384,304,193691,1,0,0:0:0:0:
384,304,193762,1,0,0:0:0:0:
396,46,193905,1,12,0:0:0:0:
381,297,194048,1,0,0:0:0:0:
381,297,194191,1,8,0:0:0:0:
380,297,194333,1,0,0:0:0:0:
380,297,194405,1,0,0:0:0:0:
380,297,194476,1,8,0:0:0:0:
380,297,194619,1,0,0:0:0:0:
380,297,194691,1,0,0:0:0:0:
381,297,194762,1,8,0:0:0:0:
381,297,194833,1,8,0:0:0:0:
381,297,194905,1,0,0:0:0:0:
380,276,194976,1,0,0:0:0:0:
381,297,195048,1,8,0:0:0:0:
367,289,195119,1,8,0:0:0:0:
367,289,195191,1,8,0:0:0:0:
367,289,195262,1,8,0:0:0:0:
367,289,195333,1,0,0:0:0:0:
367,289,195405,1,0,0:0:0:0:
367,289,195476,1,8,0:0:0:0:
367,289,195548,1,0,0:0:0:0:
367,289,195619,1,8,0:0:0:0:
361,314,195691,1,0,0:0:0:0:
369,294,195762,1,0,0:0:0:0:
369,294,195833,1,0,0:0:0:0:
369,294,195905,1,8,0:0:0:0:
369,294,195976,1,8,0:0:0:0:
370,296,196048,1,0,0:0:0:0:
396,38,196191,1,12,0:0:0:0:
370,295,196333,1,0,0:0:0:0:
370,295,196476,1,0,0:0:0:0:
370,295,196548,1,0,0:0:0:0:
370,295,196619,1,8,0:0:0:0:
370,295,196762,1,8,0:0:0:0:
370,295,196905,1,0,0:0:0:0:
370,295,196976,1,0,0:0:0:0:
370,295,197048,1,8,0:0:0:0:
370,295,197119,1,8,0:0:0:0:
370,295,197191,1,8,0:0:0:0:
370,295,197333,1,0,0:0:0:0:
370,295,197476,1,8,0:0:0:0:
370,295,197619,1,0,0:0:0:0:
370,295,197691,1,0,0:0:0:0:
370,295,197762,1,8,0:0:0:0:
370,295,197905,1,0,0:0:0:0:
370,295,198048,1,8,0:0:0:0:
370,295,198119,1,0,0:0:0:0:
370,295,198191,1,0,0:0:0:0:
370,295,198262,1,8,0:0:0:0:
370,295,198333,1,8,0:0:0:0:
370,295,198405,1,8,0:0:0:0:
370,295,198476,1,0,0:0:0:0:
370,295,198619,1,8,0:0:0:0:
370,295,198762,1,0,0:0:0:0:
379,300,198833,1,0,0:0:0:0:
370,295,198905,1,8,0:0:0:0:
370,295,198976,1,8,0:0:0:0:
370,295,199048,1,0,0:0:0:0:
370,295,199191,1,0,0:0:0:0:
370,295,199262,1,0,0:0:0:0:
370,295,199333,1,8,0:0:0:0:
370,295,199405,1,8,0:0:0:0:
370,295,199476,1,8,0:0:0:0:
354,297,199548,1,8,0:0:0:0:
364,285,199619,1,0,0:0:0:0:
370,295,199762,1,8,0:0:0:0:
370,295,199905,1,0,0:0:0:0:
370,295,199976,1,0,0:0:0:0:
370,295,200048,1,8,0:0:0:0:
370,295,200191,1,0,0:0:0:0:
370,295,200333,1,8,0:0:0:0:
370,295,200476,1,0,0:0:0:0:
370,295,200548,1,0,0:0:0:0:
370,295,200619,1,0,0:0:0:0:
370,295,200762,1,8,0:0:0:0:
370,295,200833,1,8,0:0:0:0:
370,295,200905,1,8,0:0:0:0:
370,295,200976,1,8,0:0:0:0:
370,295,201048,1,0,0:0:0:0:
370,295,201119,1,0,0:0:0:0:
370,295,201191,1,8,0:0:0:0:
380,291,201262,1,8,0:0:0:0:
380,291,201333,1,0,0:0:0:0:
379,272,201476,1,0,0:0:0:0:
379,274,201548,1,8,0:0:0:0:
380,291,201619,1,8,0:0:0:0:
379,288,201691,1,8,0:0:0:0:
379,288,201762,1,0,0:0:0:0:
379,275,201833,1,0,0:0:0:0:
379,288,201905,1,8,0:0:0:0:
389,275,201976,1,8,0:0:0:0:
366,281,202048,1,0,0:0:0:0:
416,265,202119,1,0,0:0:0:0:
416,265,202191,1,8,0:0:0:0:
416,265,202262,1,0,0:0:0:0:
428,288,202333,1,0,0:0:0:0:
416,265,202405,1,0,0:0:0:0:
416,265,202476,1,8,0:0:0:0:
362,73,203048,1,4,0:0:0:0:
256,192,203141,12,0,206048,0:0:0:0:
411,293,215048,5,0,0:0:0:0:
411,293,215423,1,8,0:0:0:0:
411,293,215798,1,0,0:0:0:0:
411,293,215985,1,0,0:0:0:0:
411,293,216360,1,0,0:0:0:0:
400,284,216548,1,8,0:0:0:0:
400,284,216923,1,8,0:0:0:0:
400,284,217110,1,0,0:0:0:0:
400,284,217485,1,0,0:0:0:0:
400,284,217673,1,8,0:0:0:0:
400,284,217860,1,8,0:0:0:0:
411,293,218048,5,0,0:0:0:0:
411,293,218235,1,0,0:0:0:0:
411,293,218423,1,8,0:0:0:0:
411,293,218798,1,0,0:0:0:0:
411,293,218985,1,8,0:0:0:0:
392,291,219173,1,0,0:0:0:0:
411,293,219360,1,0,0:0:0:0:
400,284,219548,1,8,0:0:0:0:
400,284,219923,1,0,0:0:0:0:
400,284,220110,1,8,0:0:0:0:
400,284,220485,1,0,0:0:0:0:
400,284,220673,1,8,0:0:0:0:
400,284,220860,1,8,0:0:0:0:
411,293,221048,5,0,0:0:0:0:
411,293,221423,1,8,0:0:0:0:
411,293,221610,1,8,0:0:0:0:
411,293,221798,1,0,0:0:0:0:
411,293,221985,1,8,0:0:0:0:
411,293,222360,1,8,0:0:0:0:
400,284,222548,1,0,0:0:0:0:
400,284,222735,1,0,0:0:0:0:
405,288,222923,1,8,0:0:0:0:
400,284,223298,1,0,0:0:0:0:
400,284,223485,1,8,0:0:0:0:
400,284,223673,1,0,0:0:0:0:
400,284,223860,1,8,0:0:0:0:
411,293,224048,5,0,0:0:0:0:
411,293,224235,1,0,0:0:0:0:
411,293,224423,1,8,0:0:0:0:
411,293,224798,1,0,0:0:0:0:
411,293,224985,1,8,0:0:0:0:
391,300,225173,1,0,0:0:0:0:
411,293,225360,1,8,0:0:0:0:
400,284,225548,1,0,0:0:0:0:
400,284,225923,1,8,0:0:0:0:
398,281,226110,1,0,0:0:0:0:
400,284,226298,1,0,0:0:0:0:
400,284,226485,1,8,0:0:0:0:
400,284,226673,1,0,0:0:0:0:
400,284,226860,1,8,0:0:0:0:
421,316,227048,5,0,0:0:0:0:
421,316,227423,1,8,0:0:0:0:
386,319,227610,1,0,0:0:0:0:
421,316,227798,1,0,0:0:0:0:
421,316,227985,1,8,0:0:0:0:
421,316,228360,1,0,0:0:0:0:
410,307,228548,1,8,0:0:0:0:
410,307,228923,1,8,0:0:0:0:
410,307,229110,1,0,0:0:0:0:
410,307,229485,1,0,0:0:0:0:
410,307,229673,1,8,0:0:0:0:
410,307,229860,1,8,0:0:0:0:
421,316,230048,5,0,0:0:0:0:
421,316,230235,1,0,0:0:0:0:
421,316,230423,1,8,0:0:0:0:
421,316,230798,1,0,0:0:0:0:
421,316,230985,1,8,0:0:0:0:
402,314,231173,1,0,0:0:0:0:
421,316,231360,1,0,0:0:0:0:
410,307,231548,1,8,0:0:0:0:
410,307,231923,1,0,0:0:0:0:
410,307,232110,1,8,0:0:0:0:
410,307,232485,1,0,0:0:0:0:
410,307,232673,1,8,0:0:0:0:
410,307,232860,1,8,0:0:0:0:
421,316,233048,5,0,0:0:0:0:
421,316,233423,1,8,0:0:0:0:
421,316,233610,1,0,0:0:0:0:
421,316,233798,1,0,0:0:0:0:
421,316,233985,1,8,0:0:0:0:
421,316,234360,1,8,0:0:0:0:
410,307,234548,1,0,0:0:0:0:
410,307,234923,1,8,0:0:0:0:
410,307,235110,1,0,0:0:0:0:
410,307,235485,1,0,0:0:0:0:
410,307,235673,1,8,0:0:0:0:
410,307,235860,1,8,0:0:0:0:
421,316,236048,5,0,0:0:0:0:
421,316,236235,1,0,0:0:0:0:
421,316,236423,1,8,0:0:0:0:
421,316,236610,1,0,0:0:0:0:
421,316,236985,1,8,0:0:0:0:
401,323,237173,1,0,0:0:0:0:
421,316,237360,1,8,0:0:0:0:
410,307,237548,1,0,0:0:0:0:
410,307,237923,1,8,0:0:0:0:
408,304,238110,1,8,0:0:0:0:
410,307,238485,1,0,0:0:0:0:
410,307,238673,1,8,0:0:0:0:
410,307,238860,1,8,0:0:0:0:
256,192,239048,12,0,239423,0:0:0:0:
93,321,242610,5,8,0:0:0:0:
120,62,242832,1,4,0:0:0:0:
108,309,243117,1,8,0:0:0:0:
108,309,243260,1,0,0:0:0:0:
108,309,243546,1,8,0:0:0:0:
108,309,243689,1,0,0:0:0:0:
108,309,243974,1,8,0:0:0:0:
108,309,244260,1,0,0:0:0:0:
108,309,244403,1,8,0:0:0:0:
108,309,244689,1,0,0:0:0:0:
108,309,244832,1,8,0:0:0:0:
108,309,245117,1,8,0:0:0:0:
108,309,245403,1,8,0:0:0:0:
108,309,245546,1,0,0:0:0:0:
108,309,245832,1,8,0:0:0:0:
108,309,245974,1,0,0:0:0:0:
108,309,246260,1,8,0:0:0:0:
108,309,246546,1,0,0:0:0:0:
115,287,246689,1,8,0:0:0:0:
115,287,246974,1,0,0:0:0:0:
115,287,247117,1,8,0:0:0:0:
121,294,247403,1,0,0:0:0:0:
115,287,247689,1,8,0:0:0:0:
112,0,247832,5,4,0:0:0:0:
119,72,248260,1,12,0:0:0:0:
146,48,248546,1,12,0:0:0:0:
119,287,248832,1,0,0:0:0:0:
119,287,248974,1,8,0:0:0:0:
119,287,249260,1,0,0:0:0:0:
119,287,249403,1,8,0:0:0:0:
121,65,249689,1,12,0:0:0:0:
137,309,250117,1,0,0:0:0:0:
138,292,250260,1,8,0:0:0:0:
138,292,250332,1,8,0:0:0:0:
137,292,250403,1,0,0:0:0:0:
147,300,250546,1,8,0:0:0:0:
147,300,250617,1,0,0:0:0:0:
147,300,250689,1,8,0:0:0:0:
147,300,250832,1,0,0:0:0:0:
147,300,250903,1,0,0:0:0:0:
128,292,250974,1,8,0:0:0:0:
138,292,251046,1,8,0:0:0:0:
138,292,251117,1,8,0:0:0:0:
137,292,251189,1,8,0:0:0:0:
138,289,251260,1,0,0:0:0:0:
138,289,251332,1,0,0:0:0:0:
147,300,251403,1,8,0:0:0:0:
147,300,251474,1,8,0:0:0:0:
147,300,251546,1,8,0:0:0:0:
147,300,251617,1,8,0:0:0:0:
147,300,251689,1,0,0:0:0:0:
147,295,251760,1,0,0:0:0:0:
147,295,251832,1,8,0:0:0:0:
148,315,251974,1,8,0:0:0:0:
148,315,252046,1,8,0:0:0:0:
148,315,252117,1,8,0:0:0:0:
148,315,252189,1,8,0:0:0:0:
143,311,252260,1,8,0:0:0:0:
143,311,252332,1,8,0:0:0:0:
143,311,252403,1,8,0:0:0:0:
164,310,252474,1,8,0:0:0:0:
164,310,252546,1,8,0:0:0:0:
164,310,252617,1,8,0:0:0:0:
165,310,252689,1,8,0:0:0:0:
165,310,252760,1,8,0:0:0:0:
165,310,252832,1,0,0:0:0:0:
165,310,252903,1,0,0:0:0:0:
165,310,252974,1,0,0:0:0:0:
165,310,253046,1,0,0:0:0:0:
165,310,253117,1,8,0:0:0:0:
164,310,253189,1,8,0:0:0:0:
164,310,253260,1,8,0:0:0:0:
164,310,253332,1,8,0:0:0:0:
164,310,253403,1,8,0:0:0:0:
165,310,253474,1,8,0:0:0:0:
165,310,253546,1,8,0:0:0:0:
165,310,253617,1,8,0:0:0:0:
165,310,253689,1,8,0:0:0:0:
165,310,253760,1,8,0:0:0:0:
165,310,253832,1,8,0:0:0:0:
165,310,253903,1,8,0:0:0:0:
164,310,253974,1,8,0:0:0:0:
164,310,254046,1,8,0:0:0:0:
164,310,254117,1,0,0:0:0:0:
164,310,254189,1,0,0:0:0:0:
165,310,254260,1,8,0:0:0:0:
169,315,254332,1,8,0:0:0:0:
168,315,254403,1,8,0:0:0:0:
165,310,254474,1,8,0:0:0:0:
165,310,254546,1,8,0:0:0:0:
165,310,254617,1,8,0:0:0:0:
164,310,254689,1,8,0:0:0:0:
164,310,254760,1,8,0:0:0:0:
162,303,254832,1,8,0:0:0:0:
162,298,254903,1,8,0:0:0:0:
162,298,254974,1,8,0:0:0:0:
162,298,255046,1,8,0:0:0:0:
162,298,255117,1,0,0:0:0:0:
162,291,255189,1,0,0:0:0:0:
162,291,255260,1,0,0:0:0:0:
162,291,255332,1,0,0:0:0:0:
163,289,255403,1,8,0:0:0:0:
163,289,255474,1,8,0:0:0:0:
163,286,255546,1,8,0:0:0:0:
163,285,255617,1,8,0:0:0:0:
163,285,255689,1,8,0:0:0:0:
163,285,255760,1,8,0:0:0:0:
163,285,255832,1,0,0:0:0:0:
163,283,255903,1,0,0:0:0:0:
163,283,255974,1,8,0:0:0:0:
163,283,256046,1,8,0:0:0:0:
165,280,256117,1,8,0:0:0:0:
167,279,256189,1,8,0:0:0:0:
167,279,256260,1,0,0:0:0:0:
169,278,256332,1,0,0:0:0:0:
170,278,256403,1,8,0:0:0:0:
166,264,256474,1,0,0:0:0:0:
170,278,256546,1,8,0:0:0:0:
170,278,256617,1,8,0:0:0:0:
170,278,256689,1,8,0:0:0:0:
170,278,256760,1,8,0:0:0:0:
170,278,256832,1,8,0:0:0:0:
170,278,256903,1,8,0:0:0:0:
167,279,256974,1,8,0:0:0:0:
167,279,257046,1,8,0:0:0:0:
169,278,257117,1,8,0:0:0:0:
174,275,257189,1,8,0:0:0:0:
174,273,257260,1,8,0:0:0:0:
170,278,257332,1,8,0:0:0:0:
169,272,257403,1,0,0:0:0:0:
170,278,257474,1,0,0:0:0:0:
168,267,257546,1,0,0:0:0:0:
167,266,257617,1,0,0:0:0:0:
72,295,257689,1,8,0:0:0:0:
72,295,257760,1,8,0:0:0:0:
76,290,257832,1,8,0:0:0:0:
76,285,257903,1,8,0:0:0:0:
74,280,257974,1,8,0:0:0:0:
74,280,258046,1,8,0:0:0:0:
74,280,258117,1,8,0:0:0:0:
75,281,258189,1,8,0:0:0:0:
94,341,258260,1,8,0:0:0:0:
114,352,258332,1,8,0:0:0:0:
146,335,258403,1,8,0:0:0:0:
154,325,258474,1,8,0:0:0:0:
155,300,258546,1,8,0:0:0:0:
120,309,258617,1,8,0:0:0:0:
146,335,258689,1,0,0:0:0:0:
176,318,258760,1,0,0:0:0:0:
177,317,258832,1,8,0:0:0:0:
126,332,258974,1,0,0:0:0:0:
123,332,259046,1,0,0:0:0:0:
118,330,259117,1,8,0:0:0:0:
131,302,259189,1,8,0:0:0:0:
131,302,259260,1,0,0:0:0:0:
131,302,259332,1,0,0:0:0:0:
131,302,259403,1,8,0:0:0:0:
131,302,259546,1,0,0:0:0:0:
131,302,259617,1,0,0:0:0:0:
131,302,259689,1,8,0:0:0:0:
131,302,259760,1,8,0:0:0:0:
131,302,259832,1,8,0:0:0:0:
129,312,259903,1,8,0:0:0:0:
131,302,259974,1,0,0:0:0:0:
131,302,260046,1,0,0:0:0:0:
131,302,260117,1,8,0:0:0:0:
131,302,260189,1,0,0:0:0:0:
131,302,260260,1,8,0:0:0:0:
131,283,260332,1,8,0:0:0:0:
131,283,260403,1,0,0:0:0:0:
131,283,260474,1,0,0:0:0:0:
131,283,260546,1,8,0:0:0:0:
131,283,260617,1,8,0:0:0:0:
131,283,260689,1,8,0:0:0:0:
131,283,260760,1,8,0:0:0:0:
131,283,260832,1,0,0:0:0:0:
131,283,260974,1,0,0:0:0:0:
107,283,261117,1,8,0:0:0:0:
118,283,261189,1,8,0:0:0:0:
119,288,261260,1,8,0:0:0:0:
72,292,261332,1,0,0:0:0:0:
72,292,261403,1,8,0:0:0:0:
131,283,261474,1,8,0:0:0:0:
72,292,261546,1,0,0:0:0:0:
72,292,261617,1,0,0:0:0:0:
72,292,261689,1,8,0:0:0:0:
72,292,261760,1,8,0:0:0:0:
72,292,261832,1,8,0:0:0:0:
72,292,261903,1,0,0:0:0:0:
72,292,261974,1,8,0:0:0:0:
72,292,262046,1,8,0:0:0:0:
72,292,262117,1,0,0:0:0:0:
72,292,262189,1,0,0:0:0:0:
72,292,262260,1,8,0:0:0:0:
72,292,262332,1,8,0:0:0:0:
72,292,262403,1,8,0:0:0:0:
72,292,262474,1,8,0:0:0:0:
72,292,262546,1,0,0:0:0:0:
72,292,262617,1,0,0:0:0:0:
72,292,262689,1,8,0:0:0:0:
72,292,262760,1,0,0:0:0:0:
147,326,262832,1,8,0:0:0:0:
131,315,262903,1,8,0:0:0:0:
72,292,262974,1,8,0:0:0:0:
72,292,263046,1,8,0:0:0:0:
72,292,263117,1,8,0:0:0:0:
72,292,263189,1,8,0:0:0:0:
72,292,263260,1,0,0:0:0:0:
72,292,263332,1,0,0:0:0:0:
72,292,263403,1,8,0:0:0:0:
72,292,263474,1,8,0:0:0:0:
147,317,263546,1,8,0:0:0:0:
72,292,263617,1,0,0:0:0:0:
72,292,263689,1,8,0:0:0:0:
72,292,263760,1,8,0:0:0:0:
72,292,263832,1,0,0:0:0:0:
72,292,263903,1,0,0:0:0:0:
72,292,263974,1,8,0:0:0:0:
72,292,264046,1,8,0:0:0:0:
72,292,264117,1,8,0:0:0:0:
72,292,264189,1,0,0:0:0:0:
72,292,264260,1,8,0:0:0:0:
72,292,264332,1,8,0:0:0:0:
72,292,264403,1,0,0:0:0:0:
72,292,264474,1,0,0:0:0:0:
72,292,264546,1,8,0:0:0:0:
72,292,264617,1,8,0:0:0:0:
72,292,264689,1,0,0:0:0:0:
72,292,264760,1,0,0:0:0:0:
72,292,264832,1,8,0:0:0:0:
72,292,264903,1,8,0:0:0:0:
72,292,264974,1,8,0:0:0:0:
72,292,265046,1,8,0:0:0:0:
72,292,265117,1,0,0:0:0:0:
72,292,265189,1,0,0:0:0:0:
72,292,265260,1,8,0:0:0:0:
72,292,265332,1,0,0:0:0:0:
72,292,265403,1,8,0:0:0:0:
72,292,265474,1,8,0:0:0:0:
72,292,265546,1,0,0:0:0:0:
72,292,265617,1,0,0:0:0:0:
72,292,265689,1,8,0:0:0:0:
116,304,265760,1,8,0:0:0:0:
116,304,265832,1,8,0:0:0:0:
116,304,265903,1,0,0:0:0:0:
116,304,265974,1,8,0:0:0:0:
116,304,266046,1,8,0:0:0:0:
116,304,266117,1,0,0:0:0:0:
116,304,266189,1,0,0:0:0:0:
116,304,266260,1,8,0:0:0:0:
116,304,266332,1,8,0:0:0:0:
116,304,266403,1,8,0:0:0:0:
116,304,266474,1,0,0:0:0:0:
116,304,266546,1,8,0:0:0:0:
116,304,266617,1,8,0:0:0:0:
116,304,266689,1,0,0:0:0:0:
116,304,266760,1,0,0:0:0:0:
116,304,266832,1,8,0:0:0:0:
116,304,266903,1,8,0:0:0:0:
116,304,266974,1,8,0:0:0:0:
116,304,267046,1,8,0:0:0:0:
116,304,267117,1,0,0:0:0:0:
116,304,267189,1,0,0:0:0:0:
116,304,267260,1,8,0:0:0:0:
116,304,267332,1,0,0:0:0:0:
116,304,267403,1,8,0:0:0:0:
116,304,267474,1,8,0:0:0:0:
116,304,267546,1,0,0:0:0:0:
116,304,267617,1,0,0:0:0:0:
116,304,267689,1,8,0:0:0:0:
116,304,267760,1,8,0:0:0:0:
116,304,267832,1,8,0:0:0:0:
116,304,267903,1,0,0:0:0:0:
116,304,267974,1,8,0:0:0:0:
116,304,268046,1,8,0:0:0:0:
116,304,268117,1,8,0:0:0:0:
116,304,268189,1,8,0:0:0:0:
116,304,268260,1,8,0:0:0:0:
116,304,268332,1,8,0:0:0:0:
116,304,268403,1,0,0:0:0:0:
116,304,268474,1,0,0:0:0:0:
116,304,268546,1,8,0:0:0:0:
116,304,268617,1,8,0:0:0:0:
116,304,268689,1,8,0:0:0:0:
116,304,268760,1,8,0:0:0:0:
116,304,268832,1,0,0:0:0:0:
116,304,268903,1,0,0:0:0:0:
135,320,268974,1,8,0:0:0:0:
116,304,269046,1,0,0:0:0:0:
116,304,269117,1,8,0:0:0:0:
116,304,269189,1,8,0:0:0:0:
116,304,269260,1,0,0:0:0:0:
116,304,269332,1,0,0:0:0:0:
116,304,269403,1,8,0:0:0:0:
116,304,269474,1,8,0:0:0:0:
116,304,269546,1,0,0:0:0:0:
116,304,269617,1,0,0:0:0:0:
116,304,269689,1,8,0:0:0:0:
116,304,269760,1,8,0:0:0:0:
116,304,269832,1,0,0:0:0:0:
116,304,269903,1,0,0:0:0:0:
116,304,269974,1,8,0:0:0:0:
116,304,270046,1,8,0:0:0:0:
116,304,270117,1,8,0:0:0:0:
87,264,270189,1,8,0:0:0:0:
116,304,270260,1,0,0:0:0:0:
116,298,270403,1,8,0:0:0:0:
116,298,270546,1,0,0:0:0:0:
116,298,270617,1,0,0:0:0:0:
143,299,270689,1,8,0:0:0:0:
138,286,270832,1,0,0:0:0:0:
139,286,270903,1,8,0:0:0:0:
139,286,270974,1,8,0:0:0:0:
139,286,271117,1,8,0:0:0:0:
139,286,271189,1,8,0:0:0:0:
139,286,271260,1,8,0:0:0:0:
139,286,271403,1,0,0:0:0:0:
138,286,271546,1,0,0:0:0:0:
139,286,271689,1,8,0:0:0:0:
139,286,271760,1,0,0:0:0:0:
139,286,271832,1,0,0:0:0:0:
139,286,271974,1,8,0:0:0:0:
139,286,272046,1,8,0:0:0:0:
139,286,272117,1,0,0:0:0:0:
138,286,272260,1,8,0:0:0:0:
138,286,272332,1,8,0:0:0:0:
139,286,272403,1,8,0:0:0:0:
139,286,272474,1,0,0:0:0:0:
139,286,272546,1,8,0:0:0:0:
139,286,272689,1,8,0:0:0:0:
139,286,272832,1,0,0:0:0:0:
139,286,272903,1,0,0:0:0:0:
138,286,272974,1,8,0:0:0:0:
138,286,273117,1,0,0:0:0:0:
139,286,273189,1,8,0:0:0:0:
139,286,273260,1,8,0:0:0:0:
139,286,273403,1,8,0:0:0:0:
139,286,273546,1,8,0:0:0:0:
139,286,273689,1,0,0:0:0:0:
138,286,273760,1,0,0:0:0:0:
138,286,273832,1,8,0:0:0:0:
138,286,273903,1,0,0:0:0:0:
139,286,273974,1,8,0:0:0:0:
139,286,274046,1,8,0:0:0:0:
139,286,274117,1,0,0:0:0:0:
139,286,274189,1,0,0:0:0:0:
139,286,274260,1,8,0:0:0:0:
139,286,274332,1,8,0:0:0:0:
139,286,274403,1,8,0:0:0:0:
138,286,274474,1,8,0:0:0:0:
146,286,274546,1,0,0:0:0:0:
138,286,274617,1,0,0:0:0:0:
139,286,274689,1,8,0:0:0:0:
146,286,274760,1,0,0:0:0:0:
145,282,274832,1,8,0:0:0:0:
145,282,274974,1,0,0:0:0:0:
145,282,275117,1,8,0:0:0:0:
145,282,275189,1,0,0:0:0:0:
145,282,275260,1,0,0:0:0:0:
142,289,275403,1,8,0:0:0:0:
139,286,275474,1,8,0:0:0:0:
142,289,275546,1,0,0:0:0:0:
149,296,275689,1,8,0:0:0:0:
148,286,275760,1,8,0:0:0:0:
149,296,275832,1,8,0:0:0:0:
140,295,275974,1,0,0:0:0:0:
140,295,276117,1,8,0:0:0:0:
140,295,276260,1,0,0:0:0:0:
140,295,276332,1,0,0:0:0:0:
140,295,276403,1,8,0:0:0:0:
140,296,276546,1,0,0:0:0:0:
140,296,276617,1,8,0:0:0:0:
140,295,276689,1,8,0:0:0:0:
140,295,276832,1,8,0:0:0:0:
140,295,276903,1,8,0:0:0:0:
140,295,276974,1,8,0:0:0:0:
169,20,277117,1,12,0:0:0:0:
119,58,278260,1,4,0:0:0:0:
137,88,279403,1,12,0:0:0:0:
117,296,279546,1,0,0:0:0:0:
117,296,279689,1,8,0:0:0:0:
117,296,279832,1,8,0:0:0:0:
117,296,279974,1,0,0:0:0:0:
117,296,280117,1,0,0:0:0:0:
117,296,280260,1,8,0:0:0:0:
117,296,280403,1,0,0:0:0:0:
117,296,280546,1,8,0:0:0:0:
117,296,280689,1,8,0:0:0:0:
117,296,280832,1,0,0:0:0:0:
117,296,280974,1,0,0:0:0:0:
117,296,281117,1,8,0:0:0:0:
120,301,281260,1,8,0:0:0:0:
120,301,281403,1,0,0:0:0:0:
120,301,281546,1,8,0:0:0:0:
127,297,281689,1,0,0:0:0:0:
125,305,281736,1,0,0:0:0:0:
125,305,281784,1,0,0:0:0:0:
125,305,281832,1,8,0:0:0:0:
125,323,281974,1,0,0:0:0:0:
125,322,282046,1,0,0:0:0:0:
125,321,282117,1,0,0:0:0:0:
124,321,282260,1,8,0:0:0:0:
124,321,282332,1,8,0:0:0:0:
124,321,282403,1,0,0:0:0:0:
124,321,282474,1,0,0:0:0:0:
124,321,282546,1,8,0:0:0:0:
124,321,282617,1,8,0:0:0:0:
125,323,282689,1,8,0:0:0:0:
125,323,282760,1,8,0:0:0:0:
125,322,282832,1,0,0:0:0:0:
128,280,283974,1,8,0:0:0:0:
128,280,284117,1,8,0:0:0:0:
128,280,284260,1,0,0:0:0:0:
128,280,284403,1,8,0:0:0:0:
128,280,284546,1,0,0:0:0:0:
128,280,284689,1,8,0:0:0:0:
128,280,284832,1,0,0:0:0:0:
128,280,284974,1,0,0:0:0:0:
128,280,285117,1,8,0:0:0:0:
128,280,285260,1,0,0:0:0:0:
128,280,285403,1,8,0:0:0:0:
128,280,285546,1,0,0:0:0:0:
135,262,285689,1,8,0:0:0:0:
135,262,285832,1,8,0:0:0:0:
150,272,285974,1,0,0:0:0:0:
139,255,286117,1,8,0:0:0:0:
143,288,286260,1,0,0:0:0:0:
143,288,286308,1,0,0:0:0:0:
143,288,286355,1,0,0:0:0:0:
143,288,286403,1,8,0:0:0:0:
133,288,286546,1,8,0:0:0:0:
133,288,286617,1,0,0:0:0:0:
133,288,286689,1,0,0:0:0:0:
133,288,286832,1,8,0:0:0:0:
133,288,286903,1,8,0:0:0:0:
133,288,286974,1,0,0:0:0:0:
133,288,287046,1,0,0:0:0:0:
133,288,287117,1,8,0:0:0:0:
133,288,287189,1,0,0:0:0:0:
133,288,287260,1,8,0:0:0:0:
133,288,287332,1,8,0:0:0:0:
133,288,287403,1,0,0:0:0:0:
127,286,288546,1,8,0:0:0:0:
127,286,288689,1,0,0:0:0:0:
127,286,288832,1,8,0:0:0:0:
127,286,288974,1,8,0:0:0:0:
127,286,289117,1,0,0:0:0:0:
133,300,289260,1,0,0:0:0:0:
131,288,289403,1,8,0:0:0:0:
131,288,289546,1,0,0:0:0:0:
131,288,289689,1,8,0:0:0:0:
131,288,289832,1,8,0:0:0:0:
131,288,289974,1,0,0:0:0:0:
131,288,290117,1,0,0:0:0:0:
131,288,290260,1,8,0:0:0:0:
131,288,290403,1,8,0:0:0:0:
131,288,290546,1,0,0:0:0:0:
131,288,290689,1,8,0:0:0:0:
128,303,290832,1,0,0:0:0:0:
128,299,290879,1,0,0:0:0:0:
128,303,290927,1,0,0:0:0:0:
128,299,290974,1,8,0:0:0:0:
136,297,291117,1,0,0:0:0:0:
134,297,291189,1,0,0:0:0:0:
134,297,291260,1,0,0:0:0:0:
134,297,291403,1,8,0:0:0:0:
134,297,291474,1,8,0:0:0:0:
134,297,291546,1,0,0:0:0:0:
126,312,291617,1,0,0:0:0:0:
139,295,291689,1,8,0:0:0:0:
140,295,291760,1,8,0:0:0:0:
136,297,291832,1,8,0:0:0:0:
142,292,291903,1,8,0:0:0:0:
142,292,291974,1,0,0:0:0:0:
91,40,292546,1,4,0:0:0:0:
124,86,292832,1,4,0:0:0:0:
159,103,293117,1,12,0:0:0:0:
133,327,293259,1,0,0:0:0:0:
139,310,293402,1,8,0:0:0:0:
139,310,293545,1,8,0:0:0:0:
139,309,293688,1,0,0:0:0:0:
139,309,293831,1,0,0:0:0:0:
147,288,293878,1,0,0:0:0:0:
145,290,293926,1,0,0:0:0:0:
143,290,293974,1,8,0:0:0:0:
152,291,294069,1,8,0:0:0:0:
152,291,294164,1,8,0:0:0:0:
152,291,294259,1,0,0:0:0:0:
152,291,294355,1,0,0:0:0:0:
152,291,294450,1,0,0:0:0:0:
142,290,294545,1,8,0:0:0:0:
142,290,294617,1,8,0:0:0:0:
142,290,294688,1,0,0:0:0:0:
145,63,294831,1,12,0:0:0:0:
140,309,294974,1,0,0:0:0:0:
147,300,295117,1,8,0:0:0:0:
147,300,295189,1,8,0:0:0:0:
147,300,295260,1,0,0:0:0:0:
152,301,295403,1,8,0:0:0:0:
152,301,295546,1,0,0:0:0:0:
152,301,295689,1,8,0:0:0:0:
152,301,295760,1,0,0:0:0:0:
152,301,295832,1,8,0:0:0:0:
152,301,295974,1,0,0:0:0:0:
152,301,296117,1,8,0:0:0:0:
152,301,296260,1,0,0:0:0:0:
152,301,296332,1,0,0:0:0:0:
152,301,296403,1,8,0:0:0:0:
152,301,296546,1,0,0:0:0:0:
152,301,296617,1,0,0:0:0:0:
152,301,296689,1,8,0:0:0:0:
152,301,296760,1,0,0:0:0:0:
152,301,296832,1,8,0:0:0:0:
152,301,296903,1,8,0:0:0:0:
152,301,296974,1,0,0:0:0:0:
157,291,297046,1,0,0:0:0:0:
157,291,297117,1,8,0:0:0:0:
157,291,297260,1,8,0:0:0:0:
157,291,297403,1,0,0:0:0:0:
160,291,297474,1,8,0:0:0:0:
157,291,297546,1,0,0:0:0:0:
145,287,297689,1,8,0:0:0:0:
145,287,297832,1,0,0:0:0:0:
145,287,297974,1,8,0:0:0:0:
145,286,298046,1,8,0:0:0:0:
145,286,298117,1,0,0:0:0:0:
145,283,298260,1,8,0:0:0:0:
145,287,298403,1,0,0:0:0:0:
145,281,298546,1,0,0:0:0:0:
145,281,298689,1,0,0:0:0:0:
145,286,298832,1,8,0:0:0:0:
145,286,298903,1,8,0:0:0:0:
145,283,298974,1,8,0:0:0:0:
145,283,299046,1,0,0:0:0:0:
145,281,299117,1,0,0:0:0:0:
145,281,299260,1,0,0:0:0:0:
116,34,299403,1,12,0:0:0:0:
145,286,299546,1,0,0:0:0:0:
145,286,299689,1,8,0:0:0:0:
145,283,299760,1,8,0:0:0:0:
145,283,299832,1,0,0:0:0:0:
144,285,299974,1,8,0:0:0:0:
144,285,300117,1,0,0:0:0:0:
145,286,300260,1,8,0:0:0:0:
145,286,300332,1,0,0:0:0:0:
145,286,300403,1,8,0:0:0:0:
145,283,300546,1,0,0:0:0:0:
144,285,300689,1,8,0:0:0:0:
144,285,300832,1,0,0:0:0:0:
144,285,300903,1,0,0:0:0:0:
145,286,300974,1,8,0:0:0:0:
145,286,301117,1,0,0:0:0:0:
145,286,301189,1,0,0:0:0:0:
145,283,301260,1,0,0:0:0:0:
145,283,301332,1,0,0:0:0:0:
144,285,301403,1,8,0:0:0:0:
144,285,301474,1,8,0:0:0:0:
144,285,301546,1,8,0:0:0:0:
144,285,301617,1,8,0:0:0:0:
144,285,301689,1,0,0:0:0:0:
145,286,301832,1,8,0:0:0:0:
151,280,301974,1,0,0:0:0:0:
151,280,302046,1,0,0:0:0:0:
151,280,302117,1,0,0:0:0:0:
144,293,302260,1,8,0:0:0:0:
149,285,302403,1,0,0:0:0:0:
145,286,302546,1,8,0:0:0:0:
145,286,302617,1,8,0:0:0:0:
149,285,302689,1,0,0:0:0:0:
112,55,302832,1,12,0:0:0:0:
136,284,302974,1,0,0:0:0:0:
136,284,303117,1,0,0:0:0:0:
136,284,303260,1,0,0:0:0:0:
150,66,303403,1,12,0:0:0:0:
136,284,303546,1,0,0:0:0:0:
136,284,303689,1,0,0:0:0:0:
136,284,303832,1,0,0:0:0:0:
121,63,303974,1,12,0:0:0:0:
139,286,304117,1,0,0:0:0:0:
139,286,304260,1,8,0:0:0:0:
139,286,304332,1,0,0:0:0:0:
139,286,304403,1,8,0:0:0:0:
139,286,304546,1,0,0:0:0:0:
139,286,304689,1,8,0:0:0:0:
139,286,304832,1,0,0:0:0:0:
139,286,304903,1,0,0:0:0:0:
139,286,304974,1,8,0:0:0:0:
139,286,305117,1,0,0:0:0:0:
139,286,305260,1,8,0:0:0:0:
139,286,305403,1,0,0:0:0:0:
144,286,305546,1,0,0:0:0:0:
144,286,305689,1,8,0:0:0:0:
139,286,305760,1,8,0:0:0:0:
139,286,305832,1,0,0:0:0:0:
139,286,305974,1,8,0:0:0:0:
139,286,306117,1,0,0:0:0:0:
96,50,306260,1,12,0:0:0:0:
134,324,306403,1,0,0:0:0:0:
140,295,306546,1,8,0:0:0:0:
140,295,306617,1,0,0:0:0:0:
140,295,306689,1,8,0:0:0:0:
134,308,306832,1,0,0:0:0:0:
119,334,306974,1,8,0:0:0:0:
114,301,307117,1,0,0:0:0:0:
114,301,307189,1,8,0:0:0:0:
114,301,307260,1,0,0:0:0:0:
119,315,307403,1,8,0:0:0:0:
120,320,307546,1,0,0:0:0:0:
120,318,307689,1,0,0:0:0:0:
120,318,307832,1,0,0:0:0:0:
120,318,307974,1,8,0:0:0:0:
119,315,308046,1,8,0:0:0:0:
107,316,308117,1,8,0:0:0:0:
120,320,308189,1,0,0:0:0:0:
120,320,308260,1,0,0:0:0:0:
120,318,308403,1,0,0:0:0:0:
129,64,308546,1,12,0:0:0:0:
125,315,308689,1,0,0:0:0:0:
126,304,308832,1,8,0:0:0:0:
126,304,308903,1,8,0:0:0:0:
126,304,308974,1,0,0:0:0:0:
126,304,309117,1,8,0:0:0:0:
126,304,309260,1,0,0:0:0:0:
126,304,309403,1,8,0:0:0:0:
126,304,309474,1,0,0:0:0:0:
126,304,309546,1,8,0:0:0:0:
126,304,309689,1,0,0:0:0:0:
126,304,309832,1,8,0:0:0:0:
126,304,309974,1,0,0:0:0:0:
126,304,310117,1,0,0:0:0:0:
126,304,310260,1,8,0:0:0:0:
126,304,310332,1,8,0:0:0:0:
126,304,310403,1,0,0:0:0:0:
126,304,310546,1,8,0:0:0:0:
126,304,310689,1,0,0:0:0:0:
126,304,310832,5,8,0:0:0:0:
126,304,310903,1,8,0:0:0:0:
126,304,310974,1,8,0:0:0:0:
126,304,311046,1,8,0:0:0:0:
126,304,311117,1,0,0:0:0:0:
126,304,311189,1,0,0:0:0:0:
126,304,311260,1,8,0:0:0:0:
126,304,311332,1,0,0:0:0:0:
126,304,311403,1,8,0:0:0:0:
126,304,311474,1,8,0:0:0:0:
126,304,311546,1,0,0:0:0:0:
126,304,311617,1,0,0:0:0:0:
126,304,311689,1,8,0:0:0:0:
126,304,311760,1,8,0:0:0:0:
126,304,311832,1,8,0:0:0:0:
126,304,311903,1,8,0:0:0:0:
122,272,311974,5,0,0:0:0:0:
103,305,313117,1,0,0:0:0:0:
132,302,313546,1,0,0:0:0:0:
132,302,313974,1,0,0:0:0:0:
132,302,314260,1,8,0:0:0:0:
127,297,314689,1,8,0:0:0:0:
127,297,315117,1,8,0:0:0:0:
110,313,315403,1,0,0:0:0:0:
121,303,315832,1,0,0:0:0:0:
126,300,316260,1,0,0:0:0:0:
129,294,316546,1,8,0:0:0:0:
129,294,317117,1,8,0:0:0:0:
126,277,317403,1,8,0:0:0:0:
126,277,317689,1,0,0:0:0:0:
119,296,318117,1,0,0:0:0:0:
123,292,318546,1,0,0:0:0:0:
132,279,318832,1,8,0:0:0:0:
131,278,319260,1,8,0:0:0:0:
131,278,319689,1,8,0:0:0:0:
131,278,319974,1,0,0:0:0:0:
131,278,320403,1,0,0:0:0:0:
131,278,320832,1,0,0:0:0:0:
131,278,321117,1,8,0:0:0:0:
133,289,322260,1,0,0:0:0:0:
138,281,322689,1,8,0:0:0:0:
142,272,323117,1,8,0:0:0:0:
142,272,323403,1,0,0:0:0:0:
142,272,323832,1,0,0:0:0:0:
142,272,324260,1,8,0:0:0:0:
142,272,324546,1,0,0:0:0:0:
142,272,324974,1,0,0:0:0:0:
142,272,325403,1,0,0:0:0:0:
142,272,325689,1,0,0:0:0:0:
142,272,326260,1,8,0:0:0:0:
142,272,326546,1,8,0:0:0:0:
144,267,326832,1,0,0:0:0:0:
144,267,327260,1,8,0:0:0:0:
144,267,327689,1,8,0:0:0:0:
133,74,327974,1,4,0:0:0:0:
126,50,329117,1,12,0:0:0:0:
143,328,329403,1,0,0:0:0:0:
143,328,329474,1,0,0:0:0:0:
143,328,329546,1,8,0:0:0:0:
143,328,329617,1,8,0:0:0:0:
143,328,329689,1,8,0:0:0:0:
143,328,329760,1,8,0:0:0:0:
143,328,329832,1,0,0:0:0:0:
143,328,329903,1,0,0:0:0:0:
143,328,329974,1,8,0:0:0:0:
143,328,330046,1,8,0:0:0:0:
143,328,330117,1,8,0:0:0:0:
143,328,330189,1,0,0:0:0:0:
143,328,330260,1,8,0:0:0:0:
143,328,330332,1,8,0:0:0:0:
143,328,330403,1,8,0:0:0:0:
143,328,330474,1,8,0:0:0:0:
143,328,330546,1,0,0:0:0:0:
146,325,330617,1,0,0:0:0:0:
146,325,330689,1,8,0:0:0:0:
146,325,330760,1,8,0:0:0:0:
146,325,330832,1,8,0:0:0:0:
146,325,330903,1,8,0:0:0:0:
147,325,330974,1,0,0:0:0:0:
148,325,331046,1,0,0:0:0:0:
148,325,331117,1,8,0:0:0:0:
147,295,331189,1,8,0:0:0:0:
148,325,331260,1,8,0:0:0:0:
148,325,331332,1,0,0:0:0:0:
146,325,331403,1,8,0:0:0:0:
146,325,331474,1,8,0:0:0:0:
146,325,331546,1,8,0:0:0:0:
148,329,331617,1,8,0:0:0:0:
148,329,331689,1,0,0:0:0:0:
147,325,331760,1,0,0:0:0:0:
148,325,331832,1,8,0:0:0:0:
147,331,331903,1,8,0:0:0:0:
147,331,331974,1,8,0:0:0:0:
147,331,332046,1,8,0:0:0:0:
160,329,332117,1,0,0:0:0:0:
160,329,332189,1,0,0:0:0:0:
159,329,332260,1,8,0:0:0:0:
157,330,332332,1,8,0:0:0:0:
157,330,332403,1,8,0:0:0:0:
157,330,332474,1,0,0:0:0:0:
157,329,332546,1,8,0:0:0:0:
158,329,332617,1,8,0:0:0:0:
158,329,332689,1,8,0:0:0:0:
158,329,332760,1,8,0:0:0:0:
160,329,332832,1,8,0:0:0:0:
160,329,332903,1,8,0:0:0:0:
152,334,332974,1,0,0:0:0:0:
152,333,333046,1,0,0:0:0:0:
152,333,333117,1,8,0:0:0:0:
152,332,333189,1,8,0:0:0:0:
99,332,333260,1,0,0:0:0:0:
99,332,333332,1,0,0:0:0:0:
82,321,333403,1,8,0:0:0:0:
105,294,333474,1,8,0:0:0:0:
138,288,333546,1,8,0:0:0:0:
151,314,333617,1,8,0:0:0:0:
149,314,333689,1,0,0:0:0:0:
116,313,333832,1,8,0:0:0:0:
128,304,333974,1,0,0:0:0:0:
128,304,334046,1,0,0:0:0:0:
128,304,334117,1,8,0:0:0:0:
128,304,334260,1,0,0:0:0:0:
128,304,334403,1,8,0:0:0:0:
128,304,334474,1,8,0:0:0:0:
128,304,334546,1,0,0:0:0:0:
128,304,334617,1,0,0:0:0:0:
128,304,334689,1,8,0:0:0:0:
128,304,334832,1,0,0:0:0:0:
128,304,334974,1,8,0:0:0:0:
128,304,335117,1,0,0:0:0:0:
128,304,335189,1,0,0:0:0:0:
128,304,335260,1,8,0:0:0:0:
128,304,335403,1,8,0:0:0:0:
128,304,335546,1,0,0:0:0:0:
128,304,335617,1,0,0:0:0:0:
128,304,335689,1,8,0:0:0:0:
128,304,335760,1,8,0:0:0:0:
128,304,335832,1,0,0:0:0:0:
116,46,335974,1,12,0:0:0:0:
131,297,336117,1,0,0:0:0:0:
131,297,336260,1,8,0:0:0:0:
132,297,336403,1,0,0:0:0:0:
132,297,336474,1,0,0:0:0:0:
132,297,336546,1,8,0:0:0:0:
132,297,336689,1,0,0:0:0:0:
132,297,336760,1,0,0:0:0:0:
131,297,336832,1,8,0:0:0:0:
131,297,336903,1,8,0:0:0:0:
131,297,336974,1,0,0:0:0:0:
132,276,337046,1,0,0:0:0:0:
131,297,337117,1,8,0:0:0:0:
145,289,337189,1,8,0:0:0:0:
145,289,337260,1,8,0:0:0:0:
145,289,337332,1,8,0:0:0:0:
145,289,337403,1,0,0:0:0:0:
145,289,337474,1,0,0:0:0:0:
145,289,337546,1,8,0:0:0:0:
145,289,337617,1,0,0:0:0:0:
145,289,337689,1,8,0:0:0:0:
145,289,337760,1,8,0:0:0:0:
143,294,337832,1,0,0:0:0:0:
143,294,337903,1,0,0:0:0:0:
143,294,337974,1,8,0:0:0:0:
143,294,338046,1,8,0:0:0:0:
142,296,338117,1,0,0:0:0:0:
125,0,338260,1,12,0:0:0:0:
129,287,338403,1,0,0:0:0:0:
129,287,338546,1,0,0:0:0:0:
129,287,338617,1,0,0:0:0:0:
129,287,338689,1,8,0:0:0:0:
129,287,338832,1,8,0:0:0:0:
129,287,338974,1,0,0:0:0:0:
129,287,339046,1,0,0:0:0:0:
129,287,339117,1,8,0:0:0:0:
129,287,339189,1,8,0:0:0:0:
129,287,339260,1,8,0:0:0:0:
129,287,339403,1,0,0:0:0:0:
129,287,339546,1,8,0:0:0:0:
129,287,339689,1,0,0:0:0:0:
129,287,339760,1,0,0:0:0:0:
129,287,339832,1,8,0:0:0:0:
129,287,339974,1,0,0:0:0:0:
129,287,340117,1,0,0:0:0:0:
129,287,340189,1,8,0:0:0:0:
129,287,340260,1,8,0:0:0:0:
129,287,340332,1,8,0:0:0:0:
129,287,340403,1,0,0:0:0:0:
129,287,340546,1,8,0:0:0:0:
129,287,340689,1,0,0:0:0:0:
129,287,340832,1,0,0:0:0:0:
129,287,340974,1,8,0:0:0:0:
129,287,341046,1,8,0:0:0:0:
129,287,341117,1,0,0:0:0:0:
129,287,341260,1,8,0:0:0:0:
129,287,341332,1,0,0:0:0:0:
129,287,341403,1,8,0:0:0:0:
129,287,341474,1,8,0:0:0:0:
129,287,341546,1,0,0:0:0:0:
97,58,341689,1,12,0:0:0:0:
129,287,341832,1,0,0:0:0:0:
129,287,341974,1,0,0:0:0:0:
129,287,342046,1,0,0:0:0:0:
129,287,342117,1,8,0:0:0:0:
129,287,342260,1,0,0:0:0:0:
129,287,342403,1,8,0:0:0:0:
129,287,342546,1,0,0:0:0:0:
129,287,342617,1,0,0:0:0:0:
129,287,342689,1,0,0:0:0:0:
129,287,342832,1,8,0:0:0:0:
129,287,342903,1,8,0:0:0:0:
129,287,342974,1,8,0:0:0:0:
129,287,343046,1,8,0:0:0:0:
129,287,343117,1,0,0:0:0:0:
129,287,343189,1,0,0:0:0:0:
129,287,343260,1,0,0:0:0:0:
119,283,343332,1,0,0:0:0:0:
119,283,343403,1,8,0:0:0:0:
120,264,343546,1,0,0:0:0:0:
119,283,343689,1,8,0:0:0:0:
120,280,343760,1,8,0:0:0:0:
120,280,343832,1,0,0:0:0:0:
120,280,343974,1,8,0:0:0:0:
110,267,344046,1,8,0:0:0:0:
133,273,344117,1,8,0:0:0:0:
83,257,344189,1,8,0:0:0:0:
83,257,344260,1,0,0:0:0:0:
83,257,344332,1,0,0:0:0:0:
71,280,344403,1,8,0:0:0:0:
83,257,344474,1,8,0:0:0:0:
83,257,344546,1,0,0:0:0:0:
98,287,344689,1,0,0:0:0:0:
97,287,344760,1,0,0:0:0:0:
97,287,344832,1,8,0:0:0:0:
98,287,344903,1,8,0:0:0:0:
98,287,344974,1,8,0:0:0:0:
93,43,345117,1,4,0:0:0:0:
118,259,345403,1,8,0:0:0:0:
118,259,345689,1,0,0:0:0:0:
111,268,345832,1,0,0:0:0:0:
118,259,345974,1,8,0:0:0:0:
111,288,346260,1,0,0:0:0:0:
107,273,346546,1,8,0:0:0:0:
107,273,346689,1,0,0:0:0:0:
107,273,346974,1,0,0:0:0:0:
107,273,347117,1,8,0:0:0:0:
108,267,347403,1,8,0:0:0:0:
108,265,347689,1,0,0:0:0:0:
108,265,347832,1,8,0:0:0:0:
130,238,347974,1,8,0:0:0:0:
108,267,348117,1,8,0:0:0:0:
108,265,348260,1,0,0:0:0:0:
108,265,348546,1,8,0:0:0:0:
121,289,348689,1,8,0:0:0:0:
123,280,348832,1,0,0:0:0:0:
123,279,348974,1,8,0:0:0:0:
151,272,349117,1,8,0:0:0:0:
136,324,349260,1,0,0:0:0:0:
136,324,349308,1,0,0:0:0:0:
136,324,349355,1,0,0:0:0:0:
136,324,349403,1,8,0:0:0:0:
160,311,349689,1,0,0:0:0:0:
159,315,349974,1,8,0:0:0:0:
159,315,350117,1,8,0:0:0:0:
160,311,350260,1,0,0:0:0:0:
159,315,350403,1,0,0:0:0:0:
159,315,350546,1,8,0:0:0:0:
148,313,350832,1,8,0:0:0:0:
148,313,350974,1,0,0:0:0:0:
148,313,351117,1,0,0:0:0:0:
149,310,351260,1,8,0:0:0:0:
148,313,351403,1,0,0:0:0:0:
159,308,351546,1,0,0:0:0:0:
159,308,351689,1,8,0:0:0:0:
119,306,351974,1,8,0:0:0:0:
122,296,352260,1,0,0:0:0:0:
122,296,352403,1,8,0:0:0:0:
123,281,352546,1,8,0:0:0:0:
122,296,352689,1,0,0:0:0:0:
122,296,352832,1,8,0:0:0:0:
103,40,353117,1,12,0:0:0:0:
134,295,353403,1,0,0:0:0:0:
134,295,353546,1,0,0:0:0:0:
134,295,353689,1,8,0:0:0:0:
134,295,353832,1,0,0:0:0:0:
134,295,353974,1,0,0:0:0:0:
143,260,354260,1,8,0:0:0:0:
143,260,354332,1,8,0:0:0:0:
143,260,354403,1,8,0:0:0:0:
143,260,354474,1,0,0:0:0:0:
143,260,354546,1,8,0:0:0:0:
143,260,354617,1,0,0:0:0:0:
143,260,354689,1,8,0:0:0:0:
143,260,354760,1,8,0:0:0:0:
143,260,354832,1,8,0:0:0:0:
143,260,354903,1,8,0:0:0:0:
143,260,354974,1,0,0:0:0:0:
143,260,355046,1,0,0:0:0:0:
143,260,355117,1,8,0:0:0:0:
143,260,355189,1,8,0:0:0:0:
143,260,355260,1,0,0:0:0:0:
143,260,355332,1,0,0:0:0:0:
143,260,355403,1,8,0:0:0:0:
143,260,355474,1,8,0:0:0:0:
143,260,355546,1,8,0:0:0:0:
143,260,355617,1,8,0:0:0:0:
143,260,355689,1,8,0:0:0:0:
143,260,355760,1,8,0:0:0:0:
143,260,355832,1,0,0:0:0:0:
143,260,355903,1,0,0:0:0:0:
143,260,355974,1,8,0:0:0:0:
143,260,356046,1,8,0:0:0:0:
143,260,356117,1,8,0:0:0:0:
143,260,356189,1,0,0:0:0:0:
143,260,356260,1,8,0:0:0:0:
143,260,356332,1,8,0:0:0:0:
143,260,356403,1,8,0:0:0:0:
143,260,356474,1,0,0:0:0:0:
143,260,356546,1,8,0:0:0:0:
143,260,356617,1,8,0:0:0:0:
143,260,356689,1,8,0:0:0:0:
143,260,356760,1,8,0:0:0:0:
143,260,356832,1,0,0:0:0:0:
143,260,356903,1,0,0:0:0:0:
143,260,356974,1,8,0:0:0:0:
143,260,357046,1,0,0:0:0:0:
143,260,357117,1,8,0:0:0:0:
143,260,357189,1,8,0:0:0:0:
143,260,357260,1,0,0:0:0:0:
143,260,357332,1,0,0:0:0:0:
143,260,357403,1,8,0:0:0:0:
143,260,357474,1,8,0:0:0:0:
143,260,357546,1,8,0:0:0:0:
143,260,357617,1,0,0:0:0:0:
143,260,357689,1,8,0:0:0:0:
143,260,357760,1,8,0:0:0:0:
143,260,357832,1,8,0:0:0:0:
143,260,357903,1,8,0:0:0:0:
143,260,357974,1,8,0:0:0:0:
143,260,358046,1,8,0:0:0:0:
143,260,358117,1,0,0:0:0:0:
143,260,358189,1,0,0:0:0:0:
81,307,358260,1,8,0:0:0:0:
143,260,358332,1,8,0:0:0:0:
143,260,358403,1,8,0:0:0:0:
99,321,358474,1,0,0:0:0:0:
116,314,358546,1,8,0:0:0:0:
143,260,358617,1,8,0:0:0:0:
143,260,358689,1,0,0:0:0:0:
143,260,358760,1,0,0:0:0:0:
143,260,358832,1,8,0:0:0:0:
131,287,358974,1,8,0:0:0:0:
138,286,359117,1,0,0:0:0:0:
138,286,359189,1,0,0:0:0:0:
138,286,359260,1,8,0:0:0:0:
139,284,359403,1,0,0:0:0:0:
139,284,359546,1,8,0:0:0:0:
139,284,359617,1,0,0:0:0:0:
139,284,359689,1,8,0:0:0:0:
139,284,359760,1,8,0:0:0:0:
138,286,359832,1,0,0:0:0:0:
131,41,359974,1,12,0:0:0:0:
139,284,360117,1,0,0:0:0:0:
139,284,360260,1,8,0:0:0:0:
139,284,360332,1,0,0:0:0:0:
139,284,360403,1,8,0:0:0:0:
139,284,360546,1,0,0:0:0:0:
139,284,360689,1,8,0:0:0:0:
139,284,360832,1,0,0:0:0:0:
139,284,360903,1,0,0:0:0:0:
139,284,360974,1,0,0:0:0:0:
139,72,361117,1,12,0:0:0:0:
146,284,361260,1,0,0:0:0:0:
150,304,361403,1,8,0:0:0:0:
150,304,361474,1,8,0:0:0:0:
150,304,361546,1,0,0:0:0:0:
152,300,361689,1,8,0:0:0:0:
152,300,361832,1,0,0:0:0:0:
152,300,361903,1,0,0:0:0:0:
152,300,361974,1,0,0:0:0:0:
152,300,362046,1,8,0:0:0:0:
152,300,362117,1,0,0:0:0:0:
152,300,362260,1,0,0:0:0:0:
152,300,362403,1,8,0:0:0:0:
152,300,362546,1,0,0:0:0:0:
152,300,362617,1,0,0:0:0:0:
152,300,362689,1,8,0:0:0:0:
152,300,362832,1,0,0:0:0:0:
152,300,362974,1,8,0:0:0:0:
152,300,363046,1,8,0:0:0:0:
152,300,363117,1,0,0:0:0:0:
152,300,363189,1,0,0:0:0:0:
152,300,363260,1,8,0:0:0:0:
138,15,363403,1,12,0:0:0:0:
137,298,363546,1,0,0:0:0:0:
137,298,363689,1,8,0:0:0:0:
137,298,363760,1,0,0:0:0:0:
137,298,363832,1,8,0:0:0:0:
137,298,363974,1,0,0:0:0:0:
137,298,364117,1,0,0:0:0:0:
137,298,364189,1,8,0:0:0:0:
137,298,364260,1,0,0:0:0:0:
137,298,364332,1,0,0:0:0:0:
137,298,364403,1,8,0:0:0:0:
133,54,364546,1,12,0:0:0:0:
133,306,364689,1,0,0:0:0:0:
133,306,364832,1,0,0:0:0:0:
133,306,364903,1,0,0:0:0:0:
133,306,364974,1,8,0:0:0:0:
133,306,365117,1,0,0:0:0:0:
133,306,365260,1,8,0:0:0:0:
133,306,365403,1,0,0:0:0:0:
133,306,365474,1,0,0:0:0:0:
133,306,365546,1,0,0:0:0:0:
91,72,365689,1,12,0:0:0:0:
126,308,365832,1,0,0:0:0:0:
126,308,365974,1,8,0:0:0:0:
126,308,366046,1,8,0:0:0:0:
126,308,366117,1,0,0:0:0:0:
126,308,366260,1,0,0:0:0:0:
126,308,366403,1,8,0:0:0:0:
126,308,366474,1,8,0:0:0:0:
126,308,366546,1,8,0:0:0:0:
126,308,366617,1,0,0:0:0:0:
126,308,366689,1,8,0:0:0:0:
118,79,366832,1,12,0:0:0:0:
126,308,366974,1,0,0:0:0:0:
126,308,367117,1,0,0:0:0:0:
126,308,367189,1,0,0:0:0:0:
126,308,367260,1,8,0:0:0:0:
114,297,367403,1,0,0:0:0:0:
114,295,367546,1,8,0:0:0:0:
114,295,367689,1,0,0:0:0:0:
114,295,367760,1,0,0:0:0:0:
114,295,367832,1,0,0:0:0:0:
115,281,367974,1,8,0:0:0:0:
115,281,368046,1,8,0:0:0:0:
115,281,368117,1,8,0:0:0:0:
115,281,368189,1,8,0:0:0:0:
115,281,368260,1,0,0:0:0:0:
111,263,368332,1,0,0:0:0:0:
115,281,368403,1,8,0:0:0:0:
110,263,368474,1,8,0:0:0:0:
110,263,368546,1,8,0:0:0:0:
117,285,368617,1,8,0:0:0:0:
117,285,368689,1,0,0:0:0:0:
128,300,368760,1,0,0:0:0:0:
129,298,368832,1,8,0:0:0:0:
128,297,368903,1,8,0:0:0:0:
134,281,368974,1,0,0:0:0:0:
137,279,369046,1,0,0:0:0:0:
151,272,369117,1,8,0:0:0:0:
110,263,369189,1,8,0:0:0:0:
117,268,369260,1,8,0:0:0:0:
110,263,369332,1,0,0:0:0:0:
132,273,369403,1,8,0:0:0:0:
139,268,369474,1,8,0:0:0:0:
143,269,369546,1,8,0:0:0:0:
143,272,369617,1,0,0:0:0:0:
144,273,369689,1,8,0:0:0:0:
144,273,369760,1,8,0:0:0:0:
146,273,369832,1,0,0:0:0:0:
150,273,369903,1,0,0:0:0:0:
154,274,369974,1,8,0:0:0:0:
384,40,370260,1,4,0:0:0:0:
411,308,370403,1,8,0:0:0:0:
411,306,370546,1,0,0:0:0:0:
411,306,370617,1,0,0:0:0:0:
411,306,370689,1,8,0:0:0:0:
411,308,370832,1,0,0:0:0:0:
411,308,370974,1,8,0:0:0:0:
413,302,371117,1,0,0:0:0:0:
413,302,371189,1,0,0:0:0:0:
413,302,371260,1,8,0:0:0:0:
413,302,371332,1,0,0:0:0:0:
413,302,371403,1,8,0:0:0:0:
411,306,371546,1,0,0:0:0:0:
411,306,371689,1,0,0:0:0:0:
413,302,371832,1,8,0:0:0:0:
413,302,371903,1,0,0:0:0:0:
413,300,371974,1,0,0:0:0:0:
413,302,372117,1,8,0:0:0:0:
413,302,372260,1,0,0:0:0:0:
413,302,372332,1,0,0:0:0:0:
413,302,372403,1,8,0:0:0:0:
418,317,372546,1,8,0:0:0:0:
418,317,372689,1,0,0:0:0:0:
418,314,372832,1,0,0:0:0:0:
418,314,372903,1,8,0:0:0:0:
419,313,372974,1,0,0:0:0:0:
419,313,373117,1,8,0:0:0:0:
428,324,373189,1,0,0:0:0:0:
419,309,373260,1,8,0:0:0:0:
418,309,373332,1,8,0:0:0:0:
418,309,373403,1,0,0:0:0:0:
418,309,373546,1,8,0:0:0:0:
418,309,373689,1,0,0:0:0:0:
418,314,373832,1,8,0:0:0:0:
419,313,373974,1,0,0:0:0:0:
439,333,374117,1,0,0:0:0:0:
439,333,374189,1,0,0:0:0:0:
439,333,374260,1,8,0:0:0:0:
412,322,374332,1,8,0:0:0:0:
439,333,374403,1,0,0:0:0:0:
431,310,374546,1,8,0:0:0:0:
431,310,374689,1,8,0:0:0:0:
393,95,374832,1,4,0:0:0:0:
421,322,374974,1,8,0:0:0:0:
421,322,375117,1,0,0:0:0:0:
421,322,375189,1,0,0:0:0:0:
421,322,375260,1,8,0:0:0:0:
421,322,375403,1,8,0:0:0:0:
421,322,375546,1,0,0:0:0:0:
421,322,375689,1,8,0:0:0:0:
421,322,375760,1,0,0:0:0:0:
421,322,375832,1,0,0:0:0:0:
421,322,375974,1,8,0:0:0:0:
421,322,376046,1,8,0:0:0:0:
421,322,376117,1,0,0:0:0:0:
421,322,376260,1,8,0:0:0:0:
421,322,376403,1,0,0:0:0:0:
421,322,376474,1,0,0:0:0:0:
421,322,376546,1,8,0:0:0:0:
416,317,376617,1,8,0:0:0:0:
416,317,376689,1,8,0:0:0:0:
411,329,376760,1,0,0:0:0:0:
421,341,376832,1,8,0:0:0:0:
421,341,376974,1,8,0:0:0:0:
421,341,377046,1,8,0:0:0:0:
421,322,377117,1,0,0:0:0:0:
421,322,377260,1,8,0:0:0:0:
421,322,377403,1,0,0:0:0:0:
421,322,377474,1,0,0:0:0:0:
421,322,377546,1,8,0:0:0:0:
415,337,377689,1,0,0:0:0:0:
401,331,377832,1,8,0:0:0:0:
401,331,377974,1,0,0:0:0:0:
389,324,378046,1,0,0:0:0:0:
389,324,378117,1,0,0:0:0:0:
411,324,378260,1,8,0:0:0:0:
407,324,378403,1,0,0:0:0:0:
407,324,378474,1,0,0:0:0:0:
407,324,378546,1,8,0:0:0:0:
411,324,378617,1,0,0:0:0:0:
411,324,378689,1,0,0:0:0:0:
405,320,378832,1,8,0:0:0:0:
410,320,378974,1,8,0:0:0:0:
407,318,379046,1,0,0:0:0:0:
406,317,379117,1,8,0:0:0:0:
398,313,379260,1,8,0:0:0:0:
384,111,379403,1,4,0:0:0:0:
390,310,379546,1,8,0:0:0:0:
390,310,379689,1,0,0:0:0:0:
390,310,379760,1,0,0:0:0:0:
390,310,379832,1,8,0:0:0:0:
390,310,379903,1,0,0:0:0:0:
390,310,379974,1,8,0:0:0:0:
390,311,380117,1,0,0:0:0:0:
390,311,380260,1,8,0:0:0:0:
391,310,380332,1,8,0:0:0:0:
391,310,380403,1,0,0:0:0:0:
390,310,380546,1,8,0:0:0:0:
390,310,380689,1,0,0:0:0:0:
390,310,380832,1,0,0:0:0:0:
390,310,380903,1,0,0:0:0:0:
390,311,380974,1,8,0:0:0:0:
390,311,381046,1,8,0:0:0:0:
390,311,381117,1,0,0:0:0:0:
422,337,381260,1,8,0:0:0:0:
422,337,381332,1,8,0:0:0:0:
422,337,381403,1,0,0:0:0:0:
422,337,381474,1,8,0:0:0:0:
417,330,381546,1,0,0:0:0:0:
397,90,381689,1,4,0:0:0:0:
381,312,381832,1,8,0:0:0:0:
381,312,381974,1,0,0:0:0:0:
381,312,382046,1,8,0:0:0:0:
381,312,382117,1,0,0:0:0:0:
381,312,382189,1,8,0:0:0:0:
381,312,382260,1,8,0:0:0:0:
383,328,382403,1,0,0:0:0:0:
383,328,382546,1,8,0:0:0:0:
383,328,382617,1,0,0:0:0:0:
383,328,382689,1,0,0:0:0:0:
398,333,382760,1,0,0:0:0:0:
383,328,382832,1,8,0:0:0:0:
383,328,382974,1,0,0:0:0:0:
383,328,383117,1,0,0:0:0:0:
383,328,383189,1,8,0:0:0:0:
383,328,383260,1,0,0:0:0:0:
406,330,383332,1,0,0:0:0:0:
383,328,383403,1,8,0:0:0:0:
396,340,383474,1,0,0:0:0:0:
383,328,383546,1,8,0:0:0:0:
391,332,383617,1,8,0:0:0:0:
391,332,383689,1,0,0:0:0:0:
391,332,383832,1,8,0:0:0:0:
376,100,383974,1,4,0:0:0:0:
377,329,384117,1,0,0:0:0:0:
377,329,384260,1,8,0:0:0:0:
377,329,384332,1,0,0:0:0:0:
377,329,384403,1,0,0:0:0:0:
377,329,384474,1,8,0:0:0:0:
377,329,384546,1,0,0:0:0:0:
377,329,384689,1,0,0:0:0:0:
377,329,384832,1,8,0:0:0:0:
377,329,384974,1,8,0:0:0:0:
377,329,385117,1,0,0:0:0:0:
377,329,385189,1,8,0:0:0:0:
377,329,385260,1,0,0:0:0:0:
377,329,385332,1,0,0:0:0:0:
377,329,385403,1,8,0:0:0:0:
408,336,385474,1,8,0:0:0:0:
417,321,385546,1,0,0:0:0:0:
417,321,385689,1,8,0:0:0:0:
417,321,385832,1,8,0:0:0:0:
417,321,385903,1,8,0:0:0:0:
417,321,385974,1,0,0:0:0:0:
410,291,386046,1,0,0:0:0:0:
417,321,386117,1,8,0:0:0:0:
395,110,386260,1,4,0:0:0:0:
389,304,386403,1,8,0:0:0:0:
416,314,386546,1,0,0:0:0:0:
416,314,386617,1,0,0:0:0:0:
416,314,386689,1,8,0:0:0:0:
416,314,386760,1,0,0:0:0:0:
416,314,386832,1,8,0:0:0:0:
371,314,386903,1,8,0:0:0:0:
371,312,386974,1,0,0:0:0:0:
378,320,387046,1,8,0:0:0:0:
396,319,387117,1,0,0:0:0:0:
395,307,387260,5,8,0:0:0:0:
395,307,387332,1,8,0:0:0:0:
392,337,387403,1,0,0:0:0:0:
374,320,387546,1,8,0:0:0:0:
375,321,387617,1,0,0:0:0:0:
374,320,387689,1,0,0:0:0:0:
374,321,387760,1,8,0:0:0:0:
375,321,387832,1,8,0:0:0:0:
376,337,387974,1,0,0:0:0:0:
376,337,388117,1,8,0:0:0:0:
376,337,388260,1,0,0:0:0:0:
148,319,388403,5,8,0:0:0:0:
148,319,388474,1,8,0:0:0:0:
148,319,388546,1,0,0:0:0:0:
148,319,388617,1,0,0:0:0:0:
148,319,388689,1,0,0:0:0:0:
148,319,388760,1,0,0:0:0:0:
148,319,388832,1,8,0:0:0:0:
148,319,388903,1,8,0:0:0:0:
148,319,388974,1,0,0:0:0:0:
148,319,389046,1,0,0:0:0:0:
148,319,389117,1,8,0:0:0:0:
148,319,389189,1,8,0:0:0:0:
148,319,389260,1,8,0:0:0:0:
148,319,389332,1,8,0:0:0:0:
148,319,389403,1,0,0:0:0:0:
148,319,389474,1,0,0:0:0:0:
148,319,389546,1,8,0:0:0:0:
148,319,389617,1,8,0:0:0:0:
148,319,389689,1,0,0:0:0:0:
148,319,389760,1,0,0:0:0:0:
148,319,389832,1,0,0:0:0:0:
148,319,389903,1,0,0:0:0:0:
148,319,389974,1,8,0:0:0:0:
148,319,390046,1,8,0:0:0:0:
148,319,390117,1,0,0:0:0:0:
148,319,390189,1,0,0:0:0:0:
148,319,390260,1,8,0:0:0:0:
148,319,390332,1,8,0:0:0:0:
148,319,390403,1,8,0:0:0:0:
148,319,390474,1,8,0:0:0:0:
148,319,390546,1,8,0:0:0:0:
148,319,390617,1,8,0:0:0:0:
148,319,390689,1,8,0:0:0:0:
130,61,390832,1,4,0:0:0:0:
