osu file format v14

[General]
AudioFilename: audio.mp3
AudioLeadIn: 0
PreviewTime: 117043
Countdown: 0
SampleSet: None
StackLeniency: 0.7
Mode: 2
LetterboxInBreaks: 0
WidescreenStoryboard: 1

[Editor]
Bookmarks: 216890,268325,295922,306531,309339,355038,391738,391888
DistanceSpacing: 1.5
BeatDivisor: 4
GridSize: 8
TimelineZoom: 2.5

[Metadata]
Title:Fusyoku ressentiment, fushiyoku no sarugakuza.
TitleUnicode:腐蝕ルサンチマン、不死欲の猿楽座。
Artist:Imperial Circus Dead Decadence
ArtistUnicode:Imperial Circus Dead Decadence
Creator:Hareimu
Version:ending stream before shit goes down
Source:osu!
Tags:icdd fushoku symphonic black death metal リブユウキ rib:y FA Featured Artist japanese rock
BeatmapID:2006365
BeatmapSetID:958258

[Difficulty]
HPDrainRate:6
CircleSize:4.3
OverallDifficulty:9.7
ApproachRate:9.7
SliderMultiplier:2
SliderTickRate:2

[Events]
//Background and Video events
0,0,"bg.jpg",0,0
//Break Periods
//Storyboard Layer 0 (Background)
//Storyboard Layer 1 (Fail)
//Storyboard Layer 2 (Pass)
//Storyboard Layer 3 (Foreground)
//Storyboard Sound Samples

[TimingPoints]
35,285.714285714286,3,2,1,60,1,0
1749,-100,3,2,1,60,0,0
1963,-100,3,2,1,5,0,0
2035,-100,3,2,1,60,0,0
3677,-100,3,2,1,5,0,0
3749,-100,3,2,1,60,0,0
7749,300,3,2,1,60,1,0
7749,-100,3,2,1,60,0,0
8041,292.682926829268,3,2,1,60,1,0
8041,-100,3,2,1,60,0,0
8354,288.461538461538,3,2,1,60,1,0
8354,-100,3,2,1,60,0,0
8652,288.461538461538,3,2,1,60,1,0
8652,-100,3,2,1,60,0,0
8940,272.727272727273,3,2,1,60,1,0
8940,-100,3,2,1,60,0,0
9212,277.777777777778,3,2,1,60,1,0
9212,-100,3,2,1,60,0,0
9778,283.018867924528,3,2,1,60,1,0
9778,-100,3,2,1,60,0,0
10273,-100,3,2,1,5,0,0
10344,283.018867924528,3,2,1,60,1,0
10344,-100,3,2,1,60,0,0
10556,-100,3,2,1,5,0,0
10627,272.727272727273,3,2,1,60,1,0
10627,-100,3,2,1,60,0,0
10899,283.018867924528,3,2,1,60,1,0
10899,-100,3,2,1,60,0,0
11182,283.018867924528,3,2,1,60,1,0
11182,-100,3,2,1,60,0,0
11748,287.081339712919,3,2,1,60,1,0
11748,-100,3,2,1,60,0,0
12895,279.06976744186,3,2,1,60,1,0
12895,-100,3,2,1,60,0,0
13313,292.682926829268,3,2,1,60,1,0
13313,-100,3,2,1,60,0,0
13598,315.789473684211,3,2,1,60,1,0
13598,-100,3,2,1,60,0,0
13751,300,3,2,1,60,1,0
13751,-100,3,2,1,60,0,0
14201,285.714285714286,3,2,1,60,1,0
14201,-100,3,2,1,60,0,0
14629,285.714285714286,3,2,1,60,1,0
14629,-100,3,2,1,60,0,0
15486,279.06976744186,3,2,1,60,1,0
15486,-100,3,2,1,60,0,0
16323,307.692307692308,3,2,1,60,1,0
16323,-100,3,2,1,60,0,0
16630,260.869565217391,3,2,1,60,1,0
16630,-100,3,2,1,60,0,0
16751,285.714285714286,3,2,1,60,1,0
16751,-100,3,2,1,60,0,0
17177,285.714285714286,3,2,1,60,1,0
17177,-100,3,2,1,60,0,0
20320,-100,3,2,1,60,0,0
20606,-100,3,2,1,60,0,0
22249,-100,3,2,1,5,0,0
22320,-100,3,2,1,60,0,0
23762,285.714285714286,3,2,1,60,1,0
23762,-100,3,2,1,60,0,0
23976,-100,3,2,1,5,0,0
24053,285.714285714286,3,2,1,60,1,0
24053,-100,3,2,1,60,0,0
24642,285.714285714286,3,2,1,60,1,0
24642,-100,3,2,1,60,0,0
24910,285.714285714286,3,2,1,60,1,0
24910,-100,3,2,1,60,0,0
26624,260.869565217391,3,2,1,60,1,0
26624,-100,3,2,1,60,0,0
27052,285.714285714286,3,2,1,60,1,0
27052,-100,3,2,1,60,0,0
27463,285.714285714286,3,2,1,60,1,0
27463,-100,3,2,1,60,0,0
28320,-100,3,2,1,60,0,0
28606,-100,3,2,1,5,0,0
31761,260.869565217391,4,2,1,60,1,0
31891,285.714285714286,4,2,1,60,1,0
32033,285.714285714286,4,2,1,60,1,0
32916,281.69014084507,4,2,1,60,1,0
34034,285.714285714286,4,2,1,60,1,0
36319,287.081339712919,4,2,1,60,1,0
36319,-100,4,2,1,60,0,0
38615,285.714285714286,4,2,1,60,1,0
40219,285.714285714286,4,2,1,60,1,0
40314,285.714285714286,4,2,1,60,1,0
40314,-100,4,2,1,60,0,0
40885,-100,4,2,1,60,0,0
41061,285.714285714286,4,2,1,60,1,0
41319,285.714285714286,4,2,1,60,1,0
42034,285.714285714286,4,2,1,60,1,0
42176,-100,4,2,1,60,0,0
43319,-100,4,2,1,60,0,0
44891,-100,4,2,1,60,0,0
45462,-100,4,2,1,60,0,0
46748,-100,4,2,1,60,0,0
47891,-100,4,2,1,60,0,0
51319,-100,4,2,1,60,0,0
52462,-100,4,2,1,60,0,0
54033,-100,4,2,1,60,0,0
54748,-100,4,2,1,60,0,0
55890,-100,4,2,1,60,0,0
57033,-100,4,2,1,60,0,0
59176,-100,4,2,1,60,0,1
59391,-100,4,2,1,5,0,1
59462,-100,4,2,1,60,0,1
61462,-100,4,2,1,60,0,1
61676,-100,4,2,1,60,0,1
63748,-100,4,2,1,60,0,1
63962,-100,4,2,1,5,0,1
64034,-100,4,2,1,60,0,1
65748,272.727272727273,4,2,1,60,1,1
65748,-100,4,2,1,60,0,1
66060,285.714285714286,4,2,1,60,1,1
66060,-100,4,2,1,60,0,1
66611,285.714285714286,4,2,1,60,1,1
66611,-100,4,2,1,60,0,1
67177,285.714285714286,4,2,1,60,1,1
67177,-100,4,2,1,60,0,1
67391,-100,4,2,1,5,0,1
67462,-100,4,2,1,60,0,1
67676,-100,4,2,1,5,0,1
67748,-100,4,2,1,60,0,1
68248,-100,4,2,1,5,0,1
68319,-100,4,2,1,60,0,0
68462,-100,4,2,1,60,0,0
69605,-100,4,2,1,60,0,0
70748,-100,4,2,1,60,0,0
72319,-100,4,2,1,60,0,0
73033,-100,4,2,1,60,0,0
74176,-100,4,2,1,60,0,0
75319,-100,4,2,1,60,0,0
77677,-100,4,2,1,5,0,0
77749,-100,4,2,1,60,0,0
80891,-100,4,2,1,60,0,0
81106,-100,4,2,1,5,0,0
81177,-100,4,2,1,60,0,0
81391,-100,4,2,1,5,0,0
81463,-100,4,2,1,60,0,0
82176,-100,4,2,1,60,0,0
83319,-100,4,2,1,60,0,0
84462,-100,4,2,1,60,0,0
86606,300,3,2,1,60,1,0
86606,-100,3,2,1,60,0,0
86906,-100,3,2,1,5,0,0
87206,285.714285714286,3,2,1,60,1,0
87206,-100,3,2,1,60,0,0
87777,214.285714285714,3,2,1,60,1,0
87777,-100,3,2,1,60,0,0
87884,285.714285714286,3,2,1,60,1,0
87884,-100,3,2,1,60,0,0
88034,285.714285714286,3,2,1,60,1,0
88034,-100,3,2,1,60,0,0
88320,285.714285714286,3,2,1,60,1,0
88320,-100,3,2,1,60,0,0
89105,-100,3,2,1,5,0,0
89177,-100,3,2,1,60,0,0
89391,-100,3,2,1,5,0,0
89462,-100,3,2,1,60,0,0
89962,-100,3,2,1,5,0,0
90034,-100,3,2,1,60,0,0
90904,285.714285714286,3,2,1,60,1,0
90904,-100,3,2,1,60,0,0
91748,285.714285714286,3,2,1,60,1,0
91748,-100,3,2,1,60,0,0
92534,-100,3,2,1,5,0,0
92605,-100,3,2,1,60,0,0
93748,-100,4,2,1,60,0,0
97177,-100,4,2,1,60,0,0
97677,-100,4,2,1,5,0,0
97748,-100,4,2,1,60,0,0
98177,-100,4,2,1,5,0,0
98248,-100,4,2,1,60,0,0
98533,-100,4,2,1,5,0,0
98628,285.714285714286,3,2,1,60,1,0
98628,-100,3,2,1,60,0,0
99391,-100,4,2,1,5,0,0
99505,285.714285714286,3,2,1,60,1,0
99505,-100,3,2,1,60,0,0
100334,285.714285714286,4,2,1,60,1,0
100334,-100,4,2,1,60,0,0
100619,-100,4,2,1,5,0,0
100691,-100,4,2,1,5,0,0
100783,285.714285714286,4,2,1,60,1,0
100783,-100,4,2,1,60,0,0
100997,-100,4,2,1,5,0,0
101061,285.714285714286,4,2,1,60,1,0
101061,-100,4,2,1,60,0,0
101132,-100,4,2,1,5,0,0
101346,-100,4,2,1,60,0,0
102040,285.714285714286,4,2,1,60,1,0
102040,-100,4,2,1,60,0,0
102540,-100,4,2,1,5,0,0
102605,285.714285714286,4,2,1,60,1,0
102605,-100,4,2,1,60,0,0
103748,-100,4,2,1,60,0,0
104891,-100,4,2,1,60,0,0
107677,-100,4,2,1,5,0,0
107748,-100,4,2,1,60,0,0
109462,-100,4,2,1,60,0,0
110623,285.714285714286,4,2,1,60,1,0
111765,-100,4,2,1,60,0,0
113189,285.714285714286,4,2,1,60,1,0
113189,-100,4,2,1,60,0,0
113462,285.714285714286,4,2,1,60,1,0
113462,-100,4,2,1,60,0,0
113604,-100,4,2,1,60,0,0
114043,285.714285714286,4,2,1,60,1,0
114043,-100,4,2,1,60,0,0
117400,-100,4,2,1,5,0,0
117447,285.714285714286,4,2,1,5,1,0
117471,-100,4,2,1,60,0,0
117744,285.714285714286,4,2,1,60,1,0
118024,285.714285714286,4,2,1,60,1,0
118623,285.714285714286,4,2,1,60,1,1
118623,-100,4,2,1,60,0,1
118837,-100,4,2,1,5,0,1
118910,285.035629453682,4,2,1,60,1,1
119765,285.035629453682,4,2,1,60,1,1
123185,285.714285714286,4,2,1,60,1,0
123185,-100,4,2,1,60,0,0
124906,285.714285714286,4,2,1,60,1,0
125461,285.714285714286,4,2,1,60,1,0
125461,-100,4,2,1,60,0,0
125900,285.714285714286,4,2,1,60,1,0
125900,-100,4,2,1,60,0,0
126042,285.714285714286,4,2,1,60,1,0
126042,-100,4,2,1,60,0,0
126613,285.714285714286,4,2,1,60,1,0
126613,-100,4,2,1,60,0,0
127756,288.461538461538,4,2,1,60,1,0
127756,-100,4,2,1,60,0,0
128909,285.714285714286,4,2,1,60,1,0
128909,-100,4,2,1,60,0,0
130031,285.714285714286,4,2,1,60,1,0
130031,-100,4,2,1,60,0,0
130888,300,4,2,1,60,1,0
130888,-100,4,2,1,60,0,0
131188,288.461538461538,4,2,1,60,1,0
131188,-100,4,2,1,60,0,0
132053,283.018867924528,4,2,1,60,1,0
132053,-100,4,2,1,60,0,0
132336,283.018867924528,4,2,1,60,1,0
132336,-100,4,2,1,60,0,0
133476,285.714285714286,4,2,1,60,1,0
133476,-100,4,2,1,60,0,0
134618,283.018867924528,4,2,1,60,1,0
134618,-100,4,2,1,60,0,0
135113,-100,4,2,1,5,0,0
135184,-100,4,2,1,60,0,0
135746,285.714285714286,4,2,1,60,1,0
136031,300,4,2,1,60,1,0
136331,279.06976744186,4,2,1,60,1,0
136913,285.714285714286,4,2,1,60,1,1
136913,-100,4,2,1,60,0,1
137104,-100,4,2,1,5,0,1
137187,284.36018957346,4,2,1,60,1,1
137187,-100,4,2,1,60,0,1
138032,284.36018957346,4,2,1,60,1,1
138032,-100,4,2,1,60,0,1
139169,300,4,2,1,60,1,1
139169,-100,4,2,1,60,0,1
139769,279.06976744186,4,2,1,60,1,1
139769,-100,4,2,1,60,0,1
140317,285.714285714286,4,2,1,60,1,1
140317,-100,4,2,1,60,0,1
141460,285.714285714286,4,2,1,60,1,0
141460,-100,4,2,1,60,0,0
145732,285.714285714286,4,2,1,60,1,0
146032,287.081339712919,4,2,1,60,1,0
146032,-100,4,2,1,60,0,0
150604,285.714285714286,4,2,1,60,1,0
150604,-100,4,2,1,60,0,0
152909,285.714285714286,4,2,1,60,1,1
152909,-76.9230769230769,4,2,1,60,0,1
153480,-100,4,2,1,60,0,1
157480,284.36018957346,4,2,1,60,1,1
157480,-100,4,2,1,60,0,1
157764,-100,4,2,1,60,0,1
160607,266.666666666667,4,2,1,60,1,1
160607,-100,4,2,1,60,0,1
160892,292.682926829268,4,2,1,60,1,1
160892,-83.3333333333333,4,2,1,60,0,1
161461,300,4,2,1,60,1,1
161461,-100,4,2,1,60,0,1
162041,285.714285714286,3,2,1,60,1,0
162041,-100,3,2,1,60,0,0
166350,281.69014084507,3,2,1,60,1,0
166350,-100,3,2,1,60,0,0
166898,285.714285714286,3,2,1,60,1,0
166898,-100,3,2,1,60,0,0
167469,279.06976744186,3,2,1,60,1,0
167469,-100,3,2,1,60,0,0
168041,285.714285714286,3,2,1,60,1,0
168041,-100,3,2,1,60,0,0
168898,287.081339712919,3,2,1,60,1,0
171481,284.36018957346,3,2,1,60,1,0
171765,-100,3,2,1,60,0,0
172334,-100,3,2,1,60,0,0
173187,-100,3,2,1,60,0,0
174040,-100,3,2,1,60,0,0
174461,285.714285714286,3,2,1,60,1,0
174461,-100,3,2,1,60,0,0
174603,285.714285714286,3,2,1,60,1,0
174603,-100,3,2,1,60,0,0
174745,-100,3,2,1,60,0,0
174888,285.714285714286,3,2,1,60,1,0
174888,-100,3,2,1,60,0,0
175589,285.714285714286,3,2,1,60,1,0
175589,-100,3,2,1,60,0,0
175731,285.714285714286,3,2,1,60,1,0
175731,-100,3,2,1,60,0,0
175945,-100,3,2,1,5,0,0
176016,-100,3,2,1,60,0,1
178873,291.26213592233,3,2,1,60,1,1
178873,-100,3,2,1,60,0,1
179164,291.26213592233,3,2,1,60,1,1
179164,-100,3,2,1,60,0,1
179236,-100,3,2,1,60,0,1
179455,281.69014084507,3,2,1,60,1,1
179455,-100,3,2,1,60,0,1
180018,281.69014084507,3,2,1,60,1,1
180018,-100,3,2,1,60,0,1
180300,285.714285714286,3,2,1,60,1,1
180300,-100,3,2,1,60,0,1
180871,285.714285714286,3,2,1,60,1,1
180871,-100,3,2,1,60,0,1
181442,-100,3,2,1,60,0,1
181607,285.714285714286,3,2,1,60,1,1
181607,-100,3,2,1,60,0,1
181759,285.714285714286,3,2,1,60,1,0
181759,-76.9230769230769,3,2,1,60,0,0
182330,-100,3,2,1,30,0,0
182616,-100,3,2,1,60,0,0
183473,-100,3,2,1,60,0,0
185187,-83.3333333333333,3,2,1,60,0,0
185901,-100,3,2,1,30,0,0
186044,-100,3,2,1,50,0,0
186330,-100,3,2,1,60,0,0
186830,-100,3,2,1,5,0,0
186901,-100,3,2,1,60,0,0
187177,285.714285714286,3,2,1,60,1,0
187177,-100,3,2,1,60,0,0
187759,285.714285714286,3,2,1,60,1,0
187759,-100,3,2,1,60,0,0
188616,-100,3,2,1,60,0,0
188892,285.714285714286,3,2,1,60,1,0
189187,285.714285714286,3,2,1,60,1,0
189462,285.714285714286,4,2,1,60,1,0
189462,-100,4,2,1,60,0,0
190604,-100,4,2,1,60,0,0
190747,-100,4,2,1,60,0,0
191462,-100,4,2,1,60,0,0
191676,-100,4,2,1,5,0,0
191747,-100,4,2,1,60,0,0
194033,-100,4,2,1,60,0,0
198604,291.26213592233,4,2,1,60,1,0
198604,-100,4,2,1,60,0,0
199186,288.461538461538,4,2,1,60,1,0
199761,285.714285714286,4,2,1,60,1,0
200618,300,4,2,1,60,1,0
200781,285.714285714286,4,2,1,60,1,0
200903,285.714285714286,4,2,1,60,1,0
200903,-100,4,2,1,60,0,0
201760,300,4,2,1,60,1,0
201760,-100,4,2,1,60,0,0
201915,285.714285714286,4,2,1,60,1,0
201915,-100,4,2,1,60,0,0
202033,285.714285714286,4,2,1,60,1,0
202033,-100,4,2,1,60,0,0
202604,-100,4,2,1,60,0,0
203176,-100,4,2,1,60,0,0
207747,-100,4,2,1,60,0,1
208033,-100,4,2,1,60,0,1
208482,285.714285714286,4,2,1,60,1,1
208482,-100,4,2,1,60,0,1
208604,285.714285714286,4,2,1,60,1,1
208604,-100,4,2,1,60,0,1
209192,285.714285714286,4,2,1,60,1,1
209192,-100,4,2,1,60,0,1
209461,285.714285714286,4,2,1,60,1,1
209461,-100,4,2,1,60,0,1
210335,285.714285714286,4,2,1,60,1,1
210335,-100,4,2,1,60,0,1
210607,285.714285714286,4,2,1,60,1,1
210607,-100,4,2,1,60,0,1
211178,285.714285714286,4,2,1,60,1,1
211178,-100,4,2,1,60,0,1
212320,-100,4,2,1,60,0,0
212474,281.69014084507,4,2,1,60,1,0
213462,285.714285714286,4,2,1,60,1,0
220890,-100,4,2,1,60,0,0
240308,294.117647058824,4,2,1,60,1,0
240308,-100,3,2,1,60,0,0
240909,285.714285714286,3,2,1,60,1,0
240909,-133.333333333333,3,2,1,60,0,0
244051,-100,3,2,1,60,0,0
244337,-133.333333333333,3,2,1,60,0,0
247480,-100,3,2,1,60,0,0
247746,285.714285714286,3,2,1,60,1,0
248024,285.714285714286,3,2,1,60,1,0
248595,285.714285714286,3,2,1,60,1,0
249036,285.714285714286,3,2,1,60,1,0
249178,285.714285714286,3,2,1,60,1,0
249302,285.714285714286,3,2,1,60,1,0
249465,285.714285714286,3,2,1,60,1,0
250317,266.666666666667,3,2,1,60,1,0
250588,285.714285714286,3,2,1,60,1,0
250588,-117.647058823529,3,2,1,60,0,0
251174,285.714285714286,3,2,1,60,1,0
252602,250,3,2,1,60,1,0
252914,285.714285714286,3,2,1,60,1,0
252914,-117.647058823529,3,2,1,60,0,0
253754,285.714285714286,3,2,1,60,1,0
254611,-100,3,2,1,60,0,1
255493,285.714285714286,3,2,1,60,1,1
257193,285.714285714286,3,2,1,60,1,1
257193,-133.333333333333,3,2,1,60,0,1
258924,285.714285714286,3,2,1,60,1,1
258924,-133.333333333333,3,2,1,60,0,1
259490,285.714285714286,3,2,1,60,1,1
259775,285.714285714286,3,2,1,60,1,1
259775,-133.333333333333,3,2,1,60,0,1
260621,283.018867924528,3,2,1,60,1,1
260621,-133.333333333333,3,2,1,60,0,1
261187,300,3,2,1,60,1,1
261492,285.714285714286,3,2,1,60,1,1
261492,-133.333333333333,3,2,1,60,0,1
262340,285.714285714286,3,2,1,60,1,1
264039,285.714285714286,3,2,1,60,1,1
264627,285.714285714286,3,2,1,60,1,1
264897,289.855072463768,3,2,1,60,1,1
266346,279.06976744186,3,2,1,60,1,1
266625,279.06976744186,3,2,1,60,1,1
267043,285.714285714286,3,2,1,60,1,1
267179,285.714285714286,3,2,1,60,1,1
267464,285.714285714286,3,2,1,60,1,1
268044,285.714285714286,3,2,1,60,1,1
268325,200,4,2,1,60,1,0
268325,-133.333333333333,4,2,1,60,0,0
269925,206.896551724138,4,2,1,60,1,1
270752,203.389830508475,4,2,1,60,1,1
270752,-133.333333333333,4,2,1,60,0,1
271158,196.72131147541,4,2,1,60,1,1
271158,-133.333333333333,4,2,1,60,0,1
271551,193.548387096774,4,2,1,60,1,1
272325,200,4,2,1,60,1,1
272325,-133.333333333333,4,2,1,60,0,1
273925,196.72131147541,4,2,1,60,1,1
273925,-133.333333333333,4,2,1,60,0,1
274711,206.896551724138,4,2,1,60,1,1
274711,-117.647058823529,4,2,1,60,0,1
275538,200,4,2,1,60,1,1
276338,196.72131147541,4,2,1,60,1,0
276338,-133.333333333333,4,2,1,60,0,0
276928,203.389830508475,4,2,1,60,1,0
276928,-133.333333333333,4,2,1,60,0,0
277131,196.72131147541,4,2,1,60,1,0
277131,-133.333333333333,4,2,1,60,0,0
277524,206.896551724138,4,2,1,60,1,0
277524,-133.333333333333,4,2,1,60,0,0
277937,196.72131147541,4,2,1,60,1,0
277937,-133.333333333333,4,2,1,60,0,0
278723,200,4,2,1,60,1,0
278723,-133.333333333333,4,2,1,60,0,0
282723,-133.333333333333,4,2,1,60,0,1
288823,218.181818181818,4,2,1,60,1,1
288823,-133.333333333333,4,2,1,60,0,1
289125,250,4,2,1,60,1,0
289333,-133.333333333333,4,2,1,60,0,0
290145,176.470588235294,4,2,1,60,1,1
290325,200,4,2,1,60,1,1
290325,-125,4,2,1,60,0,1
290925,200,4,2,1,60,1,1
290925,-125,4,2,1,60,0,1
294325,-100,4,2,1,60,0,1
294525,206.896551724138,4,2,1,60,1,1
294938,171.428571428571,4,2,1,60,1,1
294938,-117.647058823529,4,2,1,60,0,1
295109,203.389830508475,4,2,1,60,1,1
295109,-125,4,2,1,60,0,1
295719,203.389830508475,4,2,1,60,1,1
295719,-125,4,2,1,60,0,1
296329,200,4,2,1,60,1,1
296329,-125,4,2,1,60,0,1
296729,200,4,2,1,60,1,1
296729,-111.111111111111,4,2,1,60,0,1
297329,200,4,2,1,60,1,1
297329,-117.647058823529,4,2,1,60,0,1
298529,-125,4,2,1,60,0,1
299529,-100,4,2,1,60,0,1
299729,196.72131147541,4,2,1,60,1,1
299729,-133.333333333333,4,2,1,60,0,1
300319,200,4,2,1,60,1,1
300319,-133.333333333333,4,2,1,60,0,1
301919,190.47619047619,4,2,1,60,1,1
301919,-125,4,2,1,60,0,1
302109,203.389830508475,4,2,1,60,1,1
302109,-133.333333333333,4,2,1,60,0,1
302645,200,4,2,1,60,1,1
302645,-133.333333333333,4,2,1,60,0,1
302733,196.72131147541,4,2,1,60,1,1
302733,-133.333333333333,4,2,1,60,0,1
302929,196.72131147541,4,2,1,60,1,1
302929,-133.333333333333,4,2,1,60,0,1
304525,203.389830508475,4,2,1,60,1,1
304525,-125,4,2,1,60,0,1
305745,196.72131147541,4,2,1,60,1,1
305745,-125,4,2,1,60,0,1
306138,196.72131147541,4,2,1,60,1,1
306138,-125,4,2,1,60,0,1
306728,206.896551724138,4,2,1,60,1,1
306728,-125,4,2,1,60,0,1
306934,203.389830508475,4,2,1,60,1,1
306934,-133.333333333333,4,2,1,60,0,1
308143,196.72131147541,4,2,1,60,1,1
308143,-133.333333333333,4,2,1,60,0,1
308536,196.72131147541,4,2,1,60,1,1
308536,-133.333333333333,4,2,1,60,0,1
309339,285.714285714286,4,2,1,60,1,0
309339,-285.714285714286,4,2,1,60,0,0
309624,-285.714285714286,4,2,1,5,0,0
318468,285.714285714286,4,2,2,40,1,0
318468,-100,4,2,2,40,0,0
319325,-100,4,2,3,40,0,0
319610,-100,4,2,2,40,0,0
320467,-100,4,2,3,40,0,0
320753,-100,4,2,3,40,0,0
321039,-100,4,2,3,5,0,0
321325,-100,4,2,3,40,0,0
321896,-100,4,2,3,5,0,0
322182,-100,4,2,4,40,0,0
322467,-100,4,2,2,40,0,0
322753,-100,4,2,3,40,0,0
323039,-100,4,2,2,40,0,0
323325,-100,4,2,2,5,0,0
323610,-100,4,2,2,40,0,0
324467,-100,4,2,3,40,0,0
324753,-100,4,2,2,40,0,0
325039,-100,4,2,3,40,0,0
325328,-100,4,2,4,40,0,0
325896,-100,4,2,5,40,0,0
326182,-100,4,2,2,40,0,0
326467,-100,4,2,3,40,0,0
327325,-100,4,2,2,40,0,0
327467,-100,4,2,3,40,0,0
327896,-100,4,2,3,5,0,0
328467,-100,4,2,3,40,0,0
328468,-100,4,2,3,5,0,0
328753,-100,4,2,2,40,0,0
329039,-100,4,2,2,5,0,0
329182,-100,4,2,3,40,0,0
329325,-100,4,2,3,5,0,0
329610,-100,4,2,2,40,0,0
329896,-100,4,2,5,40,0,0
331325,-100,4,2,2,40,0,0
331610,-100,4,2,4,40,0,0
331896,-100,4,2,3,40,0,0
332182,-100,4,2,6,40,0,0
332467,-100,4,2,6,5,0,0
332753,-100,4,2,2,40,0,0
333325,-100,4,2,2,5,0,0
333610,-100,4,2,2,40,0,0
333896,-100,4,2,3,40,0,0
334182,-100,4,2,2,40,0,0
334467,-100,4,2,3,40,0,0
334610,-100,4,2,3,5,0,0
334753,-100,4,2,4,40,0,0
334896,-100,4,2,4,5,0,0
335039,-100,4,2,6,40,0,0
335182,-100,4,2,6,5,0,0
335325,-100,4,2,2,40,0,0
335468,-100,4,2,2,5,0,0
335610,-100,4,2,7,40,0,0
336753,-100,4,2,1,60,0,1
337039,-100,4,2,1,5,0,1
337325,-100,4,2,1,60,0,1
337610,-100,4,2,1,60,0,0
337896,-100,4,2,1,60,0,1
338182,-100,4,2,1,5,0,1
338468,-100,4,2,1,60,0,0
339039,-100,4,2,1,60,0,0
341039,-100,4,2,1,5,0,0
341182,-100,4,2,1,60,0,0
341325,280.373831775701,4,2,1,60,1,0
343610,260.869565217391,4,2,1,60,1,0
343870,315.789473684211,4,2,1,60,1,0
344027,285.714285714286,4,2,1,60,1,0
344185,285.714285714286,4,2,1,60,1,0
344756,285.714285714286,4,2,1,60,1,0
345886,288.461538461538,4,2,1,60,1,0
348193,285.714285714286,4,2,1,60,1,0
350478,279.06976744186,4,2,1,60,1,0
351597,285.714285714286,4,2,1,60,1,0
352746,285.714285714286,4,2,1,60,1,0
355038,285.714285714286,4,2,1,60,1,1
355038,-100,4,2,1,60,0,1
355252,-100,4,2,1,5,0,1
355324,-100,4,2,1,60,0,1
359609,-100,4,2,1,60,0,0
364181,-100,4,2,1,60,0,0
364467,-100,4,2,1,5,0,0
364752,-100,4,2,1,60,0,0
366752,-100,4,2,1,5,0,0
367038,-100,4,2,1,60,0,0
367824,-100,4,2,1,5,0,0
367895,-100,4,2,1,60,0,0
368181,-100,4,2,1,60,0,0
368752,-100,4,2,1,60,0,0
372752,-100,4,2,1,60,0,0
373324,-100,4,2,1,60,0,0
373610,-100,4,2,1,5,0,0
373895,-100,4,2,1,60,0,0
374467,-100,4,2,1,60,0,0
374752,-100,4,2,1,60,0,0
375895,-100,4,2,1,5,0,0
376181,-100,4,2,1,60,0,0
376467,-100,4,2,1,60,0,0
376752,-100,4,2,1,60,0,0
377610,-100,4,2,1,60,0,0
377886,284.36018957346,4,2,1,60,1,0
377886,-100,4,2,1,60,0,0
378099,-100,4,2,1,5,0,0
378170,-100,4,2,1,60,0,0
380089,288.461538461538,4,2,1,60,1,0
380161,288.461538461538,4,2,1,60,1,0
381242,285.714285714286,4,2,1,60,1,0
381313,285.714285714286,4,2,1,60,1,0
381314,-100,4,2,1,60,0,0
381895,285.714285714286,4,2,1,60,1,0
381895,-100,4,2,1,60,0,0
382180,-100,4,2,1,5,0,0
382323,-100,4,2,1,60,0,0
382467,285.714285714286,4,2,1,60,1,0
382467,-100,4,2,1,60,0,0
383609,-100,4,2,1,60,0,0
391038,-100,4,2,1,60,0,0
391610,-100,4,2,1,60,0,0
391738,300,4,2,1,60,1,0
391888,283.018867924528,4,2,1,60,1,0
392738,285.714285714286,4,2,1,60,1,0
392880,-100,4,2,1,60,0,0
393023,287.081339712919,4,2,1,60,1,0
393023,-100,4,2,1,60,0,0
393884,287.081339712919,4,2,1,60,1,0
393884,-100,4,2,1,60,0,0
394027,-100,4,2,1,60,0,0
395035,285.714285714286,4,2,1,60,1,0
395606,-100,4,2,1,60,0,0
396320,-100,4,2,1,60,0,0
396749,288.461538461538,4,2,1,60,1,0
397325,288.461538461538,4,2,1,60,1,0
397470,-100,4,2,1,60,0,0
398630,285.714285714286,4,2,1,60,1,0
398772,285.714285714286,4,2,1,60,1,0
398906,257.510729613734,4,2,1,60,1,0
399034,292.682926829268,4,2,1,60,1,0
399629,272.727272727273,4,2,1,60,1,0
399901,279.06976744186,4,2,1,60,1,0
400752,288.461538461538,4,2,1,60,1,1
403059,283.018867924528,4,2,1,60,1,1
404757,-100,4,2,1,60,0,0
405323,285.714285714286,4,2,1,60,1,0
405323,-100,4,2,1,60,0,0
406608,-100,4,2,1,60,0,0
407751,-100,4,2,1,60,0,0
409899,300,4,2,1,60,1,0
410199,285.714285714286,4,2,1,60,1,0
410913,272.727272727273,4,2,1,60,1,0
411313,292.682926829268,4,2,1,60,1,0
412181,285.714285714286,4,2,1,60,1,0
413895,-100,4,2,1,60,0,0
414466,-100,4,2,1,60,0,1
414681,-100,4,2,1,5,0,1
414752,-100,4,2,1,60,0,1
417895,-100,4,2,1,60,0,0
424752,-100,4,2,1,5,0,0

[Colours]
Combo1 : 39,39,173
Combo2 : 223,223,159
Combo3 : 39,130,173
Combo4 : 141,71,71

[HitObjects]
255,310,218033,5,0,0:0:0:0:
297,274,218104,1,0,0:0:0:0:
290,226,218176,1,0,0:0:0:0:
238,202,218247,1,0,0:0:0:0:
36,91,218319,2,0,L|101:90,1,50
291,298,218462,5,0,0:0:0:0:
339,288,218533,1,0,0:0:0:0:
383,264,218604,1,0,0:0:0:0:
417,228,218676,1,0,0:0:0:0:
439,183,218747,1,0,0:0:0:0:
446,134,218819,1,0,0:0:0:0:
195,127,218890,2,0,L|244:125,1,50
447,135,219033,2,0,L|453:72,1,50
174,242,219176,5,0,0:0:0:0:
119,230,219247,1,0,0:0:0:0:
86,192,219319,1,0,0:0:0:0:
79,142,219390,1,0,0:0:0:0:
281,158,219462,2,0,L|341:157,1,50
96,281,219604,1,0,0:0:0:0:
140,259,219676,1,0,0:0:0:0:
162,215,219747,1,0,0:0:0:0:
153,167,219819,1,0,0:0:0:0:
117,134,219890,1,0,0:0:0:0:
69,129,219962,1,0,0:0:0:0:
361,165,220033,1,0,0:0:0:0:
410,164,220104,1,0,0:0:0:0:
361,162,220176,1,0,0:0:0:0:
311,160,220247,1,0,0:0:0:0:
81,157,220319,6,0,L|15:156,1,50
81,157,220462,2,0,L|130:157,1,50
81,130,220604,1,0,0:0:0:0:
68,81,220676,1,0,0:0:0:0:
81,130,220747,1,0,0:0:0:0:
130,157,220819,1,0,0:0:0:0:
334,293,220890,6,0,L|328:229,1,50
153,244,221033,2,0,L|135:181,1,50
340,128,221176,2,0,L|286:127,1,50
101,104,221319,2,0,L|42:103,1,50
431,195,221462,6,0,L|480:193,1,50
306,185,221604,2,0,L|256:184,1,50
431,195,221747,2,0,L|489:193,1,50
200,242,221890,5,0,0:0:0:0:
150,234,221962,1,0,0:0:0:0:
106,211,222033,1,0,0:0:0:0:
73,174,222104,1,0,0:0:0:0:
55,128,222176,1,0,0:0:0:0:
53,78,222247,1,0,0:0:0:0:
256,73,222319,2,0,L|316:71,1,50
256,73,222462,2,0,L|206:74,1,50
457,302,222604,6,0,L|407:300,1,50
105,300,222747,2,0,L|55:302,1,50
330,200,222890,1,0,0:0:0:0:
379,189,222962,1,0,0:0:0:0:
413,152,223033,1,0,0:0:0:0:
418,101,223104,1,0,0:0:0:0:
167,126,223176,5,0,0:0:0:0:
217,124,223247,1,0,0:0:0:0:
267,123,223319,1,0,0:0:0:0:
317,122,223390,1,0,0:0:0:0:
90,226,223462,1,0,0:0:0:0:
54,192,223533,1,0,0:0:0:0:
61,144,223604,1,0,0:0:0:0:
111,135,223676,1,0,0:0:0:0:
455,191,223747,1,0,0:0:0:0:
256,192,223890,12,0,228319,0:0:0:0:
