osu file format v14

[General]
AudioFilename: audio.mp3
AudioLeadIn: 0
PreviewTime: 354268
Countdown: 0
SampleSet: Drum
StackLeniency: 0.3
Mode: 0
LetterboxInBreaks: 0
WidescreenStoryboard: 0

[Editor]
Bookmarks: 269038
DistanceSpacing: 1.6
BeatDivisor: 4
GridSize: 32
TimelineZoom: 3.599998

[Metadata]
Title:Fusyoku ressentiment, fushiyoku no sarugakuza.
TitleUnicode:腐蝕ルサンチマン、不死欲の猿楽座。
Artist:Imperial Circus Dead Decadence
ArtistUnicode:Imperial Circus Dead Decadence
Creator:AMX
Version:Rebellious Soul
Source:osu!
Tags:icdd fushoku metal death black symphonic marathon stream j-rock japanese rock featured artist fa melodic doujin streams
BeatmapID:1958702
BeatmapSetID:937659

[Difficulty]
HPDrainRate:5.5
CircleSize:4
OverallDifficulty:9.6
ApproachRate:10
SliderMultiplier:2
SliderTickRate:1

[Events]
//Background and Video events
0,0,"Picbro.png",0,0
//Break Periods
2,230182,241160
2,314054,335604
//Storyboard Layer 0 (Background)
//Storyboard Layer 1 (Fail)
//Storyboard Layer 2 (Pass)
//Storyboard Layer 3 (Foreground)
//Storyboard Layer 4 (Overlay)
//Storyboard Sound Samples

[TimingPoints]
756,285.714285714286,3,3,1,40,1,0
1613,-142.857142857143,3,3,1,40,0,0
2470,-111.111111111111,3,3,1,40,0,0
2541,-142.857142857143,3,3,1,5,0,0
2756,-142.857142857143,3,3,1,40,0,0
4184,-66.6666666666667,3,3,1,55,0,1
4256,-76.9230769230769,3,3,1,5,0,1
4470,-83.3333333333333,3,3,1,55,0,1
5327,-111.111111111111,3,3,1,55,0,1
5898,-83.3333333333333,3,3,1,65,0,1
7327,-71.4285714285714,3,3,1,65,0,1
7613,-133.333333333333,3,3,1,50,0,1
11041,-76.9230769230769,3,3,1,55,0,1
11113,-76.9230769230769,3,3,1,5,0,1
11327,-100,3,3,1,55,0,1
12756,-83.3333333333333,3,3,1,65,0,1
14184,-66.6666666666667,3,3,1,65,0,1
14470,-100,3,3,1,50,0,0
21613,-166.666666666667,3,3,1,50,0,0
22756,-125,3,3,1,50,0,0
22827,-125,3,3,1,5,0,0
23041,-125,3,3,1,50,0,0
24470,-83.3333333333333,3,3,1,50,0,0
24541,-83.3333333333333,3,3,1,5,0,0
24756,-100,3,3,1,50,0,0
26470,-100,3,3,1,55,0,0
29065,285.714285714286,4,3,1,50,1,0
29065,-158.730158730159,4,3,1,50,0,0
29136,-158.730158730159,4,3,1,5,0,0
32493,-178.571428571429,4,3,1,45,0,0
33665,279.06976744186,4,3,1,45,1,0
33665,-111.111111111111,4,3,1,45,0,0
34223,-333.333333333333,4,3,1,45,0,0
35898,285.714285714286,4,3,1,40,1,0
36469,-100,4,3,1,40,0,0
39326,-200,4,3,1,40,0,0
40183,-142.857142857143,4,3,1,40,0,0
40945,-117.647058823529,4,3,1,40,0,0
41041,-125,4,3,1,40,0,0
41612,-117.647058823529,4,3,1,40,0,0
45041,-90.9090909090909,4,3,1,55,0,0
46183,-117.647058823529,4,3,1,40,0,0
48469,-105.263157894737,4,3,1,40,0,0
49612,-95.2380952380952,4,3,1,50,0,0
50755,-117.64705882353,4,3,1,40,0,0
54183,-95.2380952380956,4,3,1,55,0,0
55326,-117.647058823529,4,3,1,40,0,0
58755,-90.9090909090909,4,3,1,45,0,0
59898,-125,4,3,1,50,0,0
64469,-90.9090909090909,4,3,1,50,0,0
64541,-90.9090909090909,4,3,1,5,0,0
64755,-125,4,3,1,45,0,0
67041,-90.9090909090909,4,3,1,45,0,0
67898,-62.5,4,3,1,55,0,0
67969,-62.5,4,3,1,5,0,0
68183,-62.5,4,3,1,55,0,0
68255,-62.5,4,3,1,5,0,0
68469,-71.4285714285714,4,3,1,45,0,0
68755,-58.8235294117647,4,3,1,40,0,0
68826,-58.8235294117647,4,3,1,5,0,0
69041,-117.647058823529,4,3,1,40,0,0
72469,-95.238095238095,4,3,1,55,0,0
73612,-117.647058823529,4,3,1,40,0,0
75898,-105.263157894737,4,3,1,40,0,0
77041,-90.9090909090909,4,3,1,50,0,0
78183,-166.666666666667,4,3,1,40,0,0
78255,-166.666666666667,4,3,1,5,0,0
78469,-166.666666666667,4,3,1,40,0,0
79326,-100,4,3,1,40,0,0
79398,-100,4,3,1,5,0,0
79612,-166.666666666667,4,3,1,40,0,0
79898,-142.857142857143,4,3,1,40,0,0
80183,-125,4,3,1,40,0,0
80469,-117.647058823529,4,3,1,40,0,0
81612,-66.6666666666667,4,3,1,50,0,0
81683,-66.6666666666667,4,3,1,5,0,0
81898,-66.6666666666667,4,3,1,50,0,0
81969,-66.6666666666667,4,3,1,5,0,0
82183,-117.647058823529,4,3,1,55,0,0
82755,-117.647058823529,4,3,1,40,0,0
85041,-105.263157894737,4,3,1,40,0,0
86183,-90.9090909090909,4,3,1,40,0,0
87326,285.714285714286,3,3,1,50,1,0
87326,-166.666666666667,3,3,1,35,0,0
87397,-166.666666666667,3,3,1,5,0,0
87897,-166.666666666667,3,3,1,35,0,0
88254,-166.666666666667,3,3,1,5,0,0
88468,-142.857142857143,3,3,1,35,0,0
88540,-142.857142857143,3,3,1,5,0,0
88754,-125,3,3,1,35,0,0
88826,-125,3,3,1,5,0,0
89040,-117.647058823529,3,3,1,35,0,0
89111,-117.647058823529,3,3,1,5,0,0
89611,-117.647058823529,3,3,1,35,0,0
90183,-125,3,3,1,35,0,0
90254,-125,3,3,1,5,0,0
90468,-142.857142857143,3,3,1,35,0,0
90540,-142.857142857143,3,3,1,5,0,0
90754,-166.666666666667,3,3,1,35,0,0
90826,-166.666666666667,3,3,1,5,0,0
91326,-166.666666666667,3,3,1,35,0,0
91897,-153.846153846154,3,3,1,35,0,0
91968,-153.846153846154,3,3,1,5,0,0
92183,-133.333333333333,3,3,1,35,0,0
92254,-133.333333333333,3,3,1,5,0,0
92468,-117.647058823529,3,3,1,35,0,0
92540,-117.647058823529,3,3,1,5,0,0
93040,-117.647058823529,3,3,1,35,0,0
93326,-200,3,3,1,35,0,0
93397,-200,3,3,1,5,0,0
93611,-111.111111111111,3,3,1,35,0,0
93683,-111.111111111111,3,3,1,5,0,0
93897,-111.111111111111,3,3,1,35,0,0
94183,-117.647058823529,3,3,1,40,0,0
97968,-117.647058823529,3,3,1,5,0,0
98183,-117.647058823529,3,3,1,40,0,0
98897,-117.647058823529,3,3,1,5,0,0
98968,-117.647058823529,3,3,1,40,0,0
99340,292.682926829268,4,3,1,40,1,0
99340,-90.9090909090909,3,3,1,35,0,0
99413,-90.9090909090909,3,3,1,5,0,0
99632,-111.111111111111,3,3,1,30,0,0
99705,-111.111111111111,3,3,1,5,0,0
99925,-142.857142857143,3,3,1,25,0,0
99998,-142.857142857143,3,3,1,5,0,0
100218,-142.857142857143,3,3,1,30,0,0
100510,285.714285714286,4,3,1,30,1,0
100795,279.06976744186,3,3,1,40,1,0
101074,-100,3,3,1,40,0,0
101516,285.714285714286,4,3,1,40,1,0
102754,285.714285714286,4,3,1,40,1,0
102754,-200,4,3,1,40,0,0
103039,-83.3333333333333,4,3,1,40,0,0
103111,-83.3333333333333,4,3,1,5,0,0
103325,285.714285714286,4,3,1,40,1,0
103325,-125,4,3,1,40,0,0
109039,-111.111111111111,4,3,1,40,0,0
109610,-83.3333333333333,4,3,1,40,0,0
110182,-125,4,3,1,40,0,0
116467,-100,4,3,1,40,0,0
117039,-125,4,3,1,40,0,0
117110,-125,4,3,1,5,0,0
117610,-125,4,3,1,40,0,0
118182,-90.9090909090909,4,3,1,40,0,0
118753,-142.857142857143,4,3,1,40,0,0
119325,-90.9090909090909,4,3,1,40,0,0
119396,-90.9090909090909,4,3,1,5,0,0
119610,-142.857142857143,4,3,1,40,0,0
120467,-142.857142857143,4,3,1,45,0,0
121610,-100,4,3,1,50,0,0
122753,-125,4,3,1,50,0,0
123896,-90.9090909090909,4,3,1,40,0,0
126753,-111.111111111111,4,3,1,40,0,0
127325,-90.9090909090909,4,3,1,40,0,0
128182,-71.4285714285714,4,3,1,40,0,0
128253,-71.4285714285714,4,3,1,5,0,0
128467,-100,4,3,1,40,0,0
133039,-100,4,3,1,50,0,0
135325,-166.666666666667,4,3,1,40,0,0
135610,-71.4285714285714,4,3,1,40,0,0
135682,-71.4285714285714,4,3,1,5,0,0
135896,-71.4285714285714,4,3,1,40,0,0
135967,-71.4285714285714,4,3,1,5,0,0
136182,-142.857142857143,4,3,1,30,0,0
136467,-111.111111111111,4,3,1,35,0,0
136753,-90.9090909090908,4,3,1,40,0,0
137039,-76.9230769230769,4,3,1,45,0,0
137325,-66.6666666666667,4,3,1,50,0,0
137610,-58.8235294117647,4,3,1,55,0,1
137682,-58.8235294117647,4,3,1,5,0,1
137896,-83.3333333333333,4,3,1,55,0,1
138753,-100,4,3,1,55,0,1
139610,-83.3333333333333,4,3,1,55,0,1
139896,-100,4,3,1,60,0,1
141039,-142.857142857143,4,3,1,55,0,1
141896,-120.481927710843,4,3,1,50,0,1
142182,-76.9230769230769,4,3,1,50,0,1
142896,-125,4,3,1,50,0,1
143325,-76.9230769230769,4,3,1,50,0,1
145039,-200,4,3,1,50,0,1
145610,-125,4,3,1,50,0,1
146467,-76.9230769230769,4,3,1,50,0,1
151610,-100,4,3,1,50,0,1
152467,-200,4,3,1,50,0,1
152753,-83.3333333333333,4,3,1,50,0,1
153039,-142.857142857143,4,3,1,50,0,0
153610,-83.3333333333333,4,3,1,40,0,0
153682,-83.3333333333333,4,3,1,5,0,0
154039,-83.3333333333333,4,3,1,40,0,0
155039,-111.111111111111,4,3,1,40,0,0
156467,-200,4,3,1,40,0,0
157039,-111.111111111111,4,3,1,40,0,0
157610,-76.9230769230769,4,3,1,40,0,0
157682,-76.9230769230769,4,3,1,5,0,0
158039,-76.9230769230769,4,3,1,40,0,0
158182,-71.4285714285714,4,3,1,40,0,0
158467,-333.333333333333,4,3,1,40,0,0
158753,-125,4,3,1,40,0,0
159325,-83.3333333333334,4,3,1,40,0,0
159610,-142.857142857143,4,3,1,40,0,0
159896,-99.9999999999999,4,3,1,40,0,0
160182,-142.857142857143,4,3,1,40,0,0
160467,-111.111111111111,4,3,1,40,0,0
160753,-200,4,3,1,40,0,0
161325,-100,4,3,1,40,0,0
162182,-76.9230769230769,4,3,1,50,0,0
162754,285.714285714286,3,3,1,50,1,0
162754,-133.333333333333,3,3,1,35,0,0
168254,-222.222222222221,3,3,1,35,0,0
168754,-117.647058823529,3,3,1,35,0,0
169611,-100,3,3,1,35,0,0
173039,-90.9090909090909,3,3,1,40,0,0
173896,-83.3333333333333,3,3,1,43,0,0
174754,-76.9230769230769,3,3,1,46,0,0
175611,-100,3,3,1,40,0,0
176182,-333.333333333333,3,3,1,40,0,0
176468,-83.3333333333333,3,3,1,53,0,1
177325,-90.9090909090909,3,3,1,53,0,1
178182,-100,3,3,1,53,0,1
179039,-166.666666666667,3,3,1,53,0,1
179896,-111.111111111111,3,3,1,53,0,1
180182,-90.9090909090909,3,3,1,53,0,1
180754,-100,3,3,1,53,0,1
182182,-76.9230769230769,3,3,1,53,0,1
182468,-200,3,3,1,45,0,0
182539,-200,3,3,1,5,0,0
183325,-83.3333333333333,3,3,1,45,0,0
185039,-83.3333333333333,3,3,1,50,0,0
185896,-62.5,3,3,1,50,0,0
185968,-62.5,3,3,1,5,0,0
186468,-62.5,3,3,1,50,0,0
186754,-71.4285714285714,3,3,1,45,0,0
186825,-71.4285714285714,3,3,1,5,0,0
187182,-71.4285714285714,3,3,1,40,0,0
187611,-83.3333333333333,3,3,1,40,0,0
187825,-100,3,3,1,40,0,0
188039,-125,3,3,1,40,0,0
188468,-125,3,3,1,35,0,0
188539,-125,3,3,1,5,0,0
188754,-125,3,3,1,35,0,0
188825,-125,3,3,1,5,0,0
189039,-200,3,3,1,35,0,0
189611,-333.333333333333,3,3,1,30,0,0
190182,285.714285714286,4,3,1,50,1,0
190182,-125,4,3,1,40,0,0
191324,-142.857142857143,4,3,1,40,0,0
191753,-200,4,3,1,40,0,0
192182,-66.6666666666667,4,3,1,40,0,0
192253,-83.3333333333333,4,3,1,5,0,0
192467,-125,4,3,1,40,0,0
197039,-200,4,3,1,40,0,0
197324,-125,4,3,1,40,0,0
198753,-83.3333333333333,4,3,1,40,0,0
199324,-125,4,3,1,40,0,0
206182,-111.111111111111,4,3,1,47,0,0
206467,-200,4,3,1,40,0,0
206753,-111.111111111111,4,3,1,47,0,0
207039,-270.27027027027,4,3,1,40,0,0
207324,-125,4,3,1,40,0,0
208467,-90.9090909090909,4,3,1,40,0,0
208539,-90.9090909090909,4,3,1,5,0,0
208753,-90.9090909090909,4,3,1,40,0,0
211039,-76.9230769230769,4,3,1,40,0,0
211110,-76.9230769230769,4,3,1,5,0,0
211324,-90.9090909090909,4,3,1,40,0,0
212753,-111.111111111111,4,3,1,45,0,0
213039,-71.4285714285714,4,3,1,50,0,1
217039,-250,4,3,1,40,0,1
217610,-71.4285714285714,4,3,1,55,0,1
217682,-71.4285714285714,4,3,1,5,0,1
217896,-111.111111111111,4,3,1,55,0,1
221610,-111.111111111111,4,3,1,53,0,1
222182,-90.9090909090908,4,3,1,50,0,1
222467,-166.666666666667,4,3,1,45,0,1
223324,-333.333333333336,4,3,1,40,0,1
223896,-333.333333333336,4,3,1,35,0,1
224467,-250,4,3,1,30,0,0
224539,-250,4,3,1,5,0,0
241610,-166.666666666667,4,3,1,30,0,0
241824,-166.666666666667,4,3,1,5,0,0
241896,-166.666666666667,4,3,1,30,0,0
242110,-166.666666666667,4,3,1,5,0,0
242182,-166.666666666667,4,3,1,30,0,0
242396,-166.666666666667,4,3,1,5,0,0
242467,-166.666666666667,4,3,1,30,0,0
242682,-166.666666666667,4,3,1,5,0,0
242753,-166.666666666667,4,3,1,30,0,0
242967,-166.666666666667,4,3,1,5,0,0
243039,-166.666666666667,4,3,1,30,0,0
243253,-166.666666666667,4,3,1,5,0,0
243324,-166.666666666667,4,3,1,30,0,0
243539,-166.666666666667,4,3,1,5,0,0
243610,-166.666666666667,4,3,1,30,0,0
243824,-166.666666666667,4,3,1,5,0,0
243896,-166.666666666667,4,3,1,30,0,0
244110,-166.666666666667,4,3,1,5,0,0
244182,-166.666666666667,4,3,1,30,0,0
244396,-166.666666666667,4,3,1,5,0,0
244467,-166.666666666667,4,3,1,30,0,0
244682,-166.666666666667,4,3,1,5,0,0
244753,-100,4,3,1,30,0,0
244967,-100,4,3,1,5,0,0
245039,-166.666666666667,4,3,1,30,0,0
245253,-166.666666666667,4,3,1,5,0,0
245324,-166.666666666667,4,3,1,30,0,0
245539,-166.666666666667,4,3,1,5,0,0
245610,-166.666666666667,4,3,1,30,0,0
245824,-166.666666666667,4,3,1,5,0,0
245896,-166.666666666667,4,3,1,30,0,0
246110,-166.666666666667,4,3,1,5,0,0
246182,-166.666666666667,4,3,1,30,0,0
246396,-166.666666666667,4,3,1,5,0,0
246467,-166.666666666667,4,3,1,30,0,0
246682,-166.666666666667,4,3,1,5,0,0
246753,-166.666666666667,4,3,1,30,0,0
246967,-166.666666666667,4,3,1,5,0,0
247039,-166.666666666667,4,3,1,30,0,0
247253,-166.666666666667,4,3,1,5,0,0
247324,-166.666666666667,4,3,1,30,0,0
247539,-166.666666666667,4,3,1,5,0,0
247610,-166.666666666667,4,3,1,30,0,0
247824,-166.666666666667,4,3,1,5,0,0
247896,-166.666666666667,4,3,1,30,0,0
248110,-166.666666666667,4,3,1,5,0,0
248182,-100,4,3,1,30,0,0
248396,-100,4,3,1,5,0,0
248467,285.714285714286,3,3,1,30,1,0
248467,-142.857142857143,4,3,1,30,0,0
255324,-111.111111111111,3,3,1,35,0,0
262252,-111.111111111111,3,3,1,5,0,0
262467,-111.111111111111,3,3,1,35,0,0
262824,-111.111111111111,3,3,1,5,0,0
263038,-111.111111111111,3,3,1,35,0,0
263395,-111.111111111111,3,3,1,5,0,0
263609,-83.3333333333333,3,3,1,35,0,0
263681,-83.3333333333333,3,3,1,5,0,0
263895,-111.111111111111,3,3,1,35,0,0
265324,-83.3333333333333,3,3,1,35,0,0
265395,-83.3333333333333,3,3,1,5,0,0
265609,-100,3,3,1,35,0,0
266252,-100,3,3,1,5,0,0
266467,-100,3,3,1,35,0,0
267109,-100,3,3,1,5,0,0
267324,-90.9090909090909,3,3,1,35,0,0
268181,-100,3,3,1,25,0,0
268324,-90.9090909090909,3,3,1,30,0,0
268466,-83.3333333333333,3,3,1,35,0,0
268609,-76.9230769230769,3,3,1,40,0,0
268752,-71.4285714285714,3,3,1,45,0,0
268895,-66.6666666666667,3,3,1,50,0,0
269038,200,4,3,1,50,1,0
269038,-76.9230769230769,4,3,1,50,0,0
274638,-142.857142857143,4,3,1,50,0,0
274838,-76.9230769230769,4,3,1,50,0,0
275038,-142.857142857143,4,3,1,50,0,0
275238,-76.9230769230769,4,3,1,50,0,0
277073,198.675496688742,4,3,1,50,1,0
277222,-100,4,3,1,5,0,0
277271,-100,4,3,1,50,0,0
277420,-100,4,3,1,5,0,0
277470,-100,4,3,1,50,0,0
277619,-100,4,3,1,5,0,0
277669,-100,4,3,1,50,0,0
278016,-100,4,3,1,5,0,0
278066,-100,4,3,1,50,0,0
278215,-100,4,3,1,5,0,0
278265,-100,4,3,1,50,0,0
278612,-100,4,3,1,5,0,0
278662,-100,4,3,1,50,0,0
278811,-100,4,3,1,5,0,0
278861,-100,4,3,1,50,0,0
279208,-100,4,3,1,5,0,0
279258,-100,4,3,1,50,0,0
279407,-333.333333333333,4,3,1,5,0,0
279457,-666.666666666667,4,3,1,50,0,0
279506,-666.666666666667,4,3,1,5,0,0
279655,-100,4,3,1,50,0,0
279705,-100,4,3,1,5,0,0
279854,-666.666666666667,4,3,1,50,0,0
279904,-666.666666666667,4,3,1,5,0,0
280053,-100,4,3,1,50,0,0
280102,-100,4,3,1,5,0,0
280251,200,4,3,1,50,1,0
280551,-125,4,3,1,50,0,0
281051,-100,4,3,1,50,0,0
281401,-100,4,3,1,5,0,0
281451,-100,4,3,1,50,0,0
281801,-83.3333333333333,4,3,1,5,0,0
281851,-83.3333333333333,4,3,1,50,0,0
283651,-66.6666666666667,4,3,1,57,0,0
286651,-62.5,4,3,1,60,0,0
289451,-55.5555555555556,4,3,1,60,0,0
290854,200,4,3,1,60,1,0
290854,-62.5,4,3,1,65,0,1
295654,-62.5,4,3,1,70,0,1
298054,-62.5,4,3,1,65,0,1
298654,-83.3333333333333,4,3,1,60,0,1
299255,-83.3333333333333,4,3,1,55,0,1
299654,-100,4,3,1,50,0,1
300454,-66.6666666666667,4,3,1,57,0,1
302854,-83.3333333333333,4,3,1,57,0,1
304454,-100,4,3,1,57,0,1
305254,-76.9230769230769,4,3,1,57,0,1
305404,-76.9230769230769,4,3,1,5,0,1
305454,-76.9230769230769,4,3,1,57,0,1
307654,-58.8235294117647,4,3,1,65,0,1
309054,-55.5555555555556,4,3,1,75,0,1
310054,285.714285714286,4,3,1,75,1,0
310196,-100,4,3,1,5,0,0
336054,-100,4,3,1,15,0,0
336339,-100,4,3,1,19,0,0
336625,-100,4,3,1,23,0,0
336911,-100,4,3,1,27,0,0
337196,-100,4,3,1,31,0,0
337482,-142.857142857143,4,3,1,40,0,0
337554,-142.857142857143,4,3,1,5,0,0
338339,-142.857142857143,4,3,1,40,0,0
338625,-121.951219512195,4,3,1,40,0,0
338696,-121.951219512195,4,3,1,5,0,0
339482,-121.951219512195,4,3,1,40,0,0
340196,-133.333333333333,4,3,1,40,0,0
341482,-102.040816326531,4,3,1,40,0,0
341554,-102.040816326531,4,3,1,5,0,0
342054,-153.846153846154,4,3,1,35,0,0
343196,-133.333333333334,4,3,1,40,0,0
344339,-125,4,3,1,45,0,0
345196,-217.391304347826,4,3,1,45,0,0
345482,-83.3333333333333,4,3,1,45,0,0
345554,-83.3333333333333,4,3,1,5,0,0
345768,-83.3333333333333,4,3,1,45,0,0
345839,-83.3333333333333,4,3,1,5,0,0
346054,-83.3333333333333,4,3,1,45,0,0
346339,-83.3333333333333,4,3,1,20,0,0
346625,-100,4,3,1,45,0,0
351196,-83.3333333333333,4,3,1,50,0,0
353482,-142.857142857143,4,3,1,50,0,0
353911,-90.9090909090908,4,3,1,50,0,0
354339,-90.9090909090908,4,3,1,53,0,0
354625,-83.3333333333333,4,3,1,56,0,0
354911,-71.4285714285714,4,3,1,59,0,0
355196,-66.6666666666667,4,3,1,62,0,0
355482,-62.5,4,3,1,65,0,0
355768,-58.8235294117647,4,3,1,65,0,1
355839,-58.8235294117647,4,3,1,5,0,1
356054,-83.3333333333333,4,3,1,65,0,1
356911,-100,4,3,1,60,0,1
358054,-100,4,3,1,65,0,1
359196,-142.857142857143,4,3,1,60,0,1
360054,-76.9230769230769,4,3,1,65,0,1
360339,-71.4285714285714,4,3,1,55,0,1
363768,-100,4,3,1,55,0,1
364054,-125,4,3,1,50,0,1
364339,-166.666666666667,4,3,1,45,0,1
364625,-250,4,3,1,40,0,1
364911,-111.111111111111,4,3,1,40,0,0
366268,-111.111111111111,4,3,1,5,0,0
366339,-111.111111111111,4,3,1,40,0,0
366911,-90.9090909090909,4,3,1,40,0,0
367196,-83.3333333333333,4,3,1,40,0,0
367482,-111.111111111111,4,3,1,40,0,0
368339,-142.857142857143,4,3,1,40,0,0
369482,-125,4,3,1,45,0,1
369554,-125,4,3,1,45,0,0
370054,-125,4,3,1,50,0,1
370125,-125,4,3,1,50,0,0
370625,-76.9230769230769,4,3,1,55,0,1
370696,-76.9230769230769,4,3,1,55,0,0
370911,-100,4,3,1,55,0,0
371196,-125,4,3,1,50,0,1
371268,-125,4,3,1,50,0,0
371482,-166.666666666667,4,3,1,50,0,0
371768,-166.666666666667,4,3,1,45,0,0
374054,-100,4,3,1,50,0,0
374125,-100,4,3,1,5,0,0
375196,-100,4,3,1,50,0,0
376339,-89.2857142857143,4,3,1,50,0,0
376411,-89.2857142857143,4,3,1,5,0,0
377196,-89.2857142857143,4,3,1,50,0,0
377482,-111.111111111111,4,3,1,50,0,0
378625,-76.9230769230769,4,3,1,60,0,1
378696,-76.9230769230769,4,3,1,5,0,1
378911,-90.9090909090909,4,3,1,60,0,1
379768,-83.3333333333333,4,3,1,60,0,1
380911,-71.4285714285714,4,3,1,65,0,1
382054,-66.6666666666667,4,3,1,70,0,1
382625,-166.666666666667,4,3,1,50,0,0
382696,-166.666666666667,4,3,1,5,0,0
383196,-90.9090909090909,4,3,1,50,0,0
387768,-142.857142857143,4,3,1,50,0,0
390054,-100,4,3,1,50,0,0
390911,-333.333333333333,4,3,1,50,0,0
392054,-166.666666666667,4,3,1,50,0,0
392339,-100,4,3,1,45,0,0
402911,-166.666666666667,4,3,1,45,0,0
403768,-100,4,3,1,45,0,0
404339,-200,4,3,1,45,0,0
404911,-83.3333333333333,4,3,1,45,0,0
405482,-166.666666666667,4,3,1,45,0,0
405554,-166.666666666667,4,3,1,5,0,0
405768,-125,4,3,1,45,0,0
405839,-125,4,3,1,5,0,0
406054,-100,4,3,1,45,0,0
408911,-166.666666666667,4,3,1,45,0,0
409196,-111.111111111111,4,3,1,45,0,0
409482,-83.3333333333333,4,3,1,45,0,0
410196,-142.857142857143,4,3,1,45,0,0
414625,-200,4,3,1,40,0,0
415196,-83.3333333333333,4,3,1,50,0,0
415268,-83.3333333333333,4,3,1,5,0,0
415482,-100,4,3,1,50,0,0
416339,-100,4,3,1,55,0,0
417482,-90.9090909090909,4,3,1,60,0,0
418625,-90.9090909090909,4,3,1,65,0,0
419768,-204.081632653061,4,3,1,35,0,0
419839,-90.9090909090909,4,3,1,5,0,0

[Colours]
Combo1 : 228,228,228
Combo2 : 72,71,99
Combo3 : 228,228,228
Combo4 : 137,33,33
SliderBorder : 255,255,255

[HitObjects]
54,127,756,5,2,0:0:0:0:
54,127,1613,5,12,0:0:0:0:
29,362,1756,1,8,0:0:0:0:
140,292,1898,2,0,P|161:288|185:287,3,34.9999989318848
36,232,2184,2,0,P|15:228|-9:227,3,34.9999989318848
225,92,2470,6,0,P|292:88|354:113,1,134.999995880127,4|0,0:0|0:0,0:0:0:0:
431,176,2756,1,0,0:0:0:0:
431,176,2827,1,0,0:0:0:0:
431,176,2898,2,0,P|448:174|465:172,1,34.9999989318848
324,241,3041,1,0,0:0:0:0:
324,241,3113,1,0,0:0:0:0:
324,241,3184,2,0,P|306:238|289:236,1,34.9999989318848
438,384,3327,5,2,0:0:0:0:
339,144,3898,1,8,0:0:0:0:
467,44,4184,6,0,B|491:114|491:114|458:270,1,225.000008583069,12|0,0:0|0:0,0:0:0:0:
412,342,4471,1,8,0:0:0:0:
359,369,4541,1,0,0:0:0:0:
300,368,4613,1,8,0:0:0:0:
248,339,4684,1,0,0:0:0:0:
216,289,4756,1,8,0:0:0:0:
211,230,4827,1,0,0:0:0:0:
236,176,4898,1,8,0:0:0:0:
267,126,4969,1,0,0:0:0:0:
259,68,5040,1,8,0:0:0:0:
217,28,5112,1,0,0:0:0:0:
158,24,5183,1,8,0:0:0:0:
110,58,5255,1,0,0:0:0:0:
95,115,5326,5,8,0:0:0:0:
128,85,5398,1,0,0:0:0:0:
171,72,5469,1,8,0:0:0:0:
215,77,5541,1,0,0:0:0:0:
254,100,5612,1,8,0:0:0:0:
291,126,5684,1,0,0:0:0:0:
335,134,5755,1,8,0:0:0:0:
378,123,5827,1,0,0:0:0:0:
412,94,5898,5,12,0:0:0:0:
356,74,5969,1,0,0:0:0:0:
299,88,6040,1,8,0:0:0:0:
259,132,6112,1,0,0:0:0:0:
250,190,6183,1,8,0:0:0:0:
275,244,6255,1,0,0:0:0:0:
325,274,6326,1,8,0:0:0:0:
384,272,6398,1,0,0:0:0:0:
432,237,6470,5,8,0:0:0:0:
381,209,6541,1,0,0:0:0:0:
322,210,6612,1,8,0:0:0:0:
275,244,6684,1,0,0:0:0:0:
238,290,6756,1,8,0:0:0:0:
205,339,6827,1,0,0:0:0:0:
151,362,6898,1,8,0:0:0:0:
92,353,6970,1,0,0:0:0:0:
50,311,7041,1,8,0:0:0:0:
39,251,7113,1,0,0:0:0:0:
64,196,7184,1,8,0:0:0:0:
116,165,7256,1,0,0:0:0:0:
185,174,7327,2,0,P|181:216|174:253,1,69.9999978637696,8|8,0:0|0:0,0:0:0:0:
370,373,7470,2,0,P|363:336|360:304,1,69.9999978637696,8|8,0:0|0:0,0:0:0:0:
466,65,7613,5,12,0:0:0:0:
436,84,7684,1,0,0:0:0:0:
400,93,7755,1,0,0:0:0:0:
363,89,7827,1,0,0:0:0:0:
328,75,7898,1,0,0:0:0:0:
297,55,7969,1,0,0:0:0:0:
260,47,8040,1,0,0:0:0:0:
223,51,8112,1,0,0:0:0:0:
189,67,8183,1,0,0:0:0:0:
163,93,8255,1,0,0:0:0:0:
146,126,8326,1,0,0:0:0:0:
141,163,8397,1,0,0:0:0:0:
148,200,8469,5,8,0:0:0:0:
176,175,8541,1,0,0:0:0:0:
211,163,8612,1,0,0:0:0:0:
248,166,8684,1,0,0:0:0:0:
282,182,8755,1,0,0:0:0:0:
306,211,8827,1,0,0:0:0:0:
318,246,8898,1,8,0:0:0:0:
315,283,8969,1,0,0:0:0:0:
298,316,9041,1,0,0:0:0:0:
270,341,9112,1,0,0:0:0:0:
235,352,9184,1,0,0:0:0:0:
197,349,9255,1,0,0:0:0:0:
166,333,9327,5,12,0:0:0:0:
182,299,9398,1,0,0:0:0:0:
210,274,9469,1,0,0:0:0:0:
245,262,9541,1,0,0:0:0:0:
282,265,9612,1,0,0:0:0:0:
315,283,9684,1,0,0:0:0:0:
341,310,9755,1,0,0:0:0:0:
368,334,9827,1,0,0:0:0:0:
403,343,9898,1,0,0:0:0:0:
440,336,9970,1,0,0:0:0:0:
470,314,10041,1,0,0:0:0:0:
487,281,10113,1,0,0:0:0:0:
489,243,10184,6,0,L|448:237,3,37.5000014305115,8|0|0|0,0:0|0:0|0:0|0:0,0:0:0:0:
358,164,10470,2,0,L|321:170,3,37.5000014305115,8|0|0|0,0:0|0:0|0:0|0:0,0:0:0:0:
155,99,10756,1,8,0:0:0:0:
174,102,10827,1,0,0:0:0:0:
193,105,10898,1,0,0:0:0:0:
211,108,10970,1,0,0:0:0:0:
230,110,11041,6,0,L|221:362,1,194.999991073609,4|0,0:0|0:0,0:0:0:0:
178,374,11327,1,8,0:0:0:0:
146,335,11398,1,0,0:0:0:0:
143,286,11469,1,8,0:0:0:0:
170,245,11541,1,0,0:0:0:0:
216,228,11612,1,8,0:0:0:0:
263,240,11684,1,0,0:0:0:0:
294,279,11755,1,8,0:0:0:0:
296,328,11826,1,0,0:0:0:0:
267,370,11898,5,8,0:0:0:0:
238,331,11969,1,0,0:0:0:0:
237,282,12040,1,8,0:0:0:0:
263,240,12112,1,0,0:0:0:0:
309,222,12183,1,8,0:0:0:0:
357,232,12255,1,0,0:0:0:0:
405,242,12327,1,8,0:0:0:0:
449,221,12398,1,0,0:0:0:0:
471,176,12470,1,8,0:0:0:0:
461,128,12541,1,0,0:0:0:0:
423,97,12613,1,8,0:0:0:0:
374,95,12684,1,0,0:0:0:0:
334,124,12755,5,12,0:0:0:0:
320,66,12827,1,0,0:0:0:0:
273,31,12898,1,8,0:0:0:0:
214,35,12970,1,0,0:0:0:0:
172,76,13041,1,8,0:0:0:0:
167,135,13113,1,0,0:0:0:0:
201,183,13184,1,8,0:0:0:0:
227,235,13255,1,0,0:0:0:0:
215,293,13326,1,8,0:0:0:0:
169,329,13398,1,0,0:0:0:0:
110,328,13469,1,8,0:0:0:0:
66,289,13541,1,0,0:0:0:0:
56,231,13613,6,0,L|133:238,3,59.9999981689454,8|0|0|0,0:0|0:0|0:0|0:0,0:0:0:0:
254,110,13898,2,0,L|330:103,3,59.9999981689454,8|0|0|0,0:0|0:0|0:0|0:0,0:0:0:0:
512,198,14184,1,8,0:0:0:0:
465,255,14256,1,8,0:0:0:0:
395,279,14326,1,8,0:0:0:0:
324,261,14398,1,8,0:0:0:0:
273,207,14470,6,0,P|224:194|174:203,1,100,4|8,0:0|0:0,0:0:0:0:
73,384,14756,1,0,0:0:0:0:
347,258,14898,2,0,P|359:209|351:159,1,100,8|0,0:0|0:0,0:0:0:0:
204,8,15184,1,8,0:0:0:0:
150,219,15327,5,0,0:0:0:0:
369,80,15470,1,8,0:0:0:0:
119,222,15613,5,0,0:0:0:0:
398,102,15756,1,8,0:0:0:0:
56,277,15898,6,0,P|38:230|46:181,1,100,0|8,0:0|0:0,0:0:0:0:
248,121,16184,1,0,0:0:0:0:
185,326,16327,1,8,0:0:0:0:
267,142,16470,1,0,0:0:0:0:
375,348,16613,1,8,0:0:0:0:
229,235,16756,1,0,0:0:0:0:
415,194,16898,1,8,0:0:0:0:
223,39,17041,6,0,L|99:47,1,100,0|8,0:0|0:0,0:0:0:0:
219,333,17327,2,0,B|232:282|232:282|227:209,1,100,0|8,0:0|0:0,0:0:0:0:
386,11,17613,2,0,B|373:62|373:62|378:135,1,100,0|8,0:0|0:0,0:0:0:0:
483,289,17898,6,0,P|436:306|386:304,1,100,4|8,0:0|0:0,0:0:0:0:
286,124,18184,1,0,0:0:0:0:
235,334,18327,1,8,0:0:0:0:
52,151,18470,2,0,P|98:134|148:136,1,100,0|8,0:0|0:0,0:0:0:0:
386,304,18756,5,4,0:0:0:0:
385,48,18898,1,8,0:0:0:0:
442,372,19041,5,0,0:0:0:0:
286,124,19184,1,8,0:0:0:0:
360,383,19327,5,0,0:0:0:0:
483,142,19470,1,8,0:0:0:0:
214,334,19613,6,0,B|209:234,1,100,4|8,0:0|0:0,0:0:0:0:
140,55,19898,1,0,0:0:0:0:
19,274,20041,2,0,B|118:269,1,100,8|0,0:0|0:0,0:0:0:0:
167,44,20327,1,8,0:0:0:0:
407,249,20470,6,0,B|402:348,1,100,4|8,0:0|0:0,0:0:0:0:
302,101,20756,2,0,B|306:1,1,100,0|8,0:0|0:0,0:0:0:0:
512,151,21041,1,8,0:0:0:0:
477,152,21112,1,8,0:0:0:0:
442,154,21183,1,8,0:0:0:0:
407,156,21255,1,8,0:0:0:0:
372,157,21326,1,8,0:0:0:0:
73,282,21613,6,0,L|69:324,3,29.9999990844727,0|0|0|0,0:0|0:0|0:0|0:0,0:0:0:0:
154,211,21898,2,0,L|158:169,3,29.9999990844727,0|0|0|0,0:0|0:0|0:0|0:0,0:0:0:0:
221,288,22184,1,0,0:0:0:0:
298,38,22756,6,0,P|274:92|286:151,1,120
274,14,23041,1,4,0:0:0:0:
252,47,23112,1,0,0:0:0:0:
241,85,23183,1,8,0:0:0:0:
241,125,23255,1,8,0:0:0:0:
254,163,23326,1,8,0:0:0:0:
277,195,23398,1,8,0:0:0:0:
309,219,23469,5,0,0:0:0:0:
339,193,23541,1,0,0:0:0:0:
376,180,23612,1,0,0:0:0:0:
416,181,23684,1,0,0:0:0:0:
453,195,23755,1,0,0:0:0:0:
482,222,23827,1,0,0:0:0:0:
500,258,23898,6,0,L|491:321,3,40,0|0|0|0,0:0|0:0|0:0|0:0,0:0:0:0:
384,313,24184,2,0,L|393:375,3,40,0|0|0|0,0:0|0:0|0:0|0:0,0:0:0:0:
248,356,24470,6,0,L|230:176,1,179.999994506836,8|0,0:0|0:0,0:0:0:0:
219,95,24756,1,12,0:0:0:0:
95,205,24898,1,0,0:0:0:0:
55,45,25041,1,0,0:0:0:0:
156,150,25184,1,0,0:0:0:0:
31,257,25327,1,0,0:0:0:0:
80,123,25470,1,0,0:0:0:0:
218,384,25613,5,12,0:0:0:0:
254,209,25756,1,0,0:0:0:0:
413,293,25898,1,0,0:0:0:0:
237,296,26041,1,8,0:0:0:0:
272,122,26184,1,0,0:0:0:0:
325,297,26327,1,0,0:0:0:0:
289,32,26470,5,12,0:0:0:0:
120,78,26613,1,0,0:0:0:0:
356,91,26756,1,0,0:0:0:0:
205,55,26898,1,0,0:0:0:0:
363,219,27041,1,8,0:0:0:0:
371,7,27184,1,0,0:0:0:0:
509,173,27327,5,8,0:0:0:0:
273,113,27470,1,0,0:0:0:0:
413,327,27613,1,0,0:0:0:0:
437,59,27756,1,0,0:0:0:0:
234,256,27898,1,0,0:0:0:0:
288,30,28041,1,0,0:0:0:0:
82,236,28184,5,12,0:0:0:0:
365,119,28327,1,8,0:0:0:0:
47,231,28470,1,8,0:0:0:0:
383,310,28613,1,0,0:0:0:0:
288,30,28756,5,0,0:0:0:0:
61,331,28898,1,0,0:0:0:0:
506,260,29065,6,0,B|439:220|366:273|366:273|274:339|192:245|192:245|123:170|140:59|227:24|227:24|298:84|281:195|192:245|192:245|119:281|106:360|106:360|45:294|77:214|77:214|29:182|29:182|63:101|13:48,1,1385.99995770264,4|0,0:0|0:0,0:0:0:0:
0,33,32493,5,2,0:0:0:0:
36,286,32636,1,2,0:0:0:0:
39,275,33665,5,12,0:0:0:0:
42,231,33734,1,8,0:0:0:0:
64,192,33804,1,8,0:0:0:0:
100,166,33874,1,8,0:0:0:0:
144,157,33944,1,8,0:0:0:0:
187,166,34013,1,8,0:0:0:0:
223,193,34083,1,8,0:0:0:0:
244,233,34153,1,8,0:0:0:0:
246,277,34223,5,0,0:0:0:0:
232,275,34292,1,0,0:0:0:0:
218,269,34362,1,0,0:0:0:0:
208,258,34432,1,0,0:0:0:0:
202,245,34502,1,0,0:0:0:0:
200,230,34571,1,0,0:0:0:0:
203,215,34641,1,0,0:0:0:0:
211,203,34711,1,0,0:0:0:0:
223,193,34781,5,2,0:0:0:0:
486,283,34920,1,2,0:0:0:0:
341,126,35898,5,0,0:0:0:0:
363,114,35969,1,0,0:0:0:0:
387,112,36040,1,0,0:0:0:0:
411,120,36112,1,0,0:0:0:0:
429,137,36183,1,0,0:0:0:0:
440,159,36255,1,0,0:0:0:0:
440,184,36326,1,0,0:0:0:0:
431,207,36398,1,0,0:0:0:0:
413,225,36469,5,12,0:0:0:0:
370,202,36540,1,8,0:0:0:0:
321,209,36611,1,8,0:0:0:0:
286,244,36683,1,8,0:0:0:0:
278,292,36754,1,8,0:0:0:0:
300,336,36826,1,0,0:0:0:0:
344,358,36897,1,0,0:0:0:0:
392,350,36969,1,0,0:0:0:0:
427,315,37041,5,2,0:0:0:0:
427,326,37327,1,2,0:0:0:0:
427,337,37613,1,2,0:0:0:0:
427,348,37899,1,2,0:0:0:0:
235,222,38183,5,2,0:0:0:0:
237,255,38469,1,2,0:0:0:0:
237,288,38755,1,2,0:0:0:0:
237,321,39041,1,0,0:0:0:0:
81,113,39326,5,12,0:0:0:0:
83,135,39397,1,8,0:0:0:0:
85,160,39468,1,8,0:0:0:0:
88,185,39540,1,8,0:0:0:0:
92,210,39612,2,0,L|95:246,1,25
125,40,39755,1,8,0:0:0:0:
101,31,39826,1,8,0:0:0:0:
76,29,39897,1,8,0:0:0:0:
52,34,39969,1,8,0:0:0:0:
30,45,40041,2,0,L|-1:76,1,25,0|0,0:0|0:0,0:0:0:0:
180,147,40183,6,0,L|224:136,1,34.9999989318848,0|0,0:0|0:0,0:0:0:0:
332,59,40326,2,0,L|376:70,1,34.9999989318848,0|0,0:0|0:0,0:0:0:0:
511,110,40469,1,2,0:0:0:0:
368,281,40945,5,0,0:0:0:0:
368,281,40993,1,0,0:0:0:0:
368,281,41041,2,0,B|412:284|412:284|441:271|441:271|508:277,2,120,0|0|0,0:0|0:0|0:0,0:0:0:0:
58,229,41612,5,0,0:0:0:0:
197,107,41755,2,0,B|150:99|150:99|93:110,1,85.0000016212464,8|0,0:0|0:0,0:0:0:0:
240,343,42040,2,0,B|248:296|248:296|237:239,1,85.0000016212464,8|0,0:0|0:0,0:0:0:0:
4,325,42326,2,0,L|100:320,1,85.0000016212464,8|0,0:0|0:0,0:0:0:0:
154,185,42612,1,8,0:0:0:0:
453,287,42755,5,0,0:0:0:0:
357,365,42898,2,0,L|352:269,1,85.0000016212464,8|0,0:0|0:0,0:0:0:0:
414,38,43183,2,0,L|419:134,1,85.0000016212464,8|0,0:0|0:0,0:0:0:0:
177,159,43469,2,0,L|273:154,1,85.0000016212464,8|0,0:0|0:0,0:0:0:0:
291,153,43683,1,0,0:0:0:0:
320,152,43755,1,8,0:0:0:0:
254,305,43898,5,0,0:0:0:0:
156,133,44041,1,8,0:0:0:0:
13,323,44183,2,0,B|59:310|59:310|116:316,1,85.0000016212464,0|8,0:0|0:0,0:0:0:0:
307,384,44469,1,0,0:0:0:0:
470,237,44612,2,0,B|423:249|423:249|366:243,1,85.0000016212464,8|0,0:0|0:0,0:0:0:0:
230,192,44898,1,8,0:0:0:0:
317,0,45041,5,4,0:0:0:0:
105,188,45183,1,8,0:0:0:0:
373,133,45326,1,0,0:0:0:0:
105,40,45469,1,8,0:0:0:0:
398,110,45612,5,4,0:0:0:0:
79,163,45755,1,8,0:0:0:0:
361,294,45898,1,4,0:0:0:0:
231,65,46041,1,8,0:0:0:0:
122,305,46183,6,0,L|239:299,1,85.0000016212464,4|8,0:0|0:0,0:0:0:0:
157,112,46469,1,0,0:0:0:0:
46,254,46612,2,0,P|31:292|38:340,1,85.0000016212464,8|0,0:0|0:0,0:0:0:0:
276,211,46898,2,0,P|290:172|284:125,1,85.0000016212464,8|0,0:0|0:0,0:0:0:0:
269,104,47112,1,0,0:0:0:0:
251,80,47183,1,8,0:0:0:0:
430,230,47326,5,0,0:0:0:0:
504,51,47469,1,8,0:0:0:0:
441,257,47612,1,0,0:0:0:0:
350,55,47755,1,8,0:0:0:0:
261,267,47898,2,0,L|361:259,1,85.0000016212464,0|8,0:0|0:0,0:0:0:0:
115,159,48183,1,0,0:0:0:0:
84,161,48255,1,0,0:0:0:0:
55,163,48326,1,8,0:0:0:0:
222,30,48469,6,0,L|218:149,1,94.9999974632264,0|8,0:0|0:0,0:0:0:0:
462,0,48755,2,0,L|466:119,1,94.9999974632264,0|8,0:0|0:0,0:0:0:0:
345,214,49041,1,0,0:0:0:0:
308,66,49183,1,8,0:0:0:0:
313,304,49326,1,0,0:0:0:0:
381,131,49469,1,8,0:0:0:0:
393,94,49540,1,0,0:0:0:0:
405,58,49611,5,4,0:0:0:0:
487,329,49755,1,8,0:0:0:0:
281,145,49898,1,0,0:0:0:0:
512,195,50041,1,8,0:0:0:0:
261,384,50183,5,4,0:0:0:0:
232,346,50254,1,0,0:0:0:0:
224,299,50325,1,8,0:0:0:0:
236,254,50397,1,8,0:0:0:0:
267,219,50468,1,8,0:0:0:0:
295,181,50540,1,8,0:0:0:0:
303,134,50611,1,8,0:0:0:0:
291,89,50683,1,8,0:0:0:0:
260,54,50755,6,0,L|175:59,1,85.0000016212464,0|8,0:0|0:0,0:0:0:0:
122,236,51041,1,0,0:0:0:0:
27,63,51183,1,8,0:0:0:0:
7,253,51326,2,0,L|1:337,1,85.0000016212464,0|8,0:0|0:0,0:0:0:0:
206,230,51612,2,0,L|121:235,1,85.0000016212464,0|8,0:0|0:0,0:0:0:0:
293,175,51898,5,0,0:0:0:0:
389,363,52041,2,0,P|395:321|388:279,1,85.0000016212464,8|0,0:0|0:0,0:0:0:0:
293,92,52326,2,0,P|286:133|293:175,1,85.0000016212464,8|0,0:0|0:0,0:0:0:0:
501,163,52612,2,0,P|459:155|417:162,1,85.0000016212464,8|0,0:0|0:0,0:0:0:0:
269,297,52898,1,8,0:0:0:0:
128,115,53041,5,0,0:0:0:0:
81,283,53183,1,8,0:0:0:0:
89,34,53326,2,0,P|134:26|176:39,1,85.0000016212464,0|8,0:0|0:0,0:0:0:0:
293,202,53612,1,0,0:0:0:0:
390,4,53754,1,8,0:0:0:0:
478,201,53898,1,0,0:0:0:0:
478,201,53969,1,0,0:0:0:0:
478,201,54040,1,8,0:0:0:0:
232,50,54183,5,4,0:0:0:0:
325,315,54326,1,8,0:0:0:0:
111,122,54469,1,0,0:0:0:0:
391,143,54612,1,8,0:0:0:0:
82,106,54755,5,4,0:0:0:0:
205,367,54898,1,8,0:0:0:0:
296,90,55041,1,4,0:0:0:0:
33,255,55183,1,8,0:0:0:0:
356,270,55326,5,0,0:0:0:0:
188,202,55469,1,8,0:0:0:0:
391,143,55612,1,0,0:0:0:0:
159,214,55755,2,0,L|74:203,1,85.0000016212464,8|0,0:0|0:0,0:0:0:0:
232,352,56041,1,8,0:0:0:0:
292,168,56183,1,0,0:0:0:0:
416,342,56326,2,0,L|500:352,1,85.0000016212464,8|0,0:0|0:0,0:0:0:0:
264,258,56612,5,8,0:0:0:0:
320,78,56755,1,0,0:0:0:0:
144,122,56898,2,0,L|59:111,1,85.0000016212464,8|0,0:0|0:0,0:0:0:0:
349,68,57183,2,0,L|433:78,1,85.0000016212464,8|0,0:0|0:0,0:0:0:0:
463,83,57398,1,0,0:0:0:0:
492,86,57469,1,8,0:0:0:0:
368,261,57612,5,0,0:0:0:0:
255,105,57755,1,8,0:0:0:0:
187,280,57898,2,0,B|177:323|177:323|185:364,1,85.0000016212464,0|8,0:0|0:0,0:0:0:0:
347,151,58183,2,0,B|356:107|356:107|348:66,1,85.0000016212464,0|8,0:0|0:0,0:0:0:0:
66,146,58469,2,0,L|171:160,1,85.0000016212464,0|8,0:0|0:0,0:0:0:0:
380,305,58755,6,0,L|372:364,1,55.0000016784668,4|0,0:0|0:0,0:0:0:0:
274,227,58898,2,0,L|278:287,1,55.0000016784668,8|0,0:0|0:0,0:0:0:0:
382,153,59041,2,0,L|374:212,1,55.0000016784668,0|0,0:0|0:0,0:0:0:0:
276,75,59183,2,0,L|280:135,1,55.0000016784668,8|0,0:0|0:0,0:0:0:0:
383,50,59326,2,0,L|492:60,1,110.000003356934,0|4,0:0|0:0,0:0:0:0:
299,240,59612,1,8,0:0:0:0:
298,226,59683,1,8,0:0:0:0:
298,212,59754,1,8,0:0:0:0:
299,198,59826,1,8,0:0:0:0:
301,185,59898,5,4,0:0:0:0:
259,147,59969,1,0,0:0:0:0:
204,134,60040,1,8,0:0:0:0:
149,145,60112,1,0,0:0:0:0:
107,182,60183,1,8,0:0:0:0:
85,232,60255,1,0,0:0:0:0:
88,288,60326,1,8,0:0:0:0:
116,336,60398,1,0,0:0:0:0:
162,366,60469,1,8,0:0:0:0:
218,372,60540,1,0,0:0:0:0:
270,352,60612,6,0,L|265:296,1,40,8|0,0:0|0:0,0:0:0:0:
150,182,60755,2,0,L|152:221,1,40,8|0,0:0|0:0,0:0:0:0:
36,372,60898,2,0,L|33:332,1,40,8|0,0:0|0:0,0:0:0:0:
91,78,61041,5,8,0:0:0:0:
125,58,61112,1,0,0:0:0:0:
165,56,61183,2,0,P|194:65|209:75,1,40,8|0,0:0|0:0,0:0:0:0:
370,57,61326,2,0,P|341:65|326:75,1,40,8|0,0:0|0:0,0:0:0:0:
178,33,61469,2,0,P|206:41|221:51,1,40,8|0,0:0|0:0,0:0:0:0:
330,174,61612,6,0,L|335:230,1,40,8|0,0:0|0:0,0:0:0:0:
203,205,61755,2,0,L|199:244,1,40,8|0,0:0|0:0,0:0:0:0:
358,190,61898,2,0,L|363:246,1,40,8|0,0:0|0:0,0:0:0:0:
178,223,62041,2,0,L|175:263,1,40,8|0,0:0|0:0,0:0:0:0:
354,360,62183,5,4,0:0:0:0:
382,331,62254,1,0,0:0:0:0:
397,295,62325,1,0,0:0:0:0:
398,255,62397,1,0,0:0:0:0:
384,218,62468,1,8,0:0:0:0:
358,190,62541,1,0,0:0:0:0:
329,161,62612,1,8,0:0:0:0:
314,125,62683,1,0,0:0:0:0:
313,85,62755,1,8,0:0:0:0:
327,48,62826,1,0,0:0:0:0:
354,19,62898,6,0,L|396:23,1,40,8|0,0:0|0:0,0:0:0:0:
223,68,63041,2,0,L|181:71,1,40,8|0,0:0|0:0,0:0:0:0:
366,0,63183,2,0,L|407:3,1,40,8|0,0:0|0:0,0:0:0:0:
453,175,63326,6,0,L|456:123,1,40,8|0,0:0|0:0,0:0:0:0:
320,277,63469,2,0,L|317:329,1,40,8|0,0:0|0:0,0:0:0:0:
429,190,63612,2,0,L|432:138,1,40,8|0,0:0|0:0,0:0:0:0:
341,261,63755,2,0,L|338:313,1,40,8|0,0:0|0:0,0:0:0:0:
432,280,63898,6,0,P|451:279|471:275,1,40,8|0,0:0|0:0,0:0:0:0:
344,172,64041,2,0,P|324:172|304:176,1,40,8|0,0:0|0:0,0:0:0:0:
177,302,64183,2,0,P|180:320|182:340,1,40,8|0,0:0|0:0,0:0:0:0:
66,243,64326,2,0,P|60:223|59:203,1,40,8|0,0:0|0:0,0:0:0:0:
173,25,64469,6,0,B|153:77|153:77|162:201,1,165.000005035401,4|0,0:0|0:0,0:0:0:0:
186,164,64755,1,8,0:0:0:0:
218,141,64826,1,0,0:0:0:0:
257,131,64897,1,8,0:0:0:0:
296,135,64969,1,0,0:0:0:0:
331,154,65041,1,8,0:0:0:0:
362,178,65112,1,0,0:0:0:0:
401,187,65183,1,8,0:0:0:0:
440,180,65255,1,0,0:0:0:0:
472,158,65326,1,8,0:0:0:0:
493,124,65398,1,0,0:0:0:0:
499,85,65469,1,8,0:0:0:0:
488,46,65541,1,0,0:0:0:0:
463,16,65612,6,0,L|423:21,1,40,8|0,0:0|0:0,0:0:0:0:
274,114,65755,2,0,L|313:119,1,40,8|0,0:0|0:0,0:0:0:0:
448,39,65898,2,0,L|408:44,1,40,8|0,0:0|0:0,0:0:0:0:
296,135,66041,2,0,L|335:140,1,40,8|0,0:0|0:0,0:0:0:0:
472,158,66183,6,0,L|481:232,1,40,8|0,0:0|0:0,0:0:0:0:
372,250,66326,2,0,L|363:324,1,40,8|0,0:0|0:0,0:0:0:0:
498,189,66469,2,0,L|502:228,1,40,8|0,0:0|0:0,0:0:0:0:
340,274,66612,2,0,L|331:348,1,40,8|0,0:0|0:0,0:0:0:0:
464,339,66755,6,0,L|471:380,3,26.6666666666667,8|8|8|0,0:0|0:0|0:0|0:0,0:0:0:0:
296,135,67041,2,0,P|297:103|308:63,1,55.0000016784668,0|0,0:0|0:0,0:0:0:0:
120,228,67183,2,0,P|119:260|108:300,1,55.0000016784668,0|0,0:0|0:0,0:0:0:0:
31,182,67326,5,0,0:0:0:0:
67,142,67397,1,0,0:0:0:0:
120,127,67468,1,0,0:0:0:0:
172,141,67540,1,0,0:0:0:0:
209,181,67612,1,8,0:0:0:0:
245,220,67683,1,8,0:0:0:0:
298,235,67754,1,8,0:0:0:0:
350,221,67826,1,8,0:0:0:0:
387,181,67898,6,0,P|322:176|272:330,1,240,4|0,0:0|0:0,0:0:0:0:
425,272,68183,2,0,P|475:229|402:85,1,240,4|0,0:0|0:0,0:0:0:0:
387,181,68469,5,0,0:0:0:0:
321,201,68540,1,0,0:0:0:0:
256,177,68611,1,0,0:0:0:0:
219,120,68683,1,0,0:0:0:0:
224,50,68755,2,0,B|219:115|219:115|195:146|195:146|230:181|230:181|223:281,1,255.000004863739,0|0,2:0|2:0,2:0:0:0:
318,102,69040,5,0,0:0:0:0:
114,45,69183,2,0,L|107:129,1,85.0000016212464,8|0,0:0|0:0,0:0:0:0:
218,367,69469,2,0,L|224:282,1,85.0000016212464,8|0,0:0|0:0,0:0:0:0:
0,302,69755,2,0,L|84:308,1,85.0000016212464,8|0,0:0|0:0,0:0:0:0:
241,168,70041,1,8,0:0:0:0:
338,338,70183,5,0,0:0:0:0:
460,204,70326,2,0,L|453:288,1,85.0000016212464,8|0,0:0|0:0,0:0:0:0:
235,84,70612,2,0,L|241:168,1,85.0000016212464,8|0,0:0|0:0,0:0:0:0:
385,0,70898,2,0,L|378:84,1,85.0000016212464,8|0,0:0|0:0,0:0:0:0:
377,114,71112,1,0,0:0:0:0:
374,143,71183,1,8,0:0:0:0:
197,0,71326,5,0,0:0:0:0:
104,190,71469,1,8,0:0:0:0:
13,21,71612,2,0,P|55:3|99:7,1,85.0000016212464,0|8,0:0|0:0,0:0:0:0:
207,168,71898,1,0,0:0:0:0:
71,89,72041,1,8,0:0:0:0:
79,276,72183,2,0,P|124:276|164:257,1,85.0000016212464,0|8,0:0|0:0,0:0:0:0:
326,110,72469,5,4,0:0:0:0:
432,344,72612,1,8,0:0:0:0:
368,29,72755,1,0,0:0:0:0:
233,320,72898,1,8,0:0:0:0:
277,33,73041,5,4,0:0:0:0:
510,241,73183,1,8,0:0:0:0:
207,168,73326,1,4,0:0:0:0:
507,78,73469,1,8,0:0:0:0:
333,335,73612,5,0,0:0:0:0:
299,131,73755,2,0,L|383:137,1,85.0000016212464,8|0,0:0|0:0,0:0:0:0:
146,249,74041,2,0,L|61:242,1,85.0000016212464,8|0,0:0|0:0,0:0:0:0:
319,107,74326,2,0,L|403:113,1,85.0000016212464,8|0,0:0|0:0,0:0:0:0:
434,116,74541,1,0,0:0:0:0:
463,118,74612,1,8,0:0:0:0:
279,21,74755,5,0,0:0:0:0:
252,214,74898,1,8,0:0:0:0:
119,18,75041,1,0,0:0:0:0:
146,211,75184,1,8,0:0:0:0:
9,101,75326,2,0,L|117:109,1,85.0000016212464,0|8,0:0|0:0,0:0:0:0:
342,132,75612,1,0,0:0:0:0:
312,129,75683,1,0,0:0:0:0:
282,127,75754,1,8,0:0:0:0:
199,297,75898,5,0,0:0:0:0:
93,107,76041,1,8,0:0:0:0:
152,384,76183,1,0,0:0:0:0:
252,214,76326,1,8,0:0:0:0:
12,281,76469,2,0,L|127:289,1,94.9999974632264,0|8,0:0|0:0,0:0:0:0:
337,292,76755,1,0,0:0:0:0:
341,328,76826,1,0,0:0:0:0:
343,364,76897,1,8,0:0:0:0:
477,101,77041,5,4,0:0:0:0:
202,163,77183,1,8,0:0:0:0:
510,108,77326,1,0,0:0:0:0:
227,0,77469,1,8,0:0:0:0:
474,208,77612,1,4,0:0:0:0:
435,172,77683,1,0,0:0:0:0:
382,159,77754,1,8,0:0:0:0:
330,174,77826,1,0,0:0:0:0:
293,213,77897,1,0,0:0:0:0:
253,251,77969,1,0,0:0:0:0:
200,264,78040,1,0,0:0:0:0:
148,249,78112,1,0,0:0:0:0:
111,210,78183,6,0,P|91:151|103:100,1,89.9999972534181,4|0,0:0|0:0,0:0:0:0:
126,42,78469,2,0,L|163:35,3,29.9999990844727,8|0|0|0,0:0|0:0|0:0|0:0,0:0:0:0:
233,74,78755,2,0,L|273:80,3,29.9999990844727,8|0|0|0,0:0|0:0|0:0|0:0,0:0:0:0:
338,33,79041,2,0,L|375:26,3,29.9999990844727,8|0|0|0,0:0|0:0|0:0|0:0,0:0:0:0:
429,85,79326,6,0,P|398:151|418:222,1,150,4|0,0:0|0:0,0:0:0:0:
431,244,79612,1,8,0:0:0:0:
416,269,79683,1,0,0:0:0:0:
394,291,79754,1,0,0:0:0:0:
368,305,79826,1,0,0:0:0:0:
340,313,79897,1,8,0:0:0:0:
305,316,79969,1,0,0:0:0:0:
271,308,80040,1,0,0:0:0:0:
242,289,80112,1,0,0:0:0:0:
221,262,80183,1,8,0:0:0:0:
194,231,80254,1,0,0:0:0:0:
158,213,80325,1,0,0:0:0:0:
119,212,80397,1,0,0:0:0:0:
82,226,80469,6,0,L|75:281,1,42.5000008106232,12|0,0:0|0:0,0:0:0:0:
207,141,80612,2,0,L|214:86,1,42.5000008106232
113,60,80755,1,8,0:0:0:0:
313,37,80898,1,0,0:0:0:0:
313,37,80969,1,0,0:0:0:0:
313,37,81041,6,0,L|367:44,1,42.5000008106232,8|0,0:0|0:0,0:0:0:0:
488,119,81183,2,0,L|445:113,1,42.5000008106232,0|0,0:0|0:0,0:0:0:0:
344,164,81326,1,8,0:0:0:0:
341,193,81397,1,0,0:0:0:0:
339,223,81468,1,0,0:0:0:0:
337,252,81540,1,0,0:0:0:0:
334,282,81612,6,0,B|256:278|256:278|194:311|194:311|92:307,1,225.000008583069,12|0,0:0|0:0,0:0:0:0:
59,384,81898,2,0,B|87:310|87:310|57:163,1,225.000008583069,12|0,0:0|0:0,0:0:0:0:
2,59,82183,5,12,0:0:0:0:
190,147,82326,1,8,0:0:0:0:
0,301,82469,1,8,0:0:0:0:
147,17,82612,1,8,0:0:0:0:
296,287,82755,5,0,0:0:0:0:
419,134,82898,1,8,0:0:0:0:
478,320,83041,1,0,0:0:0:0:
402,109,83183,2,0,L|294:101,1,85.0000016212464,8|0,0:0|0:0,0:0:0:0:
386,306,83469,1,8,0:0:0:0:
510,170,83612,1,0,0:0:0:0:
363,328,83755,2,0,L|255:320,1,85.0000016212464,8|0,0:0|0:0,0:0:0:0:
203,177,84040,5,8,0:0:0:0:
113,337,84183,1,0,0:0:0:0:
223,149,84326,2,0,L|331:157,1,85.0000016212464,8|0,0:0|0:0,0:0:0:0:
145,33,84612,2,0,L|37:25,1,85.0000016212464,8|0,0:0|0:0,0:0:0:0:
30,26,84826,1,0,0:0:0:0:
0,24,84898,1,8,0:0:0:0:
94,212,85041,5,0,0:0:0:0:
254,49,85183,2,0,B|307:45|307:45|366:64,1,94.9999974632264,8|0,0:0|0:0,0:0:0:0:
417,265,85469,2,0,B|363:268|363:268|304:249,1,94.9999974632264,8|0,0:0|0:0,0:0:0:0:
177,134,85755,1,8,0:0:0:0:
136,333,85898,1,0,0:0:0:0:
136,333,85969,1,0,0:0:0:0:
136,333,86041,1,8,0:0:0:0:
381,166,86183,6,0,B|490:176,1,110.000003356934,4|0,0:0|0:0,0:0:0:0:
325,256,86469,1,8,0:0:0:0:
288,221,86540,1,8,0:0:0:0:
272,172,86611,1,8,0:0:0:0:
281,122,86683,1,8,0:0:0:0:
312,82,86755,5,0,0:0:0:0:
381,166,86898,1,0,0:0:0:0:
297,235,87041,1,0,0:0:0:0:
228,151,87183,1,0,0:0:0:0:
65,247,87326,6,0,B|172:197|204:305|312:223,1,239.999992675781,4|0,0:0|0:0,0:0:0:0:
377,19,88183,6,0,P|389:65|377:116,1,89.9999972534181,8|0,0:0|0:0,0:0:0:0:
372,128,88468,2,0,P|361:193|378:244,1,104.999996795654
382,255,88754,2,0,P|424:301|495:298,1,120
460,219,89040,6,0,P|326:190|362:339,1,340.000006484985
382,255,89897,1,8,0:0:0:0:
86,320,90183,6,0,P|138:344|196:330,1,120,0|0,0:0|0:0,0:0:0:0:
218,319,90468,2,0,P|266:301|317:314,1,104.999996795654,8|0,0:0|0:0,0:0:0:0:
335,323,90754,2,0,P|395:340|439:194,1,239.999992675781
278,202,91611,1,8,0:0:0:0:
51,23,91897,6,0,P|96:8|143:20,1,97.4999955368044
165,34,92183,2,0,P|200:66|208:134,1,112.500004291535
205,157,92468,2,0,P|265:118|264:290,1,340.000006484985
82,258,93326,6,0,L|88:346,1,75,8|0,0:0|0:0,0:0:0:0:
185,157,93611,2,0,L|175:291,1,134.999995880127,4|0,0:0|0:0,0:0:0:0:
96,106,93897,2,0,L|100:165,2,59.9999981689454,8|8|8,0:0|0:0|0:0,0:0:0:0:
185,57,94183,6,0,L|287:66,1,85.0000016212464,4|8,0:0|0:0,0:0:0:0:
450,161,94468,2,0,L|348:152,1,85.0000016212464,0|8,0:0|0:0,0:0:0:0:
255,223,94754,1,0,0:0:0:0:
364,62,94897,1,8,0:0:0:0:
354,269,95040,6,0,P|362:310|354:353,1,85.0000016212464,0|8,0:0|0:0,0:0:0:0:
172,223,95326,2,0,P|213:214|256:223,1,85.0000016212464,0|8,0:0|0:0,0:0:0:0:
82,332,95611,2,0,P|40:340|-2:332,1,85.0000016212464,0|8,0:0|0:0,0:0:0:0:
0,81,95897,5,0,0:0:0:0:
43,250,96040,1,8,0:0:0:0:
163,125,96183,1,0,0:0:0:0:
21,166,96326,1,8,0:0:0:0:
61,18,96468,1,0,0:0:0:0:
105,188,96611,1,8,0:0:0:0:
219,57,96754,6,0,L|303:62,1,85.0000016212464,0|8,0:0|0:0,0:0:0:0:
261,254,97040,2,0,L|266:169,1,85.0000016212464,0|8,0:0|0:0,0:0:0:0:
458,225,97326,2,0,L|373:219,1,85.0000016212464,0|8,0:0|0:0,0:0:0:0:
273,384,97611,5,0,0:0:0:0:
153,247,97754,1,0,0:0:0:0:
0,346,97897,2,0,L|137:350,1,127.50000243187,8|0,0:0|0:0,0:0:0:0:
157,351,98183,1,8,0:0:0:0:
148,152,98326,1,0,0:0:0:0:
364,232,98468,5,0,0:0:0:0:
229,296,98611,1,0,0:0:0:0:
393,207,98754,2,0,L|397:88,1,85.0000016212464,8|0,0:0|0:0,0:0:0:0:
397,92,98968,1,0,0:0:0:0:
398,62,99040,1,8,0:0:0:0:
9,202,99340,6,0,P|79:237|160:191,1,165.000005035401,0|0,0:0|0:0,0:0:0:0:
129,37,99632,2,0,P|81:93|88:166,1,134.999995880127,0|0,0:0|0:0,0:0:0:0:
235,178,99925,2,0,P|202:130|140:121,1,104.999996795654,0|0,0:3|0:3,0:3:0:0:
9,202,100218,1,8,0:0:0:0:
260,291,100510,5,0,0:0:0:0:
260,295,100581,1,0,0:0:0:0:
260,299,100652,1,0,0:0:0:0:
260,304,100724,1,0,0:0:0:0:
260,308,100795,1,0,0:0:0:0:
260,312,100864,1,0,0:0:0:0:
260,317,100934,1,0,0:0:0:0:
260,321,101004,1,0,0:0:0:0:
284,345,101074,5,4,0:0:0:0:
448,56,101516,1,2,0:0:0:0:
146,189,101801,1,2,0:0:0:0:
498,255,102087,1,2,0:0:0:0:
498,255,102754,5,0,0:0:0:0:
496,267,102825,1,0,0:0:0:0:
495,279,102896,1,0,0:0:0:0:
493,292,102968,1,0,0:0:0:0:
492,304,103040,2,0,B|426:284|426:284|316:301,1,179.999994506836,10|0,0:0|0:0,0:0:0:0:
316,300,103325,6,0,L|319:221,1,80,4|8,0:0|0:0,0:0:0:0:
329,52,103610,1,0,0:0:0:0:
196,189,103753,1,8,0:0:0:0:
388,135,103896,2,0,L|467:138,1,80,0|8,0:0|0:0,0:0:0:0:
217,70,104182,1,0,0:0:0:0:
217,70,104253,1,0,0:0:0:0:
217,70,104325,1,8,0:0:0:0:
85,252,104467,6,0,L|81:172,1,80,0|8,0:0|0:0,0:0:0:0:
279,327,104753,2,0,L|282:247,1,80,0|8,0:0|0:0,0:0:0:0:
169,163,105039,1,0,0:0:0:0:
180,346,105182,1,8,0:0:0:0:
262,150,105325,1,0,0:0:0:0:
175,255,105467,1,8,0:0:0:0:
125,83,105610,6,0,P|163:74|206:83,1,80,4|8,0:0|0:0,0:0:0:0:
331,212,105896,1,0,0:0:0:0:
336,49,106039,5,8,0:0:0:0:
319,218,106182,1,0,0:0:0:0:
414,81,106325,5,8,0:0:0:0:
307,224,106467,1,0,0:0:0:0:
489,117,106610,6,0,L|481:218,1,80,8|0,0:0|0:0,0:0:0:0:
405,298,106896,1,8,0:0:0:0:
509,109,107039,2,0,L|501:210,1,80,0|8,0:0|0:0,0:0:0:0:
492,368,107325,2,0,L|480:318,2,40
333,170,107610,2,0,L|321:220,2,40
75,257,107896,5,0,0:0:0:0:
75,257,107967,1,0,0:0:0:0:
75,257,108039,2,0,L|30:274,1,40
208,340,108182,2,0,L|314:333,1,80,8|0,0:0|0:0,0:0:0:0:
208,101,108467,6,0,L|210:140,1,40,0|0,0:0|0:0,0:0:0:0:
221,243,108610,1,8,0:0:0:0:
382,46,108753,2,0,L|379:85,1,40,0|0,0:0|0:0,0:0:0:0:
371,187,108896,1,8,0:0:0:0:
222,6,109039,5,4,0:0:0:0:
177,11,109110,1,0,0:0:0:0:
140,36,109182,1,0,0:0:0:0:
117,74,109253,1,0,0:0:0:0:
113,118,109325,1,0,0:0:0:0:
108,161,109396,1,0,0:0:0:0:
85,199,109467,1,0,0:0:0:0:
48,224,109539,1,0,0:0:0:0:
2,228,109610,6,0,P|33:238|56:255,1,59.9999981689454,0|0,0:0|0:0,0:0:0:0:
271,217,109753,2,0,P|240:226|217:243,1,59.9999981689454,0|0,0:0|0:0,0:0:0:0:
111,384,109896,2,0,P|120:353|137:330,1,59.9999981689454,0|0,0:0|0:0,0:0:0:0:
113,118,110039,2,0,P|122:148|139:171,1,59.9999981689454,0|0,0:0|0:0,0:0:0:0:
349,178,110182,6,0,P|359:216|352:255,1,80,4|8,0:0|0:0,0:0:0:0:
215,296,110467,1,0,0:0:0:0:
308,105,110610,2,0,P|346:94|385:101,1,80,8|0,0:0|0:0,0:0:0:0:
504,265,110896,1,8,0:0:0:0:
349,178,111039,1,0,0:0:0:0:
497,102,111182,1,8,0:0:0:0:
348,336,111325,6,0,L|268:332,1,80,0|8,0:0|0:0,0:0:0:0:
448,184,111610,1,0,0:0:0:0:
244,245,111753,2,0,L|164:241,1,80,8|0,0:0|0:0,0:0:0:0:
402,265,112039,1,8,0:0:0:0:
163,156,112182,2,0,L|83:152,1,80,0|8,0:0|0:0,0:0:0:0:
411,21,112467,6,0,L|407:101,1,80,0|8,0:0|0:0,0:0:0:0:
402,265,112753,1,0,0:0:0:0:
294,126,112896,1,8,0:0:0:0:
240,321,113039,2,0,L|320:325,1,80,0|8,0:0|0:0,0:0:0:0:
120,244,113325,1,0,0:0:0:0:
120,244,113396,1,0,0:0:0:0:
120,244,113467,1,8,0:0:0:0:
193,74,113610,5,0,0:0:0:0:
214,221,113753,1,8,0:0:0:0:
34,106,113896,1,0,0:0:0:0:
34,272,114039,1,8,0:0:0:0:
193,74,114182,6,0,L|189:26,1,40
300,201,114325,1,8,0:0:0:0:
173,61,114467,2,0,L|169:13,1,40,0|0,0:0|0:0,0:0:0:0:
317,216,114610,1,8,0:0:0:0:
332,12,114753,6,0,L|327:111,1,80,4|8,0:0|0:0,0:0:0:0:
477,19,115039,1,0,0:0:0:0:
477,19,115110,1,0,0:0:0:0:
477,19,115182,1,8,0:0:0:0:
512,195,115325,1,0,0:0:0:0:
411,86,115467,1,8,0:0:0:0:
392,247,115610,1,0,0:0:0:0:
392,247,115682,1,0,0:0:0:0:
392,247,115753,6,0,L|306:242,1,80,8|0,0:0|0:0,0:0:0:0:
233,384,116039,2,0,L|238:298,1,80,8|0,0:0|0:0,0:0:0:0:
247,152,116325,1,8,0:0:0:0:
36,303,116467,6,0,L|27:367,1,50,0|0,0:0|0:0,0:0:0:0:
138,230,116610,2,0,L|147:294,1,50,0|0,0:0|0:0,0:0:0:0:
36,157,116753,2,0,L|27:221,1,50,0|0,0:0|0:0,0:0:0:0:
138,84,116896,2,0,L|147:148,1,50,0|0,0:0|0:0,0:0:0:0:
40,39,117039,6,0,B|98:12|163:53|163:53|214:24|214:24|279:67|344:38,1,320,4|0,0:0|0:0,0:0:0:0:
339,40,117896,1,0,0:0:0:0:
339,40,118182,5,4,0:0:0:0:
385,67,118253,1,0,0:0:0:0:
405,117,118325,1,0,0:0:0:0:
389,169,118396,1,0,0:0:0:0:
345,200,118467,1,0,0:0:0:0:
299,229,118539,1,0,0:0:0:0:
278,279,118610,1,0,0:0:0:0:
287,332,118682,1,0,0:0:0:0:
323,372,118753,5,0,0:0:0:0:
337,340,118825,1,0,0:0:0:0:
336,305,118896,1,0,0:0:0:0:
322,274,118967,1,0,0:0:0:0:
297,250,119039,1,0,0:0:0:0:
264,238,119110,1,0,0:0:0:0:
230,240,119182,1,0,0:0:0:0:
199,255,119253,1,0,0:0:0:0:
176,282,119325,6,0,P|111:315|29:272,1,165.000005035401,4|0,0:0|0:0,0:0:0:0:
11,202,119610,1,8,0:0:0:0:
12,167,119682,1,0,0:0:0:0:
25,134,119753,1,8,0:0:0:0:
48,108,119825,1,0,0:0:0:0:
78,91,119896,1,8,0:0:0:0:
112,84,119967,1,0,0:0:0:0:
147,89,120039,1,8,0:0:0:0:
177,106,120110,1,0,0:0:0:0:
201,131,120182,2,0,L|197:184,3,34.9999989318848,8|0|8|0,0:0|0:0|0:0|0:0,0:0:0:0:
278,65,120467,5,8,0:0:0:0:
304,42,120539,1,0,0:0:0:0:
337,33,120610,1,8,0:0:0:0:
372,38,120682,1,0,0:0:0:0:
401,57,120753,1,8,0:0:0:0:
419,87,120825,1,0,0:0:0:0:
423,121,120896,1,8,0:0:0:0:
412,154,120967,1,0,0:0:0:0:
389,180,121039,1,8,0:0:0:0:
371,210,121110,1,0,0:0:0:0:
363,244,121182,1,8,0:0:0:0:
368,278,121253,1,0,0:0:0:0:
384,309,121325,1,8,0:0:0:0:
409,333,121396,1,0,0:0:0:0:
441,347,121467,1,8,0:0:0:0:
475,350,121539,1,0,0:0:0:0:
509,341,121610,5,12,0:0:0:0:
479,302,121682,1,0,0:0:0:0:
434,281,121753,1,8,0:0:0:0:
385,285,121825,1,0,0:0:0:0:
343,311,121896,1,8,0:0:0:0:
299,334,121967,1,0,0:0:0:0:
249,334,122039,1,8,0:0:0:0:
206,312,122110,1,0,0:0:0:0:
177,271,122182,1,8,0:0:0:0:
171,222,122253,1,0,0:0:0:0:
188,175,122325,2,0,L|251:170,1,50,8|0,0:0|0:0,0:0:0:0:
94,286,122467,2,0,L|31:291,1,50,8|0,0:0|0:0,0:0:0:0:
121,114,122610,1,8,0:0:0:0:
121,114,122682,1,0,0:0:0:0:
121,114,122753,5,8,0:0:0:0:
153,91,122825,1,0,0:0:0:0:
192,84,122896,1,8,0:0:0:0:
231,94,122967,1,0,0:0:0:0:
262,118,123039,1,8,0:0:0:0:
292,144,123110,1,0,0:0:0:0:
329,158,123182,1,8,0:0:0:0:
368,159,123253,1,0,0:0:0:0:
406,147,123325,1,8,0:0:0:0:
438,124,123396,1,0,0:0:0:0:
460,90,123467,1,8,0:0:0:0:
470,52,123539,1,0,0:0:0:0:
467,12,123610,2,0,L|387:19,1,80
512,291,123896,6,0,L|502:181,1,110.000003356934,4|8,0:0|0:0,0:0:0:0:
285,109,124182,1,0,0:0:0:0:
285,109,124253,1,0,0:0:0:0:
285,109,124325,1,8,0:0:0:0:
343,379,124467,1,0,0:0:0:0:
397,223,124610,1,8,0:0:0:0:
397,223,124682,1,0,0:0:0:0:
397,223,124753,2,0,L|341:228,1,55.0000016784668,0|0,0:0|0:0,0:0:0:0:
174,188,124896,2,0,L|230:183,1,55.0000016784668,8|0,0:0|0:0,0:0:0:0:
240,295,125039,6,0,P|193:323|139:319,1,110.000003356934,0|8,0:0|0:0,0:0:0:0:
56,82,125325,1,0,0:0:0:0:
56,82,125396,1,0,0:0:0:0:
56,82,125467,1,8,0:0:0:0:
0,257,125610,1,0,0:0:0:0:
184,88,125753,1,8,0:0:0:0:
184,88,125825,1,0,0:0:0:0:
184,88,125896,2,0,L|240:83,1,55.0000016784668,0|0,0:0|0:0,0:0:0:0:
320,146,126039,2,0,L|374:150,1,55.0000016784668,8|0,0:0|0:0,0:0:0:0:
485,21,126182,6,0,L|472:171,1,110.000003356934,4|0,0:0|0:0,0:0:0:0:
341,357,126467,2,0,L|328:207,1,110.000003356934,8|0,0:0|0:0,0:0:0:0:
85,172,126753,1,8,0:0:0:0:
71,213,126825,1,0,0:0:0:0:
82,256,126896,1,0,0:0:0:0:
116,284,126967,1,0,0:0:0:0:
161,288,127039,1,0,0:0:0:0:
200,266,127110,1,0,0:0:0:0:
220,227,127182,2,0,L|157:215,1,44.999998626709,8|0,0:0|0:0,0:0:0:0:
191,65,127325,6,0,P|184:34|184:3,3,55.0000016784668,0|0|0|0,0:0|0:0|0:0|0:0,0:0:0:0:
325,77,127610,2,0,P|341:50|363:28,3,55.0000016784668,8|0|0|0,0:0|0:0|0:0|0:0,0:0:0:0:
428,263,127896,1,0,0:0:0:0:
387,235,127967,1,0,0:0:0:0:
369,190,128039,1,0,0:0:0:0:
380,142,128110,1,0,0:0:0:0:
416,109,128182,2,0,P|401:207|301:232,1,209.999993591309,8|0,0:0|0:0,0:0:0:0:
113,233,128467,6,0,P|59:236|9:244,1,100,4|8,0:0|0:0,0:0:0:0:
244,320,128753,2,0,P|298:323|348:331,1,100,0|8,0:0|0:0,0:0:0:0:
227,131,129039,2,0,P|224:184|216:235,1,100,0|8,0:0|0:0,0:0:0:0:
143,55,129325,1,0,0:0:0:0:
143,55,129396,1,0,0:0:0:0:
143,55,129467,1,8,0:0:0:0:
413,88,129610,6,0,P|467:85|517:77,1,100,0|8,0:0|0:0,0:0:0:0:
258,223,129896,2,0,P|204:220|154:212,1,100,0|8,0:0|0:0,0:0:0:0:
399,362,130182,2,0,P|453:365|503:373,1,100,0|8,0:0|0:0,0:0:0:0:
363,197,130467,1,0,0:0:0:0:
363,197,130539,1,0,0:0:0:0:
363,197,130610,1,8,0:0:0:0:
268,379,130753,5,4,0:0:0:0:
184,173,130896,1,8,0:0:0:0:
111,383,131039,1,0,0:0:0:0:
265,243,131182,1,8,0:0:0:0:
12,244,131325,2,0,P|66:247|116:255,1,100,0|8,0:0|0:0,0:0:0:0:
281,147,131610,1,0,0:0:0:0:
281,147,131682,1,0,0:0:0:0:
281,147,131753,1,8,0:0:0:0:
401,328,131896,5,0,0:0:0:0:
480,126,132039,1,8,0:0:0:0:
512,369,132182,1,0,0:0:0:0:
380,136,132325,1,8,0:0:0:0:
368,334,132467,5,0,0:0:0:0:
419,55,132610,1,8,0:0:0:0:
512,272,132753,1,0,0:0:0:0:
512,272,132825,1,0,0:0:0:0:
512,272,132896,1,8,0:0:0:0:
330,56,133039,6,0,P|279:51|230:50,1,100,4|8,0:0|0:0,0:0:0:0:
28,174,133325,1,0,0:0:0:0:
56,172,133396,1,0,0:0:0:0:
86,170,133467,2,0,P|136:170|185:164,1,100,8|0,0:0|0:0,0:0:0:0:
353,149,133753,1,8,0:0:0:0:
139,78,133896,1,0,0:0:0:0:
137,50,133967,1,0,0:0:0:0:
135,20,134039,1,8,0:0:0:0:
87,261,134182,5,0,0:0:0:0:
89,289,134253,1,0,0:0:0:0:
91,319,134325,1,8,0:0:0:0:
279,257,134467,2,0,B|229:259,2,50,0|0|8,0:0|0:0|0:0,0:0:0:0:
472,146,134753,1,0,0:0:0:0:
470,118,134825,1,0,0:0:0:0:
468,88,134896,1,8,0:0:0:0:
416,249,135039,2,0,B|418:298,2,50,0|0|8,0:0|0:0|0:0,0:0:0:0:
249,62,135325,5,0,0:0:0:0:
248,69,135396,1,0,0:0:0:0:
248,76,135467,1,0,0:0:0:0:
248,84,135539,1,0,0:0:0:0:
247,91,135610,2,0,B|299:128|299:128|131:150,1,209.999993591309,12|0,0:0|0:0,0:0:0:0:
397,87,135896,2,0,B|345:50|345:50|513:28,1,209.999993591309,4|0,0:0|0:0,0:0:0:0:
477,133,136182,1,0,0:0:0:0:
484,165,136253,1,0,0:0:0:0:
492,199,136325,1,0,0:0:0:0:
502,233,136396,1,0,0:0:0:0:
512,267,136467,6,0,L|449:281,1,44.999998626709,0|0,0:0|0:0,0:0:0:0:
303,217,136610,1,0,0:0:0:0:
303,217,136682,1,0,0:0:0:0:
303,217,136753,2,0,L|356:205,1,55.0000016784668,0|0,0:0|0:0,0:0:0:0:
188,362,136896,1,0,0:0:0:0:
188,362,136967,1,0,0:0:0:0:
188,362,137039,2,0,L|202:298,1,64.9999970245363,0|0,0:0|0:0,0:0:0:0:
172,96,137182,1,0,0:0:0:0:
172,96,137253,1,0,0:0:0:0:
172,96,137325,2,0,L|188:169,1,75.0000028610231,8|8,0:0|0:0,0:0:0:0:
315,302,137467,1,0,0:0:0:0:
315,302,137539,1,8,0:0:0:0:
315,302,137610,6,0,P|390:212|303:131,1,255.000004863739,4|0,0:0|0:0,0:0:0:0:
206,175,137896,1,8,0:0:0:0:
147,179,137967,1,0,0:0:0:0:
99,145,138039,1,8,0:0:0:0:
84,88,138110,1,0,0:0:0:0:
108,35,138182,1,8,0:0:0:0:
161,9,138253,1,0,0:0:0:0:
218,23,138325,1,8,0:0:0:0:
253,71,138396,1,0,0:0:0:0:
285,120,138467,1,8,0:0:0:0:
338,145,138539,1,0,0:0:0:0:
397,137,138610,1,8,0:0:0:0:
442,98,138682,1,0,0:0:0:0:
458,41,138753,5,8,0:0:0:0:
410,55,138825,1,0,0:0:0:0:
376,90,138896,1,8,0:0:0:0:
364,138,138967,1,0,0:0:0:0:
377,186,139039,1,8,0:0:0:0:
412,221,139110,1,0,0:0:0:0:
444,258,139182,1,8,0:0:0:0:
449,307,139253,1,0,0:0:0:0:
426,351,139325,1,8,0:0:0:0:
383,375,139396,1,0,0:0:0:0:
334,370,139467,1,8,0:0:0:0:
296,338,139539,1,0,0:0:0:0:
282,291,139610,2,0,L|342:284,1,59.9999981689454,8|0,0:0|0:0,0:0:0:0:
205,143,139753,2,0,L|145:150,1,59.9999981689454,8|0,0:0|0:0,0:0:0:0:
6,298,139896,5,12,0:0:0:0:
27,342,139967,1,0,0:0:0:0:
71,365,140039,1,8,0:0:0:0:
119,358,140110,1,0,0:0:0:0:
155,325,140182,1,8,0:0:0:0:
165,276,140253,1,0,0:0:0:0:
145,232,140325,1,8,0:0:0:0:
112,194,140396,1,0,0:0:0:0:
101,146,140467,1,8,0:0:0:0:
114,98,140539,1,0,0:0:0:0:
147,61,140610,1,8,0:0:0:0:
194,44,140682,1,0,0:0:0:0:
243,51,140753,1,8,0:0:0:0:
283,80,140825,1,0,0:0:0:0:
305,124,140896,1,8,0:0:0:0:
305,173,140967,1,0,0:0:0:0:
281,217,141039,5,8,0:0:0:0:
313,203,141110,1,0,0:0:0:0:
348,203,141182,1,8,0:0:0:0:
379,217,141253,1,0,0:0:0:0:
403,242,141325,1,8,0:0:0:0:
415,275,141396,1,0,0:0:0:0:
412,310,141467,1,8,0:0:0:0:
395,340,141539,1,0,0:0:0:0:
368,362,141610,1,8,0:0:0:0:
335,370,141682,1,0,0:0:0:0:
300,365,141753,1,8,0:0:0:0:
271,346,141825,1,0,0:0:0:0:
252,317,141896,2,0,L|329:288,1,83.0000012031555
178,109,142182,6,0,L|172:241,1,129.999994049073,4|8,0:0|0:0,0:0:0:0:
474,203,142467,1,0,0:0:0:0:
238,40,142610,2,0,P|183:19|115:43,1,129.999994049073,8|0,0:0|0:0,0:0:0:0:
133,264,142896,1,8,3:0:0:0:
145,225,142967,1,0,3:0:0:0:
155,186,143039,1,0,3:0:0:0:
166,148,143110,1,0,3:0:0:0:
178,109,143182,1,8,3:0:0:0:
304,318,143325,6,0,P|358:338|427:315,1,129.999994049073,0|8,0:0|0:0,0:0:0:0:
396,49,143610,1,0,0:0:0:0:
234,257,143753,2,0,P|213:311|237:380,1,129.999994049073,8|0,0:0|0:0,0:0:0:0:
504,173,144039,1,8,0:0:0:0:
465,178,144110,1,0,0:0:0:0:
425,181,144182,1,0,0:0:0:0:
385,184,144253,1,0,0:0:0:0:
345,188,144325,1,8,0:0:0:0:
129,16,144467,5,4,0:0:0:0:
136,307,144610,1,0,0:0:0:0:
283,68,144753,1,8,0:0:0:0:
1,137,144896,1,0,0:0:0:0:
282,236,145039,1,8,0:0:0:0:
301,220,145110,1,0,0:0:0:0:
316,200,145182,1,0,0:0:0:0:
325,177,145253,1,0,0:0:0:0:
328,152,145325,1,0,0:0:0:0:
325,127,145396,1,0,0:0:0:0:
316,104,145467,1,8,0:0:0:0:
302,84,145539,1,0,0:0:0:0:
283,68,145610,5,0,0:0:0:0:
279,107,145682,1,0,0:0:0:0:
297,143,145753,1,0,0:0:0:0:
329,165,145825,1,0,0:0:0:0:
369,167,145896,1,8,0:0:0:0:
408,166,145967,1,0,0:0:0:0:
444,183,146039,1,0,0:0:0:0:
468,214,146110,1,0,0:0:0:0:
475,253,146182,1,8,0:0:0:0:
464,291,146253,1,0,0:0:0:0:
436,320,146325,1,0,0:0:0:0:
399,333,146396,1,0,0:0:0:0:
360,327,146467,1,8,0:0:0:0:
321,275,146539,1,8,0:0:0:0:
260,252,146610,1,8,0:0:0:0:
196,267,146682,1,8,0:0:0:0:
154,316,146753,6,0,P|205:348|294:333,1,129.999994049073,4|8,0:0|0:0,0:0:0:0:
251,45,147039,1,0,0:0:0:0:
89,235,147182,2,0,P|57:286|72:375,1,129.999994049073,8|0,0:0|0:0,0:0:0:0:
372,246,147467,1,8,0:0:0:0:
137,99,147610,1,0,0:0:0:0:
137,99,147682,1,0,0:0:0:0:
137,99,147753,6,0,L|7:87,1,129.999994049073,8|0,0:0|0:0,0:0:0:0:
354,55,148039,1,8,0:0:0:0:
211,243,148182,1,0,0:0:0:0:
491,88,148325,1,8,0:0:0:0:
230,24,148467,5,0,0:0:0:0:
355,284,148610,1,8,0:0:0:0:
260,7,148753,1,0,0:0:0:0:
327,303,148896,1,8,0:0:0:0:
407,22,149039,5,0,0:0:0:0:
410,67,149110,1,0,0:0:0:0:
413,112,149182,1,8,0:0:0:0:
148,143,149325,2,0,L|283:152,1,129.999994049073,0|8,0:0|0:0,0:0:0:0:
146,362,149610,2,0,L|11:371,1,129.999994049073,0|8,0:0|0:0,0:0:0:0:
28,86,149896,1,0,0:0:0:0:
31,131,149967,1,0,0:0:0:0:
34,176,150039,1,8,0:0:0:0:
314,213,150182,6,0,L|305:78,1,129.999994049073,0|8,0:0|0:0,0:0:0:0:
170,248,150467,1,0,0:0:0:0:
420,198,150610,1,8,0:0:0:0:
157,94,150753,2,0,L|22:85,1,129.999994049073,0|8,0:3|0:0,0:3:0:0:
289,21,151039,1,0,0:0:0:0:
170,248,151182,1,8,0:0:0:0:
383,103,151325,6,0,L|518:112,1,129.999994049073,4|8,0:3|0:3,0:3:0:0:
381,277,151610,1,0,0:0:0:0:
343,309,151682,1,8,0:0:0:0:
295,322,151753,1,8,0:0:0:0:
247,312,151825,1,8,0:0:0:0:
208,281,151896,1,0,0:0:0:0:
170,248,151967,1,0,0:0:0:0:
122,235,152039,1,0,0:0:0:0:
74,245,152110,1,0,0:0:0:0:
35,276,152182,2,0,L|27:209,1,50
112,83,152325,2,0,L|120:150,1,50
288,221,152467,5,8,0:0:0:0:
288,196,152539,1,0,0:0:0:0:
288,171,152610,1,0,0:0:0:0:
289,146,152682,1,0,0:0:0:0:
289,121,152753,5,0,0:0:0:0:
331,161,152824,1,0,0:0:0:0:
389,159,152895,1,0,0:0:0:0:
429,116,152967,1,0,0:0:0:0:
427,58,153038,1,10,0:0:0:0:
291,21,153610,6,0,B|316:93|268:145|268:145|315:179|303:241|303:241|259:284|280:349,1,359.999989013672,4|0,0:0|0:0,0:0:0:0:
116,162,154182,2,0,L|235:147,1,119.999996337891,0|8,0:0|0:0,0:0:0:0:
12,122,154396,2,0,L|26:241,1,119.999996337891,0|0,0:0|0:0,0:0:0:0:
92,66,154610,1,8,0:0:0:0:
328,294,154753,6,0,B|372:311|372:311|475:297,1,119.999996337891,0|8,0:0|0:0,0:0:0:0:
246,195,155039,1,0,0:0:0:0:
215,245,155110,1,0,0:0:0:0:
207,305,155182,2,0,P|207:334|215:363,1,44.999998626709,8|0,0:0|0:0,0:0:0:0:
325,131,155325,1,0,0:0:0:0:
286,109,155396,1,0,0:0:0:0:
242,99,155467,2,0,P|219:98|187:106,1,44.999998626709,8|0,0:0|0:0,0:0:0:0:
390,184,155610,1,0,0:0:0:0:
402,161,155682,1,0,0:0:0:0:
407,136,155753,2,0,P|407:122|399:81,1,44.999998626709,8|0,0:0|0:0,0:0:0:0:
116,75,155896,5,4,0:0:0:0:
121,119,155967,1,0,0:0:0:0:
125,163,156039,1,8,0:0:0:0:
130,208,156110,1,0,0:0:0:0:
88,254,156182,5,0,0:0:0:0:
90,231,156253,1,0,0:0:0:0:
92,209,156325,1,8,0:0:0:0:
95,187,156396,1,0,0:0:0:0:
136,153,156467,5,0,0:0:0:0:
269,357,156610,1,8,0:0:0:0:
293,353,156682,1,0,0:0:0:0:
318,349,156753,1,0,0:0:0:0:
461,214,156896,1,8,0:0:0:0:
437,210,156967,1,0,0:0:0:0:
412,206,157039,6,0,L|317:191,2,59.9999981689454
438,348,157325,2,0,L|533:333,2,59.9999981689454
236,266,157610,2,0,B|250:304|228:350|228:350|143:232|288:196|236:63,1,389.999982147218,0|8,0:0|0:0,0:0:0:0:
13,107,158182,6,0,L|152:115,1,139.999995727539,4|8,0:0|0:0,0:0:0:0:
405,46,158467,5,0,0:0:0:0:
403,60,158538,1,0,0:0:0:0:
403,75,158610,1,8,0:0:0:0:
406,90,158682,1,0,0:0:0:0:
445,154,158753,5,0,0:0:0:0:
460,207,158825,1,0,0:0:0:0:
454,263,158896,1,8,0:0:0:0:
424,311,158967,1,0,0:0:0:0:
377,303,159039,1,0,0:0:0:0:
328,309,159110,1,0,0:0:0:0:
286,335,159182,2,0,P|272:352|265:368,1,40,8|0,0:0|0:0,0:0:0:0:
35,201,159325,5,0,0:0:0:0:
85,170,159396,1,0,0:0:0:0:
143,178,159467,1,8,0:0:0:0:
184,221,159539,1,0,0:0:0:0:
188,280,159610,5,0,0:0:0:0:
197,246,159681,1,0,0:0:0:0:
205,212,159752,1,8,0:0:0:0:
214,178,159824,1,0,0:0:0:0:
258,184,159896,5,0,0:0:0:0:
255,175,159967,1,0,0:0:0:0:
253,167,160038,1,8,0:0:0:0:
251,158,160110,1,0,0:0:0:0:
249,149,160182,2,0,L|237:89,1,34.9999989318848
99,263,160325,2,0,L|71:322,1,34.9999989318848,8|0,0:0|0:0,0:0:0:0:
27,61,160467,5,4,0:0:0:0:
61,88,160538,1,0,0:0:0:0:
105,99,160610,1,8,0:0:0:0:
149,90,160682,1,0,0:0:0:0:
184,63,160753,5,0,0:0:0:0:
204,48,160825,1,0,0:0:0:0:
227,39,160896,1,8,0:0:0:0:
252,38,160967,1,0,0:0:0:0:
277,44,161039,2,0,L|322:53,1,25
164,186,161182,2,0,L|119:195,1,25,8|0,0:0|0:0,0:0:0:0:
355,358,161325,5,0,0:0:0:0:
385,305,161396,1,0,0:0:0:0:
390,245,161467,1,2,0:0:0:0:
368,189,161539,1,0,0:0:0:0:
340,190,161610,1,10,0:0:0:0:
207,84,162039,5,0,0:0:0:0:
481,186,162182,2,0,B|486:147|468:114|468:114|486:90|486:90|470:54|477:22,2,173.333325398763,12|8|8,0:0|0:0|0:0,0:0:0:0:
200,307,162754,6,0,P|170:240|194:171,1,150.000005722046,4|0,0:0|0:0,0:0:0:0:
402,242,163182,2,0,B|337:223|337:223|255:234,1,150.000005722046,8|0,0:0|0:0,0:0:0:0:
397,145,163611,6,0,B|483:170,1,75.0000028610231,8|0,0:0|0:0,0:0:0:0:
271,56,163896,2,0,B|185:81,1,75.0000028610231
419,112,164182,2,0,B|505:137,1,75.0000028610231
293,334,164468,5,8,0:0:0:0:
297,242,164611,1,0,0:0:0:0:
373,289,164754,1,0,0:0:0:0:
191,239,164896,2,0,B|112:250,1,75.0000028610231
313,218,165182,1,0,0:0:0:0:
132,166,165325,5,8,0:0:0:0:
86,325,165468,1,8,0:0:0:0:
63,141,165611,2,0,P|105:133|145:141,1,75.0000028610231
305,86,165896,2,0,P|263:94|223:86,1,75.0000028610231,0|8,0:0|0:0,0:0:0:0:
432,6,166182,6,0,P|396:69|421:137,1,150.000005722046,12|0,0:0|0:0,0:0:0:0:
468,215,166611,1,0,0:0:0:0:
422,292,166754,1,0,0:0:0:0:
333,302,166896,1,0,0:0:0:0:
104,203,167039,6,0,P|168:168|235:195,1,150.000005722046,12|0,0:0|0:0,0:0:0:0:
172,257,167468,1,0,0:0:0:0:
89,292,167611,1,0,0:0:0:0:
19,234,167754,1,0,0:0:0:0:
199,0,167896,6,0,P|230:65|202:132,1,150.000005722046,8|0,0:0|0:0,0:0:0:0:
186,150,168253,1,0,0:0:0:0:
176,169,168324,1,0,0:0:0:0:
168,191,168396,1,0,0:0:0:0:
165,213,168467,1,0,0:0:0:0:
166,235,168539,1,0,0:0:0:0:
172,257,168610,1,0,0:0:0:0:
181,278,168682,1,0,0:0:0:0:
194,296,168754,6,0,L|300:288,1,85.0000016212464,0|0,0:0|0:0,0:0:0:0:
441,180,169039,2,0,L|335:172,1,85.0000016212464,0|8,0:0|0:0,0:0:0:0:
380,333,169325,1,8,0:0:0:0:
225,150,169468,1,8,0:0:0:0:
225,150,169539,1,8,0:0:0:0:
225,150,169611,6,0,P|173:139|115:136,1,100,4|8,0:0|0:0,0:0:0:0:
174,378,169896,1,0,0:0:0:0:
322,230,170039,2,0,P|333:177|336:119,1,100,8|0,0:0|0:0,0:0:0:0:
179,13,170325,1,8,0:0:0:0:
395,47,170468,6,0,P|447:35|505:32,1,100,0|8,0:0|0:0,0:0:0:0:
220,163,170754,2,0,P|167:151|109:148,1,100,0|8,0:0|0:0,0:0:0:0:
409,152,171039,1,0,0:0:0:0:
255,67,171182,1,8,0:0:0:0:
184,312,171325,5,0,0:0:0:0:
315,158,171468,1,8,0:0:0:0:
190,339,171611,1,0,0:0:0:0:
74,140,171754,5,8,0:0:0:0:
7,349,171896,1,0,0:0:0:0:
52,108,172039,1,8,0:0:0:0:
272,257,172182,6,0,L|385:252,1,100,0|8,0:0|0:0,0:0:0:0:
480,139,172468,1,0,0:0:0:0:
512,324,172611,1,8,0:0:0:0:
352,136,172754,2,0,L|357:23,1,100,0|8,0:0|0:0,0:0:0:0:
42,36,173039,6,0,P|96:35|149:49,1,110.000003356934,4|8,0:0|0:0,0:0:0:0:
319,156,173325,1,0,0:0:0:0:
64,238,173468,2,0,P|63:183|77:130,1,110.000003356934,8|0,0:0|0:0,0:0:0:0:
238,0,173754,1,8,0:0:0:0:
227,267,173896,6,0,P|226:326|241:384,1,119.999996337891,4|8,0:0|0:0,0:0:0:0:
512,243,174182,2,0,P|452:242|394:257,1,119.999996337891,0|8,0:0|0:0,0:0:0:0:
227,181,174468,1,0,0:0:0:0:
350,52,174611,1,8,0:0:0:0:
0,227,174754,6,0,P|64:225|128:238,1,129.999994049073,4|8,0:0|0:0,0:0:0:0:
361,349,175039,1,0,0:0:0:0:
216,53,175182,2,0,P|214:117|227:181,1,129.999994049073,8|0,0:0|0:0,0:0:0:0:
383,369,175468,1,8,0:0:0:0:
463,95,175611,6,0,B|492:93|492:93|524:102,3,50,0|0|8|0,0:0|0:0|0:0|0:0,0:0:0:0:
367,145,175896,2,0,B|340:154|340:154|306:152,3,50,0|0|8|0,0:0|0:0|0:0|0:0,0:0:0:0:
381,44,176182,1,0,0:0:0:0:
477,295,176325,1,8,0:0:0:0:
477,295,176396,1,8,0:0:0:0:
477,295,176468,5,12,0:0:0:0:
440,248,176539,1,0,0:0:0:0:
384,229,176610,1,8,0:0:0:0:
327,244,176682,1,0,0:0:0:0:
287,287,176753,1,8,0:0:0:0:
249,333,176825,1,0,0:0:0:0:
193,353,176896,1,8,0:0:0:0:
135,343,176968,1,0,0:0:0:0:
90,304,177039,1,8,0:0:0:0:
70,248,177111,1,0,0:0:0:0:
82,190,177182,1,8,0:0:0:0:
121,145,177254,1,0,0:0:0:0:
177,127,177325,6,0,P|206:128|238:137,1,55.0000016784668,8|0,0:0|0:0,0:0:0:0:
62,322,177468,2,0,P|33:322|2:313,1,55.0000016784668,8|0,0:0|0:0,0:0:0:0:
46,87,177611,2,0,L|56:26,1,55.0000016784668,8|0,0:0|0:0,0:0:0:0:
202,298,177754,2,0,L|192:358,1,55.0000016784668,8|0,0:0|0:0,0:0:0:0:
358,179,177896,2,0,P|366:149|368:118,1,55.0000016784668,8|0,0:0|0:0,0:0:0:0:
364,359,178039,2,0,P|391:369|425:369,1,55.0000016784668,8|0,0:0|0:0,0:0:0:0:
272,101,178182,5,8,0:0:0:0:
295,57,178253,1,0,0:0:0:0:
336,30,178324,1,8,0:0:0:0:
386,28,178396,1,0,0:0:0:0:
430,50,178467,1,8,0:0:0:0:
458,90,178539,1,0,0:0:0:0:
462,140,178611,1,8,0:0:0:0:
456,190,178682,1,0,0:0:0:0:
451,239,178754,2,0,L|441:327,1,50,8|0,0:0|0:0,0:0:0:0:
325,230,178896,2,0,L|315:142,1,50,8|0,0:0|0:0,0:0:0:0:
72,287,179039,5,8,0:0:0:0:
78,316,179111,1,0,0:0:0:0:
93,341,179182,1,8,0:0:0:0:
115,361,179254,1,0,0:0:0:0:
143,373,179325,1,8,0:0:0:0:
173,375,179396,1,0,0:0:0:0:
202,369,179468,1,8,0:0:0:0:
227,353,179539,1,0,0:0:0:0:
246,330,179611,1,8,0:0:0:0:
257,302,179682,1,0,0:0:0:0:
259,273,179754,1,8,0:0:0:0:
252,244,179824,1,0,0:0:0:0:
235,219,179896,5,12,0:0:0:0:
276,237,179967,1,0,0:0:0:0:
320,229,180038,1,8,0:0:0:0:
350,197,180110,1,0,0:0:0:0:
357,153,180181,1,8,0:0:0:0:
334,105,180253,1,0,0:0:0:0:
285,82,180324,1,8,0:0:0:0:
233,96,180396,1,0,0:0:0:0:
199,140,180468,1,8,0:0:0:0:
152,168,180539,1,0,0:0:0:0:
97,160,180611,2,0,P|82:136|76:110,1,55.0000016784668,8|0,0:0|0:0,0:0:0:0:
457,36,180754,5,12,0:0:0:0:
447,108,180825,1,0,0:0:0:0:
436,181,180896,2,0,L|426:253,1,50,8|0,0:0|0:0,0:0:0:0:
150,17,181039,1,8,0:0:0:0:
198,11,181110,1,0,0:0:0:0:
248,4,181182,2,0,L|301:-1,1,50,8|0,0:0|0:0,0:0:0:0:
512,339,181325,1,8,0:0:0:0:
478,345,181396,1,0,0:0:0:0:
444,350,181468,2,0,L|395:358,1,50,8|0,0:0|0:0,0:0:0:0:
121,299,181611,5,8,0:0:0:0:
72,287,181682,1,0,0:0:0:0:
34,255,181753,1,8,0:0:0:0:
15,209,181825,1,0,0:0:0:0:
19,160,181896,1,8,0:0:0:0:
44,117,181968,1,0,0:0:0:0:
86,91,182039,1,8,0:0:0:0:
135,86,182111,1,0,0:0:0:0:
181,104,182182,1,8,0:0:0:0:
238,134,182253,1,0,0:0:0:0:
302,127,182324,1,8,0:0:0:0:
351,87,182396,1,8,0:0:0:0:
369,25,182468,6,0,P|274:92|306:207,1,250,8|0,0:0|0:0,0:0:0:0:
472,325,183325,5,4,0:0:0:0:
264,384,183468,1,8,0:0:0:0:
421,179,183611,1,0,0:0:0:0:
177,247,183754,1,8,0:0:0:0:
368,284,183896,1,0,0:0:0:0:
220,94,184039,1,8,0:0:0:0:
32,338,184182,6,0,L|168:326,1,119.999996337891,0|8,0:0|0:0,0:0:0:0:
421,179,184468,2,0,L|285:167,1,119.999996337891,0|8,0:0|0:0,0:0:0:0:
15,371,184754,2,0,L|151:359,1,119.999996337891,0|8,0:0|0:0,0:0:0:0:
368,284,185039,5,4,0:0:0:0:
163,101,185182,1,8,0:0:0:0:
204,377,185325,1,0,0:0:0:0:
319,116,185468,1,8,0:0:0:0:
42,235,185611,1,0,0:0:0:0:
252,5,185754,1,8,0:0:0:0:
409,299,185896,6,0,B|343:353|272:306|272:306|181:221|309:148|375:259|272:306|272:306|214:265|129:308,1,560,4|0,0:0|0:0,0:0:0:0:
10,359,186468,1,0,0:0:0:0:
121,96,186611,1,8,0:0:0:0:
471,295,186754,6,0,B|459:349|459:349|409:284|459:215|459:215|416:157|416:157|470:90|435:21,1,419.999987182618,4|0,0:0|0:0,0:0:0:0:
214,97,187325,2,0,P|285:64|347:75,1,139.999995727539
49,290,187611,6,0,L|26:171,1,119.999996337891,4|0,0:0|0:3,0:0:0:0:
152,270,187825,2,0,L|133:368,1,100,0|0,0:0|0:3,0:0:0:0:
239,250,188039,2,0,L|232:211,1,40,0|8,0:0|0:0,0:0:0:0:
229,338,188182,2,0,L|307:352,1,80,8|0,0:0|0:0,0:0:0:0:
300,56,188468,6,0,B|309:120|309:120|338:166,1,120,8|0,3:0|3:0,3:0:0:0:
305,178,188754,2,0,B|275:132|275:132|266:67,1,120,8|0,3:0|3:0,3:0:0:0:
234,82,189039,2,0,L|240:131,1,50,8|0,3:0|3:0,3:0:0:0:
474,39,189325,1,8,0:0:0:0:
474,39,189611,6,0,L|478:53,1,14.9999995422363
419,104,189754,2,0,L|414:118,1,14.9999995422363,0|0,0:0|0:0,0:0:0:0:
474,169,189896,1,2,0:0:0:0:
196,67,190182,6,0,P|119:73|69:133,1,160,8|0,0:0|0:0,0:0:0:0:
157,20,190610,2,0,P|89:58|69:133,1,160,8|0,0:0|0:0,0:0:0:0:
189,221,191039,1,8,0:0:0:0:
160,114,191182,1,8,0:0:0:0:
80,269,191324,5,8,0:0:0:0:
80,269,191396,1,0,0:0:0:0:
80,269,191467,2,8,L|84:303,3,34.9999989318848
162,369,191753,2,0,L|166:345,1,25,8|0,0:0|0:0,0:0:0:0:
250,257,191896,1,0,0:0:0:0:
240,234,191967,1,0,0:0:0:0:
242,209,192038,1,0,0:0:0:0:
254,188,192110,1,0,0:0:0:0:
297,161,192182,2,0,B|247:131|247:131|142:160|142:160|67:130,1,225.000008583069,10|0,0:0|0:0,0:0:0:0:
357,288,192467,6,0,L|435:272,1,80,4|8,0:0|0:0,0:0:0:0:
512,164,192753,1,0,0:0:0:0:
358,108,192896,1,8,0:0:0:0:
471,0,193039,2,0,L|455:78,1,80,0|8,0:0|0:0,0:0:0:0:
294,1,193324,1,0,0:0:0:0:
294,1,193396,1,0,0:0:0:0:
294,1,193467,1,8,0:0:0:0:
196,176,193610,6,0,P|234:167|277:176,1,80,0|8,0:0|0:0,0:0:0:0:
106,107,193896,2,0,P|68:98|25:107,1,80,0|8,0:0|0:0,0:0:0:0:
225,66,194182,1,0,0:0:0:0:
64,187,194324,1,8,0:0:0:0:
101,10,194467,1,0,0:0:0:0:
101,10,194539,1,0,0:0:0:0:
101,10,194610,1,8,0:0:0:0:
130,253,194753,6,0,L|134:332,1,80,4|8,0:0|0:0,0:0:0:0:
274,175,195039,1,0,0:0:0:0:
295,384,195182,5,8,0:0:0:0:
273,194,195324,1,0,0:0:0:0:
365,324,195467,5,8,0:0:0:0:
273,214,195610,1,0,0:0:0:0:
433,261,195753,6,0,L|512:265,1,80,8|0,0:0|0:0,0:0:0:0:
284,300,196039,1,8,0:0:0:0:
362,138,196182,2,0,L|357:217,1,80,0|8,0:0|0:0,0:0:0:0:
270,99,196467,1,0,0:0:0:0:
270,99,196539,1,0,0:0:0:0:
270,99,196610,1,8,0:0:0:0:
454,161,196753,1,0,0:0:0:0:
454,161,196825,1,0,0:0:0:0:
454,161,196896,1,10,0:0:0:0:
389,31,197039,6,0,L|392:69,1,25,8|0,0:0|0:0,0:0:0:0:
301,212,197182,2,0,L|298:174,1,25,8|0,0:0|0:0,0:0:0:0:
256,12,197324,2,0,P|218:25|190:53,1,80,12|0,0:0|0:0,0:0:0:0:
136,236,197610,6,0,L|130:181,1,40,0|0,0:0|0:0,0:0:0:0:
117,98,197753,1,10,0:0:0:0:
6,323,197896,2,0,L|12:268,1,40,0|0,0:0|0:0,0:0:0:0:
25,185,198039,1,10,0:0:0:0:
172,332,198182,5,0,0:0:0:0:
202,307,198253,1,0,0:0:0:0:
240,297,198324,1,0,0:0:0:0:
279,304,198396,1,0,0:0:0:0:
312,326,198467,1,0,0:0:0:0:
344,350,198538,1,0,0:0:0:0:
382,359,198609,1,0,0:0:0:0:
421,351,198681,1,0,0:0:0:0:
453,328,198753,6,0,L|459:260,1,59.9999981689454,0|0,0:0|0:0,0:0:0:0:
359,159,198896,2,0,L|364:218,1,59.9999981689454,0|0,0:0|0:0,0:0:0:0:
478,348,199039,2,0,L|484:280,1,59.9999981689454,0|0,0:0|0:0,0:0:0:0:
334,179,199182,2,0,L|339:238,1,59.9999981689454,0|0,0:0|0:0,0:0:0:0:
484,179,199324,6,0,P|491:140|482:101,1,80,4|8,0:0|0:0,0:0:0:0:
312,0,199610,2,0,P|304:38|313:77,1,80,0|8,0:0|0:0,0:0:0:0:
415,243,199896,1,0,0:0:0:0:
229,163,200039,2,0,P|190:155|151:164,2,80,8|0|8,0:0|0:0|0:0,0:0:0:0:
311,286,200467,6,0,L|318:186,1,80,0|8,0:0|0:0,0:0:0:0:
213,384,200753,1,0,0:0:0:0:
85,216,200896,2,0,L|188:207,1,80,8|0,0:0|0:0,0:0:0:0:
5,362,201182,1,8,0:0:0:0:
18,145,201324,2,0,L|14:45,1,80,0|8,0:0|0:0,0:0:0:0:
283,71,201610,6,0,B|240:65|240:65|203:77,1,80,0|8,0:0|0:0,0:0:0:0:
158,326,201896,1,0,0:0:0:0:
249,156,202039,1,8,0:0:0:0:
328,333,202182,2,0,B|292:344|292:344|250:339,1,80,0|8,0:0|0:0,0:0:0:0:
156,151,202467,1,0,0:0:0:0:
156,151,202539,1,0,0:0:0:0:
156,151,202610,1,8,0:0:0:0:
391,196,202753,5,0,0:0:0:0:
218,262,202896,1,8,0:0:0:0:
428,348,203039,1,0,0:0:0:0:
304,222,203182,1,8,0:0:0:0:
484,84,203324,6,0,L|481:123,1,40,0|0,0:0|0:0,0:0:0:0:
471,261,203467,1,8,0:0:0:0:
508,70,203610,2,0,L|505:109,1,40,0|0,0:0|0:0,0:0:0:0:
495,247,203753,1,8,0:0:0:0:
378,52,203896,5,4,0:0:0:0:
304,222,204039,1,8,0:0:0:0:
228,49,204182,1,0,0:0:0:0:
145,237,204324,5,8,0:0:0:0:
317,131,204467,1,0,0:0:0:0:
138,144,204610,5,8,0:0:0:0:
338,136,204753,1,0,0:0:0:0:
135,56,204896,6,0,L|45:63,1,80,8|0,0:0|0:0,0:0:0:0:
249,22,205182,1,8,0:0:0:0:
231,203,205324,2,0,L|224:293,1,80,0|8,0:0|0:0,0:0:0:0:
318,384,205610,1,0,0:0:0:0:
117,323,205753,1,8,0:0:0:0:
334,262,205896,1,0,0:0:0:0:
334,262,205967,1,0,0:0:0:0:
334,262,206039,1,8,0:0:0:0:
153,150,206182,5,12,0:0:0:0:
188,122,206253,1,8,0:0:0:0:
231,112,206324,1,8,0:0:0:0:
275,123,206396,1,8,0:0:0:0:
309,151,206467,5,0,0:0:0:0:
327,168,206538,1,0,0:0:0:0:
349,179,206609,1,0,0:0:0:0:
374,182,206681,1,0,0:0:0:0:
398,178,206752,5,8,0:0:0:0:
438,157,206824,1,8,0:0:0:0:
461,119,206895,1,8,0:0:0:0:
458,75,206967,1,8,0:0:0:0:
433,39,207038,5,0,0:0:0:0:
419,51,207110,1,0,0:0:0:0:
406,64,207181,1,0,0:0:0:0:
392,77,207253,1,0,0:0:0:0:
379,89,207324,6,0,L|325:80,3,40,4|0|0|0,0:0|0:0|0:0|0:0,0:0:0:0:
453,195,207610,2,0,L|507:186,3,40,0|0|0|0,0:0|0:0|0:0|0:0,0:0:0:0:
332,340,207896,1,0,0:0:0:0:
338,300,207967,1,0,0:0:0:0:
345,261,208038,1,0,0:0:0:0:
351,221,208110,1,0,0:0:0:0:
358,182,208181,1,0,0:0:0:0:
191,293,208324,1,8,0:0:0:0:
191,293,208396,1,8,0:0:0:0:
191,293,208467,6,0,P|117:260|41:288,1,165.000005035401,4|0,0:0|0:0,0:0:0:0:
113,360,208753,2,0,L|130:138,1,220.000006713867,10|0,0:0|0:0,0:0:0:0:
141,8,209182,1,0,0:0:0:0:
323,95,209324,1,10,0:0:0:0:
213,109,209467,1,0,0:0:0:0:
402,49,209610,6,0,P|413:102|395:153,1,110.000003356934
294,282,209896,2,0,P|282:228|300:177,1,110.000003356934,10|0,0:0|0:0,0:0:0:0:
475,242,210182,2,0,P|421:253|370:235,1,110.000003356934,0|0,0:0|0:0,0:0:0:0:
216,149,210467,2,0,P|162:137|111:155,1,110.000003356934,10|0,0:0|0:0,0:0:0:0:
182,333,210753,6,0,L|173:223,1,110.000003356934,4|0,0:0|0:0,0:0:0:0:
155,14,211039,2,0,B|120:50|120:50|264:40,1,194.999991073609,10|0,0:0|0:0,0:0:0:0:
337,86,211324,2,0,L|345:195,1,110.000003356934
428,313,211610,2,0,L|436:203,1,110.000003356934,10|0,0:0|0:0,0:0:0:0:
226,295,211896,6,0,L|335:286,1,110.000003356934,0|0,0:0|0:0,0:0:0:0:
196,176,212182,2,0,L|86:167,1,110.000003356934,10|0,0:0|0:0,0:0:0:0:
230,328,212467,2,0,L|339:319,1,110.000003356934,0|0,0:0|0:0,0:0:0:0:
307,21,212753,1,8,0:0:0:0:
266,1,212824,1,8,0:0:0:0:
220,1,212895,1,8,0:0:0:0:
180,19,212967,1,8,0:0:0:0:
150,54,213039,6,0,P|81:42|11:40,1,139.999995727539,4|8,0:0|0:0,0:0:0:0:
334,151,213324,2,0,P|402:139|472:137,1,139.999995727539,0|8,0:0|0:0,0:0:0:0:
230,328,213610,1,0,0:0:0:0:
273,52,213753,1,8,0:0:0:0:
441,276,213896,1,0,0:0:0:0:
441,276,213967,1,0,0:0:0:0:
441,276,214039,1,8,0:0:0:0:
113,236,214182,6,0,P|101:304|99:374,1,139.999995727539,0|8,0:0|0:0,0:0:0:0:
418,157,214467,2,0,P|416:87|404:18,1,139.999995727539,0|8,0:0|0:0,0:0:0:0:
88,209,214753,2,0,P|76:277|74:347,1,139.999995727539,0|8,0:0|0:0,0:0:0:0:
267,42,215039,1,0,0:0:0:0:
267,42,215110,1,0,0:0:0:0:
267,42,215182,1,8,0:0:0:0:
512,184,215324,5,4,0:0:0:0:
224,227,215467,1,8,0:0:0:0:
425,17,215610,1,0,0:0:0:0:
419,302,215753,1,8,0:0:0:0:
261,15,215896,5,0,0:0:0:0:
241,305,216039,1,8,0:0:0:0:
449,109,216182,1,0,0:0:0:0:
449,109,216253,1,0,0:0:0:0:
449,109,216324,1,8,0:0:0:0:
353,377,216467,5,0,0:0:0:0:
221,98,216610,1,8,0:0:0:0:
113,372,216753,1,0,0:0:0:0:
367,192,216896,1,8,0:0:0:0:
10,111,217039,5,0,0:0:0:0:
17,106,217110,1,0,0:0:0:0:
26,101,217181,1,0,0:0:0:0:
36,98,217253,1,0,0:0:0:0:
45,97,217324,1,8,0:0:0:0:
55,97,217396,1,8,0:0:0:0:
65,100,217467,1,8,0:0:0:0:
74,104,217539,1,8,0:0:0:0:
82,111,217610,6,0,B|70:163|70:163|233:118,1,209.999993591309,4|0,0:0|0:0,0:0:0:0:
244,46,217896,1,8,0:0:0:0:
283,68,217967,1,0,0:0:0:0:
304,107,218039,1,8,0:0:0:0:
300,151,218110,1,0,0:0:0:0:
273,186,218182,1,8,0:0:0:0:
252,226,218253,1,0,0:0:0:0:
254,270,218324,1,8,0:0:0:0:
277,308,218396,1,0,0:0:0:0:
316,329,218467,1,8,0:0:0:0:
361,327,218539,1,0,0:0:0:0:
399,304,218610,2,0,L|411:244,1,44.999998626709,8|0,0:0|0:0,0:0:0:0:
377,56,218753,5,12,0:0:0:0:
341,28,218824,1,0,0:0:0:0:
298,19,218895,1,8,0:0:0:0:
255,30,218967,1,0,0:0:0:0:
221,60,219038,1,8,0:0:0:0:
205,101,219110,1,0,0:0:0:0:
208,146,219181,1,8,0:0:0:0:
214,190,219253,1,0,0:0:0:0:
201,233,219324,1,8,0:0:0:0:
171,267,219396,1,0,0:0:0:0:
131,286,219467,1,8,0:0:0:0:
87,288,219539,1,0,0:0:0:0:
45,271,219610,2,0,L|38:212,1,44.999998626709,8|0,0:0|0:0,0:0:0:0:
245,308,219753,2,0,L|238:367,1,44.999998626709,8|0,0:0|0:0,0:0:0:0:
119,185,219896,5,8,0:0:0:0:
84,157,219967,1,0,0:0:0:0:
66,116,220038,1,8,0:0:0:0:
69,71,220110,1,0,0:0:0:0:
93,33,220181,1,8,0:0:0:0:
131,11,220253,1,0,0:0:0:0:
176,9,220324,1,8,0:0:0:0:
216,28,220396,1,0,0:0:0:0:
243,63,220467,1,8,0:0:0:0:
251,107,220538,1,0,0:0:0:0:
262,150,220610,1,8,0:0:0:0:
294,182,220681,1,0,0:0:0:0:
335,193,220753,2,0,P|358:191|378:182,3,44.999998626709,8|0|8|0,0:0|0:0|0:0|0:0,0:0:0:0:
156,96,221039,6,0,L|90:92,3,44.999998626709,8|0|8|0,0:0|0:0|0:0|0:0,0:0:0:0:
201,265,221324,2,0,L|267:261,3,44.999998626709,8|0|8|0,0:0|0:0|0:0|0:0,0:0:0:0:
413,71,221610,1,0,0:0:0:0:
413,71,221681,1,0,0:0:0:0:
413,71,221752,1,0,0:0:0:0:
460,93,221824,1,0,0:0:0:0:
492,136,221895,1,0,0:0:0:0:
502,189,221967,1,0,0:0:0:0:
485,239,222038,1,0,0:0:0:0:
448,277,222110,1,0,0:0:0:0:
397,292,222182,6,0,L|404:227,1,55.0000016784668,4|0,0:0|0:0,0:0:0:0:
281,322,222324,2,0,L|286:376,1,55.0000016784668,8|0,0:0|0:0,0:0:0:0:
163,206,222467,1,0,0:0:0:0:
192,208,222538,1,0,0:0:0:0:
222,211,222609,1,0,0:0:0:0:
252,214,222681,1,0,0:0:0:0:
282,217,222753,2,0,L|284:187,3,29.9999990844727,0|0|0|0,0:0|0:0|0:0|0:0,0:0:0:0:
370,132,223039,2,0,L|372:102,3,29.9999990844727,0|0|0|0,0:0|0:0|0:0|0:0,0:0:0:0:
187,0,223324,5,8,0:0:0:0:
184,14,223395,1,0,0:0:0:0:
182,29,223466,1,0,0:0:0:0:
180,44,223538,1,0,0:0:0:0:
140,66,223610,5,8,0:0:0:0:
142,80,223681,1,0,0:0:0:0:
144,95,223752,1,0,0:0:0:0:
146,110,223824,1,0,0:0:0:0:
148,125,223896,2,0,L|149:139,3,14.9999995422363
208,193,224182,2,0,L|204:208,3,14.9999995422363
144,334,224467,6,0,B|201:292|183:213|183:213|237:243|245:367|156:419|68:376|36:313|134:235|42:163|42:163|130:174|182:116|182:116|234:151|234:151|298:113|354:169|354:169|381:212|489:206|490:81|383:32|318:113|354:169|354:169|370:233|370:233|329:267|329:267|344:318|318:362,1,1440,4|0,0:0|0:0,0:0:0:0:
181,5,241610,6,0,L|168:100,1,89.9999972534181,4|0,0:0|0:0,0:0:0:0:
271,167,241896,2,0,L|258:77,1,89.9999972534181,0|0,0:0|0:0,0:0:0:0:
187,177,242182,2,0,L|174:266,1,89.9999972534181,0|0,0:0|0:0,0:0:0:0:
268,340,242467,2,0,L|255:250,1,89.9999972534181,0|0,0:0|0:0,0:0:0:0:
179,349,242753,6,0,L|89:336,1,89.9999972534181,0|0,0:0|0:0,0:0:0:0:
1,252,243039,2,0,L|90:239,1,89.9999972534181,0|0,0:0|0:0,0:0:0:0:
187,177,243324,2,0,L|174:266,1,89.9999972534181,0|0,0:0|0:0,0:0:0:0:
102,160,243610,2,0,L|90:71,1,89.9999972534181,0|0,0:0|0:0,0:0:0:0:
175,85,243896,6,0,L|264:72,1,89.9999972534181,0|0,0:0|0:0,0:0:0:0:
370,167,244182,2,0,L|281:155,1,89.9999972534181,0|0,0:0|0:0,0:0:0:0:
355,78,244467,2,0,L|444:65,1,89.9999972534181,0|0,0:0|0:0,0:0:0:0:
443,214,244753,6,0,B|415:269|415:269|429:356,1,150,4|0,0:0|0:0,0:0:0:0:
358,380,245039,6,0,L|370:290,1,89.9999972534181,4|0,0:0|0:0,0:0:0:0:
269,228,245324,2,0,L|281:317,1,89.9999972534181,0|0,0:0|0:0,0:0:0:0:
180,380,245610,2,0,L|192:290,1,89.9999972534181,0|0,0:0|0:0,0:0:0:0:
91,227,245896,2,0,L|103:316,1,89.9999972534181,0|0,0:0|0:0,0:0:0:0:
169,204,246182,6,0,L|181:114,1,89.9999972534181,0|0,0:0|0:0,0:0:0:0:
78,51,246467,2,0,L|90:140,1,89.9999972534181,0|0,0:0|0:0,0:0:0:0:
162,32,246753,2,0,L|251:19,1,89.9999972534181,0|0,0:0|0:0,0:0:0:0:
352,115,247039,2,0,L|262:102,1,89.9999972534181,0|0,0:0|0:0,0:0:0:0:
346,27,247324,6,0,L|435:14,1,89.9999972534181,0|0,0:0|0:0,0:0:0:0:
450,188,247610,2,0,L|437:98,1,89.9999972534181,0|0,0:0|0:0,0:0:0:0:
363,202,247896,2,0,L|350:291,1,89.9999972534181,0|0,0:0|0:0,0:0:0:0:
403,348,248182,6,0,B|347:320|347:320|260:334,1,150,4|0,0:0|0:0,0:0:0:0:
167,351,248467,1,4,0:0:0:0:
153,368,248753,5,0,0:0:0:0:
54,254,248896,1,0,0:0:0:0:
181,174,249039,2,0,P|258:181|316:139,1,139.999995727539
308,148,249610,6,0,L|305:217,1,69.9999978637696
417,114,249896,2,0,L|419:44,1,69.9999978637696
420,22,250110,1,0,0:0:0:0:
420,0,250182,1,0,0:0:0:0:
332,56,250324,1,0,0:0:0:0:
178,2,250467,2,0,L|261:-1,1,69.9999978637696,0|0,0:0|0:0,0:0:0:0:
100,122,250753,6,0,L|104:28,1,69.9999978637696,0|0,0:0|0:0,0:0:0:0:
198,105,251039,2,0,L|241:103,1,34.9999989318848,0|0,0:0|0:0,0:0:0:0:
216,129,251182,2,0,L|259:127,1,34.9999989318848,0|0,0:0|0:0,0:0:0:0:
234,147,251324,2,0,L|328:143,1,69.9999978637696,0|0,0:0|0:0,0:0:0:0:
172,226,251610,2,0,L|78:230,1,69.9999978637696,0|0,0:0|0:0,0:0:0:0:
320,372,251896,5,0,0:0:0:0:
360,275,252039,1,0,0:0:0:0:
262,235,252182,1,0,0:0:0:0:
242,252,252467,5,0,0:0:0:0:
361,252,252610,1,0,0:0:0:0:
361,371,252753,1,0,0:0:0:0:
242,371,252896,1,0,0:0:0:0:
337,170,253039,6,0,P|371:168|405:178,1,69.9999978637696,0|0,0:0|0:0,0:0:0:0:
248,127,253324,2,0,P|213:128|179:118,1,69.9999978637696,0|0,0:0|0:0,0:0:0:0:
122,45,253610,5,4,0:0:0:0:
256,258,253896,1,8,0:0:0:0:
10,204,254181,1,4,0:0:0:0:
297,67,254467,5,8,0:0:0:0:
155,345,254753,1,8,0:0:0:0:
298,32,255038,1,8,0:0:0:0:
446,222,255324,6,0,B|390:231|390:231|357:223,1,89.9999972534181,4|0,0:0|0:0,0:0:0:0:
176,287,255609,2,0,B|232:278|232:278|264:285,1,89.9999972534181,0|0,0:0|0:0,0:0:0:0:
266,101,255895,2,0,B|275:157|275:157|267:189,1,89.9999972534181
106,20,256181,6,0,B|155:16|155:16|194:27,1,89.9999972534181,8|0,0:0|0:0,0:0:0:0:
354,93,256466,2,0,B|305:89|305:89|265:100,1,89.9999972534181,0|0,0:0|0:0,0:0:0:0:
106,166,256752,2,0,B|155:162|155:162|194:173,1,89.9999972534181,0|0,0:0|0:0,0:0:0:0:
430,247,257038,6,0,B|420:265|420:265|489:260,1,89.9999972534181,8|0,0:0|0:0,0:0:0:0:
358,195,257324,2,0,B|367:176|367:176|298:181,1,89.9999972534181,0|0,0:0|0:0,0:0:0:0:
420,268,257609,2,0,B|410:286|410:286|479:281,1,89.9999972534181,0|0,0:0|0:0,0:0:0:0:
450,161,257895,5,8,0:0:0:0:
315,281,258038,1,0,0:0:0:0:
279,104,258181,1,0,0:0:0:0:
144,224,258324,1,0,0:0:0:0:
136,30,258466,1,0,0:0:0:0:
306,115,258609,1,0,0:0:0:0:
191,328,258752,6,0,B|200:309|200:309|131:314,1,89.9999972534181,12|0,0:0|0:0,0:0:0:0:
346,344,259038,2,0,B|336:362|336:362|405:357,1,89.9999972534181
294,229,259324,2,0,B|275:219|275:219|280:288,1,89.9999972534181
487,168,259609,6,0,B|438:164|438:164|398:175,1,89.9999972534181,8|0,0:0|0:0,0:0:0:0:
248,97,259895,2,0,B|297:101|297:101|336:89,1,89.9999972534181,0|0,0:0|0:0,0:0:0:0:
488,193,260181,2,0,B|439:189|439:189|399:200,1,89.9999972534181,0|0,0:0|0:0,0:0:0:0:
210,285,260466,6,0,B|198:245|198:245|202:196,1,89.9999972534181,8|0,0:0|0:0,0:0:0:0:
139,22,260752,2,0,B|150:61|150:61|146:110,1,89.9999972534181,0|0,0:0|0:0,0:0:0:0:
9,182,261038,2,0,B|58:178|58:178|97:189,1,89.9999972534181,0|0,0:0|0:0,0:0:0:0:
234,307,261324,5,8,0:0:0:0:
300,130,261466,1,0,0:0:0:0:
358,261,261609,1,0,0:0:0:0:
307,105,261752,1,0,0:0:0:0:
267,218,261895,1,0,0:0:0:0:
314,80,262038,1,0,0:0:0:0:
453,292,262181,6,0,B|491:310|491:310|482:195,1,134.999995880127,4|0,0:0|0:0,0:0:0:0:
440,127,262466,2,0,L|446:216,1,89.9999972534181,8|0,0:0|0:0,0:0:0:0:
192,187,262752,2,0,B|174:225|174:225|289:216,1,134.999995880127,8|0,0:0|0:0,0:0:0:0:
300,216,263038,5,0,0:0:0:0:
270,373,263181,1,0,0:0:0:0:
79,152,263324,6,0,B|66:98|66:98|89:4,1,134.999995880127,8|0,0:0|0:0,0:0:0:0:
155,100,263609,2,0,B|218:94|218:94|264:122|264:122|326:117,1,179.999994506836,12|0,0:0|0:0,0:0:0:0:
361,115,263895,5,0,0:0:0:0:
502,249,264038,1,0,0:0:0:0:
468,105,264181,1,8,0:0:0:0:
380,261,264324,1,0,0:0:0:0:
394,37,264466,2,0,B|412:74|412:74|417:123,1,89.9999972534181,8|0,0:0|0:0,0:0:0:0:
282,214,264752,5,0,0:0:0:0:
250,89,264895,1,0,0:0:0:0:
161,175,265038,1,8,0:0:0:0:
132,54,265181,1,0,0:0:0:0:
44,141,265324,6,0,B|32:228|32:228|60:315,1,179.999994506836,12|0,0:0|0:0,0:0:0:0:
79,342,265609,1,0,0:0:0:0:
205,249,265752,1,0,0:0:0:0:
345,375,265895,2,0,B|359:347|359:347|291:352,1,100,8|0,0:0|0:0,0:0:0:0:
360,226,266181,2,0,B|342:260|342:260|466:251,1,150,8|0,0:0|0:0,0:0:0:0:
481,249,266466,5,0,0:0:0:0:
422,91,266609,1,0,0:0:0:0:
475,277,266752,1,8,0:0:0:0:
512,131,266895,1,0,0:0:0:0:
304,161,267038,2,0,B|244:175|244:175|149:135,1,150,8|0,0:0|0:0,0:0:0:0:
127,126,267324,5,0,0:0:0:0:
59,264,267466,1,0,0:0:0:0:
63,61,267609,2,0,B|117:38|117:38|167:49,1,110.000003356934,8|0,0:0|0:0,0:0:0:0:
163,252,267895,2,0,B|109:275|109:275|58:263,1,110.000003356934,8|0,0:0|0:0,0:0:0:0:
383,308,268181,6,0,L|396:360,1,50,4|0,0:0|0:0,0:0:0:0:
266,245,268324,2,0,L|252:298,1,55.0000016784668,0|0,0:0|0:0,0:0:0:0:
420,175,268466,2,0,L|434:233,1,59.9999981689454,0|0,0:0|0:0,0:0:0:0:
223,114,268609,2,0,L|207:177,1,64.9999970245363,0|0,0:0|0:0,0:0:0:0:
453,37,268752,2,0,L|469:104,1,69.9999978637696,0|0,0:0|0:0,0:0:0:0:
166,0,268895,2,0,L|147:72,1,75.0000028610231,0|0,0:0|0:0,0:0:0:0:
328,48,269038,6,0,B|328:82|328:82|344:112|344:112|328:144|328:144|328:170,1,129.999994049073,0|0,0:0|0:0,0:0:0:0:
352,64,269238,2,0,B|352:98|352:98|368:128|368:128|352:160|352:160|352:186,1,129.999994049073
266,245,269438,6,0,B|266:271|266:271|250:303|250:303|266:333|266:333|266:367,1,129.999994049073,0|0,0:0|0:0,0:0:0:0:
242,228,269638,2,0,B|242:255|242:255|226:287|226:287|242:317|242:317|242:351,1,129.999994049073
24,144,269838,6,0,B|58:144|58:144|88:128|88:128|120:144|120:144|146:144,1,129.999994049073,0|0,0:0|0:0,0:0:0:0:
40,120,270038,2,0,B|74:120|74:120|104:104|104:104|136:120|136:120|163:120,1,129.999994049073
256,120,270238,5,8,0:0:0:0:
88,264,270338,1,8,0:0:0:0:
288,128,270438,5,8,0:0:0:0:
80,296,270538,1,8,0:0:0:0:
320,136,270638,6,0,B|357:137|385:118|385:118|404:142|443:148,2,129.999994049073,4|8|0,0:0|0:0|0:0,0:0:0:0:
370,333,270938,2,0,B|371:301|390:273|390:273|373:245|374:209,1,129.999994049073,8|0,0:0|0:0,0:0:0:0:
240,357,271138,1,8,0:0:0:0:
82,207,271238,2,0,B|113:208|141:227|141:227|169:210|205:211,1,129.999994049073,0|8,0:0|0:0,0:0:0:0:
320,136,271438,6,0,B|330:100|319:68|319:68|347:56|363:20,2,129.999994049073,0|8|0,0:0|0:0|0:0,0:0:0:0:
204,210,271738,2,0,B|194:246|205:278|205:278|177:290|161:326,2,129.999994049073,8|0|8,0:0|0:0|0:0,0:0:0:0:
352,248,272038,1,8,0:0:0:0:
237,85,272138,1,8,0:0:0:0:
480,144,272238,6,0,B|473:199|473:199|479:216|479:216|472:272,2,129.999994049073,4|8|0,0:0|0:0|0:0,0:0:0:0:
320,136,272538,2,0,B|327:81|327:81|321:64|321:64|328:8,2,129.999994049073,8|0|8,0:0|0:0|0:0,0:0:0:0:
198,267,272838,2,0,B|164:262|164:262|136:243|136:243|102:255|102:255|76:252,1,129.999994049073,0|8,0:0|0:0,0:0:0:0:
84,36,273038,6,0,B|103:89|65:106|87:163,1,129.999994049073,0|8,0:0|0:0,0:0:0:0:
161,352,273238,1,0,0:0:0:0:
283,231,273338,2,0,B|336:212|353:250|410:227,1,129.999994049073,8|0,0:0|0:0,0:0:0:0:
348,52,273538,2,0,B|295:33|278:71|220:48,2,129.999994049073,8|0|8,0:0|0:0|0:0,0:0:0:0:
505,192,273838,6,0,B|498:247|498:247|504:264|504:264|497:320,1,129.999994049073,4|8,0:0|0:0,0:0:0:0:
396,155,274038,1,0,0:0:0:0:
154,222,274138,2,0,B|209:229|209:229|226:223|226:223|282:230,1,129.999994049073,8|0,0:0|0:0,0:0:0:0:
139,190,274338,2,0,B|194:197|194:197|211:191|211:191|267:198,1,129.999994049073,8|0,0:0|0:0,0:0:0:0:
124,158,274538,1,8,0:0:0:0:
329,29,274638,6,0,P|379:43|418:77,1,104.999996795654,8|0,0:0|0:0,0:0:0:0:
328,113,274838,2,0,B|232:102|232:102|236:99|236:99|144:89,1,194.999991073609,4|0,0:0|0:0,0:0:0:0:
75,68,275038,6,0,P|109:107|123:157,1,104.999996795654,8|0,0:0|0:0,0:0:0:0:
65,242,275238,2,0,B|160:231|160:231|156:228|156:228|248:218,1,194.999991073609,4|0,0:0|0:0,0:0:0:0:
288,283,275438,6,0,B|319:279|346:257|346:257|375:272|411:268,1,129.999994049073,4|0,0:0|0:0,0:0:0:0:
487,218,275638,1,0,0:0:0:0:
489,127,275738,1,0,0:0:0:0:
412,78,275838,1,0,0:0:0:0:
324,104,275938,1,0,0:0:0:0:
284,185,276038,1,0,0:0:0:0:
200,220,276138,1,0,0:0:0:0:
114,190,276238,5,0,0:0:0:0:
110,86,276338,1,0,0:0:0:0:
195,23,276438,1,0,0:0:0:0:
285,80,276538,1,0,0:0:0:0:
284,185,276638,1,0,0:0:0:0:
200,220,276738,1,0,0:0:0:0:
200,124,276838,5,8,0:0:0:0:
271,269,276938,1,8,0:0:0:0:
388,176,277073,6,0,B|396:104|396:104|394:92|394:92|402:27,1,150,4|0,0:0|0:0,0:3:0:0:
491,89,277271,2,0,B|499:160|499:160|497:172|497:172|505:237,1,150,8|0,0:0|0:0,0:3:0:0:
420,256,277470,2,0,B|348:264|348:264|336:262|336:262|271:270,1,150,0|0,0:0|0:0,0:3:0:0:
168,221,277669,1,8,0:0:0:0:
133,353,277768,1,0,0:0:0:0:
72,224,277867,6,0,B|88:168|88:168|72:120|72:120|72:78,1,150,0|0,0:0|0:0,0:0:0:0:
160,96,278066,2,0,B|216:80|216:80|264:96|264:96|305:96,1,150,8|0,0:0|0:0,0:0:0:0:
400,88,278265,1,0,0:0:0:0:
311,0,278364,1,0,0:0:0:0:
320,184,278463,6,0,B|336:240|336:240|320:288|320:288|320:329,1,150,8|0,0:0|0:0,0:0:0:0:
232,376,278662,2,0,B|176:360|176:360|128:376|128:376|87:376,1,150,0|0,0:0|0:0,0:0:0:0:
8,319,278861,1,8,0:0:0:0:
116,237,278960,1,0,0:0:0:0:
16,80,279059,6,0,B|24:152|24:152|22:164|22:164|30:229,1,150,0|0,0:0|0:0,0:3:0:0:
112,152,279258,2,0,B|120:80|120:80|118:68|118:68|126:3,1,150,8|0,0:0|0:0,0:3:0:0:
214,39,279457,6,0,L|216:61,1,22.4999993133545
296,136,279655,6,0,B|339:132|339:132|367:111|401:125|401:125|441:119,1,150,12|0,0:0|0:0,0:0:0:0:
507,210,279854,6,0,L|504:232,1,22.4999993133545
442,316,280053,6,0,B|402:310|402:310|368:324|340:303|340:303|297:299,1,150,12|0,0:0|0:0,0:0:0:0:
209,204,280251,5,0,0:0:0:0:
209,204,280351,2,0,B|214:278|214:278|212:290|212:290|217:353,1,150,0|0,0:0|0:0,0:3:0:0:
159,118,280551,2,0,B|220:113|220:113|230:115|230:115|278:111,1,120,0|0,0:0|0:0,0:3:0:0:
373,102,280751,1,0,0:0:0:0:
373,102,280851,1,0,0:0:0:0:
62,156,281051,5,0,0:0:0:0:
74,6,281151,1,0,0:0:0:0:
10,228,281251,2,0,B|39:246|79:244|79:244|97:282|129:302,1,150,8|0,0:0|0:0,0:0:0:0:
171,215,281451,1,0,0:0:0:0:
173,377,281551,1,0,0:0:0:0:
337,227,281651,2,0,B|307:245|267:243|267:243|249:281|217:301,1,150,8|0,0:0|0:0,0:0:0:0:
171,215,281851,6,0,B|149:163|149:163|142:157|142:157|153:152|153:152|171:113,1,119.999996337891,4|0,0:0|0:0,0:0:0:0:
362,12,282051,2,0,B|383:63|383:63|390:69|390:69|379:74|379:74|361:113,1,119.999996337891,0|0,0:0|0:0,0:0:0:0:
145,230,282251,2,0,B|123:178|123:178|116:172|116:172|127:167|127:167|145:128,1,119.999996337891,0|0,0:0|0:0,0:0:0:0:
336,27,282451,2,0,B|357:78|357:78|364:84|364:84|353:89|353:89|335:128,1,119.999996337891,0|0,0:0|0:0,0:0:0:0:
259,282,282651,5,8,0:0:0:0:
249,71,282751,1,0,0:0:0:0:
437,203,282851,1,0,0:0:0:0:
255,171,282951,1,0,0:0:0:0:
434,91,283051,2,8,B|463:95|463:95|482:89|482:89|512:94,3,79.9999975585938
433,304,283351,1,0,0:0:0:0:
153,255,283451,2,0,P|113:295|79:351,1,119.999996337891,4|0,0:0|0:0,0:0:0:0:
34,126,283651,6,0,B|74:132|107:111|107:111|150:110|177:129,1,150.000005722046,8|0,0:0|0:0,0:0:0:0:
404,0,283851,2,0,B|378:31|380:70|380:70|359:108|329:122,1,150.000005722046,8|0,0:0|0:0,0:0:0:0:
365,372,284051,2,0,B|350:334|315:316|315:316|293:279|296:246,1,150.000005722046,8|0,0:0|0:0,0:0:0:0:
35,111,284251,6,0,B|74:121|109:103|109:103|152:107|176:128,1,150.000005722046,8|0,0:0|0:0,0:0:0:0:
416,8,284451,2,0,B|387:36|385:75|385:75|360:111|329:121,1,150.000005722046,8|0,0:0|0:0,0:0:0:0:
352,378,284651,2,0,B|341:339|308:317|308:317|290:278|296:246,1,150.000005722046,8|0,0:0|0:0,0:0:0:0:
37,96,284851,6,0,B|74:110|111:96|111:96|153:104|176:128,1,150.000005722046,8|0,0:0|0:0,0:0:0:0:
428,17,285051,2,0,B|396:42|390:81|390:81|362:113|330:121,1,150.000005722046,8|0,0:0|0:0,0:0:0:0:
338,384,285251,2,0,B|331:344|301:319|301:319|286:278|296:247,1,150.000005722046,8|0,0:0|0:0,0:0:0:0:
41,81,285451,6,0,B|77:99|115:89|115:89|156:101|176:128,1,150.000005722046,8|0,0:0|0:0,0:0:0:0:
439,28,285651,2,0,B|405:50|394:87|394:87|363:117|330:121,1,150.000005722046,8|0,0:0|0:0,0:0:0:0:
169,256,285851,6,0,B|130:263|130:263|91:251|91:251|58:277|58:277|31:282,1,150.000005722046,8|0,0:0|0:0,0:0:0:0:
368,253,286051,2,0,B|407:260|407:260|446:248|446:248|479:274|479:274|506:279,1,150.000005722046,8|0,0:0|0:0,0:0:0:0:
160,283,286251,2,0,B|121:290|121:290|82:278|82:278|49:304|49:304|22:309,1,150.000005722046,8|0,0:0|0:0,0:0:0:0:
236,0,286451,2,0,B|243:40|243:40|231:79|231:79|257:112|257:112|262:139,1,150.000005722046,8|0,0:0|0:0,0:0:0:0:
504,88,286651,6,0,B|428:124|423:60|348:96,1,160,4|0,0:0|0:0,0:0:0:0:
165,157,286851,1,0,0:0:0:0:
356,254,286951,1,8,0:0:0:0:
69,359,287051,2,0,B|145:323|150:387|224:350,1,160,0|8,0:0|0:0,0:0:0:0:
86,45,287251,2,0,B|118:108|57:131|91:200,1,160,0|8,0:0|0:0,0:0:0:0:
441,333,287451,6,0,B|434:252|434:252|437:238|437:238|431:165,1,160,0|8,0:0|0:0,0:3:0:0:
360,0,287651,1,0,0:0:0:0:
243,232,287751,1,8,0:0:0:0:
183,0,287851,2,0,B|176:80|176:80|179:94|179:94|173:167,1,160,0|8,0:0|0:0,0:3:0:0:
468,352,288051,2,0,B|461:271|461:271|464:257|464:257|458:184,1,160,0|8,0:0|0:0,0:0:0:0:
209,309,288251,6,0,B|144:314|144:314|130:311|130:311|49:318,1,160,0|8,0:0|0:0,0:0:0:0:
353,83,288451,2,0,B|417:88|417:88|431:85|431:85|512:92,1,160,0|8,0:0|0:0,0:0:0:0:
199,339,288651,2,0,B|135:344|135:344|121:341|121:341|40:348,1,160,0|8,0:0|0:0,0:0:0:0:
252,156,288851,5,0,0:0:0:0:
328,288,288951,1,8,0:0:0:0:
227,155,289051,5,0,0:0:0:0:
352,269,289151,1,8,0:0:0:0:
203,154,289251,5,0,0:0:0:0:
374,249,289351,1,8,0:0:0:0:
179,154,289451,5,0,0:0:0:0:
397,230,289551,1,8,0:0:0:0:
155,154,289651,5,0,0:0:0:0:
338,116,289751,1,0,0:0:0:0:
512,256,290854,6,0,B|466:245|466:245|442:224|442:224|415:235|415:235|364:225,1,160,4|0,0:0|0:0,0:0:0:0:
256,288,291054,1,8,0:0:0:0:
222,378,291154,1,8,0:0:0:0:
126,381,291254,1,8,0:0:0:0:
83,294,291354,1,8,0:0:0:0:
148,223,291454,1,8,0:0:0:0:
216,156,291554,1,8,0:0:0:0:
178,67,291654,5,8,0:0:0:0:
84,43,291754,1,8,0:0:0:0:
12,107,291854,1,8,0:0:0:0:
23,202,291954,1,8,0:0:0:0:
102,255,292054,2,0,B|159:233|159:233|206:259|254:236,1,160,8|8,0:0|0:0,0:0:0:0:
468,170,292254,2,0,B|411:148|411:148|364:174|315:151,1,160,8|8,0:0|0:0,0:0:0:0:
110,148,292454,5,8,0:0:0:0:
72,236,292554,1,8,0:0:0:0:
125,315,292654,1,8,0:0:0:0:
221,315,292754,1,8,0:0:0:0:
274,235,292854,1,8,0:0:0:0:
234,147,292954,1,8,0:0:0:0:
232,51,293054,1,8,0:0:0:0:
320,14,293154,1,8,0:0:0:0:
370,95,293254,6,0,B|306:118|258:85|258:85|170:119|170:119|118:91|62:108,1,320,12|0,0:0|0:0,0:0:0:0:
404,277,293554,2,0,B|444:303|464:335|464:335|440:213|483:103,1,320,12|0,0:0|0:0,0:0:0:0:
122,273,293854,2,0,B|176:271|210:314|210:314|258:251|330:232|403:276,1,320,12|0,0:0|0:0,0:0:0:0:
150,91,294154,6,0,B|110:94|69:72|69:72|32:102|1:105,2,160,8|0|0,0:0|0:0|0:0,0:0:0:0:
349,146,294454,2,0,B|388:149|429:127|429:127|466:157|497:160,2,160,8|0|0,0:0|0:0|0:0,0:0:0:0:
194,224,294754,2,0,B|191:255|161:292|161:292|183:333|180:373,2,160,8|0|0,0:0|0:0|0:0,0:0:0:0:
252,0,295054,6,0,B|268:63|268:63|246:155,1,160,8|0,0:0|0:0,0:0:0:0:
38,218,295254,2,0,B|101:201|101:201|193:223,1,160,8|0,0:0|0:0,0:0:0:0:
443,235,295454,2,0,B|379:251|379:251|287:229,1,160,8|0,0:0|0:0,0:0:0:0:
23,59,295654,6,0,B|30:126|30:126|28:141|28:141|37:217,1,160,12|0,0:0|0:0,0:3:0:0:
253,320,295854,1,8,0:0:0:0:
346,300,295954,1,8,0:0:0:0:
374,208,296054,1,8,0:0:0:0:
304,141,296154,1,8,0:0:0:0:
212,171,296254,1,8,0:0:0:0:
126,215,296354,1,8,0:0:0:0:
49,157,296454,5,8,0:0:0:0:
69,63,296554,1,8,0:0:0:0:
161,37,296654,1,8,0:0:0:0:
223,109,296754,1,8,0:0:0:0:
214,204,296854,1,8,0:0:0:0:
255,290,296954,1,8,0:0:0:0:
350,294,297054,1,8,0:0:0:0:
410,219,297154,1,8,0:0:0:0:
369,129,297254,6,0,B|321:98|321:98|276:117|276:117|205:105,1,160,8|8,0:0|0:0,0:0:0:0:
8,256,297454,2,0,B|56:287|56:287|101:268|101:268|171:280,1,160,8|8,0:0|0:0,0:0:0:0:
380,99,297654,2,0,B|334:63|334:63|288:78|288:78|218:60,1,160,8|8,0:0|0:0,0:0:0:0:
2,284,297854,2,0,B|47:320|47:320|93:305|93:305|162:323,1,160,8|8,0:0|0:0,0:0:0:0:
376,349,298054,5,12,0:0:0:0:
459,350,298154,1,0,0:0:0:0:
506,280,298254,1,0,0:0:0:0:
470,203,298354,1,0,0:0:0:0:
386,195,298454,1,0,0:0:0:0:
331,258,298554,1,0,0:0:0:0:
212,364,298654,5,8,0:0:0:0:
140,370,298754,1,0,0:0:0:0:
78,333,298854,1,0,0:0:0:0:
51,266,298954,1,0,0:0:0:0:
67,195,299054,1,0,0:0:0:0:
200,149,299154,5,8,0:0:0:0:
200,149,299254,2,0,B|259:138|259:138|316:154,1,119.999996337891
116,39,299454,2,0,B|57:28|57:28|0:44,1,119.999996337891,8|0,0:0|0:0,0:0:0:0:
283,49,299654,5,0,0:0:0:0:
283,49,299754,2,0,B|322:43|322:43|339:49|339:49|381:44,2,100,8|0|0,0:0|0:0|0:0,0:0:0:0:
200,149,300054,2,0,B|160:143|160:143|143:149|143:149|101:144,2,100,8|0|8,0:0|0:0|0:0,0:0:0:0:
272,265,300354,1,8,0:0:0:0:
455,90,300454,6,0,B|453:124|474:158|474:158|449:192|447:229,1,150,4|0,0:0|0:0,0:0:0:0:
274,366,300654,1,0,0:0:0:0:
200,149,300754,2,0,B|237:150|271:175|271:175|305:154|339:156,1,150.000005722046,8|0,0:0|0:0,0:0:0:0:
194,320,300954,2,0,B|158:322|124:301|124:301|90:326|53:327,1,150.000005722046,8|0,0:0|0:0,0:0:0:0:
13,121,301154,1,8,0:0:0:0:
208,8,301254,6,0,B|206:42|227:76|227:76|202:110|200:147,1,150,0|8,0:0|0:0,0:0:0:0:
408,367,301454,2,0,B|406:332|427:298|427:298|402:264|400:227,1,150,0|8,0:0|0:0,0:0:0:0:
403,26,301654,1,0,0:0:0:0:
286,188,301754,1,8,0:0:0:0:
471,133,301854,1,0,0:0:0:0:
293,57,301954,1,8,0:0:0:0:
399,226,302054,5,0,0:0:0:0:
202,113,302154,2,0,B|167:115|133:94|133:94|99:119|62:121,1,150,8|0,0:0|0:0,0:0:0:0:
192,316,302354,2,0,B|227:314|261:335|261:335|295:310|332:308,1,150,8|0,0:0|0:0,0:0:0:0:
190,87,302554,2,0,B|155:89|121:68|121:68|87:93|50:95,1,150,8|0,0:0|0:0,0:0:0:0:
257,243,302754,1,8,0:0:0:0:
337,94,302854,6,0,B|382:49|382:49|398:230,1,239.999992675781,12|0,0:0|0:0,0:0:0:0:
60,148,303154,2,0,B|15:102|15:102|191:86,1,239.999992675781,12|0,0:0|0:0,0:0:0:0:
257,243,303454,1,12,0:0:0:0:
337,94,303554,1,8,0:0:0:0:
141,232,303654,6,0,B|119:284|119:284|112:290|112:290|123:295|123:295|141:334,2,119.999996337891
380,252,303954,1,0,0:0:0:0:
380,252,304054,2,0,B|434:238|434:238|441:232|441:232|445:244|445:244|480:267,2,119.999996337891,8|0|0,0:0|0:0|0:0,0:0:0:0:
254,148,304354,1,0,0:0:0:0:
254,148,304454,6,0,B|254:124|242:98|242:98|253:80|252:51,2,100,0|8|0,0:0|0:0|0:0,0:0:0:0:
468,117,304754,1,0,0:0:0:0:
468,117,304854,2,0,B|444:117|418:129|418:129|400:118|371:118,2,100,8|0|0,0:0|0:0|0:0,0:0:0:0:
415,2,305154,1,8,0:0:0:0:
163,38,305254,6,0,B|141:114|141:114|162:228,1,194.999991073609,4|0,0:0|0:0,0:0:0:0:
205,325,305454,1,0,0:0:0:0:
258,268,305554,1,0,0:0:0:0:
256,190,305654,1,0,0:0:0:0:
200,135,305754,1,0,0:0:0:0:
122,138,305854,1,0,0:0:0:0:
69,195,305954,1,0,0:0:0:0:
71,272,306054,6,0,B|142:276|142:276|191:308,1,129.999994049073,0|0,0:0|0:0,0:0:0:0:
457,377,306254,2,0,B|386:373|386:373|336:340,1,129.999994049073
161,227,306454,1,0,0:0:0:0:
95,184,306554,1,0,0:0:0:0:
95,106,306654,1,0,0:0:0:0:
160,63,306754,1,0,0:0:0:0:
231,93,306854,1,0,0:0:0:0:
248,169,306954,1,0,0:0:0:0:
282,238,307054,1,0,0:0:0:0:
358,255,307154,1,0,0:0:0:0:
418,206,307254,1,0,0:0:0:0:
433,129,307354,5,8,0:0:0:0:
336,153,307454,1,8,0:0:0:0:
512,240,307554,1,8,0:0:0:0:
419,332,307654,6,0,B|343:341|343:341|324:337|324:337|250:346,1,170.000003242493,4|0,0:0|0:0,0:3:0:0:
167,168,307854,1,0,0:0:0:0:
56,362,307954,6,0,B|46:286|46:286|50:267|50:267|41:193,1,170.000003242493,8|0,0:0|0:0,0:3:0:0:
21,0,308154,1,8,0:0:0:0:
167,168,308254,2,0,B|242:158|242:158|261:162|261:162|335:153,1,170.000003242493,0|8,0:0|0:0,0:3:0:0:
421,0,308454,5,0,0:0:0:0:
445,243,308554,1,8,0:0:0:0:
286,39,308654,5,0,0:0:0:0:
510,107,308754,1,8,0:0:0:0:
277,208,308854,5,0,0:0:0:0:
421,0,308954,1,8,0:0:0:0:
343,311,309054,6,0,B|294:312|294:312|255:340|255:340|213:320|174:330,1,179.999994506836,0|8,0:0|0:0,0:0:0:0:
25,63,309254,2,0,B|74:64|74:64|113:92|113:92|155:72|193:82,1,179.999994506836,0|8,0:0|0:0,0:0:0:0:
277,208,309454,5,0,0:0:0:0:
69,237,309554,1,8,0:0:0:0:
280,169,309654,5,0,0:0:0:0:
58,221,309754,1,8,0:0:0:0:
283,130,309854,5,0,0:0:0:0:
47,205,309954,1,8,0:0:0:0:
286,91,310054,5,4,0:0:0:0:
256,192,310125,12,0,312339,0:0:0:0:
225,206,336054,5,0,0:0:0:0:
251,183,336339,1,0,0:0:0:0:
329,199,336625,1,0,0:0:0:0:
361,272,336911,1,0,0:0:0:0:
334,347,337196,1,0,0:0:0:0:
395,95,337482,6,0,B|339:72|278:110|278:110|236:91|230:45|230:45|236:91|199:120|199:120|127:95|79:136,1,419.999987182618,4|0,0:0|0:0,0:0:0:0:
352,167,338625,2,0,B|392:188|433:175|433:175|375:256|292:208|292:208|249:181|249:181|219:209|219:209|151:270|71:211,1,492.000007507324,4|0,0:0|0:0,0:0:0:0:
63,2,339768,5,8,0:0:0:0:
148,151,339911,1,0,0:0:0:0:
151,50,340054,1,0,0:0:0:0:
78,216,340196,2,0,L|-4:225,1,75.0000028610231,8|0,0:0|0:0,0:0:0:0:
230,108,340482,2,0,L|312:117,1,75.0000028610231,8|0,0:0|0:0,0:0:0:0:
67,99,340768,1,0,0:0:0:0:
174,237,340911,6,0,L|179:289,3,37.5000014305115
270,305,341196,2,0,L|265:357,3,37.5000014305115
381,359,341482,6,0,B|348:313|385:252|385:252|353:203|353:203|393:135|352:86,1,293.99999730835
144,136,342054,6,0,L|208:146,1,64.9999970245363
88,31,342339,2,0,L|23:41,1,64.9999970245363
149,163,342625,2,0,L|213:173,1,64.9999970245363
83,58,342911,2,0,L|18:68,1,64.9999970245363
273,11,343196,6,0,L|284:85,1,75.0000028610231
435,106,343482,2,0,L|423:180,1,75.0000028610231
279,200,343768,2,0,L|290:274,1,75.0000028610231
447,294,344054,2,0,L|435:368,1,75.0000028610231
172,330,344339,5,4,0:0:0:0:
148,298,344410,1,0,0:0:0:0:
139,259,344481,1,0,0:0:0:0:
148,220,344553,1,0,0:0:0:0:
173,189,344625,1,0,0:0:0:0:
196,156,344696,1,0,0:0:0:0:
205,118,344767,1,0,0:0:0:0:
197,79,344839,1,0,0:0:0:0:
174,46,344910,1,0,0:0:0:0:
140,25,344982,1,0,0:0:0:0:
101,20,345053,1,0,0:0:0:0:
63,31,345125,1,0,0:0:0:0:
32,56,345196,5,0,0:0:0:0:
48,72,345267,1,0,0:0:0:0:
64,89,345338,1,0,0:0:0:0:
80,105,345410,1,0,0:0:0:0:
96,122,345482,6,0,B|179:88|179:88|268:100,1,179.999994506836
189,182,345768,2,0,P|158:261|214:324,1,179.999994506836
298,335,346054,1,0,0:0:0:0:
320,347,346339,1,0,0:0:0:0:
472,123,346625,6,0,L|464:222,1,100,12|0,0:0|0:0,0:0:0:0:
273,151,346911,1,8,0:0:0:0:
385,281,347054,1,0,0:0:0:0:
314,57,347196,2,0,L|214:64,1,100,8|0,0:0|0:0,0:0:0:0:
133,266,347482,2,0,L|125:166,1,100,8|0,0:0|0:0,0:0:0:0:
89,40,347768,5,8,0:0:0:0:
219,180,347911,1,0,0:0:0:0:
93,23,348054,5,8,0:0:0:0:
36,214,348196,1,0,0:0:0:0:
99,4,348339,5,8,0:0:0:0:
230,153,348482,1,0,0:0:0:0:
20,86,348625,1,8,0:0:0:0:
20,86,348696,1,0,0:0:0:0:
20,86,348768,1,0,0:0:0:0:
185,233,348911,6,0,P|198:280|187:328,1,100,12|0,0:0|0:0,0:0:0:0:
0,248,349196,1,8,0:0:0:0:
134,155,349339,2,0,P|181:141|229:152,1,100,0|8,0:0|0:0,0:0:0:0:
378,354,349625,1,0,0:0:0:0:
402,125,349768,1,8,0:0:0:0:
246,252,349911,1,0,0:0:0:0:
486,234,350054,6,0,L|493:134,1,100,8|0,0:0|0:0,0:0:0:0:
308,0,350339,2,0,L|315:100,1,100,8|0,0:0|0:0,0:0:0:0:
386,221,350625,1,8,0:0:0:0:
171,142,350768,1,8,0:0:0:0:
267,384,350911,1,0,0:0:0:0:
270,334,350982,1,0,0:0:0:0:
273,284,351054,2,0,L|276:234,1,50
50,326,351196,6,0,P|100:356|158:348,1,119.999996337891,4|8,0:0|0:0,0:0:0:0:
110,75,351482,1,0,0:0:0:0:
110,75,351554,1,0,0:0:0:0:
110,75,351625,2,0,P|79:125|87:183,1,119.999996337891,8|0,0:0|0:0,0:0:0:0:
297,305,351911,1,8,0:0:0:0:
370,80,352054,1,0,0:0:0:0:
373,109,352125,1,0,0:0:0:0:
375,139,352196,1,8,0:0:0:0:
476,355,352339,6,0,L|484:235,1,119.999996337891,0|8,0:0|0:0,0:0:0:0:
341,56,352625,1,0,0:0:0:0:
344,85,352696,1,0,0:0:0:0:
346,115,352767,1,8,0:0:0:0:
297,305,352911,2,0,L|177:313,1,119.999996337891,0|8,0:0|0:0,0:0:0:0:
6,144,353196,1,0,0:0:0:0:
35,147,353267,1,0,0:0:0:0:
65,149,353338,1,8,0:0:0:0:
103,360,353482,5,12,0:0:0:0:
90,327,353553,1,0,0:0:0:0:
90,292,353624,1,0,0:0:0:0:
104,261,353696,1,0,0:0:0:0:
130,237,353767,1,0,0:0:0:0:
162,225,353839,1,0,0:0:0:0:
197,226,353910,5,8,0:0:0:0:
159,188,353982,1,0,0:0:0:0:
153,134,354053,1,0,0:0:0:0:
183,89,354125,1,0,0:0:0:0:
235,74,354196,1,0,0:0:0:0:
285,94,354268,1,0,0:0:0:0:
310,142,354339,1,8,0:0:0:0:
301,196,354410,1,0,0:0:0:0:
292,250,354482,2,0,L|283:304,1,55.0000016784668
447,263,354625,5,4,0:0:0:0:
447,263,354696,1,0,0:0:0:0:
447,263,354768,2,0,L|437:203,1,59.9999981689454
229,157,354911,1,0,0:0:0:0:
229,157,354982,1,0,0:0:0:0:
229,157,355054,2,0,L|218:226,1,69.9999978637696
387,106,355196,1,0,0:0:0:0:
387,106,355267,1,0,0:0:0:0:
387,106,355339,2,0,L|313:117,1,75.0000028610231
131,26,355482,1,8,0:0:0:0:
131,26,355553,1,8,0:0:0:0:
131,26,355625,2,0,L|143:106,1,80,8|0,0:0|0:0,0:0:0:0:
13,310,355768,6,0,P|117:366|199:280,1,255.000004863739,4|0,0:0|0:0,0:0:0:0:
229,157,356054,1,8,0:0:0:0:
246,100,356125,1,0,0:0:0:0:
293,64,356196,1,8,0:0:0:0:
352,60,356268,1,0,0:0:0:0:
403,90,356339,1,8,0:0:0:0:
428,143,356411,1,0,0:0:0:0:
418,201,356482,1,8,0:0:0:0:
378,244,356554,1,0,0:0:0:0:
320,257,356625,1,8,0:0:0:0:
264,236,356696,1,0,0:0:0:0:
208,253,356767,1,8,0:0:0:0:
172,300,356839,1,0,0:0:0:0:
172,359,356911,5,8,0:0:0:0:
212,330,356982,1,0,0:0:0:0:
235,286,357053,1,8,0:0:0:0:
235,237,357125,1,0,0:0:0:0:
214,192,357196,1,8,0:0:0:0:
174,162,357268,1,0,0:0:0:0:
125,153,357339,1,8,0:0:0:0:
77,152,357410,1,0,0:0:0:0:
40,120,357481,1,8,0:0:0:0:
32,71,357553,1,0,0:0:0:0:
58,30,357624,1,8,0:0:0:0:
105,15,357696,1,0,0:0:0:0:
150,33,357768,2,0,L|145:84,1,50,8|0,0:0|0:0,0:0:0:0:
0,193,357911,2,0,L|6:243,1,50,8|0,0:0|0:0,0:0:0:0:
247,74,358054,5,12,0:0:0:0:
287,45,358125,1,0,0:0:0:0:
336,44,358196,1,8,0:0:0:0:
378,70,358268,1,0,0:0:0:0:
397,115,358339,1,8,0:0:0:0:
389,164,358411,1,0,0:0:0:0:
355,199,358482,1,8,0:0:0:0:
307,210,358554,1,0,0:0:0:0:
283,254,358625,1,8,0:0:0:0:
284,303,358696,1,0,0:0:0:0:
309,346,358768,1,8,0:0:0:0:
351,372,358839,1,0,0:0:0:0:
400,374,358911,1,8,0:0:0:0:
445,353,358982,1,0,0:0:0:0:
474,313,359054,1,8,0:0:0:0:
480,264,359125,1,0,0:0:0:0:
461,218,359196,5,8,0:0:0:0:
441,246,359267,1,0,0:0:0:0:
414,267,359338,1,8,0:0:0:0:
381,279,359410,1,0,0:0:0:0:
346,281,359481,1,8,0:0:0:0:
312,272,359553,1,0,0:0:0:0:
283,254,359624,1,8,0:0:0:0:
252,236,359696,1,0,0:0:0:0:
218,231,359767,1,8,0:0:0:0:
183,238,359839,1,0,0:0:0:0:
154,257,359910,1,8,0:0:0:0:
133,284,359982,1,0,0:0:0:0:
122,319,360054,5,8,0:0:0:0:
170,360,360125,1,8,0:0:0:0:
234,365,360196,1,8,0:0:0:0:
288,331,360268,1,8,0:0:0:0:
312,272,360339,6,0,L|300:132,1,139.999995727539,4|8,0:0|0:0,0:0:0:0:
40,162,360625,1,0,0:0:0:0:
262,342,360768,2,0,P|326:362|386:328,1,139.999995727539,8|0,0:0|0:0,0:0:0:0:
446,91,361054,1,8,0:0:0:0:
453,129,361125,1,0,0:0:0:0:
459,169,361197,1,0,0:0:0:0:
466,208,361268,1,0,0:0:0:0:
473,248,361340,1,8,0:0:0:0:
228,100,361482,6,0,L|88:111,1,139.999995727539,0|8,0:0|0:0,0:0:0:0:
106,382,361768,1,0,0:0:0:0:
340,160,361911,2,0,L|328:20,1,139.999995727539,8|0,0:0|0:0,0:0:0:0:
35,125,362196,1,8,0:0:0:0:
31,163,362267,1,0,0:0:0:0:
28,204,362339,1,0,0:0:0:0:
25,243,362410,1,0,0:0:0:0:
21,283,362482,1,8,0:0:0:0:
229,92,362625,5,4,0:0:0:0:
328,377,362768,1,8,0:0:0:0:
102,201,362911,1,0,0:0:0:0:
381,189,363054,1,8,0:0:0:0:
148,374,363196,1,0,0:0:0:0:
210,68,363339,1,8,0:0:0:0:
402,286,363482,1,0,0:0:0:0:
367,288,363553,1,0,0:0:0:0:
332,291,363624,1,8,0:0:0:0:
297,294,363696,1,0,0:0:0:0:
262,297,363768,6,0,L|169:272,2,66.6666666666667
381,189,364054,2,0,L|432:175,2,53.3333333333333
255,150,364339,2,0,L|216:139,2,39.9999987792969
346,84,364625,2,0,L|371:77,2,26.6666666666667
109,8,364911,6,0,P|117:97|116:187,1,179.999994506836,4|0,0:0|0:0,0:0:0:0:
42,384,365482,1,0,0:0:0:0:
0,167,365768,1,0,0:0:0:0:
183,273,366054,6,0,P|250:267|317:266,1,134.999995880127,8|0,0:0|0:0,0:0:0:0:
351,282,366339,2,0,B|359:190,1,89.9999972534181
261,86,366625,2,0,B|268:175,1,89.9999972534181
367,89,366911,6,0,P|421:82|476:80,1,110.000003356934,4|0,0:0|0:0,0:0:0:0:
170,21,367196,2,0,P|110:14|50:11,1,119.999996337891
178,239,367482,6,0,B|186:147,1,89.9999972534181
78,281,367768,2,0,B|86:373,1,89.9999972534181
0,176,368054,2,0,B|92:184,1,89.9999972534181
302,336,368339,5,0,0:0:0:0:
302,336,368624,1,0,0:0:0:0:
325,349,368696,1,0,0:0:0:0:
352,353,368767,1,0,0:0:0:0:
379,347,368839,1,0,0:0:0:0:
402,331,368910,1,8,0:0:0:0:
417,308,368982,1,0,0:0:0:0:
422,280,369053,1,0,0:0:0:0:
416,253,369125,1,0,0:0:0:0:
400,230,369196,2,0,L|360:236,3,34.9999989318848
349,90,369482,5,4,0:0:0:0:
309,83,369553,1,0,0:0:0:0:
270,91,369624,1,0,0:0:0:0:
237,113,369696,1,0,0:0:0:0:
215,146,369767,1,0,0:0:0:0:
207,185,369839,1,0,0:0:0:0:
213,224,369910,1,0,0:0:0:0:
234,258,369982,1,0,0:0:0:0:
265,281,370054,5,4,0:0:0:0:
288,248,370125,1,0,0:0:0:0:
322,228,370196,1,0,0:0:0:0:
361,221,370268,1,0,0:0:0:0:
400,230,370339,1,0,0:0:0:0:
432,254,370411,1,0,0:0:0:0:
453,287,370482,1,0,0:0:0:0:
460,326,370554,1,0,0:0:0:0:
452,376,370625,5,4,0:0:0:0:
397,341,370696,1,0,0:0:0:0:
364,286,370767,1,0,0:0:0:0:
361,221,370839,1,0,0:0:0:0:
388,162,370911,1,0,0:0:0:0:
395,114,370982,1,0,0:0:0:0:
378,67,371053,1,0,0:0:0:0:
340,36,371125,1,0,0:0:0:0:
291,27,371196,5,4,0:0:0:0:
253,36,371267,1,0,0:0:0:0:
221,60,371338,1,0,0:0:0:0:
203,95,371410,1,0,0:0:0:0:
200,135,371482,1,0,0:0:0:0:
207,164,371553,1,0,0:0:0:0:
213,193,371624,1,0,0:0:0:0:
219,223,371696,1,0,0:0:0:0:
226,252,371768,6,0,L|251:206,5,29.9999990844727,8|0|0|0|0|0,0:0|0:0|0:0|0:0|0:0|0:0,0:0:0:0:
174,325,372196,2,0,L|153:346,5,29.9999990844727,8|0|0|0|0|0,0:0|0:0|0:0|0:0|0:0|0:0,0:0:0:0:
260,329,372625,2,0,L|287:344,3,29.9999990844727,8|0|0|0,0:0|0:0|0:0|0:0,0:0:0:0:
61,283,372911,5,0,0:0:0:0:
395,242,373196,1,0,0:0:0:0:
0,154,373482,1,0,0:0:0:0:
465,116,373768,1,0,0:0:0:0:
42,35,374054,6,0,B|107:112|214:51|214:51|330:-23|445:35|504:185|351:285|351:285|305:150,1,800,4|0,0:0|0:0,0:0:0:0:
305,150,375482,1,0,0:0:0:0:
512,301,375768,1,0,0:0:0:0:
276,347,376054,1,0,0:0:0:0:
387,171,376339,6,0,B|412:78|298:7|198:83|223:176|223:176|139:97|27:200|76:280|76:280|138:284|154:241,1,672.000008203125,4|0,0:0|0:0,0:0:0:0:
154,240,377482,6,0,P|174:318|286:341,1,179.999994506836,12|0,0:0|0:0,0:0:0:0:
354,150,377911,2,0,P|271:174|245:257,1,179.999994506836,12|0,0:0|0:0,0:0:0:0:
440,183,378339,2,0,P|445:138|427:96,1,89.9999972534181,8|8,0:0|0:0,0:0:0:0:
90,19,378625,6,0,B|63:84|63:84|82:223,1,194.999991073609,4|0,0:0|0:0,0:0:0:0:
116,301,378911,1,8,0:0:0:0:
158,337,378982,1,0,0:0:0:0:
211,353,379053,1,8,0:0:0:0:
267,346,379125,1,0,0:0:0:0:
315,316,379196,1,8,0:0:0:0:
347,269,379268,1,0,0:0:0:0:
356,214,379339,1,8,0:0:0:0:
340,159,379411,1,0,0:0:0:0:
305,116,379482,1,8,0:0:0:0:
255,90,379553,1,0,0:0:0:0:
198,88,379625,1,8,0:0:0:0:
146,110,379696,1,0,0:0:0:0:
107,151,379768,5,8,0:0:0:0:
157,187,379839,1,0,0:0:0:0:
218,193,379910,1,8,0:0:0:0:
272,166,379982,1,0,0:0:0:0:
305,116,380053,1,8,0:0:0:0:
352,77,380125,1,0,0:0:0:0:
413,67,380196,1,8,0:0:0:0:
469,91,380268,1,0,0:0:0:0:
506,141,380339,1,8,0:0:0:0:
512,201,380411,1,0,0:0:0:0:
485,256,380482,1,8,0:0:0:0:
434,290,380554,1,0,0:0:0:0:
374,293,380625,1,8,0:0:0:0:
318,266,380696,1,0,0:0:0:0:
257,270,380767,1,8,0:0:0:0:
204,302,380839,1,0,0:0:0:0:
173,354,380910,5,12,0:0:0:0:
239,377,380982,1,0,0:0:0:0:
307,355,381053,1,8,0:0:0:0:
348,296,381125,1,0,0:0:0:0:
344,225,381196,1,8,0:0:0:0:
297,172,381268,1,0,0:0:0:0:
228,157,381339,1,8,0:0:0:0:
164,187,381411,1,0,0:0:0:0:
96,207,381482,1,8,0:0:0:0:
34,175,381553,1,0,0:0:0:0:
10,108,381625,1,8,0:0:0:0:
38,44,381696,1,0,0:0:0:0:
103,16,381768,2,0,L|173:30,1,69.9999978637696,8|0,0:0|0:0,0:0:0:0:
228,186,381911,2,0,L|298:171,1,69.9999978637696,8|0,0:0|0:0,0:0:0:0:
360,69,382054,5,12,0:0:0:0:
434,93,382125,1,8,0:0:0:0:
483,157,382196,1,8,0:0:0:0:
485,235,382268,1,8,0:0:0:0:
444,302,382339,1,8,0:0:0:0:
371,333,382411,1,8,0:0:0:0:
294,320,382482,1,8,0:0:0:0:
238,263,382554,1,8,0:0:0:0:
228,186,382625,6,0,P|179:113|64:130,1,209.999993591309
112,307,383196,6,0,L|128:198,1,110.000003356934,4|8,0:0|0:0,0:0:0:0:
336,27,383482,1,0,0:0:0:0:
339,54,383553,1,0,0:0:0:0:
343,81,383624,1,8,0:0:0:0:
82,24,383768,2,0,L|191:8,1,110.000003356934,0|8,0:0|0:0,0:0:0:0:
310,219,384054,1,0,0:0:0:0:
283,216,384125,1,0,0:0:0:0:
256,212,384196,1,8,0:0:0:0:
404,150,384339,6,0,L|513:134,1,110.000003356934,0|8,0:0|0:0,0:0:0:0:
353,358,384625,2,0,L|360:303,2,55.0000016784668,0|0|8,0:0|0:0|0:0,0:0:0:0:
141,182,384911,2,0,L|157:291,1,110.000003356934,0|8,0:0|0:0,0:0:0:0:
291,87,385196,2,0,L|298:32,2,55.0000016784668,0|0|8,0:0|0:0|0:0,0:0:0:0:
260,280,385482,5,0,0:0:0:0:
140,79,385625,1,8,0:0:0:0:
75,275,385768,1,0,0:0:0:0:
102,272,385839,1,0,0:0:0:0:
129,268,385910,1,8,0:0:0:0:
363,191,386054,2,0,L|254:175,1,110.000003356934,0|8,0:0|0:0,0:0:0:0:
470,352,386339,1,0,0:0:0:0:
467,325,386410,1,0,0:0:0:0:
463,298,386481,1,8,0:0:0:0:
482,85,386625,6,0,B|423:91|423:91|376:71,1,110.000003356934,0|8,0:0|0:0,0:0:0:0:
199,180,386911,2,0,L|255:174,2,55.0000016784668,0|0|8,0:0|0:0|0:0,0:0:0:0:
3,41,387196,2,0,B|62:35|62:35|108:54,1,110.000003356934,0|8,0:0|0:0,0:0:0:0:
28,281,387482,2,0,L|34:225,2,55.0000016784668,0|0|8,0:0|0:0|0:0,0:0:0:0:
200,380,387768,5,0,0:0:0:0:
233,381,387839,1,0,0:0:0:0:
264,371,387910,1,0,0:0:0:0:
291,352,387982,1,0,0:0:0:0:
309,325,388053,1,0,0:0:0:0:
318,293,388125,1,0,0:0:0:0:
315,260,388196,1,0,0:0:0:0:
301,230,388268,1,0,0:0:0:0:
278,206,388339,1,0,0:0:0:0:
249,191,388410,1,0,0:0:0:0:
216,187,388482,1,0,0:0:0:0:
184,194,388553,1,0,0:0:0:0:
156,212,388625,1,0,0:0:0:0:
124,224,388696,1,0,0:0:0:0:
91,223,388767,1,0,0:0:0:0:
62,210,388839,1,0,0:0:0:0:
40,185,388910,5,0,0:0:0:0:
30,153,388982,1,0,0:0:0:0:
33,121,389053,1,0,0:0:0:0:
50,92,389125,1,0,0:0:0:0:
76,73,389196,1,0,0:0:0:0:
108,65,389267,1,0,0:0:0:0:
141,72,389339,1,0,0:0:0:0:
168,91,389410,1,0,0:0:0:0:
189,115,389482,1,0,0:0:0:0:
217,132,389553,1,0,0:0:0:0:
249,141,389625,1,0,0:0:0:0:
282,140,389696,1,0,0:0:0:0:
314,130,389768,1,0,0:0:0:0:
341,111,389839,1,0,0:0:0:0:
361,85,389911,1,0,0:0:0:0:
373,54,389982,1,0,0:0:0:0:
376,21,390054,6,0,P|352:28|327:29,1,50,12|0,0:0|0:0,0:0:0:0:
158,3,390196,1,0,0:0:0:0:
158,3,390268,1,0,0:0:0:0:
158,3,390339,1,0,0:0:0:0:
433,77,390482,6,0,P|411:89|387:97,1,50,8|0,0:0|0:0,0:0:0:0:
189,115,390624,1,0,0:0:0:0:
189,115,390696,1,0,0:0:0:0:
189,115,390767,1,0,0:0:0:0:
512,56,390911,5,8,0:0:0:0:
512,70,390982,1,0,0:0:0:0:
512,85,391053,1,0,0:0:0:0:
510,100,391125,1,0,0:0:0:0:
506,115,391196,5,8,0:0:0:0:
109,213,391482,1,8,0:0:0:0:
79,225,391768,5,8,0:0:0:0:
360,252,391911,1,8,0:0:0:0:
235,97,392054,1,8,0:0:0:0:
205,100,392125,1,8,0:0:0:0:
175,103,392197,1,8,0:0:0:0:
145,106,392268,1,8,0:0:0:0:
116,110,392339,1,4,0:0:0:0:
230,334,392482,6,0,L|239:234,1,100,8|0,0:0|0:0,0:0:0:0:
350,19,392768,2,0,L|359:118,1,100,8|0,0:0|0:0,0:0:0:0:
202,299,393054,2,0,L|211:199,1,100,8|0,0:0|0:0,0:0:0:0:
440,355,393339,6,0,L|340:345,1,100,8|0,0:0|0:0,0:0:0:0:
245,95,393625,1,8,0:0:0:0:
402,229,393768,1,0,0:0:0:0:
473,3,393911,1,8,0:0:0:0:
325,172,394054,1,0,0:0:0:0:
176,22,394196,1,8,0:0:0:0:
425,79,394339,1,0,0:0:0:0:
425,79,394411,1,0,0:0:0:0:
425,79,394482,6,0,P|452:120|493:147,1,100,8|0,0:0|0:0,0:0:0:0:
176,22,394768,2,0,P|134:49|107:90,1,100,8|0,0:0|0:0,0:0:0:0:
205,357,395054,2,0,P|246:329|273:288,1,100,8|0,0:0|0:0,0:0:0:0:
248,84,395339,1,8,0:0:0:0:
89,229,395482,1,0,0:0:0:0:
89,229,395554,1,0,0:0:0:0:
89,229,395625,1,8,0:0:0:0:
336,198,395768,5,4,0:0:0:0:
21,102,395911,1,8,0:0:0:0:
366,178,396054,1,0,0:0:0:0:
0,71,396196,1,8,0:0:0:0:
253,271,396339,2,0,L|268:369,1,100,4|8,0:0|0:0,0:0:0:0:
191,104,396625,2,0,L|207:1,1,100,0|8,0:0|0:0,0:0:0:0:
89,229,396911,5,0,0:0:0:0:
267,162,397054,2,0,L|370:178,1,100,8|0,0:0|0:0,0:0:0:0:
491,366,397339,2,0,L|475:263,1,100,8|0,0:0|0:0,0:0:0:0:
495,32,397625,2,0,L|479:135,1,100,8|0,0:0|0:0,0:0:0:0:
270,51,397911,6,0,L|167:67,1,100,8|0,0:0|0:0,0:0:0:0:
141,72,398125,1,0,0:0:0:0:
107,79,398196,1,8,0:0:0:0:
335,247,398339,1,0,0:0:0:0:
109,369,398482,2,0,L|125:266,1,100,8|0,0:0|0:0,0:0:0:0:
343,147,398768,1,8,0:0:0:0:
318,364,398911,1,0,0:0:0:0:
318,364,398983,1,0,0:0:0:0:
318,364,399054,6,0,P|364:348|414:350,1,100,8|0,0:0|0:0,0:0:0:0:
275,88,399339,2,0,P|258:134|261:184,1,100,8|0,0:0|0:0,0:0:0:0:
475,139,399625,2,0,P|491:92|488:42,1,100,8|0,0:0|0:0,0:0:0:0:
180,48,399911,2,0,P|133:31|83:34,1,100,8|0,0:0|0:0,0:0:0:0:
50,46,400125,1,0,0:0:0:0:
19,62,400196,1,8,0:0:0:0:
181,295,400339,5,0,0:0:0:0:
120,114,400482,1,8,0:0:0:0:
81,384,400625,1,8,0:0:0:0:
237,149,400768,1,0,0:0:0:0:
286,384,400911,1,0,0:0:0:0:
14,170,401054,1,0,0:0:0:0:
389,248,401196,1,8,0:0:0:0:
423,242,401267,1,8,0:0:0:0:
458,237,401338,1,8,0:0:0:0:
269,74,401482,6,0,L|285:177,1,100,4|8,0:0|0:0,0:0:0:0:
312,293,401768,1,0,0:0:0:0:
376,103,401911,1,8,0:0:0:0:
172,161,402054,1,0,0:0:0:0:
138,155,402125,1,0,0:0:0:0:
103,150,402196,2,0,L|4:134,1,100,8|0,0:0|0:0,0:0:0:0:
191,287,402482,5,8,0:0:0:0:
174,60,402625,1,0,0:0:0:0:
81,238,402768,1,8,0:0:0:0:
264,100,402911,1,0,0:0:0:0:
290,87,402982,1,0,0:0:0:0:
320,83,403053,1,0,0:0:0:0:
349,88,403125,1,0,0:0:0:0:
376,103,403196,6,0,L|372:132,1,29.9999990844727
462,176,403339,2,0,L|466:206,1,29.9999990844727
375,248,403482,2,0,L|372:278,1,29.9999990844727
462,320,403625,2,0,L|466:350,1,29.9999990844727
270,234,403768,6,0,L|169:242,2,100,4|0|8,0:0|0:0|0:0,0:0:0:0:
188,82,404196,1,0,0:0:0:0:
188,82,404268,1,0,0:0:0:0:
188,82,404339,1,8,0:0:0:0:
167,96,404410,1,0,0:0:0:0:
143,104,404481,1,0,0:0:0:0:
119,106,404553,1,0,0:0:0:0:
94,101,404624,1,0,0:0:0:0:
72,90,404696,1,0,0:0:0:0:
53,74,404767,1,0,0:0:0:0:
39,54,404839,1,0,0:0:0:0:
30,30,404911,5,8,0:0:0:0:
79,62,404982,1,8,0:0:0:0:
106,115,405053,1,8,0:0:0:0:
104,175,405125,1,8,0:0:0:0:
73,225,405196,1,8,0:0:0:0:
48,278,405267,1,8,0:0:0:0:
68,333,405338,1,8,0:0:0:0:
120,359,405410,1,8,0:0:0:0:
176,340,405482,6,0,P|153:299|158:256,1,89.9999972534181,6|0,0:0|0:0,0:0:0:0:
135,243,405768,2,0,P|128:301|154:358,1,120,2|0,0:0|0:0,0:0:0:0:
230,286,406054,5,0,0:0:0:0:
389,172,406196,2,0,L|488:182,1,100,8|0,0:0|0:0,0:0:0:0:
343,372,406482,2,0,L|332:272,1,100,8|0,0:0|0:0,0:0:0:0:
400,72,406768,2,0,L|389:171,1,100,8|0,0:0|0:0,0:0:0:0:
226,65,407054,6,0,L|126:75,1,100,8|0,0:0|0:0,0:0:0:0:
283,202,407339,1,8,0:0:0:0:
157,157,407482,1,0,0:0:0:0:
271,295,407625,1,8,0:0:0:0:
118,242,407768,1,0,0:0:0:0:
263,384,407911,1,8,0:0:0:0:
79,330,408054,1,0,0:0:0:0:
79,330,408125,1,0,0:0:0:0:
79,330,408196,6,0,L|69:218,1,100,8|0,0:0|0:0,0:0:0:0:
226,65,408482,2,0,L|236:164,1,100,8|0,0:0|0:0,0:0:0:0:
96,83,408768,1,8,0:0:0:0:
188,268,408911,1,8,0:0:0:0:
217,264,408982,1,0,0:0:0:0:
247,261,409053,1,0,0:0:0:0:
277,257,409125,1,0,0:0:0:0:
307,254,409196,1,8,0:0:0:0:
351,257,409267,1,0,0:0:0:0:
391,278,409338,1,0,0:0:0:0:
418,313,409410,1,0,0:0:0:0:
429,357,409482,6,0,L|331:343,1,59.9999981689454
453,209,409625,2,0,L|551:194,1,59.9999981689454
415,379,409768,2,0,L|316:364,1,59.9999981689454
453,179,409911,2,0,L|551:164,1,59.9999981689454
512,345,410054,1,0,0:0:0:0:
340,175,410196,1,0,0:0:0:0:
310,170,410267,1,0,0:0:0:0:
280,166,410338,1,0,0:0:0:0:
250,163,410410,1,0,0:0:0:0:
221,159,410482,2,0,L|173:152,1,34.9999989318848
97,264,410625,5,4,0:0:0:0:
90,282,410911,1,0,0:0:0:0:
83,300,411196,1,0,0:0:0:0:
76,318,411482,2,0,L|67:368,1,34.9999989318848
1,210,411625,2,0,L|10:260,1,34.9999989318848
73,128,411768,6,0,L|85:59,1,69.9999978637696,8|0,0:0|0:0,0:0:0:0:
245,132,412054,2,0,L|232:63,1,69.9999978637696
228,45,412268,1,0,0:0:0:0:
225,27,412339,1,0,0:0:0:0:
155,180,412482,1,0,0:0:0:0:
348,118,412625,1,0,0:0:0:0:
306,300,412768,1,0,0:0:0:0:
478,92,412911,5,4,0:0:0:0:
481,111,413197,1,0,0:0:0:0:
485,130,413482,1,0,0:0:0:0:
489,149,413768,1,0,0:0:0:0:
302,98,413911,1,0,0:0:0:0:
361,340,414054,5,0,0:0:0:0:
365,298,414125,1,0,0:0:0:0:
369,256,414196,1,8,0:0:0:0:
373,214,414268,1,8,0:0:0:0:
377,172,414339,2,0,L|440:184,1,34.9999989318848,8|0,0:0|0:0,0:0:0:0:
280,77,414482,2,0,L|217:89,1,34.9999989318848
82,216,414625,2,0,P|47:201|10:197,2,75
180,332,415196,6,0,P|265:353|337:244,1,179.999994506836,4|0,0:0|0:0,0:0:0:0:
336,174,415482,1,8,0:0:0:0:
319,127,415553,1,0,0:0:0:0:
280,97,415624,1,8,0:0:0:0:
231,93,415696,1,0,0:0:0:0:
187,116,415767,1,8,0:0:0:0:
164,160,415839,1,0,0:0:0:0:
167,209,415910,1,8,0:0:0:0:
197,248,415982,1,0,0:0:0:0:
244,265,416054,2,0,L|251:205,3,50,8|0|8|0,0:0|0:0|0:0|0:0,0:0:0:0:
427,357,416339,5,8,0:0:0:0:
393,320,416410,1,0,0:0:0:0:
379,273,416481,1,8,0:0:0:0:
388,224,416553,1,0,0:0:0:0:
419,185,416624,1,8,0:0:0:0:
451,146,416696,1,0,0:0:0:0:
459,97,416767,1,8,0:0:0:0:
443,50,416839,1,0,0:0:0:0:
407,17,416910,1,8,0:0:0:0:
359,5,416982,1,0,0:0:0:0:
311,18,417053,1,8,0:0:0:0:
275,52,417125,1,0,0:0:0:0:
261,100,417196,1,8,0:0:0:0:
270,148,417267,1,0,0:0:0:0:
302,186,417339,2,0,L|317:103,1,50,8|0,0:0|0:0,0:0:0:0:
148,35,417482,5,4,0:0:0:0:
94,46,417553,1,0,0:0:0:0:
55,83,417624,1,8,0:0:0:0:
39,135,417696,1,8,0:0:0:0:
52,188,417767,1,8,0:0:0:0:
90,227,417839,1,8,0:0:0:0:
142,241,417910,1,8,0:0:0:0:
195,226,417982,1,0,0:0:0:0:
232,187,418053,1,0,0:0:0:0:
273,137,418125,1,0,0:0:0:0:
339,123,418196,1,0,0:0:0:0:
401,149,418268,1,0,0:0:0:0:
437,207,418339,1,0,0:0:0:0:
433,274,418411,1,0,0:0:0:0:
392,328,418482,1,0,0:0:0:0:
327,348,418554,1,0,0:0:0:0:
263,327,418625,1,8,0:0:0:0:
485,30,419768,6,0,B|350:171|569:220|414:374|414:374|310:329|340:190|340:190|372:30|227:-77|35:-13|-29:163|83:270|83:270|260:270|227:126|227:126|83:94|83:270|83:270|163:351|250:309|250:309|239:329|237:351,1,1959.99998205566,4|0,0:0|0:0,3:0:0:0:
