osu file format v14

[General]
AudioFilename: audio.mp3
AudioLeadIn: 0
PreviewTime: -1
Countdown: 1
SampleSet: Drum
StackLeniency: 0.7
Mode: 0
LetterboxInBreaks: 0
WidescreenStoryboard: 1

[Editor]
DistanceSpacing: 1.9
BeatDivisor: 4
GridSize: 4
TimelineZoom: 4.100006

[Metadata]
Title:Fusyoku Ressentiment, Fushiyoku no Sarugakuza.
TitleUnicode:腐蝕ルサンチマン、不死欲の猿楽座。
Artist:Imperial Circus Dead Decadence
ArtistUnicode:Imperial Circus Dead Decadence
Creator:nrgsanek
Version:Necromancer
Source:
Tags:black deathcore metal symphonic imperial circus dead decadence 3rd third ep rsi deathstream doujin dojin c91 comiket jmetal singer scream drums guitare bpm change male female vocal powerfull icdd marathon
BeatmapID:1369165
BeatmapSetID:646173

[Difficulty]
HPDrainRate:5.4
CircleSize:4
OverallDifficulty:8.6
ApproachRate:10
SliderMultiplier:1.4
SliderTickRate:1

[Events]
//Background and Video events
0,0,"bg.jpg",0,0
//Break Periods
2,228976,241124
2,312823,318756
//Storyboard Layer 0 (Background)
//Storyboard Layer 1 (Fail)
//Storyboard Layer 2 (Pass)
//Storyboard Layer 3 (Foreground)
//Storyboard Layer 4 (Overlay)
//Storyboard Sound Samples

[TimingPoints]
760,285.714285714286,4,3,0,70,1,0
760,-100,3,3,10,70,0,0
1619,-133.333333333333,3,3,5,70,0,0
1902,-200,3,3,0,70,0,0
2474,-83.3333333333333,3,3,5,70,0,0
2760,-200,3,3,0,70,0,0
3331,-133.333333333333,3,3,5,70,0,0
3833,-133.333333333333,3,3,0,5,0,0
3903,-133.333333333333,3,2,10,70,0,0
4188,-50,3,3,5,70,0,1
4474,-83.3333333333333,3,3,5,70,0,1
5474,-100,3,3,5,70,0,1
6760,-66.6666666666667,3,3,5,70,0,1
7331,-50,3,3,0,70,0,1
7617,-100,3,3,0,70,0,1
8474,-66.6666666666667,3,3,0,70,0,1
9331,-66.6666666666667,3,3,6,70,0,1
10188,-76.9230769230769,3,3,5,70,0,1
11045,-86.9565217391304,3,3,0,70,0,1
11260,-86.9565217391304,3,3,0,5,0,1
11331,-83.3333333333333,3,3,0,70,0,1
11474,-50,3,3,5,70,0,1
12188,-66.6666666666667,3,3,5,70,0,1
12760,-86.9565217391304,3,3,5,70,0,1
13045,-66.6666666666667,3,3,5,70,0,1
13617,-100,3,3,5,70,0,1
13902,-66.6666666666667,3,3,5,70,0,1
14188,-50,3,3,5,70,0,1
14474,-86.9565217391304,3,3,5,70,0,1
17331,-100,3,3,5,70,0,1
17902,-55.5555555555556,3,3,5,50,0,1
18188,-55.5555555555556,3,3,5,65,0,1
18760,-55.5555555555556,3,3,5,50,0,1
19047,-55.5555555555556,3,3,5,65,0,1
19331,-86.9565217391304,3,3,5,65,0,1
19617,-55.5555555555556,3,3,5,50,0,1
19902,-55.5555555555556,3,3,5,65,0,1
21045,-55.5555555555556,3,3,5,50,0,1
21260,-55.5555555555556,3,3,5,5,0,1
21331,-55.5555555555556,3,3,5,70,0,1
21617,-66.6666666666667,3,3,5,70,0,1
22188,-66.6666666666667,3,3,5,70,0,1
22402,-66.6666666666667,3,3,5,5,0,1
22474,-80,3,3,5,70,0,1
22688,-80,3,3,5,5,0,1
22760,-80,3,3,5,70,0,1
22976,-100,3,3,5,5,0,1
23045,-66.6666666666667,3,3,5,70,0,1
23188,-66.6666666666667,3,3,5,70,0,1
23617,-66.6666666666667,3,3,5,70,0,1
24474,-100,3,3,5,70,0,1
24688,-133.333333333333,3,3,5,5,0,1
24760,-133.333333333333,3,3,5,70,0,1
26474,-62.5,3,3,5,70,0,1
29045,-250,3,3,5,70,0,1
29133,-200,3,3,10,40,0,0
31995,-133.333333333333,3,2,10,5,0,0
32489,-200,3,3,0,70,0,1
32490,285.714285714286,4,3,0,70,1,0
33633,-66.6666666666667,3,3,0,70,0,0
33656,285.714285714286,3,3,0,70,1,0
33656,-66.6666666666667,3,3,0,70,0,0
34727,-66.6666666666667,3,3,0,70,0,0
34798,-100,3,3,0,70,0,0
35894,285.714285714286,3,3,0,70,1,0
35894,-100,3,3,0,70,0,0
36465,-50,3,3,0,70,0,0
37036,-66.6666666666667,3,3,0,60,0,0
37251,-66.6666666666667,3,3,0,5,0,0
37322,-66.6666666666667,3,3,0,60,0,0
37536,-66.6666666666667,3,3,0,5,0,0
37608,-66.6666666666667,3,3,0,60,0,0
37822,-66.6666666666667,3,3,0,5,0,0
37894,-66.6666666666667,3,3,0,60,0,0
38108,-66.6666666666667,3,3,0,5,0,0
38179,-66.6666666666667,3,3,0,60,0,0
38394,-66.6666666666667,3,3,0,5,0,0
38465,-66.6666666666667,3,3,0,60,0,0
38679,-66.6666666666667,3,3,0,5,0,0
38751,-66.6666666666667,3,3,0,60,0,0
38965,-66.6666666666667,3,3,0,5,0,0
39036,-66.6666666666667,3,3,0,90,0,0
39251,-66.6666666666667,3,3,0,5,0,0
39340,285.714285714286,3,3,0,70,1,0
39340,-58.8235294117647,3,3,0,70,0,0
40930,285.714285714286,4,3,0,70,1,0
40977,-100,4,3,0,5,0,0
41025,-100,4,3,0,60,0,0
41215,-100,4,3,0,60,0,0
41406,-100,4,3,0,5,0,0
41453,-100,4,3,0,60,0,0
41630,285.714285714286,3,3,0,70,1,0
41630,-66.6666666666667,3,3,0,70,0,0
41775,285.714285714286,3,3,0,70,1,0
41775,-66.6666666666667,3,3,3,70,0,1
44917,-66.6666666666667,3,3,3,70,0,1
45060,-50,3,3,9,70,0,1
46203,-50,3,3,3,70,0,1
46632,-66.6666666666667,3,3,3,70,0,1
48490,-50,3,3,3,70,0,1
49203,-50,3,3,3,70,0,1
50489,-66.6666666666667,3,3,10,70,0,1
51061,-66.6666666666667,3,3,3,70,0,1
51917,-50,3,3,3,70,0,1
52775,-66.6666666666667,3,3,3,70,0,1
53917,-66.6666666666667,3,3,3,70,0,1
54203,-66.6666666666667,3,3,3,70,0,1
54633,-76.9230769230769,3,3,3,70,0,1
55347,-66.6666666666667,3,3,3,70,0,1
58775,-100,3,3,2,70,0,1
58989,-100,3,3,2,70,0,1
59060,-66.6666666666667,3,3,2,70,0,1
59275,-66.6666666666667,3,3,2,70,0,1
59345,-50,3,3,2,70,0,1
59561,-50,3,3,2,70,0,1
59631,-66.6666666666667,3,3,2,70,0,1
59917,-83.3333333333333,3,3,2,60,0,1
60917,-66.6666666666667,3,3,2,60,0,1
61203,-83.3333333333333,3,3,2,60,0,1
62202,-50,3,3,2,70,0,1
62490,-76.9230769230769,3,3,2,60,0,1
63203,-66.6666666666667,3,3,2,60,0,1
63489,-83.3333333333333,3,3,2,60,0,1
64490,-55.5555555555556,3,3,2,70,0,1
64847,-66.6666666666667,3,3,2,60,0,1
65489,-58.8235294117647,3,3,2,60,0,1
67276,-66.6666666666667,3,3,2,5,0,1
67347,-66.6666666666667,3,3,4,70,0,1
67561,-57.1428571428571,3,3,4,70,0,1
68133,-66.6666666666667,3,3,4,5,0,1
68167,-66.6666666666667,3,3,4,70,0,1
68418,-66.6666666666667,3,3,4,70,0,1
68776,-66.6666666666667,3,3,4,70,0,1
68990,-66.6666666666667,3,3,4,5,0,1
69061,-66.6666666666667,3,3,4,70,0,0
72347,-50,3,3,9,70,0,0
73489,-50,3,3,4,70,0,0
74632,-66.6666666666667,3,3,4,70,0,0
77917,-50,3,3,4,70,0,0
78203,-55.5555555555556,3,3,4,70,0,0
78489,-66.6666666666667,3,3,2,60,0,1
79346,-50,3,3,2,70,0,1
79418,-55.5555555555556,3,3,2,60,0,1
80060,-100,3,3,2,60,0,1
80346,-66.6666666666667,3,3,2,60,0,1
81633,-50,3,3,2,70,0,1
81847,-50,3,3,2,5,0,1
81918,-50,3,3,5,70,0,1
82776,-66.6666666666667,3,3,5,70,0,1
86775,-58.8235294117647,3,3,5,70,0,1
87061,-50,3,3,5,70,0,1
87335,285.714285714286,3,3,1,50,1,0
87335,-100,3,3,1,50,0,0
88120,-100,3,3,1,5,0,0
88192,-100,3,3,1,50,0,0
89030,285.714285714286,3,3,1,50,1,0
89244,-100,3,3,1,5,0,0
89315,-133.333333333333,3,3,1,50,0,0
90672,-133.333333333333,3,3,1,5,0,0
90744,-133.333333333333,3,3,1,50,0,0
90958,-133.333333333333,3,3,1,5,0,0
91030,-133.333333333333,3,3,1,50,0,0
91351,-133.333333333333,3,3,1,50,0,0
92172,-133.333333333333,3,3,1,50,0,0
92387,-133.333333333333,3,3,1,5,0,0
92458,-133.333333333333,3,3,1,50,0,0
93530,-133.333333333333,3,3,1,5,0,0
93601,-133.333333333333,3,3,1,60,0,0
93922,-86.9565217391304,3,3,1,60,0,0
94190,285.714285714286,3,3,6,60,1,0
94190,-66.6666666666667,3,3,6,60,0,0
94475,-86.9565217391304,3,3,6,70,0,0
98761,-100,3,3,6,60,0,0
98904,-100,3,3,6,60,0,0
99348,285.714285714286,3,3,6,70,1,0
99348,-100,3,1,10,70,0,0
99562,-100,3,1,10,5,0,0
99633,-100,3,1,10,70,0,0
99848,-100,3,1,10,5,0,0
99919,-100,3,1,10,70,0,0
100134,-100,3,1,10,5,0,0
100205,-100,3,1,10,70,0,0
100419,-100,3,1,10,5,0,0
100526,285.714285714286,3,3,5,70,1,0
101062,285.714285714286,4,3,5,70,1,0
101062,-100,3,3,5,70,0,0
101277,-100,3,3,5,5,0,0
101348,-100,3,3,5,70,0,0
101490,-133.333333333333,3,3,5,70,0,0
101705,-100,3,3,5,5,0,0
101776,-66.6666666666667,3,3,5,70,0,0
101991,-100,3,3,5,5,0,0
102062,-100,3,3,5,70,0,0
103061,-58.8235294117647,3,3,5,70,0,0
109347,-66.6666666666667,3,3,5,70,0,0
110204,-50,3,3,5,70,0,0
110490,-66.6666666666667,3,3,5,70,0,0
117347,-133.333333333333,3,3,5,70,0,0
117562,-133.333333333333,3,3,5,5,0,0
117633,-133.333333333333,3,3,5,70,0,0
117847,-133.333333333333,3,3,5,5,0,0
117919,-133.333333333333,3,3,5,70,0,0
118133,-133.333333333333,3,3,5,5,0,0
118204,-111.111111111111,3,3,5,70,0,0
118776,-83.3333333333333,3,3,5,70,0,0
119347,-55.5555555555556,3,3,1,70,0,1
119419,-66.6666666666667,3,3,1,70,0,1
120491,-66.6666666666667,3,3,1,70,0,1
120562,-66.6666666666667,3,3,1,70,0,1
121347,-58.8235294117647,3,3,1,70,0,1
121634,-58.8235294117647,3,3,1,70,0,1
121705,-58.8235294117647,3,3,1,70,0,1
122348,-66.6666666666667,3,3,1,70,0,1
122419,-66.6666666666667,3,3,1,70,0,1
122633,-66.6666666666667,3,3,1,70,0,1
122704,-66.6666666666667,3,3,1,70,0,1
123062,-100,3,3,1,70,0,1
123633,-71.4285714285714,3,3,1,70,0,1
123919,-66.6666666666667,3,3,1,70,0,1
127348,285.714285714286,3,3,1,70,1,1
127419,-100,3,3,1,70,0,1
127633,-66.6666666666667,3,3,1,70,0,1
127848,-66.6666666666667,3,3,1,5,0,1
127919,-58.8235294117647,3,3,1,70,0,1
128205,-66.6666666666667,3,3,1,70,0,1
136205,-66.6666666666667,3,3,1,70,0,1
136490,-66.6666666666667,3,3,1,70,0,1
137633,-50,3,3,1,70,0,1
137847,-66.6666666666667,3,3,1,5,0,1
137919,-83.3333333333333,3,3,1,70,0,1
141919,-66.6666666666667,3,3,1,70,0,1
145348,-66.6666666666667,3,3,1,60,0,1
146455,-66.6666666666667,3,3,1,70,0,0
146775,-66.6666666666667,3,3,1,70,0,0
151348,-50,3,3,5,70,0,0
153347,-100,3,3,5,70,0,0
153562,-66.6666666666667,3,3,5,5,0,0
153633,-50,3,3,10,60,0,1
153777,-76.9230769230769,3,3,10,5,0,1
153919,-76.9230769230769,3,3,10,70,0,1
154062,-76.9230769230769,3,2,10,70,0,1
155062,-100,3,2,10,70,0,1
155919,-58.8235294117647,3,2,10,70,0,1
156490,-66.6666666666667,3,2,10,70,0,1
157348,-76.9230769230769,3,2,10,70,0,1
158205,-50,3,2,10,70,0,1
158348,-200,3,2,10,70,0,1
159062,-133.333333333333,3,2,10,70,0,1
159348,-50,3,2,10,70,0,1
159562,-76.9230769230769,3,2,10,70,0,1
159633,-50,3,2,10,70,0,1
160490,-66.6666666666667,3,2,10,70,0,1
162205,-76.9230769230769,3,3,5,60,0,1
162347,-76.9230769230769,3,3,5,5,0,1
162395,-76.9230769230769,3,3,5,60,0,1
162538,-76.9230769230769,3,3,5,5,0,1
162585,-76.9230769230769,3,3,5,60,0,1
162728,-76.9230769230769,3,3,5,5,0,1
162777,285.714285714286,3,3,5,70,1,1
162777,-100,3,3,5,60,0,0
164419,-100,3,3,5,5,0,0
164491,-100,3,3,5,60,0,0
164919,-100,3,3,5,60,0,0
166419,-100,3,3,5,5,0,0
166491,-100,3,3,5,60,0,0
167277,-100,3,3,5,5,0,0
167348,-100,3,3,5,60,0,0
168134,-100,3,3,5,5,0,0
168205,-100,3,3,5,60,0,0
168777,-111.111111111111,3,3,5,60,0,0
169348,-111.111111111111,3,3,5,60,0,0
169633,-66.6666666666667,3,3,5,70,0,0
173062,-50,3,3,5,70,0,0
175634,-200,3,3,5,70,0,0
176491,-66.6666666666667,3,3,1,70,0,1
177348,-80,3,3,1,70,0,1
178205,-100,3,3,1,70,0,1
179062,-66.6666666666667,3,3,1,50,0,1
179919,-66.6666666666667,3,3,1,70,0,1
182491,-50,3,3,1,70,0,1
183348,-66.6666666666667,3,3,1,70,0,1
188419,-66.6666666666667,3,3,1,5,0,1
188491,-66.6666666666667,3,3,1,70,0,1
188634,-66.6666666666667,3,3,1,50,0,1
189348,-66.6666666666667,3,3,6,50,0,0
190205,-66.6666666666667,3,3,6,50,0,0
190384,-66.6666666666667,3,3,6,5,0,0
190455,-66.6666666666667,3,3,6,50,0,0
190634,-83.3333333333333,3,3,6,50,0,0
190705,-83.3333333333333,3,3,6,30,0,0
190777,-83.3333333333333,3,3,6,50,0,0
190919,-83.3333333333333,3,3,6,5,0,0
191027,-83.3333333333333,3,3,6,50,0,0
191205,-83.3333333333333,3,3,6,50,0,0
191348,-66.6666666666667,3,3,6,60,0,0
191919,-66.6666666666667,3,3,6,60,0,0
192634,-66.6666666666667,3,3,6,70,0,0
198205,-66.6666666666667,3,3,6,70,0,0
198777,-66.6666666666667,3,3,6,70,0,0
199348,-50,3,3,6,70,0,0
199491,-66.6666666666667,3,3,6,70,0,0
206205,-66.6666666666667,3,3,6,70,0,0
207634,-66.6666666666667,3,3,6,70,0,0
207634,-66.6666666666667,3,3,6,70,0,0
207919,-58.8235294117647,3,3,6,70,0,0
208205,-50,3,3,6,70,0,0
208491,-66.6666666666667,3,3,6,70,0,0
213634,-66.6666666666667,3,3,6,70,0,0
215277,-66.6666666666667,3,3,6,70,0,0
215348,-66.6666666666667,3,3,6,70,0,0
215777,-66.6666666666667,3,3,6,70,0,0
215919,-66.6666666666667,3,3,6,70,0,0
216348,-66.6666666666667,3,3,6,70,0,0
216491,-66.6666666666667,3,3,6,70,0,0
217634,-66.6666666666667,3,3,1,70,0,1
219919,-60.6060606060606,3,3,1,70,0,1
221062,-54.054054054054,3,3,1,70,0,1
222491,-66.6666666666667,3,3,1,70,0,1
222777,-86.9565217391304,3,3,1,70,0,1
223062,-100,3,3,1,70,0,1
223348,-66.6666666666667,3,3,1,70,0,1
223634,-100,3,3,1,70,0,1
224490,-133.333333333333,3,3,2,70,0,0
226205,-133.333333333333,3,3,0,5,0,0
241634,-133.333333333333,3,3,9,70,0,0
244634,-133.333333333333,3,3,9,5,0,0
244777,-133.333333333333,3,3,9,60,0,0
246777,-133.333333333333,3,3,9,5,0,0
247062,-133.333333333333,3,3,9,60,0,0
248205,-133.333333333333,3,3,9,60,0,0
248777,-133.333333333333,3,3,9,60,0,0
251918,-117.647058823529,3,3,9,60,0,0
253633,-100,3,3,9,60,0,0
253884,-100,3,3,9,5,0,0
253919,-100,3,3,9,60,0,0
254491,-133.333333333333,3,3,9,60,0,0
254705,-100,3,3,9,5,0,0
254777,-100,3,3,9,60,0,0
254991,-100,3,3,9,5,0,0
255062,-80,3,3,9,60,0,0
255277,-100,3,3,9,5,0,0
255347,-83.3333333333333,3,3,9,60,0,0
255348,285.714285714286,4,3,9,80,1,0
255348,-66.6666666666667,4,3,9,80,0,0
255918,-100,3,3,9,60,0,0
256134,-100,3,3,9,60,0,0
256205,-66.6666666666667,3,3,9,80,0,0
256348,-66.6666666666667,3,3,9,5,0,0
256491,-66.6666666666667,3,3,9,70,0,0
256776,-76.9230769230769,3,3,9,70,0,0
256848,-76.9230769230769,3,3,9,40,0,0
257062,-76.9230769230769,3,3,9,80,0,0
257134,-76.9230769230769,3,3,9,40,0,0
257347,-83.3333333333333,3,3,9,5,0,0
257490,-83.3333333333333,3,3,9,5,0,0
257633,-83.3333333333333,3,3,9,60,0,0
257919,-83.3333333333333,3,3,9,60,0,0
258490,-100,3,3,9,60,0,0
258776,-66.6666666666667,3,3,9,60,0,0
258777,285.714285714286,4,3,9,60,1,0
258919,-66.6666666666667,3,3,9,5,0,0
259061,-83.3333333333333,3,3,9,60,0,0
259062,285.714285714286,3,3,9,60,1,0
259277,-83.3333333333333,3,3,9,5,0,0
259348,-83.3333333333333,3,3,9,60,0,0
262204,-76.9230769230769,3,3,9,60,0,0
262419,-76.9230769230769,3,3,9,5,0,0
262490,-76.9230769230769,3,3,9,60,0,0
264776,-66.6666666666667,3,3,9,60,0,0
267062,-58.8235294117647,3,3,9,60,0,0
269102,200,4,3,2,70,1,0
269102,-62.5,4,3,2,70,0,0
269252,200,3,3,0,70,1,0
269252,-62.5,4,3,2,70,0,0
270652,-62.5,4,3,2,70,0,0
270852,-66.6666666666667,4,3,2,70,0,0
272252,-62.5,4,3,2,70,0,0
272452,-66.6666666666667,4,3,2,70,0,0
276852,-62.5,4,3,2,60,0,0
277068,198.675496688742,3,3,0,70,1,0
277068,-111.111111111111,4,3,2,60,0,0
277217,-133.333333333333,4,3,2,5,0,0
277266,-62.5,4,3,2,60,0,0
277415,-62.5,4,3,2,5,0,0
277465,-111.111111111111,4,3,2,60,0,0
277614,-133.333333333333,4,3,2,5,0,0
277664,-62.5,4,3,2,60,0,0
277813,-62.5,4,3,2,5,0,0
277862,-111.111111111111,4,3,2,60,0,0
278011,-133.333333333333,4,3,2,5,0,0
278061,-62.5,4,3,2,60,0,0
278210,-62.5,4,3,2,5,0,0
278260,-111.111111111111,4,3,2,60,0,0
278409,-133.333333333333,4,3,2,5,0,0
278458,-62.5,4,3,2,60,0,0
278607,-62.5,4,3,2,5,0,0
278657,-111.111111111111,4,3,2,60,0,0
278806,-133.333333333333,4,3,2,5,0,0
278856,-62.5,4,3,2,60,0,0
279005,-62.5,4,3,2,5,0,0
279054,-111.111111111111,4,3,2,60,0,0
279203,-133.333333333333,4,3,2,5,0,0
279253,-62.5,4,3,2,60,0,0
279402,-62.5,4,3,2,5,0,0
279452,-83.3333333333333,4,3,2,60,0,0
279601,-83.3333333333333,4,3,2,5,0,0
279650,-83.3333333333333,4,3,2,60,0,0
279799,-83.3333333333333,4,3,2,5,0,0
279849,-83.3333333333333,4,3,2,60,0,0
279998,-83.3333333333333,4,3,2,5,0,0
280048,-83.3333333333333,4,3,2,60,0,0
280302,-76.9230769230769,4,3,2,70,0,0
281463,200,3,3,0,70,1,0
281463,-76.9230769230769,4,3,2,70,0,0
281850,200,3,3,0,70,1,0
281850,-76.9230769230769,4,3,2,70,0,0
283450,-76.9230769230769,4,3,2,70,0,0
289802,-76.9230769230769,4,3,2,70,0,0
290850,-76.9230769230769,4,3,2,60,0,1
295452,-100,4,3,2,60,0,1
298850,-111.111111111111,4,3,2,60,0,1
299350,-133.333333333333,4,3,2,60,0,1
300550,-58.8235294117647,4,3,2,60,0,1
303050,-133.333333333333,4,3,2,60,0,1
303250,-100,4,3,2,60,0,1
306550,-100,4,3,2,60,0,1
307650,-100,4,3,2,60,0,1
307950,-100,4,3,2,60,0,1
310050,285.714285714286,3,3,0,60,1,0
312550,-100,3,3,2,5,0,0
312620,-100,3,3,2,5,0,0
319265,-133.333333333333,3,2,10,20,0,0
319907,-133.333333333333,3,2,10,20,0,0
320050,-133.333333333333,3,2,10,20,0,0
320192,-133.333333333333,3,2,10,5,0,0
320335,-133.333333333333,3,2,10,20,0,0
320478,-133.333333333333,3,2,10,5,0,0
321192,-133.333333333333,3,2,10,20,0,0
330478,-133.333333333333,3,2,10,5,0,0
330621,-133.333333333333,3,2,10,20,0,0
331121,-133.333333333333,3,2,10,5,0,0
331192,-133.333333333333,3,2,10,20,0,0
333478,-133.333333333333,3,2,10,20,0,0
334050,-133.333333333333,3,2,10,5,0,0
334621,-133.333333333333,3,2,10,20,0,0
334764,-133.333333333333,3,2,10,5,0,0
334907,-133.333333333333,3,2,10,20,0,0
336050,-100,3,2,10,20,0,0
336264,-100,3,2,10,5,0,0
336335,-133.333333333333,3,2,10,20,0,0
336764,-100,3,2,10,20,0,0
337478,-100,3,3,5,70,0,0
338335,-66.6666666666667,3,1,5,5,0,0
338620,-100,3,3,5,60,0,0
339477,-66.6666666666667,3,3,5,70,0,0
340050,-66.6666666666667,3,3,5,70,0,0
340907,-200,3,3,5,70,0,0
341477,-55.5555555555556,3,3,5,70,0,0
341764,-66.6666666666667,3,3,5,70,0,0
342549,-66.6666666666667,3,3,5,5,0,0
342620,-66.6666666666667,3,3,5,60,0,0
342834,-66.6666666666667,3,3,5,5,0,0
342906,-66.6666666666667,3,3,5,60,0,0
343120,-66.6666666666667,3,3,5,5,0,0
343191,-66.6666666666667,3,3,5,60,0,0
343406,-66.6666666666667,3,3,5,5,0,0
343477,-66.6666666666667,3,3,5,60,0,0
343621,-66.6666666666667,3,3,5,5,0,0
343764,-66.6666666666667,3,3,5,60,0,0
343978,-66.6666666666667,3,3,5,5,0,0
344050,-66.6666666666667,3,3,5,70,0,0
344335,-66.6666666666667,3,3,5,70,0,0
345121,-100,3,3,5,70,0,0
345407,-100,3,3,5,5,0,0
345478,-100,3,3,5,70,0,0
345692,-100,3,3,5,5,0,0
345764,-100,3,3,5,70,0,0
345978,-100,3,3,5,5,0,0
346049,-200,3,3,5,70,0,0
346335,-250,3,3,5,5,0,0
346620,-66.6666666666667,3,3,2,70,0,1
350907,-66.6666666666667,3,3,5,70,0,1
351192,-66.6666666666667,3,3,2,70,0,1
353478,-66.6666666666667,3,3,2,70,0,1
354335,-50,3,3,2,70,0,1
355764,-50,3,3,2,70,0,1
356050,-66.6666666666667,3,3,2,70,0,1
360050,-66.6666666666667,3,3,2,50,0,0
360335,-62.5,3,3,2,70,0,0
363477,-57.1428571428571,3,3,2,70,0,0
364262,-74.0740740740741,3,3,2,70,0,0
364906,-90.9090909090909,3,2,5,60,0,0
365120,-90.9090909090909,3,2,5,5,0,0
365191,-90.9090909090909,3,2,5,60,0,0
365478,-90.9090909090909,3,2,5,60,0,0
365764,-90.9090909090909,3,2,5,60,0,0
366549,-90.9090909090909,3,2,5,5,0,0
366620,-90.9090909090909,3,2,5,60,0,0
366834,-90.9090909090909,3,2,5,5,0,0
366906,-90.9090909090909,3,2,5,60,0,0
367120,-90.9090909090909,3,2,5,5,0,0
367190,-90.9090909090909,3,2,5,60,0,0
367407,-90.9090909090909,3,2,5,5,0,0
367478,-90.9090909090909,3,2,5,60,0,0
368263,-90.9090909090909,3,3,2,5,0,0
368335,-90.9090909090909,3,3,2,40,0,0
368621,-90.9090909090909,3,3,2,5,0,0
368692,-90.9090909090909,3,3,2,60,0,0
369192,-90.9090909090909,3,3,2,70,0,0
371764,-133.333333333333,3,3,2,60,0,0
372192,-133.333333333333,3,3,2,60,0,0
373477,-133.333333333333,3,3,4,50,0,0
373978,-200,3,3,4,5,0,0
374050,-100,3,3,4,50,0,0
374621,-100,3,3,4,50,0,0
377191,-133.333333333333,3,3,4,50,0,0
378334,-100,3,3,4,50,0,0
378514,-66.6666666666667,3,3,4,50,0,0
378549,-100,3,3,4,5,0,0
378621,-100,3,3,10,60,0,1
382335,-100,3,3,10,60,0,1
382906,-66.6666666666667,3,3,10,70,0,1
387764,-50,3,3,10,70,0,1
387978,-66.6666666666667,3,3,10,5,0,1
388050,-66.6666666666667,3,3,10,60,0,1
389763,-83.3333333333333,3,3,2,60,0,0
389977,-66.6666666666667,3,3,2,60,0,0
390049,-83.3333333333333,3,3,2,60,0,0
390334,-83.3333333333333,3,3,2,60,0,0
390834,-83.3333333333333,3,3,2,5,0,0
390906,-83.3333333333333,3,3,2,60,0,0
391192,-83.3333333333333,3,3,2,70,0,0
391764,-50,3,3,5,70,0,0
392335,-66.6666666666667,3,3,5,70,0,1
403764,-50,3,3,5,70,0,1
404335,-66.6666666666667,3,3,5,70,0,1
404619,-66.6666666666667,3,3,5,70,0,1
404834,-66.6666666666667,3,3,5,5,0,1
404906,-66.6666666666667,3,3,5,70,0,1
405692,-66.6666666666667,3,3,5,5,0,1
405764,-66.6666666666667,3,3,5,70,0,1
410621,-50,3,3,5,70,0,1
410907,-50,3,2,5,70,0,1
411121,-50,3,3,5,5,0,1
411192,-50,3,3,5,70,0,1
413192,-50,3,2,5,70,0,1
413407,-50,3,3,5,5,0,1
413478,-50,3,3,5,70,0,1
414620,-50,3,3,5,70,0,1
414764,-50,3,3,5,5,0,1
414834,-50,3,3,5,70,0,1
414906,-50,3,3,5,70,0,1
417477,-55.5555555555556,3,3,5,60,0,1
418049,-66.6666666666667,3,3,5,60,0,1
418334,-50,3,3,5,60,0,1
418550,-66.6666666666667,3,3,5,5,0,1
418621,-66.6666666666667,3,3,5,70,0,1
418906,-200,3,3,5,20,0,1
419763,-200,3,3,5,70,0,1
425406,-200,3,3,5,5,0,1

[HitObjects]
256,192,760,5,8,0:0:0:0:
256,192,1617,5,8,0:0:0:0:
405,123,1760,1,0,0:0:0:0:
244,58,1902,1,0,0:0:0:0:
230,68,1973,1,0,0:0:0:0:
214,76,2044,1,0,0:0:0:0:
197,80,2116,1,0,0:0:0:0:
177,83,2188,5,0,0:0:0:0:
161,75,2259,1,0,0:0:0:0:
144,72,2330,1,0,0:0:0:0:
126,73,2402,1,0,0:0:0:0:
21,132,2485,6,0,B|88:198,1,83.9999974365235,8|0,0:0|0:0,0:0:0:0:
176,288,2760,5,0,0:0:0:0:
192,282,2831,1,0,0:0:0:0:
206,272,2902,1,0,0:0:0:0:
217,259,2974,1,0,0:0:0:0:
224,240,3045,5,0,0:0:0:0:
218,223,3116,1,0,0:0:0:0:
216,206,3187,1,0,0:0:0:0:
218,188,3259,1,0,0:0:0:0:
264,116,3331,6,0,B|280:77|280:77|288:161|348:223,1,183.750007009506,8|0,0:0|0:0,0:0:0:0:
398,307,3902,1,4,0:0:0:0:
398,307,4188,2,0,B|342:307|342:307|425:260|469:192,1,210,12|0,0:0|0:0,0:0:0:0:
485,167,4474,1,8,0:0:0:0:
491,125,4545,1,0,0:0:0:0:
482,85,4616,1,8,0:0:0:0:
456,52,4688,1,0,0:0:0:0:
420,32,4759,1,8,0:0:0:0:
378,27,4831,1,0,0:0:0:0:
337,35,4902,1,8,0:0:0:0:
301,55,4974,1,0,0:0:0:0:
270,84,5045,1,8,0:0:0:0:
246,118,5116,1,0,0:0:0:0:
229,156,5188,1,8,0:0:0:0:
217,197,5259,1,0,0:0:0:0:
210,238,5331,1,8,0:0:0:0:
207,280,5402,1,0,0:0:0:0:
208,328,5474,6,0,P|176:344|160:344,1,35,8|0,0:0|0:0,0:0:0:0:
120,296,5617,2,0,P|104:280|88:256,1,35,8|0,0:0|0:0,0:0:0:0:
112,200,5760,2,0,P|112:168|120:144,1,35,8|0,0:0|0:0,0:0:0:0:
160,112,5902,2,0,P|192:96|216:96,5,35,8|0|8|0|8|0,0:0|0:0|0:0|0:0|0:0|0:0,0:0:0:0:
224,176,6331,2,0,P|248:200|272:200,5,35,8|0|8|0|8|0,0:0|0:0|0:0|0:0|0:0|0:0,0:0:0:0:
176,248,6760,5,8,0:0:0:0:
224,268,6831,1,0,0:0:0:0:
276,271,6902,1,8,0:0:0:0:
326,257,6974,1,0,0:0:0:0:
369,226,7045,1,8,0:0:0:0:
399,184,7117,1,0,0:0:0:0:
413,133,7188,1,8,0:0:0:0:
409,81,7260,1,0,0:0:0:0:
389,33,7331,5,8,0:0:0:0:
320,32,7402,1,8,0:0:0:0:
248,32,7474,1,8,0:0:0:0:
176,32,7545,1,8,0:0:0:0:
104,32,7617,6,0,L|88:96,1,35,10|0,0:0|0:0,0:0:0:0:
48,200,7760,2,0,L|64:152,1,35,10|0,0:0|0:0,0:0:0:0:
184,104,7902,2,0,L|192:152,1,35,10|0,0:0|0:0,0:0:0:0:
216,280,8045,2,0,L|208:232,1,35,10|0,0:0|0:0,0:0:0:0:
312,152,8188,2,0,L|336:184,1,35,10|0,0:0|0:0,0:0:0:0:
416,296,8331,2,0,L|379:244,1,35,10|0,0:0|0:0,0:0:0:0:
416,160,8474,6,0,L|440:112,3,52.5000020027161,14|0|10|0,0:0|0:0|0:0|0:0,0:0:0:0:
368,88,8760,2,0,L|328:160,1,52.5000020027161
232,192,8902,2,0,L|192:152,3,52.5000020027161,14|0|10|0,0:0|0:0|0:0|0:0,0:0:0:0:
128,200,9188,2,0,L|184:256,1,52.5000020027161
220,300,9331,5,4,0:0:0:0:
253,310,9402,1,0,0:0:0:0:
287,315,9473,1,4,0:0:0:0:
322,315,9545,1,0,0:0:0:0:
357,308,9617,1,4,0:0:0:0:
389,296,9688,1,0,0:0:0:0:
420,278,9760,1,4,0:0:0:0:
446,256,9831,1,0,0:0:0:0:
469,229,9903,1,4,0:0:0:0:
487,199,9974,1,0,0:0:0:0:
499,166,10046,1,4,0:0:0:0:
506,132,10117,1,0,0:0:0:0:
512,103,10188,6,0,L|392:55,1,90.9999958343508,12|0,0:0|0:0,0:0:0:0:
264,88,10474,2,0,B|298:47|315:58|315:58|367:24,1,90.9999958343508,8|0,0:0|0:0,0:0:0:0:
464,184,10760,2,0,B|432:224|416:216|416:216|383:250,1,90.9999958343508,8|0,0:0|0:0,0:0:0:0:
400,328,11045,2,0,B|328:328|280:248,1,120.750002303124,8|2,0:0|0:0,0:0:0:0:
280,200,11331,5,8,0:0:0:0:
285,158,11402,1,0,0:0:0:0:
276,117,11473,1,8,0:0:0:0:
254,82,11545,1,0,0:0:0:0:
221,56,11616,1,8,0:0:0:0:
182,42,11688,1,0,0:0:0:0:
140,42,11759,1,8,0:0:0:0:
101,56,11830,1,0,0:0:0:0:
68,83,11902,1,8,0:0:0:0:
47,119,11973,1,0,0:0:0:0:
38,160,12045,1,8,0:0:0:0:
44,201,12116,1,0,0:0:0:0:
60,235,12188,5,12,0:0:0:0:
103,206,12259,1,0,0:0:0:0:
153,189,12330,1,12,0:0:0:0:
205,185,12402,1,0,0:0:0:0:
256,192,12474,5,12,0:0:0:0:
237,240,12545,1,0,0:0:0:0:
197,273,12616,1,12,0:0:0:0:
146,282,12688,1,0,0:0:0:0:
96,264,12760,6,2,L|96:200,1,40.2500007677078,12|0,0:0|0:0,0:0:0:0:
160,72,12902,2,2,L|160:128,1,40.2500007677078,12|0,0:0|0:0,0:0:0:0:
160,152,13045,1,12,0:0:0:0:
182,198,13116,1,0,0:0:0:0:
230,217,13187,1,12,0:0:0:0:
281,210,13259,1,0,0:0:0:0:
330,191,13330,1,12,0:0:0:0:
376,202,13402,1,0,0:0:0:0:
405,244,13473,1,12,0:0:0:0:
403,296,13544,1,0,0:0:0:0:
376,336,13617,5,12,0:0:0:0:
344,344,13688,1,0,0:0:0:0:
304,344,13760,2,0,P|280:344|256:336,1,35,8|0,0:0|0:0,0:0:0:0:
208,360,13902,5,12,0:0:0:0:
161,335,13973,1,0,0:0:0:0:
123,299,14045,2,0,P|104:272|96:248,1,52.5000020027161,8|0,0:0|0:0,0:0:0:0:
40,232,14188,5,8,0:0:0:0:
16,166,14259,1,0,0:0:0:0:
21,97,14331,2,0,P|40:56|64:32,1,70,8|0,0:0|0:0,0:0:0:0:
144,32,14474,6,0,P|192:64|240:64,1,80.5000015354157,14|4,0:0|0:0,0:0:0:0:
440,32,14760,2,0,P|392:64|344:64,1,80.5000015354157,8|4,0:0|0:0,0:0:0:0:
440,224,15045,2,0,P|389:210|353:168,1,80.5000015354157,8|4,0:0|0:0,0:0:0:0:
144,216,15331,6,0,P|192:208|224:168,1,80.5000015354157,8|4,0:0|0:0,0:0:0:0:
352,96,15617,5,8,0:0:0:0:
200,48,15760,1,4,0:0:0:0:
232,208,15902,1,8,0:0:0:0:
216,24,16045,1,4,0:0:0:0:
32,200,16188,5,8,0:0:0:0:
48,40,16331,1,4,0:0:0:0:
184,112,16474,1,8,0:0:0:0:
56,208,16617,1,4,0:0:0:0:
288,304,16760,5,8,0:0:0:0:
136,264,16902,1,4,0:0:0:0:
256,160,17045,1,8,0:0:0:0:
320,312,17188,1,4,0:0:0:0:
416,96,17331,2,0,B|412:74|412:74|349:110,1,70,10|4,0:0|0:0,0:0:0:0:
224,192,17617,2,0,B|224:172|224:172|175:197,1,70,10|4,0:0|0:0,0:0:0:0:
48,128,17902,6,0,B|58:185|58:185|98:194|126:244,1,125.999996154785,6|8,0:0|0:0,0:0:0:0:
208,312,18188,1,4,0:0:0:0:
221,321,18260,1,0,0:0:0:0:
235,330,18331,1,8,0:0:0:0:
296,224,18474,1,4,0:0:0:0:
360,336,18617,1,8,0:0:0:0:
464,128,18760,6,0,B|446:178|446:178|399:197|373:247,1,125.999996154785,6|8,0:0|0:0,0:0:0:0:
336,288,19045,1,4,0:0:0:0:
316,310,19117,1,0,0:0:0:0:
299,330,19188,1,8,0:0:0:0:
224,176,19331,1,4,0:0:0:0:
128,320,19474,1,8,0:0:0:0:
216,312,19617,6,0,B|200:264|200:264|136:248|132:186,1,125.999996154785,14|0,0:0|0:0,0:0:0:0:
80,80,19902,1,4,0:0:0:0:
112,48,19974,1,0,0:0:0:0:
160,40,20045,1,8,0:0:0:0:
352,32,20188,2,0,B|320:72|320:72|272:64|232:112,1,125.999996154785,4|8,0:0|0:0,0:0:0:0:
40,204,20474,2,0,L|157:261,1,125.999996154785,4|0,0:0|0:0,0:0:0:0:
192,280,20688,5,0,0:0:0:0:
232,296,20759,1,0,0:0:0:0:
272,312,20831,1,0,0:0:0:0:
312,328,20902,1,0,0:0:0:0:
352,344,20974,1,0,0:0:0:0:
392,360,21045,2,2,B|462:323|462:323|419:259|485:216,1,188.999994232178,8|2,0:0|0:0,0:0:0:0:
510,183,21331,1,8,0:0:0:0:
496,32,21617,5,4,0:0:0:0:
488,32,21688,1,0,0:0:0:0:
480,32,21759,1,4,0:0:0:0:
472,32,21831,1,0,0:0:0:0:
464,32,21902,1,4,0:0:0:0:
456,32,21974,1,0,0:0:0:0:
448,32,22045,1,4,0:0:0:0:
440,32,22117,1,0,0:0:0:0:
416,32,22188,6,0,B|416:80|416:80|464:120|464:120|464:172,1,157.500006008148,6|0,0:0|0:0,0:0:0:0:
376,156,22474,2,0,B|348:200|348:200|304:216|304:216|276:252,1,131.25
212,192,22760,2,0,B|248:152|248:152|252:108|252:108|288:64,1,131.25
284,72,23045,1,2,0:0:0:0:
212,192,23188,5,0,0:0:0:0:
160,189,23259,1,0,0:0:0:0:
119,157,23330,1,0,0:0:0:0:
104,108,23402,1,0,0:0:0:0:
120,59,23473,1,0,0:0:0:0:
162,28,23545,1,0,0:0:0:0:
213,26,23616,1,0,0:0:0:0:
213,26,23688,1,2,0:0:0:0:
213,26,23760,1,2,0:0:0:0:
213,26,23831,1,2,0:0:0:0:
213,26,23902,6,0,B|160:56|144:124,1,105.000004005432,4|0,0:0|0:0,0:0:0:0:
144,212,24117,5,0,0:0:0:0:
113,251,24188,1,0,0:0:0:0:
66,236,24259,1,0,0:0:0:0:
63,187,24331,1,0,0:0:0:0:
108,167,24402,1,0,0:0:0:0:
143,202,24474,6,0,P|171:250|239:266,1,105,8|0,0:0|0:0,0:0:0:0:
268,276,24760,5,8,0:0:0:0:
476,276,24902,1,4,0:0:0:0:
268,276,25045,1,8,0:0:0:0:
476,276,25188,1,4,0:0:0:0:
392,84,25332,1,8,0:0:0:0:
392,84,25402,1,0,0:0:0:0:
392,84,25474,1,4,0:0:0:0:
280,260,25617,5,8,0:0:0:0:
208,60,25760,1,4,0:0:0:0:
164,264,25902,1,8,0:0:0:0:
208,60,26046,1,4,0:0:0:0:
216,268,26188,1,8,0:0:0:0:
216,268,26260,1,0,0:0:0:0:
216,268,26331,1,4,0:0:0:0:
432,148,26474,5,0,0:0:0:0:
332,348,26617,1,0,0:0:0:0:
212,160,26760,5,8,0:0:0:0:
332,348,26902,1,4,0:0:0:0:
432,148,27045,1,0,0:0:0:0:
432,148,27117,1,0,0:0:0:0:
432,148,27188,1,0,0:0:0:0:
432,256,27331,2,0,P|376:252|327:187,1,112,8|4,0:0|0:0,0:0:0:0:
288,112,27545,1,0,0:0:0:0:
288,112,27617,1,8,0:0:0:0:
288,112,27688,1,0,0:0:0:0:
288,112,27760,2,0,L|220:160,1,56,4|0,0:0|0:0,0:0:0:0:
172,192,27902,5,8,0:0:0:0:
24,276,28045,1,4,0:0:0:0:
208,336,28188,5,8,0:0:0:0:
208,336,28260,2,0,L|276:292,1,56,0|8,0:0|0:0,0:0:0:0:
384,196,28474,5,8,0:0:0:0:
444,352,28617,1,4,0:0:0:0:
248,84,28760,5,8,0:0:0:0:
384,196,28902,1,4,0:0:0:0:
248,84,29045,6,0,B|240:116|224:148|184:148|152:140|152:140|104:188|136:292|216:284|264:244|264:244|252:202|272:164|320:148|368:180|384:228|328:268|328:268|368:300|368:300,1,644,6|0,0:0|0:0,0:0:0:0:
432,312,32490,5,8,0:0:0:0:
112,312,32632,1,4,0:0:0:0:
110,310,33655,5,8,0:0:0:0:
160,324,33727,1,8,0:0:0:0:
212,321,33798,1,8,0:0:0:0:
257,296,33870,1,8,0:0:0:0:
285,252,33941,1,8,0:0:0:0:
287,200,34013,1,8,0:0:0:0:
269,151,34084,1,8,0:0:0:0:
236,110,34155,1,8,0:0:0:0:
202,93,34227,2,8,L|149:93,1,52.5000020027161,8|8,0:0|0:0,0:0:0:0:
2,92,34370,5,8,0:0:0:0:
0,144,34441,1,8,0:0:0:0:
12,194,34512,1,8,0:0:0:0:
40,238,34584,1,8,0:0:0:0:
80,272,34655,1,8,0:0:0:0:
129,291,34727,1,8,0:0:0:0:
179,304,34798,5,8,0:0:0:0:
408,72,34906,1,4,0:0:0:0:
408,72,35894,1,8,0:0:0:0:
400,72,35965,1,8,0:0:0:0:
392,72,36036,1,8,0:0:0:0:
384,72,36108,1,8,0:0:0:0:
376,72,36179,1,8,0:0:0:0:
356,72,36251,1,8,0:0:0:0:
332,72,36322,1,8,0:0:0:0:
296,72,36394,1,8,0:0:0:0:
240,72,36466,5,8,0:0:0:0:
300,95,36536,1,8,0:0:0:0:
347,146,36607,1,8,0:0:0:0:
367,212,36679,1,8,0:0:0:0:
358,281,36750,1,8,0:0:0:0:
321,340,36822,1,8,0:0:0:0:
262,377,36893,1,8,0:0:0:0:
194,386,36965,1,8,0:0:0:0:
127,365,37036,2,0,L|312:366,1,157.500006008148
384,248,37322,2,0,L|216:248,1,157.500006008148,4|0,0:0|0:0,0:0:0:0:
112,136,37608,2,0,L|272:136,1,157.500006008148,6|0,0:0|0:0,0:0:0:0:
384,24,37894,2,0,L|216:24,1,157.500006008148,4|0,0:0|0:0,0:0:0:0:
48,24,38179,6,0,L|208:24,1,157.500006008148,6|0,0:0|0:0,0:0:0:0:
208,192,38465,2,0,L|24:192,1,157.500006008148,4|0,0:0|0:0,0:0:0:0:
216,192,38751,2,0,L|384:192,1,157.500006008148,6|0,0:0|0:0,0:0:0:0:
376,360,39036,2,0,L|208:360,1,157.500006008148,4|0,0:0|0:0,0:0:0:0:
216,288,39339,5,14,0:0:0:0:
268,268,39411,1,8,0:0:0:0:
300,219,39482,1,8,0:0:0:0:
307,160,39554,1,8,0:0:0:0:
287,104,39625,1,8,0:0:0:0:
245,63,39697,1,8,0:0:0:0:
190,45,39768,5,8,0:0:0:0:
213,99,39840,1,8,0:0:0:0:
217,158,39911,1,8,0:0:0:0:
190,210,39982,1,8,0:0:0:0:
143,246,40054,1,8,0:0:0:0:
89,271,40125,1,8,0:0:0:0:
32,289,40197,2,8,L|16:184,1,59.5000011348725,8|0,0:0|0:0,0:0:0:0:
8,128,40340,1,8,0:0:0:0:
41,356,40482,1,14,0:0:0:0:
41,356,40930,6,0,L|11:324,1,23.3333333333333,2|0,0:0|0:0,0:0:0:0:
8,317,41025,6,0,P|40:269|88:253,1,93.3333333333333,4|0,0:0|0:0,0:0:0:0:
168,301,41263,6,0,P|201:279|226:238,1,70,4|0,0:0|0:0,0:0:0:0:
184,157,41453,6,0,P|216:125|259:112,1,70,4|0,0:0|0:0,0:0:0:0:
336,80,41630,6,0,L|336:224,1,105.000004005432,4|4,0:0|0:0,0:0:0:0:
336,344,41917,1,8,0:0:0:0:
416,172,42060,1,4,0:0:0:0:
484,352,42204,1,8,0:0:0:0:
336,185,42347,2,0,B|292:144|228:144,1,105.000004005432,4|8,0:0|0:0,0:0:0:0:
24,128,42632,5,4,0:0:0:0:
204,76,42774,1,8,0:0:0:0:
248,260,42917,1,4,0:0:0:0:
204,76,43060,1,8,0:0:0:0:
12,208,43204,5,4,0:0:0:0:
200,212,43346,1,8,0:0:0:0:
324,356,43490,1,4,0:0:0:0:
136,344,43632,1,0,0:0:0:0:
136,344,43775,6,0,P|76:320|44:280,1,105.000004005432,8|4,0:0|0:0,0:0:0:0:
20,104,44060,1,4,0:0:0:0:
228,140,44203,1,8,0:0:0:0:
48,192,44346,1,4,0:0:0:0:
228,140,44489,1,8,0:0:0:0:
48,192,44632,2,0,B|48:232|48:232|104:140|44:60,1,210.000008010865,4|0,0:0|0:0,0:0:0:0:
16,0,45060,5,10,0:0:0:0:
224,144,45203,1,4,0:0:0:0:
464,72,45346,5,10,0:0:0:0:
320,280,45489,1,4,0:0:0:0:
80,352,45632,5,10,0:0:0:0:
80,100,45775,1,4,0:0:0:0:
328,48,45918,5,10,0:0:0:0:
152,224,46060,1,4,0:0:0:0:
296,280,46204,5,8,0:0:0:0:
160,96,46346,1,4,0:0:0:0:
344,104,46489,5,8,0:0:0:0:
224,176,46632,2,0,B|208:240|208:240|256:304,1,105.000004005432,4|8,0:0|0:0,0:0:0:0:
464,288,46917,2,0,B|480:224|480:224|448:160,1,105.000004005432,4|8,0:0|0:0,0:0:0:0:
372,64,47204,5,4,0:0:0:0:
368,68,47275,1,0,0:0:0:0:
364,72,47347,2,0,L|292:88,1,52.5000020027161,6|0,0:0|0:0,0:0:0:0:
224,140,47490,2,0,L|300:168,1,52.5000020027161,4|0,0:0|0:0,0:0:0:0:
368,204,47632,2,0,L|296:224,1,52.5000020027161,6|0,0:0|0:0,0:0:0:0:
224,264,47775,2,0,L|280:288,1,52.5000020027161,4|0,0:0|0:0,0:0:0:0:
372,320,47917,2,0,L|312:340,1,52.5000020027161,6|0,0:0|0:0,0:0:0:0:
216,344,48061,6,0,L|144:356,1,52.5000020027161,4|0,0:0|0:0,0:0:0:0:
60,328,48204,2,0,L|128:316,1,52.5000020027161,6|2,0:0|0:0,0:0:0:0:
216,300,48347,1,4,0:0:0:0:
320,144,48489,5,8,0:0:0:0:
216,300,48632,1,4,0:0:0:0:
208,100,48775,1,8,0:0:0:0:
312,296,48917,1,4,0:0:0:0:
376,80,49061,5,8,0:0:0:0:
192,328,49203,1,4,0:0:0:0:
128,56,49346,1,8,0:0:0:0:
368,376,49489,1,4,0:0:0:0:
56,353,49632,5,10,0:0:0:0:
24,320,49704,1,0,0:0:0:0:
8,280,49775,2,0,B|0:224|24:192,1,70,4|0,0:0|0:0,0:0:0:0:
104,136,49917,1,10,0:0:0:0:
152,136,49989,1,0,0:0:0:0:
192,152,50060,2,0,P|208:168|248:224,1,70,4|0,0:0|0:0,0:0:0:0:
208,344,50203,1,10,0:0:0:0:
152,368,50275,1,0,0:0:0:0:
88,368,50346,2,0,P|56:352|24:320,1,70,4|0,0:0|0:0,0:0:0:0:
0,136,50490,5,10,0:0:0:0:
32,80,50561,1,8,0:0:0:0:
80,32,50632,1,8,0:0:0:0:
144,8,50703,1,8,0:0:0:0:
208,0,50775,2,0,P|256:16|320:64,1,105.000004005432,8|4,0:0|0:0,0:0:0:0:
292,168,51061,5,8,0:0:0:0:
444,116,51204,1,4,0:0:0:0:
220,224,51347,5,8,0:0:0:0:
68,184,51490,1,4,0:0:0:0:
292,280,51632,5,8,0:0:0:0:
444,236,51775,1,4,0:0:0:0:
304,80,51917,6,0,P|245:162|259:222,1,140,8|4,0:0|0:0,0:0:0:0:
240,320,52203,2,0,P|304:288|392:320,1,140,8|4,0:0|0:0,0:0:0:0:
168,240,52489,2,0,P|96:280|24:272,1,140,8|4,0:0|0:0,0:0:0:0:
248,360,52775,1,8,0:0:0:0:
512,224,52917,5,4,0:0:0:0:
512,224,53061,2,0,L|440:260,1,52.5000020027161,6|0,0:0|0:0,0:0:0:0:
384,128,53203,2,0,L|352:80,1,52.5000020027161
224,152,53346,2,0,L|293:259,1,105.000004005432,4|2,0:0|0:0,0:0:0:0:
488,384,53632,6,0,L|446:322,1,52.5000020027161,6|0,0:0|0:0,0:0:0:0:
376,216,53775,2,0,L|448:176,1,52.5000020027161
352,320,53917,2,0,L|240:376,1,105.000004005432
48,224,54204,6,0,L|152:256,1,105.000004005432,6|0,0:0|0:0,0:0:0:0:
296,248,54417,2,0,L|240:232,1,52.5000020027161,0|4,0:0|0:0,0:0:0:0:
320,104,54560,2,0,L|376:120,1,52.5000020027161,2|0,0:0|0:0,0:0:0:0:
464,240,54775,2,0,L|448:296,2,45.4999979171754,6|0|0,0:0|0:0|0:0,0:0:0:0:
272,280,55060,2,0,L|304:328,1,45.4999979171754,6|0,0:0|0:0,0:0:0:0:
176,272,55204,2,0,L|149:233,1,45.4999979171754
80,128,55346,1,0,0:0:0:0:
192,344,55489,5,8,0:0:0:0:
392,288,55631,1,4,0:0:0:0:
192,344,55775,2,0,L|160:240,1,105.000004005432,8|0,0:0|0:0,0:0:0:0:
104,40,56060,5,8,0:0:0:0:
312,64,56203,1,4,0:0:0:0:
104,40,56347,2,0,L|200:152,1,105.000004005432,8|0,0:0|0:0,0:0:0:0:
312,272,56631,5,8,0:0:0:0:
112,208,56774,1,4,0:0:0:0:
312,272,56918,2,0,L|200:304,1,105.000004005432,8|0,0:0|0:0,0:0:0:0:
16,368,57203,5,8,0:0:0:0:
16,160,57346,1,4,0:0:0:0:
16,368,57489,2,0,L|80:272,1,105.000004005432,8|0,0:0|0:0,0:0:0:0:
200,120,57775,5,8,0:0:0:0:
168,376,57917,1,0,0:0:0:0:
120,208,58060,5,8,0:0:0:0:
360,320,58203,1,0,0:0:0:0:
96,296,58346,5,8,0:0:0:0:
312,144,58489,1,0,0:0:0:0:
56,192,58632,5,8,0:0:0:0:
54,67,58775,5,2,0:0:0:0:
78,75,58846,1,0,0:0:0:0:
103,90,58918,2,0,P|119:98|151:130,1,35
112,200,59060,5,2,0:0:0:0:
136,216,59131,1,0,0:0:0:0:
159,228,59204,2,0,P|199:237|231:228,1,52.5000020027161
264,320,59347,5,2,0:0:0:0:
240,328,59418,1,0,0:0:0:0:
216,336,59490,2,0,P|168:344|136:336,1,70
64,288,59632,1,0,0:0:0:0:
48,264,59704,1,0,0:0:0:0:
34,243,59775,2,0,P|19:200|18:177,1,52.5000020027161
19,132,59918,5,10,0:0:0:0:
45,99,59989,1,0,0:0:0:0:
78,74,60060,1,6,0:0:0:0:
116,55,60132,1,0,0:0:0:0:
157,45,60203,1,10,0:0:0:0:
199,44,60275,1,0,0:0:0:0:
246,49,60347,6,0,L|326:55,1,41.9999987182618,6|0,0:0|0:0,0:0:0:0:
441,72,60490,1,10,0:0:0:0:
424,100,60561,1,0,0:0:0:0:
407,130,60632,2,0,L|369:200,1,41.9999987182618,6|0,0:0|0:0,0:0:0:0:
432,328,60775,2,0,L|384:272,1,41.9999987182618,10|0,0:0|0:0,0:0:0:0:
240,232,60917,2,0,L|416:232,1,157.500006008148,6|0,0:0|0:0,0:0:0:0:
512,232,61204,2,0,L|456:264,1,41.9999987182618,6|0,0:0|0:0,0:0:0:0:
328,344,61347,2,0,L|392:304,1,41.9999987182618,10|0,0:0|0:0,0:0:0:0:
312,152,61490,2,0,L|264:216,1,41.9999987182618,6|0,0:0|0:0,0:0:0:0:
184,320,61632,2,0,L|232:264,1,41.9999987182618,10|0,0:0|0:0,0:0:0:0:
256,240,61775,5,6,0:0:0:0:
265,250,61847,1,0,0:0:0:0:
273,260,61918,1,10,0:0:0:0:
300,295,61990,5,0,0:0:0:0:
352,320,62061,1,6,0:0:0:0:
408,304,62132,1,0,0:0:0:0:
448,264,62203,2,0,P|482:196|480:85,1,175,10|6,0:0|0:0,0:0:0:0:
464,48,62490,5,10,0:0:0:0:
449,59,62561,1,0,0:0:0:0:
435,70,62632,2,0,L|377:117,1,45.4999979171754,6|0,0:0|0:0,0:0:0:0:
256,216,62775,1,10,0:0:0:0:
247,210,62847,1,0,0:0:0:0:
239,202,62918,2,0,L|205:165,1,45.4999979171754,6|0,0:0|0:0,0:0:0:0:
48,80,63061,2,0,L|88:128,1,45.4999979171754,10|0,0:0|0:0,0:0:0:0:
104,296,63203,2,0,L|0:168,1,157.500006008148,6|0,0:0|0:0,0:0:0:0:
136,136,63490,2,0,L|136:198,1,45.4999979171754,6|0,0:0|0:0,0:0:0:0:
168,328,63632,2,0,L|168:248,1,45.4999979171754,10|0,0:0|0:0,0:0:0:0:
272,168,63775,2,0,L|272:224,1,45.4999979171754,6|0,0:0|0:0,0:0:0:0:
304,368,63918,2,0,L|304:304,1,41.9999987182618,10|0,0:0|0:0,0:0:0:0:
304,152,64061,6,0,L|240:152,1,45.4999979171754,6|0,0:0|0:0,0:0:0:0:
104,152,64204,2,0,L|104:216,1,45.4999979171754,10|0,0:0|0:0,0:0:0:0:
104,352,64346,2,0,L|176:352,1,45.4999979171754,6|0,0:0|0:0,0:0:0:0:
384,352,64490,2,0,B|376:288|376:288|400:224|400:224|400:168,1,188.999994232178,14|0,0:0|0:0,0:0:0:0:
400,24,64775,5,10,0:0:0:0:
392,32,64847,1,0,0:0:0:0:
384,40,64918,2,0,L|336:88,1,52.5000020027161,6|0,0:0|0:0,0:0:0:0:
144,24,65061,1,10,0:0:0:0:
152,32,65132,1,0,0:0:0:0:
160,40,65204,2,0,L|208:88,1,52.5000020027161,6|0,0:0|0:0,0:0:0:0:
336,200,65347,2,0,L|376:144,1,52.5000020027161,10|0,0:0|0:0,0:0:0:0:
164,213,65490,2,0,L|52:365,1,178.500003404617,6|0,0:0|0:0,0:0:0:0:
8,152,65775,6,0,L|80:176,1,59.5000011348725,6|0,0:0|0:0,0:0:0:0:
264,232,65918,2,0,L|184:200,1,59.5000011348725,10|0,0:0|0:0,0:0:0:0:
32,88,66061,2,0,L|112:120,1,59.5000011348725,6|0,0:0|0:0,0:0:0:0:
288,168,66204,2,0,L|200:144,1,59.5000011348725,10|0,0:0|0:0,0:0:0:0:
142,134,66347,5,6,0:0:0:0:
100,165,66418,1,0,0:0:0:0:
75,210,66489,1,10,0:0:0:0:
72,262,66561,1,0,0:0:0:0:
92,311,66632,1,6,0:0:0:0:
130,346,66704,1,0,0:0:0:0:
200,372,66775,5,8,0:0:0:0:
200,372,66846,1,8,0:0:0:0:
200,372,66917,1,8,0:0:0:0:
348,357,67061,2,0,L|404:357,1,52.5000020027161,2|0,0:0|0:0,0:0:0:0:
253,280,67204,2,0,L|173:280,1,52.5000020027161,2|0,0:0|0:0,0:0:0:0:
77,281,67347,1,8,0:0:0:0:
77,273,67418,1,8,0:0:0:0:
77,265,67490,1,8,0:0:0:0:
128,224,67561,5,0,0:0:0:0:
160,192,67633,1,2,0:0:0:0:
184,152,67704,1,0,0:0:0:0:
176,104,67776,1,2,0:0:0:0:
152,64,67847,1,0,0:0:0:0:
112,40,67918,6,8,P|55:88|79:187,1,183.750001752377,8|0,0:0|0:0,0:0:0:0:
149,122,68179,2,8,P|169:194|104:272,1,183.750007009506,8|0,0:0|0:0,0:0:0:0:
56,336,68490,1,0,0:0:0:0:
104,352,68561,1,0,0:0:0:0:
152,344,68633,1,0,0:0:0:0:
192,312,68704,1,0,0:0:0:0:
224,280,68776,2,8,P|316:252|389:277,1,157.500006008148,2|0,0:0|0:0,0:0:0:0:
416,288,69061,5,4,0:0:0:0:
496,104,69204,1,8,0:0:0:0:
368,0,69347,1,0,0:0:0:0:
440,184,69490,1,8,0:0:0:0:
512,0,69632,1,0,0:0:0:0:
440,184,69775,2,0,B|389:229|314:171,1,105.000004005432,8|0,0:0|0:0,0:0:0:0:
152,280,70061,6,0,B|160:224|160:224|200:160,1,105.000004005432,8|4,0:0|0:0,0:0:0:0:
344,40,70347,1,8,0:0:0:0:
264,232,70490,1,0,0:0:0:0:
104,96,70633,1,8,0:0:0:0:
312,120,70775,1,0,0:0:0:0:
228,312,70918,2,0,B|188:264|188:264|180:200,1,105.000004005432,8|0,0:0|0:0,0:0:0:0:
184,192,71132,1,0,0:0:0:0:
184,192,71204,1,8,0:0:0:0:
32,120,71347,5,0,0:0:0:0:
56,284,71490,1,8,0:0:0:0:
184,188,71632,1,0,0:0:0:0:
36,124,71775,1,8,0:0:0:0:
216,88,71918,1,0,0:0:0:0:
136,284,72061,2,0,B|160:332|160:332|224:344,1,105.000004005432,8|0,0:0|0:0,0:0:0:0:
296,352,72347,5,4,0:0:0:0:
460,124,72490,1,6,0:0:0:0:
464,256,72632,5,0,0:0:0:0:
232,96,72775,1,6,0:0:0:0:
368,88,72918,5,0,0:0:0:0:
204,316,73061,1,6,0:0:0:0:
200,168,73204,5,0,0:0:0:0:
432,328,73347,1,6,0:0:0:0:
471,44,73489,6,0,L|319:84,1,140,0|4,0:0|0:0,0:0:0:0:
192,112,73775,5,8,0:0:0:0:
224,288,73918,1,4,0:0:0:0:
0,152,74061,1,8,0:0:0:0:
32,344,74203,1,4,0:0:0:0:
0,152,74346,2,0,P|80:152|136:112,1,140,8|4,0:0|0:0,0:0:0:0:
208,56,74632,5,10,0:0:0:0:
280,120,74774,5,4,0:0:0:0:
184,184,74918,1,10,0:0:0:0:
176,40,75061,1,4,0:0:0:0:
368,144,75204,1,10,0:0:0:0:
96,104,75347,1,4,0:0:0:0:
368,32,75489,1,10,0:0:0:0:
112,216,75632,1,4,0:0:0:0:
376,280,75775,1,10,0:0:0:0:
144,320,75917,5,2,0:0:0:0:
12,200,76060,1,2,0:0:0:0:
144,320,76203,1,2,0:0:0:0:
304,244,76346,5,2,0:0:0:0:
420,108,76489,1,2,0:0:0:0:
304,244,76632,1,2,0:0:0:0:
144,168,76775,6,0,L|176:224,1,52.5000020027161,2|0,0:0|0:0,0:0:0:0:
216,296,76918,1,2,0:0:0:0:
256,376,77060,5,6,0:0:0:0:
272,368,77132,1,0,0:0:0:0:
288,360,77203,2,0,L|344:328,1,52.5000020027161,6|0,0:0|0:0,0:0:0:0:
472,256,77347,1,6,0:0:0:0:
456,248,77418,1,0,0:0:0:0:
440,240,77490,2,0,L|368:200,1,52.5000020027161,6|0,0:0|0:0,0:0:0:0:
256,136,77632,2,0,L|320:104,1,52.5000020027161,6|0,0:0|0:0,0:0:0:0:
440,40,77775,2,0,L|376:8,1,52.5000020027161,6|0,0:0|0:0,0:0:0:0:
296,8,77917,1,8,0:0:0:0:
226,5,77988,1,8,0:0:0:0:
156,15,78059,1,8,0:0:0:0:
90,37,78131,1,8,0:0:0:0:
29,70,78203,2,0,B|24:128|24:128|32:176|32:176|24:232|24:232|48:288,1,188.999994232178,10|0,0:0|0:0,0:0:0:0:
80,296,78489,5,8,0:0:0:0:
128,316,78560,1,8,0:0:0:0:
179,324,78631,1,8,0:0:0:0:
231,318,78703,1,8,0:0:0:0:
281,302,78775,5,8,0:0:0:0:
251,259,78846,1,8,0:0:0:0:
208,230,78917,1,8,0:0:0:0:
156,221,78989,1,8,0:0:0:0:
105,231,79060,5,8,0:0:0:0:
138,190,79131,1,8,0:0:0:0:
178,156,79202,1,8,0:0:0:0:
223,130,79274,1,8,0:0:0:0:
273,112,79346,5,8,0:0:0:0:
324,159,79417,1,8,0:0:0:0:
376,206,79488,1,8,0:0:0:0:
428,253,79560,1,8,0:0:0:0:
434,316,79631,1,8,0:0:0:0:
373,339,79703,1,8,0:0:0:0:
320,297,79774,1,8,0:0:0:0:
325,230,79845,1,8,0:0:0:0:
372,179,79917,1,8,0:0:0:0:
428,137,79988,1,8,0:0:0:0:
486,97,80060,5,8,0:0:0:0:
430,60,80131,1,8,0:0:0:0:
364,37,80203,1,8,0:0:0:0:
294,35,80274,1,8,0:0:0:0:
227,54,80346,6,8,L|160:72,1,52.5000020027161
82,200,80490,2,8,L|162:176,1,52.5000020027161,10|8,0:0|0:0,0:0:0:0:
224,152,80632,1,8,0:0:0:0:
273,168,80703,1,8,0:0:0:0:
300,211,80774,1,8,0:0:0:0:
317,261,80846,1,8,0:0:0:0:
358,291,80917,1,8,0:0:0:0:
409,286,80989,1,8,0:0:0:0:
444,249,81060,6,8,P|464:224|464:184,1,52.5000020027161,10|8,0:0|0:0,0:0:0:0:
400,160,81204,2,8,P|416:136|416:112,1,52.5000020027161,10|8,0:0|0:0,0:0:0:0:
328,104,81347,2,8,P|328:80|312:56,1,52.5000020027161,10|8,0:0|0:0,0:0:0:0:
232,72,81490,2,8,P|200:40|160:40,1,52.5000020027161,10|8,0:0|0:0,0:0:0:0:
112,24,81632,6,0,B|136:88|136:88|208:168,1,157.500006008148,12|0,0:0|0:0,0:0:0:0:
474,344,81918,1,8,0:0:0:0:
401,102,82061,1,8,0:0:0:0:
153,151,82204,1,8,0:0:0:0:
447,255,82347,1,8,0:0:0:0:
376,13,82490,1,8,0:0:0:0:
130,61,82632,1,8,0:0:0:0:
130,61,82776,5,4,0:0:0:0:
192,280,82917,5,8,0:0:0:0:
280,88,83061,1,4,0:0:0:0:
200,288,83204,5,8,0:0:0:0:
200,288,83276,1,0,0:0:0:0:
200,288,83347,2,0,L|305:340,1,105.000004005432,4|8,0:0|0:0,0:0:0:0:
64,220,83633,5,4,0:0:0:0:
280,152,83776,1,8,0:0:0:0:
280,152,83847,1,0,0:0:0:0:
280,152,83918,2,0,L|173:186,1,105.000004005432,4|8,0:0|0:0,0:0:0:0:
407,118,84204,5,4,0:0:0:0:
202,0,84347,1,8,0:0:0:0:
202,0,84418,1,0,0:0:0:0:
202,0,84490,2,0,L|296:55,1,105.000004005432,4|8,0:0|0:0,0:0:0:0:
492,160,84776,1,4,0:0:0:0:
288,275,84918,1,8,0:0:0:0:
288,275,84990,1,0,0:0:0:0:
288,275,85061,1,4,0:0:0:0:
144,96,85203,5,6,0:0:0:0:
336,152,85346,1,6,0:0:0:0:
176,256,85489,5,6,0:0:0:0:
256,48,85632,1,6,0:0:0:0:
312,304,85775,5,6,0:0:0:0:
72,104,85917,1,6,0:0:0:0:
368,0,86060,1,6,0:0:0:0:
260,140,86203,6,0,P|208:188|168:200,1,105.000004005432,4|0,0:0|0:0,0:0:0:0:
136,216,86490,1,8,0:0:0:0:
187,228,86561,1,8,0:0:0:0:
231,257,86632,1,8,0:0:0:0:
260,300,86704,1,8,0:0:0:0:
276,344,86775,2,0,B|232:344|232:344|232:292|176:280|176:280|176:216,1,178.500003404617,12|0,0:0|0:0,0:0:0:0:
236,206,87061,2,0,B|204:204|204:204|272:280|368:232,1,210,12|0,0:0|0:0,0:0:0:0:
448,224,87335,6,0,B|384:216|352:152|352:152|448:168|512:136|512:32|448:0,1,385,6|0,0:0|0:0,0:0:0:0:
400,72,88192,5,8,0:0:0:0:
272,16,88477,2,0,L|287:54,1,39.3750015020371
318,208,88763,1,0,0:0:0:0:
168,296,89030,2,0,L|211:192,1,105
248,104,89315,1,0,0:0:0:0:
160,64,89458,1,0,0:0:0:0:
72,24,89637,1,0,0:0:0:0:
336,96,89887,6,0,P|320:160|272:192,1,105.000004005432,8|0,0:0|0:0,0:0:0:0:
184,152,90315,1,0,0:0:0:0:
184,152,90458,2,0,P|192:104|219:79,1,78.7500030040742
296,32,90744,2,0,P|336:24|380:38,1,78.7500030040742
449,87,91030,2,0,P|472:120|480:176,1,78.7500030040742
424,320,91351,1,0,0:0:0:0:
314,354,91637,5,8,0:0:0:0:
313,356,91887,5,0,0:0:0:0:
408,320,92030,1,0,0:0:0:0:
472,248,92172,2,0,P|480:192|472:165,1,78.7500030040742
424,72,92458,2,0,P|359:41|319:47,1,105.000004005432
232,56,92887,1,0,0:0:0:0:
136,72,93065,1,0,0:0:0:0:
256,88,93315,6,0,L|345:109,1,78.7500030040742,8|0,0:0|0:0,0:0:0:0:
424,176,93601,2,0,L|336:208,1,78.7500030040742
240,232,93922,1,10,0:0:0:0:
224,240,93994,1,10,0:0:0:0:
208,246,94065,1,8,0:0:0:0:
43,261,94190,6,0,P|32:304|72:368,1,105.000004005432,2|8,0:0|0:0,0:0:0:0:
208,328,94475,2,0,P|212:289|196:248,1,80.5000015354157,0|8,0:0|0:0,0:0:0:0:
56,144,94761,1,0,0:0:0:0:
224,88,94904,2,0,P|212:132|170:172,1,80.5000015354157,8|0,0:0|0:0,0:0:0:0:
88,264,95190,1,8,0:0:0:0:
112,64,95332,1,0,0:0:0:0:
232,224,95475,1,8,0:0:0:0:
376,112,95618,1,0,0:0:0:0:
336,352,95761,1,8,0:0:0:0:
480,277,95904,6,0,B|496:240|488:192,1,80.5000015354157,0|8,0:0|0:0,0:0:0:0:
496,0,96190,1,0,0:0:0:0:
312,88,96332,1,8,0:0:0:0:
488,198,96475,1,0,0:0:0:0:
496,0,96618,1,8,0:0:0:0:
488,198,96761,6,0,P|487:238|472:294,1,80.5000015354157,0|8,0:0|0:0,0:0:0:0:
280,328,97047,1,0,0:0:0:0:
280,328,97190,1,8,0:0:0:0:
352,144,97332,1,0,0:0:0:0:
352,144,97475,1,8,0:0:0:0:
72,80,97618,6,0,L|184:64,1,80.5000015354157,0|8,0:0|0:0,0:0:0:0:
472,24,97904,6,0,L|368:40,1,80.5000015354157,8|0,0:0|0:0,0:0:0:0:
288,72,98190,6,0,P|321:110|329:176,1,100.62500191927,8|0,0:0|0:0,0:0:0:0:
318,211,98440,6,0,P|296:252|244:290,1,100.62500191927
136,296,98761,2,0,P|136:324|176:368,1,80.5000015354157,8|4,0:0|0:0,0:0:0:0:
200,376,98975,1,8,0:0:0:0:
216,384,99047,1,8,0:0:0:0:
448,64,99348,6,0,L|448:176,1,105
368,304,99633,2,0,L|368:200,1,105
288,64,99919,2,0,L|288:176,1,105
208,304,100205,2,0,L|208:184,1,105
208,32,100526,6,0,L|256:16,2,35
96,0,100740,2,0,L|39:21,2,35
18,100,100954,1,0,0:0:0:0:
18,100,101026,1,0,0:0:0:0:
6,123,101062,6,2,P|-11:180|43:307,1,175,6|2,0:0|0:0,0:0:0:0:
80,336,101490,6,4,L|160:288,1,78.7500030040742
80,336,101776,2,0,L|240:240,1,157.500006008148,6|0,0:0|0:0,0:0:0:0:
80,336,102061,2,0,B|384:152,1,350,6|12,0:0|0:0,0:0:0:0:
446,166,102847,1,4,0:0:0:0:
446,166,102918,1,4,0:0:0:0:
446,166,102990,1,4,0:0:0:0:
446,166,103062,6,0,P|349:127|381:15,1,238.00000453949,2|0,0:0|0:0,0:0:0:0:
264,160,103490,5,8,0:0:0:0:
423,86,103633,1,0,0:0:0:0:
256,16,103776,1,8,0:0:0:0:
216,328,103918,2,0,B|248:272|248:272|232:200,1,119.000002269745,0|8,0:0|0:0,0:0:0:0:
168,24,104204,1,0,0:0:0:0:
296,176,104347,1,8,0:0:0:0:
416,8,104490,1,0,0:0:0:0:
152,144,104633,2,0,B|96:184|96:184|72:240,1,119.000002269745,8|0,0:0|0:0,0:0:0:0:
64,368,104918,5,8,0:0:0:0:
208,224,105061,1,0,0:0:0:0:
40,120,105204,1,8,0:0:0:0:
304,200,105347,2,0,B|360:184|360:184|424:200,1,119.000002269745,0|8,0:0|0:0,0:0:0:0:
360,272,105633,6,0,B|335:321|335:321|264:336,1,119.000002269745,0|8,0:0|0:0,0:0:0:0:
72,344,105919,1,0,0:0:0:0:
280,248,106061,1,8,0:0:0:0:
112,136,106204,2,0,P|160:88|208:88,1,119.000002269745,0|8,0:0|0:0,0:0:0:0:
400,152,106490,1,0,0:0:0:0:
256,272,106633,2,0,B|240:208|192:168,1,119.000002269745,8|0,0:0|0:0,0:0:0:0:
40,88,106919,1,8,0:0:0:0:
152,264,107062,1,0,0:0:0:0:
312,136,107204,1,8,0:0:0:0:
152,104,107347,2,0,L|232:120,2,59.5000011348725,2|0|8,0:0|0:0|0:0,0:0:0:0:
384,152,107633,2,0,L|312:136,2,59.5000011348725,2|0|8,0:0|0:0|0:0,0:0:0:0:
352,224,107919,5,8,0:0:0:0:
352,240,107990,1,0,0:0:0:0:
352,256,108062,1,8,0:0:0:0:
352,272,108133,1,0,0:0:0:0:
352,344,108204,1,10,0:0:0:0:
112,320,108490,6,0,L|168:272,1,59.5000011348725,4|0,0:0|0:0,0:0:0:0:
304,256,108633,2,0,L|240:200,1,59.5000011348725,8|0,0:0|0:0,0:0:0:0:
112,168,108776,2,0,L|176:112,1,59.5000011348725
241,48,108919,1,8,0:0:0:0:
360,48,109062,6,0,B|196:48,1,119.000002269745
184,24,109347,5,0,0:0:0:0:
160,16,109419,1,0,0:0:0:0:
136,8,109490,1,0,0:0:0:0:
112,8,109562,1,0,0:0:0:0:
84,12,109633,5,6,0:0:0:0:
113,55,109704,1,0,0:0:0:0:
150,93,109775,1,0,0:0:0:0:
193,123,109847,1,0,0:0:0:0:
244,148,109919,5,6,0:0:0:0:
196,167,109990,1,0,0:0:0:0:
151,195,110061,1,0,0:0:0:0:
113,231,110133,1,0,0:0:0:0:
83,274,110204,2,0,P|160:304|208:314,1,105,14|4,0:0|0:0,0:0:0:0:
424,312,110490,6,0,B|455:254|448:205,1,105.000004005432,8|4,0:0|0:0,0:0:0:0:
432,80,110776,1,10,0:0:0:0:
368,224,110918,1,4,0:0:0:0:
328,120,111061,1,10,0:0:0:0:
480,264,111204,1,4,0:0:0:0:
296,360,111347,1,10,0:0:0:0:
400,176,111490,1,4,0:0:0:0:
216,272,111633,2,0,P|173:285|99:257,1,105.000004005432,10|4,0:0|0:0,0:0:0:0:
2,111,111918,2,0,P|10:47|66:15,2,105.000004005432,10|4|10,0:0|0:0|0:0,0:0:0:0:
156,256,112347,5,4,0:0:0:0:
0,331,112490,6,0,B|54:363|111:325,1,105.000004005432,10|4,0:0|0:0,0:0:0:0:
208,176,112776,1,10,0:0:0:0:
208,176,112918,1,4,0:0:0:0:
291,334,113061,2,0,B|346:368|405:328,1,105.000004005432,10|4,0:0|0:0,0:0:0:0:
480,176,113347,1,10,0:0:0:0:
480,176,113419,1,0,0:0:0:0:
480,176,113490,1,4,0:0:0:0:
264,256,113633,5,10,0:0:0:0:
352,64,113775,1,4,0:0:0:0:
400,288,113918,1,10,0:0:0:0:
192,176,114061,1,4,0:0:0:0:
367,28,114204,1,10,0:0:0:0:
376,48,114275,1,0,0:0:0:0:
384,64,114346,1,4,0:0:0:0:
368,328,114490,1,10,0:0:0:0:
384,304,114561,1,0,0:0:0:0:
400,280,114632,1,4,0:0:0:0:
512,64,114776,5,10,0:0:0:0:
208,232,114918,1,4,0:0:0:0:
400,160,115062,5,10,0:0:0:0:
377,112,115133,1,0,0:0:0:0:
337,78,115204,1,4,0:0:0:0:
112,216,115347,2,0,P|148:284|180:301,1,105.000004005432,10|4,0:0|0:0,0:0:0:0:
322,364,115633,1,10,0:0:0:0:
372,356,115703,1,0,0:0:0:0:
417,327,115776,1,4,0:0:0:0:
304,208,115918,1,10,0:0:0:0:
424,88,116061,1,4,0:0:0:0:
184,264,116204,1,10,0:0:0:0:
48,160,116347,1,4,0:0:0:0:
52,353,116490,5,2,0:0:0:0:
103,342,116561,1,0,0:0:0:0:
154,331,116632,1,2,0:0:0:0:
206,320,116704,1,0,0:0:0:0:
257,310,116775,1,2,0:0:0:0:
308,299,116847,1,0,0:0:0:0:
360,288,116919,1,2,0:0:0:0:
411,277,116989,1,0,0:0:0:0:
463,267,117061,1,6,0:0:0:0:
463,267,117347,6,0,B|496:240|496:192,1,78.7500030040742,4|0,0:0|0:0,0:0:0:0:
448,160,117633,2,0,P|432:112|400:80,1,78.7500030040742,4|0,0:0|0:0,0:0:0:0:
368,112,117919,2,0,P|336:96|288:112,1,78.7500030040742,2|0,0:0|0:0,0:0:0:0:
272,128,118204,5,0,0:0:0:0:
253,153,118275,1,0,0:0:0:0:
242,182,118346,1,0,0:0:0:0:
244,214,118418,1,0,0:0:0:0:
259,241,118489,1,0,0:0:0:0:
275,268,118561,1,0,0:0:0:0:
284,299,118632,1,0,0:0:0:0:
279,329,118703,1,0,0:0:0:0:
264,357,118776,1,0,0:0:0:0:
226,338,118847,1,0,0:0:0:0:
205,303,118918,1,0,0:0:0:0:
210,261,118990,1,0,0:0:0:0:
220,221,119061,1,0,0:0:0:0:
212,180,119133,1,0,0:0:0:0:
179,155,119204,1,0,0:0:0:0:
138,153,119275,1,0,0:0:0:0:
103,156,119347,6,0,P|39:196|41:245,1,125.999996154785,6|0,0:0|0:0,0:0:0:0:
64,298,119633,5,8,0:0:0:0:
113,303,119704,1,0,0:0:0:0:
163,286,119775,1,8,0:0:0:0:
214,286,119847,1,0,0:0:0:0:
262,308,119918,1,8,0:0:0:0:
313,305,119990,1,0,0:0:0:0:
348,267,120061,1,8,0:0:0:0:
349,216,120132,1,0,0:0:0:0:
325,170,120204,5,8,0:0:0:0:
298,126,120275,1,0,0:0:0:0:
303,75,120346,1,8,0:0:0:0:
338,37,120418,1,0,0:0:0:0:
389,29,120489,1,14,0:0:0:0:
434,54,120561,1,0,0:0:0:0:
455,101,120632,1,8,0:0:0:0:
442,151,120703,1,0,0:0:0:0:
401,183,120775,5,8,0:0:0:0:
355,208,120847,1,0,0:0:0:0:
305,224,120918,1,8,0:0:0:0:
253,229,120990,1,0,0:0:0:0:
201,225,121061,1,8,0:0:0:0:
151,210,121133,1,0,0:0:0:0:
104,186,121204,1,8,0:0:0:0:
63,153,121275,1,0,0:0:0:0:
30,113,121347,5,8,0:0:0:0:
83,125,121418,1,0,0:0:0:0:
139,108,121489,1,8,0:0:0:0:
187,72,121561,1,0,0:0:0:0:
240,49,121632,5,14,0:0:0:0:
288,91,121704,1,0,0:0:0:0:
322,139,121775,1,8,0:0:0:0:
365,180,121847,1,0,0:0:0:0:
421,198,121918,1,8,0:0:0:0:
474,174,121990,1,0,0:0:0:0:
498,121,122061,1,8,0:0:0:0:
489,63,122132,1,0,0:0:0:0:
449,21,122204,1,8,0:0:0:0:
391,16,122275,1,0,0:0:0:0:
347,55,122347,1,8,0:0:0:0:
380,104,122418,1,0,0:0:0:0:
393,162,122489,1,8,0:0:0:0:
386,220,122561,1,0,0:0:0:0:
358,273,122633,5,14,0:0:0:0:
314,312,122704,1,0,0:0:0:0:
258,333,122775,1,8,0:0:0:0:
204,326,122847,1,0,0:0:0:0:
162,295,122918,1,8,0:0:0:0:
132,253,122990,1,0,0:0:0:0:
88,225,123062,5,0,0:0:0:0:
56,209,123133,1,0,0:0:0:0:
32,184,123204,1,0,0:0:0:0:
25,150,123276,1,0,0:0:0:0:
36,117,123347,1,0,0:0:0:0:
60,92,123419,1,0,0:0:0:0:
91,77,123490,1,0,0:0:0:0:
126,77,123561,1,0,0:0:0:0:
160,96,123633,6,0,L|240:280,1,195.999994018555,8|8,0:0|0:0,0:0:0:0:
480,152,124062,2,0,B|432:180|432:180|357:184,1,105.000004005432,4|8,0:0|0:0,0:0:0:0:
344,184,124275,1,0,0:0:0:0:
344,184,124347,1,4,0:0:0:0:
216,320,124490,1,8,0:0:0:0:
400,344,124633,2,0,B|392:288|392:288|352:232,1,105.000004005432,4|8,0:0|0:0,0:0:0:0:
336,224,124847,1,0,0:0:0:0:
336,224,124919,1,4,0:0:0:0:
152,184,125062,1,8,0:0:0:0:
168,48,125204,6,0,B|216:68|216:68|248:112,1,105.000004005432,4|8,0:0|0:0,0:0:0:0:
272,160,125419,1,0,0:0:0:0:
272,160,125490,1,4,0:0:0:0:
88,128,125633,1,8,0:0:0:0:
264,16,125776,1,4,0:0:0:0:
264,16,125847,1,0,0:0:0:0:
264,16,125919,1,8,0:0:0:0:
448,120,126062,1,4,0:0:0:0:
256,344,126204,5,12,0:0:0:0:
120,184,126347,1,4,0:0:0:0:
328,216,126490,1,8,0:0:0:0:
144,312,126633,1,4,0:0:0:0:
144,312,126703,1,0,0:0:0:0:
144,312,126776,1,8,0:0:0:0:
208,80,126919,1,4,0:0:0:0:
0,112,127062,1,8,0:0:0:0:
160,16,127204,6,0,P|208:0|264:24,1,105.000004005432,8|8,0:0|0:0,0:0:0:0:
400,96,127419,5,8,0:0:0:0:
416,120,127490,1,8,0:0:0:0:
432,144,127561,1,8,0:0:0:0:
440,168,127633,2,0,B|480:264|416:336,1,157.500006008148,8|0,0:0|0:0,0:0:0:0:
296,320,127919,1,8,0:0:0:0:
317,264,127990,1,8,0:0:0:0:
325,205,128061,1,8,0:0:0:0:
318,147,128133,1,8,0:0:0:0:
296,88,128205,6,0,P|232:128|192:136,1,105.000004005432,8|0,0:0|0:0,0:0:0:0:
8,64,128490,5,8,0:0:0:0:
120,240,128633,1,4,0:0:0:0:
203,134,128776,1,8,0:0:0:0:
160,336,128919,1,4,0:0:0:0:
288,208,129062,6,0,P|336:224|398:201,1,105.000004005432,8|4,0:0|0:0,0:0:0:0:
472,16,129347,1,8,0:0:0:0:
264,56,129490,1,4,0:0:0:0:
472,192,129633,1,8,0:0:0:0:
264,152,129776,1,4,0:0:0:0:
432,112,129919,6,0,P|457:188|440:232,1,105.000004005432,8|4,0:0|0:0,0:0:0:0:
304,360,130204,2,0,P|304:296|344:240,1,105.000004005432,8|4,0:0|0:0,0:0:0:0:
440,88,130490,1,8,0:0:0:0:
424,72,130562,1,0,0:0:0:0:
408,56,130633,1,4,0:0:0:0:
200,88,130776,5,8,0:0:0:0:
232,104,130847,1,0,0:0:0:0:
264,120,130919,1,4,0:0:0:0:
464,208,131062,1,8,0:0:0:0:
296,280,131204,2,0,B|229:261|192:192,1,105.000004005432,4|8,0:0|0:0,0:0:0:0:
80,56,131490,1,4,0:0:0:0:
272,136,131633,5,8,0:0:0:0:
256,144,131704,1,0,0:0:0:0:
240,152,131776,1,4,0:0:0:0:
56,248,131918,1,8,0:0:0:0:
72,240,131990,1,0,0:0:0:0:
88,232,132061,1,4,0:0:0:0:
112,96,132204,5,8,0:0:0:0:
112,96,132347,1,4,0:0:0:0:
248,272,132490,1,8,0:0:0:0:
248,272,132633,1,4,0:0:0:0:
320,72,132776,5,6,0:0:0:0:
320,72,132847,1,0,0:0:0:0:
320,72,132919,1,0,0:0:0:0:
104,72,133062,2,0,P|96:128|112:176,1,105.000004005432,8|0,0:0|0:0,0:0:0:0:
168,336,133347,5,6,0:0:0:0:
176,320,133418,1,0,0:0:0:0:
184,304,133490,1,0,0:0:0:0:
224,208,133633,2,0,P|264:144|304:112,1,105.000004005432,8|0,0:0|0:0,0:0:0:0:
472,0,133919,5,6,0:0:0:0:
488,32,133991,1,0,0:0:0:0:
496,72,134062,1,0,0:0:0:0:
480,176,134205,2,0,P|448:224|408:248,1,105.000004005432,8|0,0:0|0:0,0:0:0:0:
216,256,134490,5,6,0:0:0:0:
168,240,134561,1,0,0:0:0:0:
128,208,134633,1,0,0:0:0:0:
48,136,134776,2,0,P|96:88|152:72,1,105.000004005432,8|0,0:0|0:0,0:0:0:0:
352,64,135061,5,6,0:0:0:0:
416,88,135133,1,0,0:0:0:0:
480,112,135205,2,0,P|440:192|416:216,1,105.000004005432,0|8,0:0|0:0,0:0:0:0:
379,256,135419,5,0,0:0:0:0:
314,289,135490,1,4,0:0:0:0:
240,301,135562,1,0,0:0:0:0:
167,290,135633,2,0,P|95:250|31:138,1,210.000008010865,8|0,0:0|0:0,0:0:0:0:
64,96,136062,5,2,0:0:0:0:
72,104,136132,1,0,0:0:0:0:
72,104,136204,2,0,P|96:152|120:176,1,52.5000020027161
152,216,136348,5,2,0:0:0:0:
120,224,136419,1,0,0:0:0:0:
96,248,136490,2,0,P|80:272|80:312,1,52.5000020027161
176,320,136633,5,2,0:0:0:0:
208,304,136705,1,0,0:0:0:0:
232,280,136776,2,0,P|256:240|256:216,1,52.5000020027161
184,104,136919,5,2,0:0:0:0:
168,136,136990,1,0,0:0:0:0:
168,168,137062,2,0,P|176:208|200:232,1,52.5000020027161
304,160,137204,5,2,0:0:0:0:
296,128,137275,1,0,0:0:0:0:
280,96,137347,2,0,P|248:48|224:32,1,52.5000020027161
96,128,137490,5,2,0:0:0:0:
96,160,137562,1,0,0:0:0:0:
105,191,137633,2,0,P|176:288|280:328,1,210,4|0,0:0|0:0,0:0:0:0:
342,337,137918,5,12,0:0:0:0:
392,332,137990,1,0,0:0:0:0:
439,314,138061,1,12,0:0:0:0:
476,279,138133,1,0,0:0:0:0:
493,232,138204,1,12,0:0:0:0:
499,181,138276,1,0,0:0:0:0:
497,130,138347,1,12,0:0:0:0:
480,82,138418,1,0,0:0:0:0:
443,46,138490,1,12,0:0:0:0:
396,26,138561,1,0,0:0:0:0:
345,23,138633,1,12,0:0:0:0:
295,32,138704,1,0,0:0:0:0:
248,52,138776,5,12,0:0:0:0:
281,76,138847,1,0,0:0:0:0:
308,107,138918,1,12,0:0:0:0:
322,146,138990,1,0,0:0:0:0:
328,187,139061,1,12,0:0:0:0:
311,226,139133,1,0,0:0:0:0:
286,259,139204,1,12,0:0:0:0:
254,287,139276,1,0,0:0:0:0:
219,310,139347,1,12,0:0:0:0:
177,314,139418,1,0,0:0:0:0:
135,304,139490,1,12,0:0:0:0:
97,284,139561,1,0,0:0:0:0:
57,252,139633,5,12,0:0:0:0:
89,214,139704,1,0,0:0:0:0:
108,167,139776,1,12,0:0:0:0:
99,117,139847,1,0,0:0:0:0:
76,72,139918,5,12,0:0:0:0:
127,101,139990,1,0,0:0:0:0:
181,122,140061,1,12,0:0:0:0:
237,139,140133,1,0,0:0:0:0:
282,175,140204,1,12,0:0:0:0:
299,231,140276,1,0,0:0:0:0:
277,285,140347,1,12,0:0:0:0:
232,322,140418,1,0,0:0:0:0:
172,320,140490,1,12,0:0:0:0:
122,289,140561,1,0,0:0:0:0:
99,234,140633,1,12,0:0:0:0:
117,178,140704,1,0,0:0:0:0:
165,145,140775,1,12,0:0:0:0:
223,146,140846,1,0,0:0:0:0:
268,184,140918,1,12,0:0:0:0:
312,221,140989,1,0,0:0:0:0:
348,185,141061,5,12,0:0:0:0:
387,153,141133,1,0,0:0:0:0:
387,102,141204,1,12,0:0:0:0:
351,66,141276,1,0,0:0:0:0:
300,63,141347,1,12,0:0:0:0:
264,97,141418,1,0,0:0:0:0:
261,147,141490,1,12,0:0:0:0:
296,182,141561,1,0,0:0:0:0:
344,196,141633,1,12,0:0:0:0:
390,215,141704,1,0,0:0:0:0:
432,242,141775,1,12,0:0:0:0:
472,273,141847,1,0,0:0:0:0:
511,322,141919,6,0,P|443:309|394:274,1,105.000004005432,12|4,0:0|0:0,0:0:0:0:
288,176,142204,1,8,0:0:0:0:
160,64,142347,1,4,0:0:0:0:
208,240,142490,1,8,0:0:0:0:
232,272,142562,1,0,0:0:0:0:
258,296,142633,2,0,P|295:321|371:317,1,105.000004005432,4|8,0:0|0:0,0:0:0:0:
488,224,142919,1,4,0:0:0:0:
392,88,143062,1,8,0:0:0:0:
387,129,143133,1,0,0:0:0:0:
377,169,143204,2,0,P|355:228|307:284,1,105.000004005432,4|8,0:0|0:0,0:0:0:0:
160,352,143490,5,4,0:0:0:0:
136,152,143633,5,8,0:0:0:0:
168,168,143704,1,0,0:0:0:0:
202,183,143776,1,4,0:0:0:0:
400,256,143918,1,8,0:0:0:0:
408,48,144062,1,4,0:0:0:0:
392,80,144133,1,0,0:0:0:0:
368,104,144203,2,0,P|320:140|257:148,1,105.000004005432,8|4,0:0|0:0,0:0:0:0:
88,200,144490,2,0,P|141:167|202:163,1,105.000004005432,8|4,0:0|0:0,0:0:0:0:
328,256,144775,5,8,0:0:0:0:
296,80,144919,1,4,0:0:0:0:
288,64,144990,1,0,0:0:0:0:
278,52,145062,2,0,B|209:53|170:14|170:14|123:9,1,157.500006008148,8|0,0:0|0:0,0:0:0:0:
80,0,145383,5,2,0:0:0:0:
72,48,145454,1,2,0:0:0:0:
64,96,145526,1,2,0:0:0:0:
57,143,145597,1,0,0:0:0:0:
96,160,145669,1,0,0:0:0:0:
136,184,145740,1,0,0:0:0:0:
152,224,145812,1,0,0:0:0:0:
176,264,145883,5,8,0:0:0:0:
216,288,145954,1,0,0:0:0:0:
256,280,146026,1,0,0:0:0:0:
296,256,146097,1,0,0:0:0:0:
320,224,146169,1,8,0:0:0:0:
336,184,146240,1,0,0:0:0:0:
360,224,146312,1,0,0:0:0:0:
384,264,146383,1,0,0:0:0:0:
392,312,146454,5,8,0:0:0:0:
320,344,146526,1,8,0:0:0:0:
240,344,146597,1,8,0:0:0:0:
168,312,146669,1,8,0:0:0:0:
72,224,146775,6,0,L|216:224,1,105.000004005432,8|4,0:0|0:0,0:0:0:0:
317,224,147062,5,8,0:0:0:0:
496,144,147204,1,4,0:0:0:0:
488,328,147347,1,8,0:0:0:0:
324,182,147490,5,4,0:0:0:0:
304,0,147632,1,8,0:0:0:0:
488,75,147775,1,4,0:0:0:0:
295,251,147918,5,8,0:0:0:0:
272,40,148062,1,4,0:0:0:0:
96,160,148203,1,8,0:0:0:0:
288,264,148346,5,4,0:0:0:0:
352,32,148490,6,0,P|288:32|232:56,1,105.000004005432,12|4,0:0|0:0,0:0:0:0:
56,128,148776,1,8,0:0:0:0:
256,184,148919,1,4,0:0:0:0:
112,336,149062,2,0,P|56:304|40:248,1,105.000004005432,12|4,0:0|0:0,0:0:0:0:
64,56,149348,1,8,0:0:0:0:
120,256,149490,1,4,0:0:0:0:
312,336,149633,2,0,P|368:296|384:248,1,105.000004005432,12|4,0:0|0:0,0:0:0:0:
360,56,149918,1,8,0:0:0:0:
304,256,150062,1,4,0:0:0:0:
112,336,150205,2,0,P|56:304|40:240,1,105.000004005432,12|4,0:0|0:0,0:0:0:0:
24,56,150490,5,8,0:0:0:0:
24,264,150633,1,4,0:0:0:0:
136,160,150776,1,8,0:0:0:0:
136,368,150919,1,4,0:0:0:0:
256,248,151062,5,8,0:0:0:0:
256,40,151205,1,4,0:0:0:0:
80,64,151348,2,0,P|120:136|192:168,1,140,8|4,0:0|0:0,0:0:0:0:
340,220,151633,5,2,0:0:0:0:
279,252,151704,1,2,0:0:0:0:
213,275,151775,1,2,0:0:0:0:
148,299,151847,1,2,0:0:0:0:
78,298,151918,1,2,0:0:0:0:
25,262,151990,1,2,0:0:0:0:
0,198,152061,1,2,0:0:0:0:
15,131,152133,1,2,0:0:0:0:
65,84,152204,1,2,0:0:0:0:
133,73,152276,1,2,0:0:0:0:
216,112,152348,5,2,0:0:0:0:
231,178,152419,1,2,0:0:0:0:
192,233,152490,1,2,0:0:0:0:
125,242,152562,1,2,0:0:0:0:
73,197,152633,1,2,0:0:0:0:
72,129,152705,1,2,0:0:0:0:
122,83,152776,1,2,0:0:0:0:
190,79,152847,1,2,0:0:0:0:
241,124,152918,1,2,0:0:0:0:
248,192,152990,1,2,0:0:0:0:
216,248,153062,6,0,B|168:280|168:280|154:292|120:352|32:328|16:264|32:192|120:168|157:224|168:240|168:240|184:256|208:320|280:344,1,490,4|0,0:0|0:0,0:0:0:0:
272,344,153633,6,0,P|352:360|464:184,1,280,10|0,0:0|0:0,0:0:0:0:
472,184,154062,1,8,0:0:0:0:
320,8,154205,5,4,0:0:0:0:
368,232,154348,1,8,0:0:0:0:
192,8,154490,5,4,0:0:0:0:
144,232,154633,1,8,0:0:0:0:
336,88,154776,5,4,0:0:0:0:
384,312,154919,1,8,0:0:0:0:
384,312,155062,5,2,0:0:0:0:
417,303,155133,1,2,0:0:0:0:
445,282,155204,1,10,0:0:0:0:
461,251,155276,1,2,0:0:0:0:
408,184,155348,5,2,0:0:0:0:
374,194,155419,1,2,0:0:0:0:
340,193,155490,1,10,0:0:0:0:
308,178,155562,1,2,0:0:0:0:
264,104,155633,5,2,0:0:0:0:
246,134,155704,1,2,0:0:0:0:
223,160,155775,1,10,0:0:0:0:
197,183,155847,1,2,0:0:0:0:
144,248,155919,2,2,L|210:288,1,59.5000011348725
328,344,156062,2,2,L|264:312,1,59.5000011348725,10|2,0:0|0:0,0:0:0:0:
368,248,156203,6,2,L|400:192,1,59.5000011348725
472,72,156346,2,2,L|424:152,1,59.5000011348725,10|2,0:0|0:0,0:0:0:0:
360,192,156490,2,2,L|288:192,1,52.5000020027161
200,192,156633,2,2,L|128:192,2,52.5000020027161,10|2|2,0:0|0:0|0:0,0:0:0:0:
288,296,156848,2,2,L|305:349,2,52.5000020027161,2|10|2,0:0|0:0|0:0,0:0:0:0:
232,296,157062,5,2,0:0:0:0:
216,296,157133,1,0,0:0:0:0:
200,296,157205,1,10,0:0:0:0:
184,296,157276,1,0,0:0:0:0:
168,296,157348,2,0,L|128:192,1,90.9999958343508,2|8,0:0|0:0,0:0:0:0:
232,200,157633,2,0,L|293:98,1,90.9999958343508,0|8,0:0|0:0,0:0:0:0:
168,112,157919,2,0,L|136:24,1,90.9999958343508,0|8,0:0|0:0,0:0:0:0:
136,16,158205,5,4,0:0:0:0:
96,184,158348,1,0,0:0:0:0:
112,178,158419,1,0,0:0:0:0:
128,172,158490,1,0,0:0:0:0:
145,166,158562,1,0,0:0:0:0:
161,160,158633,1,0,0:0:0:0:
178,154,158705,1,0,0:0:0:0:
224,80,158776,5,0,0:0:0:0:
237,91,158847,1,0,0:0:0:0:
250,102,158918,1,0,0:0:0:0:
264,113,158990,1,0,0:0:0:0:
352,120,159062,5,0,0:0:0:0:
345,145,159133,1,0,0:0:0:0:
338,170,159204,1,0,0:0:0:0:
331,195,159276,1,0,0:0:0:0:
320,256,159348,6,0,L|424:256,1,70
208,336,159490,2,14,L|136:336,1,70
56,328,159633,5,2,0:0:0:0:
32,296,159704,1,2,0:0:0:0:
24,256,159775,1,10,0:0:0:0:
40,216,159847,1,2,0:0:0:0:
80,192,159919,6,2,P|112:208|144:192,1,70
232,304,160062,2,0,P|200:280|200:248,1,70,8|0,0:0|0:0,0:0:0:0:
320,176,160205,2,2,P|280:176|248:200,1,70
224,56,160348,2,2,P|200:88|200:128,1,70,10|2,0:0|0:0,0:0:0:0:
216,216,160490,5,2,0:0:0:0:
224,240,160562,1,2,0:0:0:0:
232,264,160633,2,2,L|264:336,1,52.5000020027161,10|2,0:0|0:0,0:0:0:0:
336,376,160776,1,2,0:0:0:0:
344,360,160848,1,2,0:0:0:0:
352,344,160919,2,2,L|384:272,1,52.5000020027161,10|2,0:0|0:0,0:0:0:0:
272,168,161062,1,2,0:0:0:0:
272,168,161133,1,2,0:0:0:0:
272,168,161203,2,2,L|296:224,1,52.5000020027161,10|2,0:0|0:0,0:0:0:0:
360,292,161348,5,4,0:0:0:0:
368,289,161419,1,4,0:0:0:0:
376,284,161490,1,12,0:0:0:0:
383,278,161562,1,4,0:0:0:0:
390,272,161633,2,0,B|344:208|344:208|320:264|248:312|176:264|160:200,1,315.000012016297,6|0,0:0|0:0,0:0:0:0:
96,240,162203,6,0,P|64:284|11:293,1,90.9999958343508,8|0,0:0|0:0,0:0:0:0:
24,216,162394,2,0,P|54:178|112:169,1,90.9999958343508,8|0,0:0|0:0,0:0:0:0:
160,200,162584,2,0,P|176:248|152:296,1,90.9999958343508,8|0,0:0|0:0,0:0:0:0:
144,360,162776,6,0,B|168:360|208:360|232:328|224:296,1,90.9999958343508
264,192,163061,1,0,0:0:0:0:
195,112,163204,2,0,P|242:115|289:141,1,70,8|0,0:0|0:0,0:0:0:0:
320,248,163490,1,0,0:0:0:0:
400,296,163634,2,0,L|304:312,1,70
240,320,163919,2,0,P|200:328|152:320,1,70,2|0,0:0|0:0,0:0:0:0:
48,304,164205,6,0,B|24:256,2,35,2|0|0,0:0|0:0|0:0,0:0:0:0:
23,162,164490,2,0,P|39:98|103:34,1,140,12|0,0:0|0:0,0:0:0:0:
130,53,164918,1,2,0:0:0:0:
272,202,165204,1,2,0:0:0:0:
312,295,165348,2,0,L|312:207,1,70,12|2,0:0|0:0,0:0:0:0:
392,80,165633,2,0,B|392:128|392:128|408:128|400:192,1,105,2|0,0:0|0:0,0:0:0:0:
438,265,165918,2,0,L|354:265,1,70,0|8,0:0|0:0,0:0:0:0:
179,248,166204,6,0,B|192:216|228:196|228:196|237:145,1,105,12|0,0:0|0:0,0:0:0:0:
316,184,166490,2,0,B|327:135|327:135|357:116|372:81,1,105,2|0,0:0|0:0,0:0:0:0:
372,44,166776,1,2,0:0:0:0:
233,164,166918,1,0,0:0:0:0:
203,49,167062,2,0,L|83:49,1,105,12|4,0:0|0:0,0:0:0:0:
46,0,167348,2,0,L|118:136,1,140
148,189,167777,1,0,0:0:0:0:
219,82,167919,2,0,B|240:104|245:151|245:151|264:192,1,105,12|0,0:0|0:0,0:0:0:0:
275,208,168205,5,4,0:0:0:0:
281,223,168276,1,4,0:0:0:0:
287,239,168347,1,4,0:0:0:0:
294,255,168419,1,4,0:0:0:0:
300,271,168490,1,4,0:0:0:0:
306,287,168562,1,4,0:0:0:0:
313,303,168633,1,4,0:0:0:0:
320,320,168705,1,0,0:0:0:0:
328,336,168777,6,0,P|293:352|252:354,1,62.9999980773926,2|0,0:0|0:0,0:0:0:0:
336,352,169062,2,0,P|280:365|260:363,1,62.9999980773926,2|0,0:0|0:0,0:0:0:0:
40,296,169348,5,8,0:0:0:0:
32,265,169419,1,8,0:0:0:0:
33,234,169490,1,8,0:0:0:0:
43,204,169562,1,8,0:0:0:0:
57,175,169634,2,0,P|105:114|134:93,1,105.000004005432
312,16,169918,6,0,L|249:107,1,105.000004005432,6|0,0:0|0:0,0:0:0:0:
152,264,170204,1,6,0:0:0:0:
120,112,170347,1,0,0:0:0:0:
256,192,170490,1,6,0:0:0:0:
352,64,170633,1,0,0:0:0:0:
48,0,170776,6,0,L|120:96,1,105.000004005432,6|0,0:0|0:0,0:0:0:0:
208,208,171061,1,6,0:0:0:0:
280,64,171204,1,0,0:0:0:0:
368,184,171347,2,0,L|256:200,1,105.000004005432,6|0,0:0|0:0,0:0:0:0:
104,216,171633,5,6,0:0:0:0:
240,304,171776,1,0,0:0:0:0:
240,152,171918,1,6,0:0:0:0:
148,280,172061,1,0,0:0:0:0:
320,123,172204,5,6,0:0:0:0:
473,171,172347,1,0,0:0:0:0:
304,280,172490,1,6,0:0:0:0:
208,88,172633,1,0,0:0:0:0:
400,147,172777,1,6,0:0:0:0:
176,280,172918,1,0,0:0:0:0:
298,75,173062,6,6,L|160:160,1,140,6|0,0:0|0:0,0:0:0:0:
80,96,173348,1,6,0:0:0:0:
224,8,173491,1,0,0:0:0:0:
328,160,173634,1,6,0:0:0:0:
176,256,173777,1,0,0:0:0:0:
363,296,173919,6,0,L|256:176,1,140,6|0,0:0|0:0,0:0:0:0:
128,32,174205,2,0,L|224:144,1,140,6|0,0:0|0:0,0:0:0:0:
388,240,174490,5,6,0:0:0:0:
268,64,174633,1,0,0:0:0:0:
176,240,174777,5,6,0:0:0:0:
268,64,174919,1,0,0:0:0:0:
376,228,175062,5,6,0:0:0:0:
268,64,175205,1,0,0:0:0:0:
176,240,175348,5,6,0:0:0:0:
268,64,175491,1,0,0:0:0:0:
312,178,175634,5,8,0:0:0:0:
299,165,175705,1,8,0:0:0:0:
286,153,175776,1,8,0:0:0:0:
273,141,175848,1,8,0:0:0:0:
261,129,175919,1,8,0:0:0:0:
248,117,175991,1,8,0:0:0:0:
235,105,176062,1,8,0:0:0:0:
222,93,176134,1,8,0:0:0:0:
210,81,176205,1,8,0:0:0:0:
197,69,176276,1,8,0:0:0:0:
184,57,176348,1,8,0:0:0:0:
172,45,176419,1,8,0:0:0:0:
138,15,176491,5,10,0:0:0:0:
99,50,176562,1,0,0:0:0:0:
60,86,176634,2,0,L|0:138,1,52.5000020027161,4|0,0:0|0:0,0:0:0:0:
40,304,176777,5,10,0:0:0:0:
85,278,176848,1,0,0:0:0:0:
131,254,176919,2,0,L|190:214,1,52.5000020027161,4|0,0:0|0:0,0:0:0:0:
320,112,177062,5,10,0:0:0:0:
274,85,177134,1,0,0:0:0:0:
227,62,177205,2,0,P|189:47|160:44,1,52.5000020027161,4|0,0:0|0:0,0:0:0:0:
48,128,177348,5,10,0:0:0:0:
39,161,177419,1,0,0:0:0:0:
32,192,177491,2,0,P|38:221|45:249,1,43.75,4|0,0:0|0:0,0:0:0:0:
176,312,177634,5,10,0:0:0:0:
173,277,177705,1,0,0:0:0:0:
176,241,177777,2,0,P|178:212|191:178,1,43.75,4|0,0:0|0:0,0:0:0:0:
304,112,177919,5,10,0:0:0:0:
322,141,177991,1,0,0:0:0:0:
334,173,178062,2,0,P|343:202|350:235,1,43.75,4|0,0:0|0:0,0:0:0:0:
379,332,178205,5,10,0:0:0:0:
357,333,178277,1,0,0:0:0:0:
336,328,178348,1,4,0:0:0:0:
316,320,178419,1,0,0:0:0:0:
293,281,178491,5,10,0:0:0:0:
272,275,178562,1,0,0:0:0:0:
250,273,178634,1,4,0:0:0:0:
229,274,178705,1,0,0:0:0:0:
194,245,178777,5,10,0:0:0:0:
173,248,178848,1,0,0:0:0:0:
153,254,178919,1,4,0:0:0:0:
134,264,178991,1,0,0:0:0:0:
120,271,179062,6,8,P|90:268|73:255,3,52.5000020027161
140,122,179348,2,8,P|138:154|121:182,3,52.5000020027161
28,99,179634,2,8,P|34:63|26:41,3,52.5000020027161
16,136,179919,5,10,0:0:0:0:
0,176,179991,1,0,0:0:0:0:
0,216,180062,1,4,0:0:0:0:
16,256,180134,1,0,0:0:0:0:
48,288,180205,1,10,0:0:0:0:
96,320,180277,5,0,0:0:0:0:
152,336,180348,1,4,0:0:0:0:
208,320,180419,1,0,0:0:0:0:
256,288,180491,1,10,0:0:0:0:
288,240,180562,1,0,0:0:0:0:
312,184,180634,1,4,0:0:0:0:
328,128,180705,1,0,0:0:0:0:
347,67,180777,5,10,0:0:0:0:
376,80,180848,1,0,0:0:0:0:
408,96,180919,2,0,L|472:128,1,52.5000020027161,4|0,0:0|0:0,0:0:0:0:
456,248,181062,1,10,0:0:0:0:
432,264,181134,1,0,0:0:0:0:
408,280,181205,2,0,L|344:320,1,52.5000020027161,4|0,0:0|0:0,0:0:0:0:
272,328,181348,6,6,L|215:304,1,52.5000020027161,10|2,0:0|0:0,0:0:0:0:
40,224,181491,2,6,L|105:251,1,52.5000020027161,4|2,0:0|0:0,0:0:0:0:
296,128,181634,6,6,L|240:184,1,52.5000020027161,10|2,0:0|0:0,0:0:0:0:
56,352,181777,2,6,L|107:306,1,52.5000020027161,4|2,0:0|0:0,0:0:0:0:
64,56,181919,6,0,L|120:112,1,52.5000020027161,10|0,0:0|0:0,0:0:0:0:
352,328,182062,2,0,L|296:272,1,52.5000020027161,4|0,0:0|0:0,0:0:0:0:
269,235,182205,5,4,0:0:0:0:
269,235,182277,1,4,0:0:0:0:
269,235,182348,1,4,0:0:0:0:
269,235,182419,1,4,0:0:0:0:
269,235,182491,2,0,P|115:237|280:64,1,560,12|0,0:0|0:0,0:0:0:0:
200,152,183348,5,10,0:0:0:0:
200,152,183419,1,0,0:0:0:0:
200,152,183491,1,4,0:0:0:0:
288,248,183634,1,10,0:0:0:0:
288,0,183777,1,4,0:0:0:0:
376,96,183919,1,10,0:0:0:0:
376,96,183991,1,0,0:0:0:0:
376,96,184062,1,4,0:0:0:0:
336,272,184205,6,0,P|319:327|284:363,1,105.000004005432,10|4,0:0|0:0,0:0:0:0:
240,160,184491,2,0,P|272:80|304:48,1,105.000004005432,10|4,0:0|0:0,0:0:0:0:
400,96,184777,1,10,0:0:0:0:
288,320,184919,1,4,0:0:0:0:
512,256,185062,5,10,0:0:0:0:
512,256,185134,1,0,0:0:0:0:
512,256,185205,1,4,0:0:0:0:
328,256,185348,1,10,0:0:0:0:
512,80,185491,5,4,0:0:0:0:
320,88,185634,1,10,0:0:0:0:
320,88,185705,1,0,0:0:0:0:
320,88,185777,1,4,0:0:0:0:
228,252,185919,5,10,0:0:0:0:
224,64,186062,1,4,0:0:0:0:
396,152,186206,1,10,0:0:0:0:
316,220,186348,1,4,0:0:0:0:
476,116,186492,1,10,0:0:0:0:
492,304,186634,1,4,0:0:0:0:
224,176,186777,6,0,B|16:80,1,210.000008010865,10|8,0:0|0:0,0:0:0:0:
386,270,187205,1,4,0:0:0:0:
240,360,187348,2,0,B|272:344|272:344|312:368|376:368|408:304|384:264|384:264,1,210.000008010865,10|10,0:0|0:0,0:0:0:0:
352,120,187777,5,4,0:0:0:0:
224,216,187919,1,10,0:0:0:0:
96,312,188062,5,4,0:0:0:0:
96,312,188134,1,0,0:0:0:0:
96,312,188206,2,4,P|204:288|256:248,1,157.500006008148,10|0,0:0|0:0,0:0:0:0:
288,184,188492,5,8,0:0:0:0:
403,42,188634,5,0,0:0:0:0:
416,48,188777,1,0,0:0:0:0:
288,192,188919,1,0,0:0:0:0:
272,192,189062,1,0,0:0:0:0:
392,344,189205,1,0,0:0:0:0:
408,336,189348,1,2,0:0:0:0:
408,336,190205,6,0,B|411:335|450:271|411:204,1,131.25000500679,2|0,0:0|0:0,0:0:0:0:
480,160,190455,2,0,P|432:136|392:160,1,105.000004005432
352,160,190634,2,0,P|288:112|216:160,1,167.999994873047
208,192,191027,2,0,P|256:240|304:232,1,104.999996795654,2|0,0:0|0:0,0:0:0:0:
390,211,191348,5,8,0:0:0:0:
388,159,191419,1,8,0:0:0:0:
362,114,191490,1,8,0:0:0:0:
318,87,191562,1,8,0:0:0:0:
266,84,191633,1,8,0:0:0:0:
219,107,191705,1,8,0:0:0:0:
189,150,191776,1,8,0:0:0:0:
183,201,191848,1,8,0:0:0:0:
203,250,191919,5,2,0:0:0:0:
203,250,191991,1,0,0:0:0:0:
203,250,192061,1,0,0:0:0:0:
203,250,192133,1,0,0:0:0:0:
203,250,192205,2,0,P|268:226|292:86,1,210.000008010865
277,62,192633,5,8,0:0:0:0:
124,20,192776,1,4,0:0:0:0:
277,62,192918,1,8,0:0:0:0:
198,116,193061,6,0,B|182:171|218:226,1,105.000004005432,6|8,0:0|0:0,0:0:0:0:
289,309,193347,1,4,0:0:0:0:
313,325,193418,1,0,0:0:0:0:
337,341,193490,1,8,0:0:0:0:
455,271,193633,6,0,P|391:255|348:214,1,105.000004005432,6|8,0:0|0:0,0:0:0:0:
268,88,193918,1,4,0:0:0:0:
204,268,194061,1,8,0:0:0:0:
361,231,194204,6,0,P|407:191|428:129,1,105.000004005432,6|8,0:0|0:0,0:0:0:0:
496,32,194490,1,4,0:0:0:0:
496,32,194561,1,0,0:0:0:0:
496,32,194633,1,8,0:0:0:0:
288,16,194776,6,0,P|259:60|272:128,1,105.000004005432,6|8,0:0|0:0,0:0:0:0:
320,288,195061,5,4,0:0:0:0:
192,144,195204,5,8,0:0:0:0:
192,352,195347,1,4,0:0:0:0:
192,144,195490,5,8,0:0:0:0:
64,304,195633,1,4,0:0:0:0:
192,144,195776,5,8,0:0:0:0:
160,352,195918,2,0,L|288:288,1,105.000004005432,4|8,0:0|0:0,0:0:0:0:
448,216,196204,1,4,0:0:0:0:
448,8,196347,1,8,0:0:0:0:
229,183,196490,5,4,0:0:0:0:
205,194,196561,1,0,0:0:0:0:
181,206,196633,1,8,0:0:0:0:
313,331,196776,5,4,0:0:0:0:
336,320,196847,1,0,0:0:0:0:
358,307,196918,1,8,0:0:0:0:
394,96,197061,5,4,0:0:0:0:
367,91,197133,1,4,0:0:0:0:
341,87,197204,1,4,0:0:0:0:
314,83,197276,1,4,0:0:0:0:
286,78,197347,2,0,B|343:77|343:77|358:62|402:78,1,105.000004005432,4|0,0:0|0:0,0:0:0:0:
432,288,197634,2,0,B|464:240|464:240|448:176,1,105.000004005432,4|8,0:0|0:0,0:0:0:0:
208,144,197919,2,0,B|176:192|176:192|192:240,1,105.000004005432,4|8,0:0|0:0,0:0:0:0:
238,358,198205,5,8,0:0:0:0:
288,344,198276,1,8,0:0:0:0:
336,322,198347,1,8,0:0:0:0:
379,293,198419,1,8,0:0:0:0:
417,256,198490,1,8,0:0:0:0:
448,214,198562,1,8,0:0:0:0:
471,167,198633,1,8,0:0:0:0:
487,117,198705,1,8,0:0:0:0:
496,68,198777,6,0,P|464:56|440:24,2,52.5000020027161
224,16,199062,2,0,P|248:32|272:72,2,52.5000020027161
56,368,199348,5,14,0:0:0:0:
336,160,199634,5,2,0:0:0:0:
196,52,199777,1,0,0:0:0:0:
164,228,199919,6,0,P|172:276|220:316,1,105.000004005432,6|8,0:0|0:0,0:0:0:0:
388,344,200205,1,6,0:0:0:0:
256,224,200347,1,8,0:0:0:0:
432,204,200490,2,0,P|424:148|440:96,1,105.000004005432,6|8,0:0|0:0,0:0:0:0:
288,0,200777,5,6,0:0:0:0:
356,164,200918,1,8,0:0:0:0:
176,156,201062,1,6,0:0:0:0:
336,76,201205,1,8,0:0:0:0:
424,232,201347,1,6,0:0:0:0:
244,224,201490,1,8,0:0:0:0:
408,148,201633,6,0,L|316:228,1,105.000004005432,6|8,0:0|0:0,0:0:0:0:
204,92,201918,1,6,0:0:0:0:
328,216,202062,1,8,0:0:0:0:
464,104,202204,2,0,L|368:184,1,105.000004005432,6|8,0:0|0:0,0:0:0:0:
208,128,202490,1,6,0:0:0:0:
332,260,202633,1,8,0:0:0:0:
444,120,202776,6,0,L|328:220,1,105.000004005432,6|8,0:0|0:0,0:0:0:0:
64,64,203061,1,6,0:0:0:0:
112,240,203204,1,8,0:0:0:0:
352,336,203348,6,0,L|464:304,1,105.000004005432,6|8,0:0|0:0,0:0:0:0:
448,64,203633,1,6,0:0:0:0:
384,240,203777,1,8,0:0:0:0:
160,336,203919,6,0,L|48:304,1,105.000004005432,6|8,0:0|0:0,0:0:0:0:
64,48,204205,5,6,0:0:0:0:
224,0,204348,1,8,0:0:0:0:
192,144,204491,1,6,0:0:0:0:
416,240,204634,5,8,0:0:0:0:
272,144,204777,1,6,0:0:0:0:
240,304,204919,1,8,0:0:0:0:
416,128,205062,5,6,0:0:0:0:
160,256,205205,1,8,0:0:0:0:
192,32,205348,1,6,0:0:0:0:
320,200,205491,1,8,0:0:0:0:
128,176,205634,6,0,L|248:224,1,105.000004005432,4|8,0:0|0:0,0:0:0:0:
288,328,205919,2,0,L|384:248,1,105.000004005432,4|8,0:0|0:0,0:0:0:0:
467,176,206204,1,6,0:0:0:0:
467,176,206276,1,0,0:0:0:0:
467,176,206347,1,0,0:0:0:0:
344,80,206490,2,0,L|400:128,1,52.5000020027161
232,224,206633,2,0,L|184:184,1,52.5000020027161
123,127,206776,1,6,0:0:0:0:
123,127,206847,1,0,0:0:0:0:
123,127,206918,1,0,0:0:0:0:
280,112,207061,6,0,L|224:64,1,52.5000020027161
295,248,207204,2,0,L|359:304,1,52.5000020027161
416,352,207347,5,6,0:0:0:0:
416,352,207418,1,0,0:0:0:0:
416,352,207490,1,0,0:0:0:0:
496,240,207634,5,8,0:0:0:0:
449,263,207705,1,8,0:0:0:0:
401,248,207776,1,8,0:0:0:0:
361,214,207848,1,8,0:0:0:0:
310,212,207919,1,8,0:0:0:0:
269,235,207991,1,8,0:0:0:0:
241,190,208062,5,8,0:0:0:0:
214,145,208134,1,8,0:0:0:0:
187,101,208205,1,8,0:0:0:0:
167,139,208276,1,8,0:0:0:0:
149,188,208348,1,8,0:0:0:0:
130,237,208419,1,8,0:0:0:0:
112,287,208491,2,0,P|56:232|40:176,1,105.000004005432
12,25,208777,1,10,0:0:0:0:
268,21,208919,1,0,0:0:0:0:
12,25,209062,2,0,L|152:26,1,105.000004005432,10|0,0:0|0:0,0:0:0:0:
416,32,209347,5,10,0:0:0:0:
415,266,209490,1,0,0:0:0:0:
416,32,209634,2,0,L|416:144,1,105.000004005432,10|0,0:0|0:0,0:0:0:0:
288,328,209918,1,10,0:0:0:0:
192,208,210061,1,0,0:0:0:0:
88,336,210204,1,10,0:0:0:0:
288,168,210347,1,0,0:0:0:0:
88,168,210490,1,10,0:0:0:0:
192,280,210633,1,0,0:0:0:0:
128,112,210777,6,0,B|144:48|144:48|212:8,1,105.000004005432,10|0,0:0|0:0,0:0:0:0:
450,130,211062,2,0,B|442:198|442:198|382:242,1,105.000004005432,10|0,0:0|0:0,0:0:0:0:
224,288,211348,5,10,0:0:0:0:
280,112,211491,1,0,0:0:0:0:
96,88,211634,2,0,P|141:123|202:147,1,105.000004005432,10|0,0:0|0:0,0:0:0:0:
120,296,211918,2,0,P|190:232|217:217,1,105.000004005432,10|0,0:0|0:0,0:0:0:0:
343,148,212204,5,10,0:0:0:0:
208,48,212347,1,0,0:0:0:0:
48,88,212490,1,10,0:0:0:0:
8,256,212634,1,0,0:0:0:0:
136,352,212777,5,10,0:0:0:0:
184,368,212848,1,8,0:0:0:0:
240,376,212919,1,8,0:0:0:0:
288,376,212991,1,8,0:0:0:0:
336,368,213061,2,0,P|400:320|424:272,1,105.000004005432,10|0,0:0|0:0,0:0:0:0:
512,64,213347,2,0,L|456:168,1,105.000004005432,10|0,0:0|0:0,0:0:0:0:
16,320,213634,5,10,0:0:0:0:
272,288,213776,1,0,0:0:0:0:
16,112,213918,5,10,0:0:0:0:
272,176,214061,1,0,0:0:0:0:
48,224,214204,5,10,0:0:0:0:
256,64,214347,1,0,0:0:0:0:
144,32,214491,5,10,0:0:0:0:
256,240,214633,1,0,0:0:0:0:
304,112,214776,5,10,0:0:0:0:
120,200,214918,1,0,0:0:0:0:
336,256,215061,5,10,0:0:0:0:
360,240,215133,1,0,0:0:0:0:
384,224,215205,1,0,0:0:0:0:
408,208,215276,1,0,0:0:0:0:
432,192,215348,2,0,B|480:144|480:144|488:88,1,105.000004005432,10|0,0:0|0:0,0:0:0:0:
176,24,215634,2,0,B|120:72|120:72|96:128,1,105.000004005432,10|0,0:0|0:0,0:0:0:0:
80,336,215918,2,0,B|152:344|152:344|208:328,1,105.000004005432,10|0,0:0|0:0,0:0:0:0:
448,336,216204,2,0,B|376:344|376:344|336:328,1,105.000004005432,10|0,0:0|0:0,0:0:0:0:
176,40,216491,2,0,B|144:88|144:88|168:136,1,105.000004005432,10|0,0:0|0:0,0:0:0:0:
352,40,216777,2,0,B|376:88|376:88|352:152,1,105.000004005432,10|0,0:0|0:0,0:0:0:0:
256,320,217062,6,2,P|271:345|290:363,3,52.5000020027161
96,304,217348,2,2,B|73:289|57:257,3,52.5000020027161
152,288,217634,1,8,0:0:0:0:
202,273,217705,1,0,0:0:0:0:
243,241,217776,1,0,0:0:0:0:
268,195,217848,1,0,0:0:0:0:
274,144,217919,1,0,0:0:0:0:
259,94,217991,1,0,0:0:0:0:
226,53,218062,1,0,0:0:0:0:
180,29,218134,1,0,0:0:0:0:
128,23,218205,6,0,L|160:96,1,52.5000020027161
224,144,218348,2,0,L|200:96,1,52.5000020027161
208,0,218491,2,0,L|232:56,1,52.5000020027161
312,120,218634,2,0,L|272:48,1,52.5000020027161
288,24,218777,5,8,0:0:0:0:
340,21,218848,1,0,0:0:0:0:
389,38,218919,1,0,0:0:0:0:
428,72,218991,1,0,0:0:0:0:
452,118,219062,1,0,0:0:0:0:
457,170,219134,1,0,0:0:0:0:
443,221,219205,1,0,0:0:0:0:
411,262,219277,1,0,0:0:0:0:
366,288,219348,2,0,L|296:328,3,52.5000020027161
224,264,219634,6,0,L|272:240,1,52.5000020027161
256,344,219777,2,0,L|192:376,1,52.5000020027161
96,296,219919,5,8,0:0:0:0:
56,256,219990,1,0,0:0:0:0:
58,200,220061,1,0,0:0:0:0:
102,165,220133,1,0,0:0:0:0:
158,152,220204,1,0,0:0:0:0:
199,113,220276,1,0,0:0:0:0:
196,57,220347,1,0,0:0:0:0:
153,20,220419,1,0,0:0:0:0:
97,8,220491,2,0,L|67:77,3,57.7500005507469
136,160,220777,6,0,L|64:136,1,57.7500005507469
176,72,220919,2,0,L|232:88,1,57.7500005507469
392,128,221062,5,8,0:0:0:0:
389,192,221133,1,0,0:0:0:0:
365,252,221204,1,0,0:0:0:0:
323,301,221276,1,0,0:0:0:0:
267,334,221347,1,0,0:0:0:0:
204,346,221419,1,0,0:0:0:0:
140,338,221490,1,0,0:0:0:0:
83,310,221562,1,0,0:0:0:0:
40,264,221634,2,0,B|0:208,3,64.7499997529984
136,208,221919,2,0,L|184:148,1,64.7499997529984
56,132,222062,2,0,L|16:76,1,64.7499997529984
136,96,222205,5,8,0:0:0:0:
194,68,222276,1,0,0:0:0:0:
258,64,222347,1,0,0:0:0:0:
319,85,222419,1,0,0:0:0:0:
367,127,222491,5,0,0:0:0:0:
385,175,222562,1,0,0:0:0:0:
391,227,222633,1,0,0:0:0:0:
384,279,222705,1,0,0:0:0:0:
364,328,222777,5,0,0:0:0:0:
385,361,222848,1,0,0:0:0:0:
422,374,222919,1,0,0:0:0:0:
459,360,222991,1,0,0:0:0:0:
480,327,223062,6,0,L|504:272,1,35
432,208,223204,2,0,L|408:264,1,35
384,312,223348,5,8,0:0:0:0:
337,335,223419,1,8,0:0:0:0:
285,341,223490,1,8,0:0:0:0:
234,328,223562,1,8,0:0:0:0:
191,298,223634,1,8,0:0:0:0:
162,279,223705,1,0,0:0:0:0:
141,251,223776,1,0,0:0:0:0:
136,217,223848,1,0,0:0:0:0:
154,194,223919,5,0,0:0:0:0:
182,216,223991,1,0,0:0:0:0:
215,228,224062,1,0,0:0:0:0:
249,227,224134,1,0,0:0:0:0:
281,212,224205,1,0,0:0:0:0:
304,186,224276,1,0,0:0:0:0:
316,154,224348,1,0,0:0:0:0:
316,119,224419,1,0,0:0:0:0:
306,85,224491,6,0,B|221:84|181:156|221:236|301:236|301:236|197:284|197:284|173:244|133:236|93:244|69:284|69:284|61:268|45:236|69:212|93:188|93:188,1,630.000024032594,12|0,0:0|0:0,0:0:0:0:
256,192,226490,12,0,228776,0:0:0:0:
256,192,241633,12,0,244633,0:0:0:0:
336,40,244777,5,8,0:0:0:0:
192,328,245062,1,8,0:0:0:0:
256,192,245348,12,0,246777,0:0:0:0:
40,24,247062,6,0,B|96:128|152:128|192:160|200:208|192:360|192:360,1,367.500014019013
192,336,248205,5,8,0:0:0:0:
384,120,248491,1,8,0:0:0:0:
384,120,248777,5,0,0:0:0:0:
256,48,248884,1,0,0:0:0:0:
344,288,249027,2,0,P|288:288|240:256,1,105.000004005432
168,176,249598,5,0,0:0:0:0:
0,207,249777,1,0,0:0:0:0:
120,320,249884,1,0,0:0:0:0:
112,104,250027,1,0,0:0:0:0:
136,80,250098,1,0,0:0:0:0:
160,64,250169,2,0,P|192:64|219:55,2,52.5000020027161
14,103,250634,1,0,0:0:0:0:
206,143,250777,1,0,0:0:0:0:
93,286,250919,1,0,0:0:0:0:
256,352,251027,5,0,0:0:0:0:
264,328,251098,1,0,0:0:0:0:
272,304,251169,1,0,0:0:0:0:
280,280,251241,1,0,0:0:0:0:
288,256,251312,1,0,0:0:0:0:
312,112,251455,1,0,0:0:0:0:
136,56,251598,1,0,0:0:0:0:
176,216,251741,1,0,0:0:0:0:
225,84,251884,6,0,L|248:24,2,52.5000020027161
192,208,252491,1,0,0:0:0:0:
192,208,252598,1,0,0:0:0:0:
304,144,252741,2,0,L|362:105,2,59.5000011348725
344,344,253312,2,0,L|304:288,1,59.5000011348725
256,192,253634,6,0,P|205:201|144:240,1,122.5
112,328,253919,2,0,B|181:327|194:319|263:296,1,140,0|2,0:0|0:0,0:0:0:0:
432,192,254491,6,0,L|352:240,1,78.7500030040742
288,176,254777,2,0,L|176:240,1,105
144,160,255062,2,0,L|16:224,1,131.25
0,116,255348,6,0,B|42:4|189:36,1,210.000008010865,10|0,0:0|0:0,0:0:0:0:
249,90,255919,2,0,P|219:46|153:35,1,105
24,145,256206,6,0,P|8:217|59:293,1,157.500006008148,12|0,0:0|0:0,0:0:0:0:
108,353,256491,1,0,0:0:0:0:
328,100,256776,2,0,L|400:120,1,45.4999979171754
256,336,257062,2,0,B|235:312|224:288|224:256|240:232|261:218|304:192|304:192|256:200|224:184|208:152|220:92,1,318.499985420228,10|0,0:0|0:0,0:0:0:0:
203,50,257633,2,0,P|155:46|103:71,1,83.9999974365235,8|0,0:0|0:0,0:0:0:0:
16,128,257919,5,4,0:0:0:0:
108,224,258205,1,0,0:0:0:0:
152,347,258490,1,0,0:0:0:0:
152,347,258776,6,0,P|82:304|61:220,1,157.500006008148,10|0,0:0|0:0,0:0:0:0:
62,191,259062,2,0,B|137:199|150:121,1,105
168,103,259347,2,0,B|234:47|303:121,1,125.999996154785
326,119,259633,5,8,0:0:0:0:
191,203,259919,1,0,0:0:0:0:
68,280,260205,1,0,0:0:0:0:
68,280,260491,2,0,B|240:272|240:272,1,167.999994873047,8|0,0:0|0:0,0:0:0:0:
256,272,261062,1,0,0:0:0:0:
384,176,261347,5,4,0:0:0:0:
232,104,261491,5,0,0:0:0:0:
232,272,261634,5,0,0:0:0:0:
384,176,261777,5,0,0:0:0:0:
232,104,261919,5,0,0:0:0:0:
376,16,262062,5,0,0:0:0:0:
496,72,262204,6,0,P|497:157|446:218,1,136.499993751526,10|0,0:0|0:0,0:0:0:0:
438,234,262490,1,8,0:0:0:0:
285,211,262776,1,8,0:0:0:0:
376,360,263062,6,0,P|436:316|456:264,2,90.9999958343508,10|0|8,0:0|0:0|0:0,0:0:0:0:
304,248,263490,1,0,0:0:0:0:
120,344,263633,1,8,0:0:0:0:
368,360,263919,6,0,P|416:336|448:304,2,90.9999958343508,10|0|4,0:0|0:0|0:0,0:0:0:0:
288,192,264348,1,0,0:0:0:0:
64,344,264491,1,8,0:0:0:0:
112,152,264777,6,0,L|136:40,2,105.000004005432,10|0|4,0:0|0:0|0:0,0:0:0:0:
88,280,265205,1,0,0:0:0:0:
376,216,265347,1,8,0:0:0:0:
248,120,265633,5,10,0:0:0:0:
248,240,265776,1,0,0:0:0:0:
320,56,265919,1,8,0:0:0:0:
312,296,266061,1,0,0:0:0:0:
168,16,266204,1,8,0:0:0:0:
168,336,266490,5,10,0:0:0:0:
352,152,266633,1,0,0:0:0:0:
168,152,266776,1,8,0:0:0:0:
352,336,266918,1,0,0:0:0:0:
256,232,267061,1,8,0:0:0:0:
368,304,267347,5,10,0:0:0:0:
144,0,267490,1,0,0:0:0:0:
96,272,267633,1,8,0:0:0:0:
416,16,267776,1,0,0:0:0:0:
264,152,267918,1,8,0:0:0:0:
203,209,268204,5,10,0:0:0:0:
322,75,268347,1,0,0:0:0:0:
435,211,268490,1,8,0:0:0:0:
256,0,268633,1,0,0:0:0:0:
48,200,268776,1,8,0:0:0:0:
440,16,269061,5,10,0:0:0:0:
440,16,269252,5,8,0:0:0:0:
454,60,269352,1,8,0:0:0:0:
470,102,269452,1,8,0:0:0:0:
392,170,269552,5,8,0:0:0:0:
404,211,269652,1,8,0:0:0:0:
422,253,269752,1,8,0:0:0:0:
397,340,269852,5,8,0:0:0:0:
327,304,269952,1,8,0:0:0:0:
289,235,270052,1,8,0:0:0:0:
275,157,270152,5,4,0:0:0:0:
238,75,270251,1,4,0:0:0:0:
148,74,270351,1,4,0:0:0:0:
113,156,270452,1,4,0:0:0:0:
189,202,270551,1,4,0:0:0:0:
271,238,270652,6,0,L|412:307,1,112,10|0,0:0|0:0,0:0:0:0:
472,336,270852,1,8,0:0:0:0:
368,368,270952,2,0,L|272:320,1,105.000004005432,0|8,0:0|0:0,0:0:0:0:
176,272,271152,1,0,0:0:0:0:
144,176,271252,1,8,0:0:0:0:
40,168,271352,1,0,0:0:0:0:
40,168,271452,2,0,P|72:112|120:80,1,105.000004005432,8|0,0:0|0:0,0:0:0:0:
192,32,271652,1,8,0:0:0:0:
176,136,271752,2,0,P|224:160|288:136,1,105.000004005432,0|8,0:0|0:0,0:0:0:0:
304,48,271952,2,0,L|368:152,1,105.000004005432,0|8,0:0|0:0,0:0:0:0:
408,224,272152,1,0,0:0:0:0:
408,224,272252,6,14,B|322:300,1,112,14|0,0:0|0:0,0:0:0:0:
232,360,272452,1,8,0:0:0:0:
208,256,272552,1,0,0:0:0:0:
304,216,272652,2,0,B|288:152|224:152,1,105.000004005432,8|0,0:0|0:0,0:0:0:0:
128,152,272852,1,8,0:0:0:0:
128,152,272952,1,0,0:0:0:0:
128,152,273052,6,0,L|152:280,1,105.000004005432,8|0,0:0|0:0,0:0:0:0:
312,384,273252,2,0,B|288:248,1,105.000004005432,8|0,0:0|0:0,0:0:0:0:
216,88,273452,2,0,L|240:216,1,105.000004005432,8|0,0:0|0:0,0:0:0:0:
256,344,273652,1,8,0:0:0:0:
256,344,273852,6,8,B|312:248|312:248,1,105.000004005432,12|0,0:0|0:0,0:0:0:0:
344,176,274052,1,8,0:0:0:0:
309,78,274152,1,0,0:0:0:0:
223,22,274252,1,8,0:0:0:0:
120,30,274352,1,0,0:0:0:0:
43,99,274452,1,8,0:0:0:0:
24,200,274552,1,0,0:0:0:0:
71,292,274652,1,8,0:0:0:0:
164,337,274752,1,0,0:0:0:0:
265,316,274852,5,8,0:0:0:0:
241,219,274952,1,0,0:0:0:0:
317,154,275052,1,8,0:0:0:0:
409,191,275152,1,0,0:0:0:0:
418,291,275252,1,8,0:0:0:0:
333,344,275352,6,0,P|264:344|232:320,1,105.000004005432,4|4,0:0|0:0,0:0:0:0:
120,272,275552,2,0,B|136:200|216:208,1,105.000004005432,4|4,0:0|0:0,0:0:0:0:
328,128,275752,2,4,B|368:176|336:232,1,105.000004005432
64,72,275952,2,4,P|80:120|152:144,1,105.000004005432
464,240,276152,2,4,P|440:296|392:304,1,105.000004005432
64,304,276352,2,4,P|64:248|104:208,1,105.000004005432
464,112,276552,2,4,P|440:56|392:40,1,105.000004005432
104,32,276752,2,4,P|56:64|48:120,1,105.000004005432,4|12,0:0|0:0,0:0:0:0:
48,224,276952,5,8,0:0:0:0:
191,287,277068,6,0,P|215:327|260:352,1,94.499997116089,14|0,0:0|0:0,0:0:0:0:
256,352,277266,2,0,L|384:216,1,168,2|0,0:0|0:0,0:0:0:0:
391,135,277465,2,0,P|335:119|327:63,1,94.499997116089,14|0,0:0|0:0,0:0:0:0:
322,89,277664,2,0,L|170:193,1,168,14|0,0:0|0:0,0:0:0:0:
96,224,277862,2,0,P|104:256|160:280,1,94.499997116089,2|0,0:0|0:0,0:0:0:0:
156,280,278061,2,0,L|296:184,1,168,14|0,0:0|0:0,0:0:0:0:
344,272,278260,2,0,P|320:328|272:352,1,94.499997116089,2|0,0:0|0:0,0:0:0:0:
293,345,278458,2,0,L|165:225,1,168,14|0,0:0|0:0,0:0:0:0:
96,176,278657,2,0,P|88:128|144:104,1,94.499997116089,14|0,0:0|0:0,0:0:0:0:
120,102,278856,2,0,L|120:270,1,168,2|0,0:0|0:0,0:0:0:0:
208,248,279054,2,0,P|232:200|288:208,1,94.499997116089,14|0,0:0|0:0,0:0:0:0:
268,196,279253,2,0,L|412:84,1,168,2|0,0:0|0:0,0:0:0:0:
280,64,279452,2,0,L|152:56,1,125.999996154785,14|0,0:0|0:0,0:0:0:0:
64,144,279650,2,0,L|208:160,1,125.999996154785,2|0,0:0|0:0,0:0:0:0:
312,176,279849,2,0,L|304:312,1,125.999996154785,14|0,0:0|0:0,0:0:0:0:
176,344,280048,2,0,L|184:192,1,125.999996154785,14|0,0:0|0:0,0:0:0:0:
192,72,280246,6,0,B|232:72|232:72|256:72|256:72|272:56|272:56|288:72|288:72|304:88|304:88|320:72|320:72|392:72|392:72,1,209.999993591309,14|2,0:0|0:0,0:0:0:0:
464,128,280544,2,0,B|448:144|408:160|376:160,1,90.9999958343508,0|8,0:0|0:0,0:0:0:0:
288,168,280743,1,8,0:0:0:0:
200,176,280842,1,8,0:0:0:0:
72,344,281041,6,4,L|205:320,1,90.9999958343508
400,288,281240,2,4,L|504:264,2,90.9999958343508
161,327,281629,1,4,0:0:0:0:
400,64,281850,5,6,0:0:0:0:
512,373,282050,1,2,0:0:0:0:
262,0,282250,1,2,0:0:0:0:
0,319,282450,1,2,0:0:0:0:
512,116,282650,1,2,0:0:0:0:
259,382,282850,1,2,0:0:0:0:
0,0,283050,1,2,0:0:0:0:
72,168,283250,5,0,0:0:0:0:
144,256,283350,1,0,0:0:0:0:
72,168,283450,2,0,B|100:112|148:96|148:96,1,90.9999958343508,2|0,0:0|0:0,0:0:0:0:
232,56,283650,1,0,0:0:0:0:
328,8,283750,1,0,0:0:0:0:
328,120,283850,1,0,0:0:0:0:
328,232,283950,1,0,0:0:0:0:
328,344,284050,6,0,B|356:296|408:280,1,90.9999958343508,2|0,0:0|0:0,0:0:0:0:
496,248,284250,1,0,0:0:0:0:
392,208,284350,1,0,0:0:0:0:
336,112,284450,1,0,0:0:0:0:
232,72,284550,1,0,0:0:0:0:
128,32,284650,6,0,B|80:56|96:128,1,90.9999958343508,2|0,0:0|0:0,0:0:0:0:
120,216,284850,1,0,0:0:0:0:
176,312,284950,1,0,0:0:0:0:
200,208,285050,1,0,0:0:0:0:
128,120,285150,1,0,0:0:0:0:
48,40,285250,2,0,P|96:16|160:16,1,90.9999958343508,2|0,0:0|0:0,0:0:0:0:
240,16,285450,1,0,0:0:0:0:
336,64,285550,1,0,0:0:0:0:
432,16,285650,1,0,0:0:0:0:
432,16,285750,6,0,L|431:112,1,90.9999958343508,2|0,0:0|0:0,0:0:0:0:
216,104,285950,2,0,L|216:-18,1,90.9999958343508,2|0,0:0|0:0,0:0:0:0:
376,144,286150,2,0,L|376:263,1,90.9999958343508,2|0,0:0|0:0,0:0:0:0:
224,384,286350,2,0,L|223:269,1,90.9999958343508,2|0,0:0|0:0,0:0:0:0:
216,160,286550,6,0,B|216:200|216:240|184:264|152:280|152:280|104:320,1,181.999991668702
58,339,286850,1,8,0:0:0:0:
59,255,286949,1,4,0:0:0:0:
59,173,287049,1,4,0:0:0:0:
59,91,287149,1,4,0:0:0:0:
58,8,287250,2,4,B|83:38|119:10|119:10|139:11|139:11|154:11,1,90.9999958343508
323,20,287450,5,4,0:0:0:0:
265,78,287550,1,4,0:0:0:0:
204,133,287650,1,4,0:0:0:0:
147,193,287751,2,4,B|136:231|101:251|101:251|111:294,1,90.9999958343508
263,346,287950,5,4,0:0:0:0:
344,338,288050,1,4,0:0:0:0:
407,285,288150,1,4,0:0:0:0:
443,209,288251,2,4,B|417:166|417:166|430:136|423:96,1,90.9999958343508
306,9,288450,5,4,0:0:0:0:
251,70,288550,1,4,0:0:0:0:
287,143,288650,1,4,0:0:0:0:
240,211,288751,2,4,B|199:236|199:236|214:271|192:294,1,90.9999958343508
176,142,288950,2,0,B|181:109|181:109|135:108|117:54,1,90.9999958343508,4|4,0:0|0:0,0:0:0:0:
0,79,289150,5,4,0:0:0:0:
28,174,289250,1,12,0:0:0:0:
91,251,289350,1,12,0:0:0:0:
176,302,289450,1,12,0:0:0:0:
272,330,289550,1,12,0:0:0:0:
371,316,289650,2,0,L|291:235,1,90.9999958343508,14|0,0:0|0:0,0:0:0:0:
256,192,289850,12,0,290750,0:0:0:0:
220,208,290850,6,2,B|208:152|208:117|232:80|280:48,1,181.999991668702
360,32,291150,1,2,0:0:0:0:
426,91,291250,1,2,0:0:0:0:
447,178,291350,1,2,0:0:0:0:
413,261,291450,1,2,0:0:0:0:
345,320,291550,1,2,0:0:0:0:
258,318,291650,1,2,0:0:0:0:
187,263,291750,1,2,0:0:0:0:
98,250,291850,1,2,0:0:0:0:
47,179,291950,1,2,0:0:0:0:
67,92,292050,1,2,0:0:0:0:
139,40,292150,1,2,0:0:0:0:
229,28,292250,1,2,0:0:0:0:
316,53,292350,1,2,0:0:0:0:
386,110,292450,1,2,0:0:0:0:
406,199,292550,1,2,0:0:0:0:
348,253,292650,1,2,0:0:0:0:
261,229,292750,1,2,0:0:0:0:
172,235,292850,1,2,0:0:0:0:
92,277,292950,1,2,0:0:0:0:
14,243,293050,1,2,0:0:0:0:
24,159,293150,1,2,0:0:0:0:
96,200,293250,6,8,P|128:160|184:128,1,90.9999958343508,8|0,0:0|0:0,0:0:0:0:
336,80,293450,1,0,0:0:0:0:
312,0,293550,2,0,P|280:16|248:72,1,90.9999958343508,8|0,0:0|0:0,0:0:0:0:
280,240,293750,1,0,0:0:0:0:
296,328,293850,2,0,P|262:328|200:280,1,90.9999958343508,8|0,0:0|0:0,0:0:0:0:
64,192,294050,1,0,0:0:0:0:
16,120,294150,2,0,P|64:106|136:138,1,90.9999958343508,8|0,0:0|0:0,0:0:0:0:
272,192,294350,5,0,0:0:0:0:
232,112,294450,2,0,P|192:152|184:208,1,90.9999958343508,8|0,0:0|0:0,0:0:0:0:
192,368,294650,1,0,0:0:0:0:
136,312,294750,2,0,P|176:288|240:304,1,90.9999958343508,8|0,0:0|0:0,0:0:0:0:
392,360,294950,1,0,0:0:0:0:
304,352,295050,2,0,P|320:304|360:280,1,90.9999958343508,8|0,0:0|0:0,0:0:0:0:
512,192,295251,1,0,0:0:0:0:
464,96,295351,2,0,P|431:119|368:96,1,90.9999958343508,8|0,0:0|0:0,0:0:0:0:
256,48,295550,1,0,0:0:0:0:
312,176,295650,6,2,P|296:216|248:240,1,70,2|2,0:0|0:0,0:0:0:0:
136,216,295850,2,2,P|103:269|80:281,1,70,2|2,0:0|0:0,0:0:0:0:
0,56,296050,2,2,P|80:112|80:112,1,70,2|2,0:0|0:0,0:0:0:0:
304,120,296250,2,2,P|229:71|229:71,1,70,2|2,0:0|0:0,0:0:0:0:
96,216,296450,6,2,P|24:168|24:168,1,70,2|2,0:0|0:0,0:0:0:0:
352,240,296650,2,2,P|420:288|420:288,1,70,2|2,0:0|0:0,0:0:0:0:
136,328,296850,2,2,P|60:394|60:394,1,70,2|2,0:0|0:0,0:0:0:0:
200,64,297050,2,2,P|264:-8|264:-8,1,70,2|2,0:0|0:0,0:0:0:0:
72,256,297250,2,2,P|-4:243|-4:243,1,70,2|2,0:0|0:0,0:0:0:0:
424,152,297450,2,2,L|519:171,1,70,2|2,0:0|0:0,0:0:0:0:
231,147,297650,5,2,0:0:0:0:
223,209,297750,1,2,0:0:0:0:
247,263,297850,1,2,0:0:0:0:
306,291,297950,1,2,0:0:0:0:
367,286,298050,6,0,P|411:258|430:217,1,70,8|2,0:0|0:0,0:0:0:0:
456,168,298250,1,2,0:0:0:0:
472,101,298350,1,2,0:0:0:0:
438,41,298450,1,2,0:0:0:0:
373,20,298550,1,2,0:0:0:0:
311,49,298650,2,0,P|280:80|224:96,1,70,8|2,0:0|0:0,0:0:0:0:
160,16,298850,1,2,0:0:0:0:
160,79,298950,1,2,0:0:0:0:
160,142,299050,1,2,0:0:0:0:
160,205,299150,1,2,0:0:0:0:
160,272,299250,2,0,L|160:360,1,62.9999980773926,8|2,0:0|0:0,0:0:0:0:
248,336,299450,1,2,0:0:0:0:
300,335,299550,1,2,0:0:0:0:
352,335,299650,1,2,0:0:0:0:
405,334,299750,1,2,0:0:0:0:
457,326,299850,1,2,0:0:0:0:
492,291,299950,1,2,0:0:0:0:
501,239,300050,1,2,0:0:0:0:
503,187,300150,1,2,0:0:0:0:
503,134,300250,1,2,0:0:0:0:
503,82,300350,1,2,0:0:0:0:
504,29,300450,1,2,0:0:0:0:
424,48,300550,6,0,L|336:160,1,119.000002269745,10|0,0:0|0:0,0:0:0:0:
296,224,300750,1,10,0:0:0:0:
216,272,300850,1,0,0:0:0:0:
120,288,300950,2,0,P|24:272|0:248,1,119.000002269745,10|0,0:0|0:0,0:0:0:0:
0,168,301150,1,10,0:0:0:0:
80,216,301250,1,0,0:0:0:0:
176,240,301350,2,0,P|256:248|312:224,1,119.000002269745,10|0,0:0|0:0,0:0:0:0:
384,200,301550,5,10,0:0:0:0:
328,128,301650,1,0,0:0:0:0:
240,80,301750,2,0,P|176:56|128:64,1,119.000002269745,10|0,0:0|0:0,0:0:0:0:
72,144,301950,1,10,0:0:0:0:
152,200,302050,1,0,0:0:0:0:
240,248,302150,2,0,P|320:280|384:288,1,119.000002269745,10|0,0:0|0:0,0:0:0:0:
448,304,302350,1,10,0:0:0:0:
384,232,302450,1,0,0:0:0:0:
304,176,302550,2,0,P|216:152|184:152,1,119.000002269745,10|0,0:0|0:0,0:0:0:0:
96,168,302750,1,10,0:0:0:0:
80,72,302850,1,0,0:0:0:0:
176,96,302950,1,10,0:0:0:0:
176,96,303050,6,0,L|184:168,1,52.5000020027161,2|2,0:0|0:0,0:0:0:0:
184,208,303250,1,2,0:0:0:0:
288,200,303350,2,2,B|328:184|368:200,1,70
184,208,303550,1,2,0:0:0:0:
288,272,303650,2,2,B|328:256|360:272,1,70
192,304,303850,1,2,0:0:0:0:
288,352,303950,2,2,P|328:336|368:352,1,70
432,272,304150,6,2,P|464:248|472:208,1,70
376,176,304350,2,2,P|352:192|336:232,1,70
472,160,304550,2,0,P|464:120|440:88,1,70,2|2,0:0|0:0,0:0:0:0:
394,34,304750,1,2,0:0:0:0:
256,16,304850,1,2,0:0:0:0:
304,152,304950,1,2,0:0:0:0:
376,112,305050,5,2,0:0:0:0:
232,96,305150,1,2,0:0:0:0:
176,224,305250,1,2,0:0:0:0:
240,352,305350,6,2,L|336:376,1,70
448,344,305550,2,2,L|352:312,1,70
240,280,305750,2,2,L|304:248,1,70
456,160,305950,2,2,L|376:208,1,70
176,224,306150,2,2,L|260:178,1,70
456,72,306350,2,2,L|392:112,1,70
306,123,306550,6,8,L|391:167,1,70
451,270,306750,2,8,L|379:232,1,70
132,153,306950,2,8,L|202:190,1,70
272,224,307150,5,12,0:0:0:0:
224,304,307250,1,8,0:0:0:0:
160,368,307350,1,12,0:0:0:0:
96,304,307450,1,8,0:0:0:0:
32,240,307550,1,12,0:0:0:0:
101,181,307650,5,12,0:0:0:0:
173,126,307750,1,12,0:0:0:0:
244,70,307850,1,12,0:0:0:0:
315,12,307950,2,0,L|392:51,1,70,12|0,0:0|0:0,0:0:0:0:
453,81,308150,1,4,0:0:0:0:
310,138,308250,6,0,L|382:178,1,70,12|0,0:0|0:0,0:0:0:0:
463,215,308450,1,4,0:0:0:0:
299,266,308550,2,0,L|371:306,1,70,12|0,0:0|0:0,0:0:0:0:
475,360,308750,1,4,0:0:0:0:
238,360,308850,2,0,L|157:319,1,70,12|0,0:0|0:0,0:0:0:0:
87,288,309049,5,12,0:0:0:0:
8,227,309150,1,0,0:0:0:0:
5,129,309250,1,12,0:0:0:0:
59,49,309349,1,12,0:0:0:0:
157,53,309450,1,12,0:0:0:0:
167,146,309550,5,12,0:0:0:0:
263,106,309649,1,12,0:0:0:0:
343,175,309750,1,12,0:0:0:0:
305,273,309850,1,12,0:0:0:0:
201,281,309950,1,12,0:0:0:0:
166,181,310050,1,12,0:0:0:0:
256,192,310123,12,0,312623,0:0:0:0:
206,165,319264,6,0,P|225:137|296:104,1,105
376,40,319764,2,0,P|393:78|388:111,1,52.5000020027161
281,238,320050,2,0,P|299:209|321:193,1,52.5000020027161
501,237,320335,2,0,P|479:206|450:189,1,52.5000020027161
394,175,321192,6,0,L|386:219,2,26.2500010013581
350,285,321478,2,0,P|314:318|248:340,1,105.000004005432
169,343,322050,1,0,0:0:0:0:
280,200,322335,1,0,0:0:0:0:
280,200,322907,5,0,0:0:0:0:
376,88,323192,1,0,0:0:0:0:
244,48,323478,1,0,0:0:0:0:
248,48,323764,2,0,B|216:68|204:84|168:92|160:104,1,105.000004005432
88,216,324335,2,0,B|88:260|68:268|68:296|84:316|84:320,1,105.000004005432
216,344,325193,5,0,0:0:0:0:
360,280,325478,1,0,0:0:0:0:
224,216,325764,1,0,0:0:0:0:
376,160,326050,2,0,B|362:115|390:94|379:54,1,105.000004005432
224,216,326621,1,0,0:0:0:0:
124,306,326907,1,0,0:0:0:0:
60,173,327192,2,0,B|44:149|40:77|28:69,1,105.000004005432
120,40,328050,5,0,0:0:0:0:
247,99,328192,1,0,0:0:0:0:
249,240,328335,1,0,0:0:0:0:
249,240,329478,5,6,0:0:0:0:
160,168,329907,1,0,0:0:0:0:
253,246,330335,2,0,L|317:210,1,52.5000020027161
359,184,330622,2,0,B|399:156|431:144|463:36,1,183.750007009506
464,8,331192,5,0,0:0:0:0:
356,72,331478,2,0,B|308:64|296:52|276:28|236:36,1,105.000004005432
120,25,332050,5,0,0:0:0:0:
240,168,332335,1,0,0:0:0:0:
16,96,332621,1,0,0:0:0:0:
191,81,332907,2,0,B|165:108|153:148|129:176,1,105.000004005432
72,288,333478,1,0,0:0:0:0:
72,288,333764,2,0,B|104:328|132:344|167:343,1,105.000004005432
264,328,334621,2,0,L|324:296,1,52.5000020027161
440,232,334907,2,0,B|432:200|454:164|432:120,2,105.000004005432
440,344,335764,1,0,0:0:0:0:
344,336,336050,6,0,B|272:336|256:320|224:320,1,105
166,295,336335,2,0,B|114:296|114:296|80:312|80:312|8:310,2,157.500006008148
304,264,337478,6,0,P|440:144|288:16,1,420,8|4,0:0|0:0,0:0:0:0:
238,22,338621,2,0,P|160:155|225:246,1,280,8|4,0:0|0:0,0:0:0:0:
268,275,339478,6,0,B|197:218|258:232|125:338|85:162,1,210.000008010865,4|4,0:0|0:0,0:0:0:0:
288,104,339907,1,0,0:0:0:0:
88,48,340050,1,4,0:0:0:0:
256,176,340192,1,0,0:0:0:0:
88,304,340335,1,0,0:0:0:0:
263,345,340478,2,0,P|306:338|368:294,1,105.000004005432,0|4,0:0|0:0,0:0:0:0:
448,179,340764,1,8,0:0:0:0:
375,48,340907,21,0,0:0:0:0:
357,48,340978,1,0,0:0:0:0:
340,48,341049,1,0,0:0:0:0:
322,48,341121,1,0,0:0:0:0:
305,48,341192,1,0,0:0:0:0:
287,48,341264,1,0,0:0:0:0:
270,48,341335,1,0,0:0:0:0:
252,48,341407,1,0,0:0:0:0:
240,48,341478,2,2,B|207:46|207:46|201:33|201:33|192:46|192:46|188:33|188:33|179:47|179:47|173:33|173:33|165:47|165:47|161:33|161:33|154:47|154:47|122:27|38:40,1,251.999992309571
11,43,341907,1,0,0:0:0:0:
309,262,342050,6,2,P|238:272|157:221,1,157.500006008148
136,200,342335,2,0,P|56:200|0:264,1,157.500006008148,2|0,0:0|0:0,0:0:0:0:
192,208,342621,2,0,P|248:152|264:72,1,157.500006008148,2|0,0:0|0:0,0:0:0:0:
160,248,342907,2,0,P|188:308|288:336,1,157.500006008148,2|0,0:0|0:0,0:0:0:0:
328,272,343192,6,0,P|400:264|464:192,1,157.500006008148,2|0,0:0|0:0,0:0:0:0:
448,112,343478,2,0,P|392:64|304:72,1,157.500006008148,2|0,0:0|0:0,0:0:0:0:
248,144,343764,2,0,P|256:208|320:272,1,157.500006008148,2|0,0:0|0:0,0:0:0:0:
336,152,344050,2,0,P|400:144|416:248,1,157.500006008148,2|0,0:0|0:0,0:0:0:0:
422,272,344335,5,8,0:0:0:0:
385,309,344406,1,8,0:0:0:0:
340,336,344477,1,8,0:0:0:0:
290,350,344549,1,8,0:0:0:0:
237,350,344620,1,8,0:0:0:0:
187,337,344692,1,8,0:0:0:0:
141,311,344763,1,8,0:0:0:0:
104,274,344835,1,8,0:0:0:0:
78,229,344906,1,8,0:0:0:0:
65,178,344977,1,8,0:0:0:0:
65,126,345049,1,8,0:0:0:0:
79,75,345120,1,8,0:0:0:0:
106,30,345192,6,0,P|158:91|158:138,1,105
179,216,345478,6,0,P|218:271|269:292,1,105
343,317,345764,6,0,P|405:307|444:271,1,105
504,204,346051,6,0,B|480:152|480:152|440:128|440:128|424:104|424:104|424:104,1,122.5,8|0,0:0|0:0,0:0:0:0:
400,24,346622,6,0,P|353:66|344:117,1,105.000004005432
360,312,346907,1,4,0:0:0:0:
184,192,347050,1,0,0:0:0:0:
192,328,347192,2,0,P|248:296|280:248,1,105.000004005432,4|0,0:0|0:0,0:0:0:0:
456,160,347478,5,4,0:0:0:0:
264,72,347621,1,0,0:0:0:0:
312,208,347764,2,0,P|336:160|336:96,1,105.000004005432,4|0,0:0|0:0,0:0:0:0:
232,32,348050,5,4,0:0:0:0:
432,104,348192,1,0,0:0:0:0:
280,272,348335,1,4,0:0:0:0:
224,48,348478,1,0,0:0:0:0:
64,200,348621,1,4,0:0:0:0:
280,272,348764,1,0,0:0:0:0:
160,304,348907,6,0,P|104:288|72:232,1,105.000004005432,4|0,0:0|0:0,0:0:0:0:
16,176,349192,1,4,0:0:0:0:
224,192,349335,1,0,0:0:0:0:
56,320,349478,1,4,0:0:0:0:
144,128,349621,1,0,0:0:0:0:
328,232,349764,1,4,0:0:0:0:
136,312,349907,1,0,0:0:0:0:
216,104,350050,6,0,P|260:48|315:21,1,105.000004005432,4|0,0:0|0:0,0:0:0:0:
472,24,350335,1,6,0:0:0:0:
469,203,350478,1,6,0:0:0:0:
305,108,350621,1,6,0:0:0:0:
472,24,350764,1,2,0:0:0:0:
418,161,350907,5,8,0:0:0:0:
386,202,350978,1,8,0:0:0:0:
354,244,351049,1,8,0:0:0:0:
322,286,351121,1,8,0:0:0:0:
293,328,351192,2,0,B|240:328|240:328|223:348|181:326,1,105.000004005432,8|0,0:0|0:0,0:0:0:0:
0,231,351478,1,4,0:0:0:0:
160,96,351621,1,0,0:0:0:0:
96,298,351764,2,0,P|147:329|212:349,1,105.000004005432,4|4,0:0|0:0,0:0:0:0:
288,368,352050,5,6,0:0:0:0:
240,224,352192,1,0,0:0:0:0:
240,336,352335,1,6,0:0:0:0:
288,160,352478,1,0,0:0:0:0:
288,304,352621,1,6,0:0:0:0:
240,112,352764,1,0,0:0:0:0:
240,272,352907,1,6,0:0:0:0:
288,64,353050,1,0,0:0:0:0:
288,240,353192,1,6,0:0:0:0:
240,16,353335,1,0,0:0:0:0:
15,218,353479,5,8,0:0:0:0:
27,269,353550,1,8,0:0:0:0:
60,309,353621,1,8,0:0:0:0:
105,336,353693,1,8,0:0:0:0:
155,351,353764,1,8,0:0:0:0:
207,360,353836,1,8,0:0:0:0:
260,361,353907,1,8,0:0:0:0:
312,354,353979,1,8,0:0:0:0:
359,333,354050,1,8,0:0:0:0:
396,296,354121,1,8,0:0:0:0:
417,248,354193,1,8,0:0:0:0:
430,197,354264,1,8,0:0:0:0:
435,144,354335,5,8,0:0:0:0:
399,144,354407,1,8,0:0:0:0:
364,145,354478,1,8,0:0:0:0:
328,147,354550,1,8,0:0:0:0:
176,152,354621,6,8,P|147:152|92:199,1,70
77,206,354764,1,10,0:0:0:0:
52,248,354835,1,8,0:0:0:0:
49,297,354907,1,10,0:0:0:0:
68,341,354978,1,8,0:0:0:0:
105,373,355050,1,10,0:0:0:0:
152,381,355121,1,8,0:0:0:0:
328,363,355192,6,8,P|315:326|283:281,1,70
271,258,355335,1,10,0:0:0:0:
236,223,355407,1,8,0:0:0:0:
200,189,355478,1,10,0:0:0:0:
159,161,355550,1,8,0:0:0:0:
114,141,355621,1,10,0:0:0:0:
66,128,355692,1,8,0:0:0:0:
19,112,355764,2,0,B|96:107|167:31|230:49,1,210,4|0,0:0|0:0,0:0:0:0:
316,65,356050,5,4,0:0:0:0:
287,108,356121,1,0,0:0:0:0:
254,148,356192,1,4,0:0:0:0:
219,188,356264,1,0,0:0:0:0:
194,234,356335,1,4,0:0:0:0:
194,286,356407,1,0,0:0:0:0:
223,328,356478,1,4,0:0:0:0:
269,353,356550,1,0,0:0:0:0:
321,357,356621,5,4,0:0:0:0:
355,317,356692,1,0,0:0:0:0:
390,277,356764,1,4,0:0:0:0:
423,236,356835,1,0,0:0:0:0:
452,191,356907,5,12,0:0:0:0:
403,209,356978,1,0,0:0:0:0:
353,190,357050,1,4,0:0:0:0:
328,144,357121,1,0,0:0:0:0:
309,95,357192,1,4,0:0:0:0:
270,58,357264,1,0,0:0:0:0:
218,44,357336,1,4,0:0:0:0:
166,53,357407,1,0,0:0:0:0:
118,74,357478,5,4,0:0:0:0:
118,100,357549,1,0,0:0:0:0:
119,126,357620,1,4,0:0:0:0:
119,152,357692,1,0,0:0:0:0:
119,178,357764,5,4,0:0:0:0:
120,214,357835,1,0,0:0:0:0:
121,251,357907,1,4,0:0:0:0:
122,287,357978,1,0,0:0:0:0:
122,324,358050,5,12,0:0:0:0:
184,320,358121,1,0,0:0:0:0:
239,291,358192,1,4,0:0:0:0:
275,239,358264,1,0,0:0:0:0:
284,177,358335,1,4,0:0:0:0:
259,118,358407,1,0,0:0:0:0:
200,94,358478,1,4,0:0:0:0:
139,112,358550,1,0,0:0:0:0:
115,170,358621,1,4,0:0:0:0:
141,226,358692,1,0,0:0:0:0:
199,251,358764,1,4,0:0:0:0:
255,224,358835,1,0,0:0:0:0:
304,184,358907,1,4,0:0:0:0:
348,140,358978,1,0,0:0:0:0:
390,92,359050,1,4,0:0:0:0:
433,47,359121,1,0,0:0:0:0:
481,6,359192,5,12,0:0:0:0:
491,57,359263,1,0,0:0:0:0:
490,109,359334,1,4,0:0:0:0:
478,160,359406,1,0,0:0:0:0:
454,207,359477,1,4,0:0:0:0:
421,247,359549,1,0,0:0:0:0:
379,279,359620,1,4,0:0:0:0:
331,301,359692,1,0,0:0:0:0:
280,311,359763,1,4,0:0:0:0:
228,310,359834,1,0,0:0:0:0:
177,297,359906,1,4,0:0:0:0:
130,273,359977,1,0,0:0:0:0:
78,235,360050,6,8,L|78:155,3,52.5000020027161
88,80,360335,2,0,L|224:96,1,112,4|0,0:0|0:0,0:0:0:0:
424,120,360621,1,4,0:0:0:0:
224,216,360764,1,8,0:0:0:0:
368,280,360907,1,4,0:0:0:0:
296,64,361050,1,8,0:0:0:0:
240,232,361192,2,0,P|258:302|240:352,1,112,4|8,0:0|0:0,0:0:0:0:
400,96,361478,6,0,P|368:48|324:10,1,112,4|8,0:0|0:0,0:0:0:0:
184,32,361764,1,4,0:0:0:0:
192,40,361835,1,0,0:0:0:0:
200,48,361907,1,8,0:0:0:0:
192,336,362050,5,4,0:0:0:0:
424,248,362192,1,8,0:0:0:0:
208,112,362335,1,4,0:0:0:0:
160,288,362478,1,8,0:0:0:0:
400,192,362621,1,4,0:0:0:0:
192,64,362764,1,8,0:0:0:0:
144,240,362907,1,4,0:0:0:0:
384,144,363050,1,8,0:0:0:0:
176,16,363192,1,4,0:0:0:0:
50,322,363478,6,0,P|111:343|181:320,1,122.500001168251,6|0,0:0|0:0,0:0:0:0:
432,240,363764,2,0,P|373:213|296:226,1,122.500001168251,6|0,0:0|0:0,0:0:0:0:
208,272,363978,1,2,0:0:0:0:
208,272,364050,6,0,L|264:224,1,61.2500005841255
344,152,364192,2,0,L|272:216,1,61.2500005841255
112,272,364335,2,2,L|152:208,1,47.2500001802444
272,24,364478,2,2,L|224:96,1,47.2500001802444
8,192,364621,2,2,L|80:168,1,47.2500001802444
392,64,364764,2,2,L|320:88,1,47.2500001802444
224,120,364907,6,0,P|240:184|216:256,1,115.50000352478,4|0,0:0|0:0,0:0:0:0:
160,272,365192,2,0,P|120:200|136:128,1,154.000004699707,4|4,0:0|0:0,0:0:0:0:
224,0,365764,1,4,0:0:0:0:
444,224,366050,1,4,0:0:0:0:
444,224,366335,2,0,P|446:285|392:340,1,115.50000352478,4|0,0:0|0:0,0:0:0:0:
375,307,366621,2,0,P|324:254|317:183,1,115.50000352478,4|0,0:0|0:0,0:0:0:0:
347,193,366907,2,0,P|327:137|255:97,1,115.50000352478,4|0,0:0|0:0,0:0:0:0:
262,65,367192,2,0,P|223:113|195:163,1,115.50000352478,4|0,0:0|0:0,0:0:0:0:
151,312,367478,5,4,0:0:0:0:
320,200,367764,1,4,0:0:0:0:
72,144,368050,2,0,P|140:108|184:84,1,115.50000352478,4|0,0:0|0:0,0:0:0:0:
240,56,368335,2,0,B|292:24|292:24|388:24,1,154.000004699707,12|0,0:0|0:0,0:0:0:0:
488,24,368692,6,0,L|516:68,1,38.5000011749268
368,152,368835,2,0,L|328:88,1,38.5000011749268
166,123,369192,5,4,0:0:0:0:
201,155,369264,1,0,0:0:0:0:
237,187,369335,1,0,0:0:0:0:
272,216,369407,1,0,0:0:0:0:
304,248,369478,1,4,0:0:0:0:
344,272,369550,1,0,0:0:0:0:
384,296,369621,1,0,0:0:0:0:
424,320,369692,1,0,0:0:0:0:
464,344,369764,5,4,0:0:0:0:
420,358,369835,1,0,0:0:0:0:
373,358,369907,1,0,0:0:0:0:
327,350,369978,1,0,0:0:0:0:
281,340,370050,1,4,0:0:0:0:
236,328,370121,1,0,0:0:0:0:
193,309,370192,1,0,0:0:0:0:
151,288,370264,1,0,0:0:0:0:
115,259,370335,1,4,0:0:0:0:
88,216,370407,1,0,0:0:0:0:
80,166,370478,5,8,0:0:0:0:
129,202,370550,1,0,0:0:0:0:
178,238,370621,1,4,0:0:0:0:
236,255,370692,1,0,0:0:0:0:
297,261,370764,1,0,0:0:0:0:
357,252,370835,1,0,0:0:0:0:
412,224,370907,1,4,0:0:0:0:
456,181,370978,1,0,0:0:0:0:
482,124,371050,1,0,0:0:0:0:
490,63,371121,1,0,0:0:0:0:
497,2,371192,5,4,0:0:0:0:
447,56,371264,1,0,0:0:0:0:
396,108,371335,1,0,0:0:0:0:
330,140,371407,1,0,0:0:0:0:
261,164,371478,1,4,0:0:0:0:
188,150,371550,1,0,0:0:0:0:
152,86,371621,1,0,0:0:0:0:
193,26,371692,1,0,0:0:0:0:
264,16,371764,5,8,0:0:0:0:
264,56,371835,1,0,0:0:0:0:
264,104,371907,1,0,0:0:0:0:
264,152,371978,1,0,0:0:0:0:
264,200,372050,1,0,0:0:0:0:
264,248,372121,1,0,0:0:0:0:
320,208,372192,5,8,0:0:0:0:
320,192,372264,1,0,0:0:0:0:
320,176,372335,1,0,0:0:0:0:
320,160,372407,1,0,0:0:0:0:
320,144,372478,1,0,0:0:0:0:
320,128,372550,1,0,0:0:0:0:
376,68,372621,5,8,0:0:0:0:
376,76,372692,1,0,0:0:0:0:
376,84,372764,1,0,0:0:0:0:
376,92,372835,1,0,0:0:0:0:
376,100,372907,2,0,L|376:172,1,52.5000020027161,8|0,0:0|0:0,0:0:0:0:
128,280,373192,1,2,0:0:0:0:
128,280,373478,6,0,P|128:236|224:128,1,183.750007009506,2|0,0:0|0:0,0:0:0:0:
296,144,374050,2,0,P|264:80|184:40,1,140,2|0,0:0|0:0,0:0:0:0:
80,48,374621,2,0,B|112:56|136:64|152:96|152:128|136:160|112:168|80:176|80:176|48:184|24:200|8:232|8:264|24:296|56:312|96:312|96:312,1,385
136,328,375478,5,0,0:0:0:0:
264,224,375764,1,0,0:0:0:0:
384,104,376050,1,0,0:0:0:0:
472,256,376336,2,0,B|440:256|392:264|368:224|360:184|360:184|352:152|320:120|272:120|240:136,1,280,12|0,0:0|0:0,0:0:0:0:
280,216,377192,6,0,P|280:272|232:296,2,105.000004005432,0|8|0,0:0|0:0|0:0,0:0:0:0:
112,168,377907,1,0,0:0:0:0:
112,168,378192,1,0,0:0:0:0:
280,216,378335,1,0,0:0:0:0:
112,40,378478,1,0,0:0:0:0:
136,32,378550,1,0,0:0:0:0:
160,24,378621,6,0,L|276:24,1,105,4|0,0:0|0:0,0:0:0:0:
408,28,378907,5,4,0:0:0:0:
444,204,379050,1,4,0:0:0:0:
512,101,379192,1,4,0:0:0:0:
332,127,379335,1,4,0:0:0:0:
512,248,379478,5,4,0:0:0:0:
261,56,379621,1,4,0:0:0:0:
284,286,379764,1,4,0:0:0:0:
475,35,379907,1,4,0:0:0:0:
128,64,380050,5,4,0:0:0:0:
400,320,380192,1,4,0:0:0:0:
128,320,380335,1,4,0:0:0:0:
400,64,380478,1,4,0:0:0:0:
256,320,380621,1,4,0:0:0:0:
128,64,380764,1,4,0:0:0:0:
512,168,380907,5,4,0:0:0:0:
0,166,381050,1,4,0:0:0:0:
380,365,381192,1,4,0:0:0:0:
251,0,381335,1,4,0:0:0:0:
120,355,381478,1,4,0:0:0:0:
457,112,381621,1,4,0:0:0:0:
8,112,381764,5,4,0:0:0:0:
512,363,381907,1,4,0:0:0:0:
256,0,382050,1,4,0:0:0:0:
0,361,382192,1,4,0:0:0:0:
226,320,382336,5,8,0:0:0:0:
280,304,382407,1,8,0:0:0:0:
332,288,382478,1,8,0:0:0:0:
384,272,382550,1,8,0:0:0:0:
436,256,382621,1,8,0:0:0:0:
436,256,382907,6,2,P|476:200|476:64,1,210.000008010865,2|0,0:0|0:0,0:0:0:0:
419,0,383335,5,4,0:0:0:0:
264,104,383478,1,8,0:0:0:0:
424,208,383621,1,4,0:0:0:0:
104,112,383764,1,8,0:0:0:0:
248,232,383907,1,4,0:0:0:0:
288,48,384050,1,8,0:0:0:0:
104,16,384192,1,4,0:0:0:0:
64,200,384335,6,0,P|72:244|114:295,1,105.000004005432,8|4,0:0|0:0,0:0:0:0:
312,152,384621,1,8,0:0:0:0:
480,352,384764,1,4,0:0:0:0:
328,304,384907,1,8,0:0:0:0:
496,104,385050,1,4,0:0:0:0:
248,32,385192,1,8,0:0:0:0:
384,256,385335,1,4,0:0:0:0:
504,0,385478,6,0,P|456:16|416:56,1,105.000004005432,8|4,0:0|0:0,0:0:0:0:
368,184,385764,1,8,0:0:0:0:
128,80,385907,1,4,0:0:0:0:
240,256,386050,1,8,0:0:0:0:
432,80,386192,1,4,0:0:0:0:
424,344,386335,1,8,0:0:0:0:
200,200,386478,1,4,0:0:0:0:
448,296,386621,6,0,L|320:272,1,105.000004005432,8|4,0:0|0:0,0:0:0:0:
0,132,386907,2,0,L|134:163,1,105.000004005432,8|4,0:0|0:0,0:0:0:0:
480,144,387192,2,0,L|352:144,1,105.000004005432,8|4,0:0|0:0,0:0:0:0:
32,336,387478,2,0,L|144:336,1,105.000004005432,8|4,0:0|0:0,0:0:0:0:
176,224,387764,6,0,P|288:288|352:232,1,210,8|0,0:0|0:0,0:0:0:0:
368,200,388050,5,4,0:0:0:0:
337,139,388121,1,0,0:0:0:0:
337,71,388192,1,4,0:0:0:0:
388,25,388264,1,0,0:0:0:0:
455,24,388335,1,4,0:0:0:0:
503,71,388407,1,0,0:0:0:0:
504,138,388478,1,4,0:0:0:0:
459,190,388550,1,0,0:0:0:0:
405,232,388621,5,4,0:0:0:0:
345,264,388692,1,0,0:0:0:0:
281,290,388764,1,4,0:0:0:0:
213,291,388835,1,0,0:0:0:0:
146,272,388907,1,4,0:0:0:0:
87,237,388978,1,0,0:0:0:0:
35,191,389050,1,4,0:0:0:0:
3,130,389121,1,0,0:0:0:0:
0,60,389192,5,4,0:0:0:0:
43,21,389264,1,0,0:0:0:0:
100,21,389335,1,4,0:0:0:0:
143,59,389407,1,0,0:0:0:0:
168,110,389478,1,4,0:0:0:0:
188,164,389550,1,0,0:0:0:0:
211,216,389621,1,4,0:0:0:0:
239,265,389692,1,0,0:0:0:0:
267,301,389764,5,0,0:0:0:0:
291,301,389835,1,0,0:0:0:0:
315,301,389907,1,0,0:0:0:0:
339,301,389978,1,0,0:0:0:0:
363,301,390050,2,0,P|382:269|387:237,1,41.9999987182618,8|0,0:0|0:0,0:0:0:0:
401,213,390192,1,0,0:0:0:0:
128,24,390335,2,0,P|120:64|123:89,1,41.9999987182618,8|0,0:0|0:0,0:0:0:0:
116,121,390478,1,0,0:0:0:0:
5,258,390621,2,0,P|48:296|132:251,1,125.999996154785,8|0,0:0|0:0,0:0:0:0:
188,261,390907,5,8,0:0:0:0:
204,269,390978,1,8,0:0:0:0:
220,277,391050,1,8,0:0:0:0:
236,285,391121,1,8,0:0:0:0:
252,293,391192,6,0,P|313:297|392:275,1,125.999996154785,8|0,0:0|0:0,0:0:0:0:
418,262,391478,5,0,0:0:0:0:
302,194,391621,1,0,0:0:0:0:
418,262,391764,5,8,0:0:0:0:
442,197,391835,1,0,0:0:0:0:
438,127,391907,1,8,0:0:0:0:
406,66,391978,1,0,0:0:0:0:
351,23,392049,1,8,0:0:0:0:
283,7,392121,1,0,0:0:0:0:
215,20,392192,1,8,0:0:0:0:
158,59,392264,1,0,0:0:0:0:
132,121,392335,6,0,L|168:224,1,105.000004005432,12|4,0:0|0:0,0:0:0:0:
408,328,392621,1,8,0:0:0:0:
144,336,392764,1,4,0:0:0:0:
50,145,392907,1,8,0:0:0:0:
256,304,393050,1,4,0:0:0:0:
8,288,393192,2,0,L|120:224,1,105.000004005432,8|4,0:0|0:0,0:0:0:0:
512,0,393478,5,8,0:0:0:0:
424,150,393621,1,4,0:0:0:0:
432,48,393764,5,8,0:0:0:0:
512,224,393907,1,4,0:0:0:0:
512,96,394050,5,8,0:0:0:0:
408,304,394192,1,4,0:0:0:0:
432,144,394335,5,8,0:0:0:0:
512,384,394478,1,4,0:0:0:0:
224,208,394621,5,8,0:0:0:0:
512,128,394764,1,4,0:0:0:0:
378,360,394907,2,0,L|283:306,1,105.000004005432,8|4,0:0|0:0,0:0:0:0:
204,114,395192,2,0,L|310:172,1,105.000004005432,8|4,0:0|0:0,0:0:0:0:
506,143,395478,2,0,L|411:89,1,105.000004005432,8|4,0:0|0:0,0:0:0:0:
336,48,395764,5,8,0:0:0:0:
416,320,395907,1,4,0:0:0:0:
176,48,396050,1,8,0:0:0:0:
96,320,396192,1,4,0:0:0:0:
288,80,396335,1,8,0:0:0:0:
384,320,396478,1,4,0:0:0:0:
224,80,396621,1,8,0:0:0:0:
128,320,396764,1,4,0:0:0:0:
336,240,396907,6,0,P|390:223|441:189,1,105.000004005432,8|4,0:0|0:0,0:0:0:0:
512,128,397192,5,8,0:0:0:0:
265,83,397335,1,4,0:0:0:0:
368,296,397478,5,8,0:0:0:0:
112,336,397621,1,4,0:0:0:0:
32,88,397764,5,8,0:0:0:0:
264,208,397907,1,4,0:0:0:0:
24,312,398050,2,0,P|48:256|104:216,1,105.000004005432,8|4,0:0|0:0,0:0:0:0:
312,88,398335,5,8,0:0:0:0:
96,200,398478,1,4,0:0:0:0:
360,152,398621,5,8,0:0:0:0:
56,136,398764,1,4,0:0:0:0:
408,216,398907,5,8,0:0:0:0:
16,72,399050,1,4,0:0:0:0:
304,48,399192,5,8,0:0:0:0:
304,256,399335,1,4,0:0:0:0:
184,104,399478,5,8,0:0:0:0:
416,152,399621,1,4,0:0:0:0:
120,200,399764,2,0,L|256:224,1,105.000004005432,8|4,0:0|0:0,0:0:0:0:
0,312,400050,2,0,B|240:356|240:356,1,210.000008010865,8|4,0:0|0:0,0:0:0:0:
256,360,400478,5,6,0:0:0:0:
256,360,400621,5,8,0:0:0:0:
256,192,400764,1,4,0:0:0:0:
24,52,400907,5,8,0:0:0:0:
256,192,401050,1,4,0:0:0:0:
472,36,401192,5,8,0:0:0:0:
256,192,401335,1,4,0:0:0:0:
0,192,401478,2,0,P|73:198|119:221,1,105.000004005432,8|4,0:0|0:0,0:0:0:0:
205,294,401764,5,4,0:0:0:0:
239,317,401835,1,0,0:0:0:0:
277,334,401907,1,8,0:0:0:0:
317,342,401978,1,0,0:0:0:0:
359,344,402051,1,4,0:0:0:0:
399,337,402121,1,0,0:0:0:0:
438,324,402192,1,8,0:0:0:0:
471,298,402264,1,0,0:0:0:0:
488,260,402335,5,4,0:0:0:0:
495,218,402407,1,0,0:0:0:0:
485,177,402478,1,8,0:0:0:0:
467,138,402550,1,0,0:0:0:0:
438,107,402621,1,4,0:0:0:0:
404,82,402692,1,0,0:0:0:0:
359,72,402764,5,8,0:0:0:0:
351,72,402835,1,0,0:0:0:0:
343,72,402907,2,0,L|287:72,1,52.5000020027161
56,112,403050,1,8,0:0:0:0:
56,112,403121,1,0,0:0:0:0:
56,112,403192,2,0,L|116:172,1,52.5000020027161
31,328,403335,1,8,0:0:0:0:
39,328,403407,1,0,0:0:0:0:
47,328,403478,2,0,L|119:328,1,52.5000020027161,0|4,0:0|0:0,0:0:0:0:
272,328,403621,1,8,0:0:0:0:
264,328,403692,1,0,0:0:0:0:
256,328,403764,6,0,P|217:328|177:317,1,70,8|8,0:0|0:0,0:0:0:0:
135,288,403907,1,8,0:0:0:0:
91,225,403978,1,8,0:0:0:0:
83,147,404050,1,8,0:0:0:0:
106,74,404121,1,8,0:0:0:0:
166,27,404192,1,8,0:0:0:0:
243,19,404264,1,8,0:0:0:0:
319,58,404335,5,8,0:0:0:0:
341,299,404478,1,8,0:0:0:0:
180,190,404621,1,8,0:0:0:0:
202,137,404692,1,8,0:0:0:0:
241,94,404764,1,8,0:0:0:0:
289,64,404835,1,8,0:0:0:0:
342,40,404907,6,0,L|342:154,1,105.000004005432,8|0,0:0|0:0,0:0:0:0:
368,96,405192,2,0,L|368:208,1,105.000004005432,8|0,0:0|0:0,0:0:0:0:
400,144,405478,2,0,L|400:360,1,210.000008010865,8|4,0:0|0:0,0:0:0:0:
506,0,406050,5,8,0:0:0:0:
312,176,406192,1,4,0:0:0:0:
512,208,406335,2,0,B|477:155|423:125,1,105.000004005432,8|4,0:0|0:0,0:0:0:0:
200,24,406621,1,8,0:0:0:0:
192,288,406764,1,4,0:0:0:0:
64,56,406907,2,0,P|40:128|56:184,1,105.000004005432,8|4,0:0|0:0,0:0:0:0:
175,357,407192,1,8,0:0:0:0:
352,192,407335,1,4,0:0:0:0:
464,240,407478,5,8,0:0:0:0:
152,216,407621,1,4,0:0:0:0:
176,384,407764,5,8,0:0:0:0:
80,80,407907,1,4,0:0:0:0:
336,96,408050,5,8,0:0:0:0:
192,240,408192,1,4,0:0:0:0:
416,160,408335,5,8,0:0:0:0:
512,336,408478,1,4,0:0:0:0:
416,160,408621,6,0,B|368:176|368:176|308:160,2,105.000004005432,8|4|8,0:0|0:0|0:0,0:0:0:0:
352,32,409050,5,8,0:0:0:0:
352,32,409121,1,0,0:0:0:0:
352,32,409192,1,8,0:0:0:0:
352,32,409264,1,0,0:0:0:0:
352,32,409335,1,8,0:0:0:0:
352,32,409407,1,0,0:0:0:0:
352,32,409478,6,0,P|432:32|480:72,1,105.000004005432,8|0,0:0|0:0,0:0:0:0:
496,136,409692,1,4,0:0:0:0:
496,144,409764,1,4,0:0:0:0:
496,152,409835,1,4,0:0:0:0:
496,160,409907,2,4,L|496:224,1,52.5000020027161
352,216,410050,2,0,L|352:160,1,52.5000020027161
280,164,410192,5,0,0:0:0:0:
280,164,410264,1,0,0:0:0:0:
280,164,410335,2,4,L|280:220,1,52.5000020027161
424,216,410478,2,4,L|424:160,1,52.5000020027161
488,16,410621,6,0,B|96:320,1,490,6|0,0:0|0:0,0:0:0:0:
48,352,411192,1,0,0:0:0:0:
48,352,411477,5,0,0:0:0:0:
24,128,411620,1,0,0:0:0:0:
184,280,411764,1,4,0:0:0:0:
72,240,411907,1,0,0:0:0:0:
280,160,412050,1,0,0:0:0:0:
436,284,412191,5,0,0:0:0:0:
257,360,412334,1,0,0:0:0:0:
76,282,412477,1,0,0:0:0:0:
77,85,412620,1,0,0:0:0:0:
255,3,412763,1,0,0:0:0:0:
448,0,412906,6,0,B|80:328,1,490,6|0,0:0|0:0,0:0:0:0:
40,360,413477,1,0,0:0:0:0:
189,351,413763,5,0,0:0:0:0:
193,153,413906,1,0,0:0:0:0:
286,352,414050,1,0,0:0:0:0:
344,336,414121,1,0,0:0:0:0:
393,306,414192,1,0,0:0:0:0:
432,263,414264,1,0,0:0:0:0:
453,213,414335,1,0,0:0:0:0:
458,156,414407,1,0,0:0:0:0:
449,100,414478,1,0,0:0:0:0:
421,47,414550,1,0,0:0:0:0:
385,2,414621,6,0,B|336:32|336:32|320:80|256:96,1,140,2|0,0:0|0:0,0:0:0:0:
192,96,414835,2,0,B|160:160|160:160|224:176|112:176|96:272|96:272,1,210,2|0,0:0|0:0,0:0:0:0:
74,356,415191,5,4,0:0:0:0:
145,325,415263,1,4,0:0:0:0:
221,325,415334,1,4,0:0:0:0:
286,366,415406,1,4,0:0:0:0:
362,367,415477,1,4,0:0:0:0:
436,344,415549,1,4,0:0:0:0:
486,286,415620,1,4,0:0:0:0:
492,212,415691,1,4,0:0:0:0:
486,134,415763,1,4,0:0:0:0:
450,66,415834,1,4,0:0:0:0:
378,36,415906,1,4,0:0:0:0:
301,41,415977,1,4,0:0:0:0:
241,91,416049,1,4,0:0:0:0:
213,162,416120,1,4,0:0:0:0:
214,238,416191,1,4,0:0:0:0:
249,306,416263,1,4,0:0:0:0:
308,353,416334,5,4,0:0:0:0:
320,276,416406,1,4,0:0:0:0:
309,200,416477,1,4,0:0:0:0:
273,131,416549,1,4,0:0:0:0:
233,65,416621,1,4,0:0:0:0:
165,29,416691,1,4,0:0:0:0:
87,38,416763,1,4,0:0:0:0:
25,83,416834,1,4,0:0:0:0:
12,159,416906,1,4,0:0:0:0:
39,230,416977,1,4,0:0:0:0:
95,283,417049,1,4,0:0:0:0:
170,296,417120,1,4,0:0:0:0:
246,294,417191,1,4,0:0:0:0:
320,271,417263,1,4,0:0:0:0:
386,230,417335,1,4,0:0:0:0:
448,185,417406,1,4,0:0:0:0:
497,128,417477,6,8,L|497:56,3,62.9999980773926,12|12|12|8,0:0|0:0|0:0|0:0,0:0:0:0:
392,250,417764,2,12,L|392:314,3,62.9999980773926
288,48,418050,6,8,L|288:132,1,52.5000020027161
216,336,418191,2,8,L|216:264,1,52.5000020027161
0,0,418335,2,0,B|184:128,1,210,12|0,0:0|0:0,0:0:0:0:
472,320,418621,1,10,0:0:0:0:
472,320,418906,6,2,P|472:272|472:272,5,35
256,192,419764,12,14,425478,0:0:0:0:
