osu file format v14

[General]
AudioFilename: audio.mp3
AudioLeadIn: 0
PreviewTime: 373588
Countdown: 0
SampleSet: Soft
StackLeniency: 0.3
Mode: 0
LetterboxInBreaks: 0
WidescreenStoryboard: 0

[Editor]
Bookmarks: 101145,190288,241145,275509,375588
DistanceSpacing: 1.7
BeatDivisor: 4
GridSize: 8
TimelineZoom: 3.199998

[Metadata]
Title:Fusyoku Ressentiment, Fushiyoku no Sarugakuza
TitleUnicode:腐蝕ルサンチマン、不死欲の猿楽座
Artist:Imperial Circus Dead Decadence
ArtistUnicode:Imperial Circus Dead Decadence
Creator:FukutoTojido
Version:Endless Nightmare
Source:
Tags:Nightmare Imperial Circus Dead Decadence Fusyoku Ressentiment, Fushiyoku no Sarugakuza ICDD
BeatmapID:1409537
BeatmapSetID:665949

[Difficulty]
HPDrainRate:4
CircleSize:4
OverallDifficulty:9
ApproachRate:10
SliderMultiplier:1.8
SliderTickRate:1

[Events]
//Background and Video events
0,0,"doujin-metal-banners-header-imperial-circus-dead-decadence-icdd-fushoku-rusanchiman-fushi-yoku-no-sarugakuza-1200x520.png",0,0
//Break Periods
2,228708,240701
2,314937,335706
//Storyboard Layer 0 (Background)
//Storyboard Layer 1 (Fail)
//Storyboard Layer 2 (Pass)
//Storyboard Layer 3 (Foreground)
//Storyboard Sound Samples

[TimingPoints]
866,285.714285714286,4,2,0,100,1,0
866,-66.6666666666667,4,2,0,100,0,0
3437,-133.333333333333,4,2,0,100,0,0
6866,-57.1428571428571,4,2,0,100,0,0
8580,-100,4,2,0,100,0,0
22294,-100,4,2,0,100,0,0
24866,-100,4,2,0,100,0,0
45437,-80,4,2,0,100,0,0
45723,-66.6666666666667,4,2,0,100,0,0
46008,-50,4,2,0,100,0,0
46294,-100,4,2,0,100,0,0
52008,-66.6666666666667,4,2,0,100,0,0
54294,-80,4,2,0,100,0,0
68008,-100,4,2,0,100,0,0
69151,-80,4,2,0,100,0,0
87437,-50,4,2,0,100,0,0
93437,-100,4,2,0,100,0,0
98008,-50,4,2,0,100,0,0
100580,-100,4,2,0,100,0,0
119723,-80,4,2,0,100,0,1
122866,-57.1428571428571,4,2,0,100,0,1
123723,-66.6666666666667,4,2,0,100,0,1
142008,-80,4,2,0,100,0,1
153151,-80,4,2,0,100,0,0
192580,-100,4,2,0,100,0,0
224580,571.428571428571,4,2,0,100,1,0
224580,-66.6666666666667,4,2,0,100,0,0
269151,194.805194805195,4,2,0,100,1,0
270719,203.389830508475,4,2,0,100,1,0
273973,-200,4,2,0,100,0,0
274735,202.020202020202,4,2,0,100,1,0
275515,200.66889632107,4,2,0,100,1,0
277120,-66.6666666666667,4,2,0,100,0,0
290966,400,4,2,0,100,1,0
310166,571.428571428571,4,2,0,100,1,0
336156,285.714285714286,4,2,0,100,1,0
355584,-66.6666666666667,4,2,0,100,0,0
389584,-100,4,2,0,100,0,0
395870,-66.6666666666667,4,2,0,100,0,0
405013,-133.333333333333,4,2,0,100,0,0
415656,-80,4,2,0,100,0,0

[HitObjects]
259,374,866,6,0,B|221:340|210:273|210:273|225:287,1,135.000005149842
412,97,1151,2,0,B|402:147|349:190|349:190|363:133,1,135.000005149842
96,104,1437,2,0,B|144:88|208:112|208:112|188:117,1,135.000005149842
120,168,1723,5,0,2:0:0:0:
108,210,1794,1,0,2:0:0:0:
117,254,1866,1,0,2:0:0:0:
146,288,1937,1,0,2:0:0:0:
188,304,2008,1,0,2:0:0:0:
232,299,2080,1,0,2:0:0:0:
269,275,2151,1,0,2:0:0:0:
289,235,2223,1,0,2:0:0:0:
290,191,2294,1,0,2:0:0:0:
296,144,2366,5,0,2:0:0:0:
309,101,2437,1,0,2:0:0:0:
345,76,2508,1,0,2:0:0:0:
389,77,2580,1,0,2:0:0:0:
424,104,2651,1,0,2:0:0:0:
436,147,2723,1,0,2:0:0:0:
416,184,2794,5,0,2:0:0:0:
388,219,2866,1,0,2:0:0:0:
347,235,2937,1,0,2:0:0:0:
303,228,3008,1,0,2:0:0:0:
269,200,3080,1,0,2:0:0:0:
254,158,3151,1,0,2:0:0:0:
232,120,3223,1,0,2:0:0:0:
194,97,3294,1,0,2:0:0:0:
150,102,3366,1,0,2:0:0:0:
128,136,3437,6,0,P|170:226|233:153,1,202.500007724762,0|0,2:0|2:0,2:0:0:0:
256,144,4008,1,0,2:0:0:0:
256,144,4294,6,0,P|328:128|392:176,1,135.000005149842,0|0,2:0|2:0,2:0:0:0:
368,206,4651,5,0,2:0:0:0:
337,238,4723,1,0,2:0:0:0:
294,249,4794,1,0,2:0:0:0:
256,224,4866,5,0,2:0:0:0:
246,180,4937,1,0,2:0:0:0:
219,145,5008,1,0,2:0:0:0:
178,127,5080,1,0,2:0:0:0:
133,129,5151,1,0,2:0:0:0:
95,151,5223,1,0,2:0:0:0:
70,189,5294,1,0,2:0:0:0:
66,233,5366,1,0,2:0:0:0:
88,272,5437,5,0,2:0:0:0:
127,292,5508,1,0,2:0:0:0:
171,294,5580,1,0,2:0:0:0:
212,275,5651,1,0,2:0:0:0:
240,241,5723,1,0,2:0:0:0:
250,197,5794,1,0,2:0:0:0:
240,154,5866,1,0,2:0:0:0:
212,120,5937,1,0,2:0:0:0:
200,80,6008,5,0,2:0:0:0:
228,46,6080,1,0,2:0:0:0:
272,42,6151,1,0,2:0:0:0:
305,70,6223,1,0,2:0:0:0:
304,120,6294,1,0,2:0:0:0:
276,155,6366,1,0,2:0:0:0:
236,173,6437,1,0,2:0:0:0:
191,171,6508,1,0,2:0:0:0:
152,144,6580,5,0,2:0:0:0:
119,115,6651,1,0,2:0:0:0:
75,117,6723,1,0,2:0:0:0:
46,150,6794,1,0,2:0:0:0:
48,200,6866,6,0,P|56:240|80:272,3,78.7500007510185,0|0|0|0,2:0|2:0|2:0|2:0,2:0:0:0:
152,160,7151,2,0,P|192:152|232:120,3,78.7500007510185,0|0|0|0,2:0|2:0|2:0|2:0,2:0:0:0:
224,40,7437,5,0,2:0:0:0:
232,40,7508,1,0,2:0:0:0:
240,40,7580,1,0,2:0:0:0:
248,40,7651,1,0,2:0:0:0:
256,40,7723,5,0,2:0:0:0:
294,43,7794,1,0,2:0:0:0:
333,60,7866,1,0,2:0:0:0:
342,103,7937,1,0,2:0:0:0:
328,144,8008,1,0,2:0:0:0:
283,142,8080,1,0,2:0:0:0:
249,170,8151,1,0,2:0:0:0:
241,213,8223,1,0,2:0:0:0:
272,248,8294,5,0,2:0:0:0:
315,251,8366,1,0,2:0:0:0:
349,223,8437,1,0,2:0:0:0:
353,179,8508,1,0,2:0:0:0:
344,136,8580,6,0,P|277:77|208:88,1,135,0|0,2:0|2:0,2:0:0:0:
80,176,8866,1,0,2:0:0:0:
344,136,9008,1,0,2:0:0:0:
192,264,9151,2,0,P|256:232|280:248,1,90,0|0,2:0|2:0,2:0:0:0:
312,240,9437,5,0,2:0:0:0:
281,207,9508,1,0,2:0:0:0:
272,164,9580,1,0,2:0:0:0:
287,122,9651,1,0,2:0:0:0:
322,95,9723,1,0,2:0:0:0:
366,90,9794,1,0,2:0:0:0:
406,109,9866,1,0,2:0:0:0:
430,146,9937,1,0,2:0:0:0:
432,192,10008,5,0,2:0:0:0:
408,229,10080,1,0,2:0:0:0:
367,246,10151,1,0,2:0:0:0:
324,237,10223,1,0,2:0:0:0:
272,224,10294,6,0,P|240:304|192:320,1,135,0|0,2:0|2:0,2:0:0:0:
240,184,10580,2,0,P|192:224|144:160,1,135,0|0,2:0|2:0,2:0:0:0:
256,128,10866,2,0,P|208:104|256:64,1,135,0|0,2:0|2:0,2:0:0:0:
296,96,11151,2,0,P|336:72|320:128,1,135,0|0,2:0|2:0,2:0:0:0:
384,200,11437,5,0,2:0:0:0:
405,239,11508,1,0,2:0:0:0:
405,283,11580,1,0,2:0:0:0:
382,322,11651,1,0,2:0:0:0:
344,345,11723,1,0,2:0:0:0:
300,346,11794,1,0,2:0:0:0:
260,325,11866,1,0,2:0:0:0:
236,288,11937,1,0,2:0:0:0:
232,240,12008,5,0,2:0:0:0:
262,207,12080,1,0,2:0:0:0:
265,163,12151,1,0,2:0:0:0:
239,127,12223,1,0,2:0:0:0:
200,104,12294,1,0,2:0:0:0:
160,96,12366,1,0,2:0:0:0:
120,96,12437,1,0,2:0:0:0:
72,112,12508,1,0,2:0:0:0:
40,144,12580,5,0,2:0:0:0:
32,187,12651,1,0,2:0:0:0:
51,227,12723,1,0,2:0:0:0:
90,248,12794,1,0,2:0:0:0:
136,248,12866,1,0,2:0:0:0:
176,230,12937,1,0,2:0:0:0:
204,195,13008,1,0,2:0:0:0:
212,151,13080,1,0,2:0:0:0:
224,104,13151,5,0,2:0:0:0:
260,78,13223,1,0,2:0:0:0:
304,75,13294,1,0,2:0:0:0:
344,96,13366,1,0,2:0:0:0:
367,134,13437,1,0,2:0:0:0:
368,178,13508,1,0,2:0:0:0:
345,217,13580,1,0,2:0:0:0:
306,238,13651,1,0,2:0:0:0:
264,232,13723,5,0,3:0:0:0:
264,232,13794,1,0,3:0:0:0:
264,232,13866,2,0,L|288:280,1,45,0|0,3:0|3:0,3:0:0:0:
136,152,14008,5,0,3:0:0:0:
136,152,14080,1,0,3:0:0:0:
136,152,14151,2,0,L|96:216,1,45,0|0,3:0|3:0,3:0:0:0:
272,80,14294,5,0,3:0:0:0:
272,80,14366,1,0,3:0:0:0:
272,80,14437,2,0,L|312:128,1,45,0|0,3:0|3:0,3:0:0:0:
440,160,14580,6,0,P|400:144|336:144,1,90,0|0,2:0|2:0,2:0:0:0:
120,272,14866,1,0,2:0:0:0:
400,272,15008,1,0,2:0:0:0:
184,64,15151,1,0,2:0:0:0:
240,352,15294,1,0,2:0:0:0:
352,56,15437,6,0,P|339:98|306:128,1,90,0|0,2:0|2:0,2:0:0:0:
104,264,15723,1,0,2:0:0:0:
432,200,15866,1,0,2:0:0:0:
96,80,16009,1,0,2:0:0:0:
264,336,16151,1,0,2:0:0:0:
448,88,16294,6,0,P|392:144|344:136,1,90,0|0,2:0|2:0,2:0:0:0:
96,240,16580,1,0,2:0:0:0:
432,256,16723,1,0,2:0:0:0:
112,88,16866,1,0,2:0:0:0:
264,336,17008,1,0,2:0:0:0:
328,64,17151,6,0,L|384:136,1,90,0|0,2:0|2:0,2:0:0:0:
440,256,17437,1,0,2:0:0:0:
104,216,17580,1,0,2:0:0:0:
152,88,17723,1,0,2:0:0:0:
376,344,17866,1,0,2:0:0:0:
184,296,18008,6,0,L|264:200,1,90,0|0,2:0|2:0,2:0:0:0:
344,112,18294,1,0,2:0:0:0:
72,168,18437,1,0,2:0:0:0:
392,272,18580,1,0,2:0:0:0:
168,24,18723,1,0,2:0:0:0:
336,64,18866,6,0,P|376:72|416:104,1,90,0|0,2:0|2:0,2:0:0:0:
472,192,19151,1,0,2:0:0:0:
184,256,19294,1,0,2:0:0:0:
224,56,19437,1,0,2:0:0:0:
288,336,19580,1,0,2:0:0:0:
416,48,19723,6,0,L|336:112,1,90,0|0,2:0|2:0,2:0:0:0:
96,288,20008,1,0,2:0:0:0:
192,56,20151,1,0,2:0:0:0:
336,248,20294,1,0,2:0:0:0:
64,144,20437,1,0,2:0:0:0:
320,80,20580,6,0,L|400:120,1,90,0|0,2:0|2:0,2:0:0:0:
160,120,20866,2,0,L|82:166,1,90,0|0,2:0|2:0,2:0:0:0:
344,240,21151,2,0,L|440:304,1,90,0|0,2:0|2:0,2:0:0:0:
56,232,21437,5,0,2:0:0:0:
71,247,21508,1,0,2:0:0:0:
90,260,21579,1,0,2:0:0:0:
111,269,21651,1,0,2:0:0:0:
132,274,21722,1,0,2:0:0:0:
155,274,21794,1,0,2:0:0:0:
177,271,21865,1,0,2:0:0:0:
198,263,21937,1,0,2:0:0:0:
216,248,22008,5,0,2:0:0:0:
227,228,22079,1,0,2:0:0:0:
242,212,22150,1,0,2:0:0:0:
261,200,22222,1,0,2:0:0:0:
288,192,22294,6,0,P|368:208|408:184,1,90,0|0,2:0|2:0,2:0:0:0:
360,104,22580,2,0,P|416:104|432:136,1,90,0|0,2:0|2:0,2:0:0:0:
368,256,22866,2,0,P|312:272|264:240,1,90,0|0,2:0|2:0,2:0:0:0:
248,248,23151,5,0,2:0:0:0:
231,232,23222,1,0,2:0:0:0:
223,212,23293,1,0,2:0:0:0:
225,189,23365,1,0,2:0:0:0:
232,168,23437,5,0,2:0:0:0:
249,155,23508,1,0,2:0:0:0:
256,134,23579,1,0,2:0:0:0:
248,113,23651,1,0,2:0:0:0:
232,96,23723,5,0,2:0:0:0:
210,91,23794,1,0,2:0:0:0:
188,97,23865,1,0,2:0:0:0:
173,113,23937,1,0,2:0:0:0:
168,128,24008,5,0,2:0:0:0:
168,144,24080,1,0,2:0:0:0:
168,160,24151,1,0,2:0:0:0:
168,176,24223,1,0,2:0:0:0:
168,192,24294,1,0,2:0:0:0:
168,208,24366,1,0,2:0:0:0:
168,224,24437,1,0,2:0:0:0:
168,240,24508,1,0,2:0:0:0:
168,256,24580,6,0,L|256:320,1,90,0|0,2:0|2:0,2:0:0:0:
392,240,24866,6,0,P|400:168|368:160,1,90,0|0,2:0|2:0,2:0:0:0:
296,136,25151,1,0,2:0:0:0:
216,232,25294,1,0,2:0:0:0:
120,336,25437,2,0,L|48:272,1,90,0|0,2:0|2:0,2:0:0:0:
152,144,25723,6,0,P|216:184|264:176,1,90,0|0,2:0|2:0,2:0:0:0:
288,88,26008,1,0,2:0:0:0:
272,240,26151,1,0,2:0:0:0:
152,144,26294,2,0,P|200:176|240:184,1,90,0|0,2:0|2:0,2:0:0:0:
360,144,26580,6,0,P|312:176|272:184,1,90,0|0,2:0|2:0,2:0:0:0:
232,280,26866,1,0,2:0:0:0:
88,216,27008,1,0,2:0:0:0:
56,72,27151,2,0,P|112:72|144:96,1,90,0|0,2:0|2:0,2:0:0:0:
184,152,27437,6,0,P|224:192|272:184,1,90,0|0,2:0|2:0,2:0:0:0:
254,191,27652,1,0,2:0:0:0:
254,191,27723,1,0,2:0:0:0:
416,168,27866,1,0,2:0:0:0:
480,256,28008,1,0,2:0:0:0:
480,360,28151,1,0,2:0:0:0:
392,320,28294,6,0,P|360:256|368:200,1,90,0|0,2:0|2:0,2:0:0:0:
144,288,28580,2,0,P|101:292|40:280,1,90,0|0,2:0|2:0,2:0:0:0:
320,128,28866,2,0,P|306:53|296:32,1,90,0|0,2:0|2:0,2:0:0:0:
256,192,29151,1,0,2:0:0:0:
256,192,29294,12,0,32437,2:0:0:0:
120,136,32580,5,0,2:0:0:0:
384,232,32723,1,0,2:0:0:0:
192,272,32866,6,0,L|96:256,1,90,0|0,2:0|2:0,2:0:0:0:
304,224,33151,2,0,L|416:192,1,90,0|0,2:0|2:0,2:0:0:0:
192,160,33437,2,0,L|96:144,1,90,0|0,2:0|2:0,2:0:0:0:
288,64,33723,5,0,2:0:0:0:
331,68,33794,1,0,2:0:0:0:
362,100,33865,1,0,2:0:0:0:
364,144,33937,1,0,2:0:0:0:
337,179,34008,1,0,2:0:0:0:
296,192,34080,1,0,2:0:0:0:
259,167,34151,1,0,2:0:0:0:
208,160,34222,1,0,2:0:0:0:
160,176,34294,5,0,2:0:0:0:
142,219,34365,1,0,2:0:0:0:
151,262,34436,1,0,2:0:0:0:
189,283,34508,1,0,2:0:0:0:
232,280,34580,1,0,2:0:0:0:
263,249,34651,1,0,2:0:0:0:
265,205,34722,1,0,2:0:0:0:
235,172,34794,1,0,2:0:0:0:
192,152,34866,5,0,2:0:0:0:
64,320,35008,1,0,2:0:0:0:
456,208,35151,6,0,P|400:264|368:264,1,90,0|0,2:0|2:0,2:0:0:0:
320,176,35437,2,0,P|272:192|240:232,1,90,0|0,2:0|2:0,2:0:0:0:
144,224,35723,2,0,P|88:256|56:256,1,90,0|0,2:0|2:0,2:0:0:0:
56,160,36008,5,0,2:0:0:0:
60,116,36079,1,0,2:0:0:0:
94,88,36150,1,0,2:0:0:0:
138,92,36222,1,0,2:0:0:0:
168,128,36294,1,0,2:0:0:0:
184,168,36365,1,0,2:0:0:0:
222,191,36436,1,0,2:0:0:0:
266,186,36508,1,0,2:0:0:0:
304,152,36580,5,0,2:0:0:0:
322,112,36651,1,0,2:0:0:0:
302,74,36722,1,0,2:0:0:0:
259,66,36794,1,0,2:0:0:0:
224,88,36866,1,0,2:0:0:0:
223,132,36937,1,0,2:0:0:0:
243,171,37008,1,0,2:0:0:0:
288,176,37080,1,0,2:0:0:0:
328,160,37151,5,0,2:0:0:0:
176,336,37437,1,0,2:0:0:0:
56,232,37723,1,0,2:0:0:0:
176,104,38009,1,0,2:0:0:0:
272,304,38294,5,0,2:0:0:0:
64,304,38580,1,0,2:0:0:0:
64,112,38866,1,0,2:0:0:0:
272,112,39151,1,0,2:0:0:0:
72,96,39437,5,0,2:0:0:0:
88,120,39508,1,0,2:0:0:0:
120,128,39580,1,0,2:0:0:0:
152,120,39651,1,0,2:0:0:0:
176,96,39723,2,0,L|232:80,1,45,0|0,2:0|2:0,2:0:0:0:
192,192,39866,5,0,2:0:0:0:
216,176,39937,1,0,2:0:0:0:
240,168,40008,1,0,2:0:0:0:
272,168,40080,1,0,2:0:0:0:
304,184,40151,2,0,L|336:232,1,45,0|0,2:0|2:0,2:0:0:0:
408,128,40294,5,0,2:0:0:0:
424,152,40366,1,0,2:0:0:0:
408,176,40437,1,0,2:0:0:0:
424,200,40508,1,0,2:0:0:0:
408,224,40580,1,0,2:0:0:0:
352,304,41008,5,0,2:0:0:0:
320,288,41080,1,0,2:0:0:0:
288,272,41151,1,0,2:0:0:0:
176,224,41366,5,0,2:0:0:0:
272,112,41580,1,0,2:0:0:0:
384,112,41723,6,0,P|400:176|400:224,1,90,0|0,2:0|2:0,2:0:0:0:
128,272,42008,2,0,P|112:208|112:160,1,90,0|0,2:0|2:0,2:0:0:0:
368,304,42294,1,0,2:0:0:0:
144,64,42437,1,0,2:0:0:0:
336,64,42580,1,0,2:0:0:0:
64,240,42723,1,0,2:0:0:0:
192,336,42866,6,0,P|272:320|288:288,1,90,0|0,2:0|2:0,2:0:0:0:
304,224,43151,2,0,P|320:160|368:144,1,90,0|0,2:0|2:0,2:0:0:0:
144,64,43437,1,0,2:0:0:0:
416,256,43580,1,0,2:0:0:0:
144,256,43723,1,0,2:0:0:0:
320,48,43866,1,0,2:0:0:0:
192,272,44008,6,0,L|288:272,1,90,0|0,2:0|2:0,2:0:0:0:
368,192,44294,2,0,L|272:192,1,90,0|0,2:0|2:0,2:0:0:0:
336,336,44580,1,0,2:0:0:0:
64,96,44723,1,0,2:0:0:0:
128,344,44866,1,0,2:0:0:0:
296,48,45008,1,0,2:0:0:0:
128,192,45151,6,0,P|160:256|224:272,1,135,0|0,2:0|2:0,2:0:0:0:
256,264,45437,2,0,P|168:256|126:159,1,168.75
128,136,45723,2,0,P|136:224|256:264,1,202.500007724762
288,256,46008,2,0,P|192:272|120:160,1,180
150,112,46294,6,0,L|240:112,1,90,0|0,2:0|2:0,2:0:0:0:
424,176,46580,2,0,P|408:256|384:280,1,90,0|0,2:0|2:0,2:0:0:0:
176,240,46866,1,0,2:0:0:0:
464,352,47008,1,0,2:0:0:0:
176,336,47151,1,0,2:0:0:0:
464,160,47294,1,0,2:0:0:0:
448,160,47366,1,0,2:0:0:0:
432,160,47437,6,0,L|384:240,1,90,0|0,2:0|2:0,2:0:0:0:
96,256,47723,2,0,P|112:200|160:160,1,90,0|0,2:0|2:0,2:0:0:0:
272,320,48008,1,0,2:0:0:0:
272,144,48151,1,0,2:0:0:0:
448,256,48294,1,0,2:0:0:0:
272,320,48437,1,0,2:0:0:0:
80,176,48580,5,0,2:0:0:0:
304,32,48723,1,0,2:0:0:0:
224,336,48866,1,0,2:0:0:0:
448,296,49008,1,0,2:0:0:0:
192,40,49151,1,0,2:0:0:0:
184,360,49294,1,0,2:0:0:0:
320,32,49437,1,0,2:0:0:0:
384,344,49580,1,0,2:0:0:0:
256,80,49723,5,0,2:0:0:0:
256,336,49866,1,0,2:0:0:0:
168,128,50008,1,0,2:0:0:0:
384,128,50151,1,0,2:0:0:0:
128,272,50294,1,0,2:0:0:0:
384,272,50437,1,0,2:0:0:0:
256,80,50580,1,0,2:0:0:0:
256,336,50723,1,0,2:0:0:0:
256,208,50865,2,0,P|304:208|371:211,1,90,0|0,2:0|2:0,2:0:0:0:
40,32,51151,6,0,P|24:80|56:104,1,90,0|0,2:0|2:0,2:0:0:0:
80,152,51437,2,0,P|104:168|144:232,1,90,0|0,2:0|2:0,2:0:0:0:
168,344,51723,2,0,P|166:301|189:261,1,90,0|0,2:0|2:0,2:0:0:0:
256,272,52008,6,0,B|256:304|272:352|320:368|352:368|400:368|432:352|464:288|464:240|432:160|352:128|272:192|272:192|288:128|288:128|192:208|144:144|160:64|80:64|32:96,1,810.000030899049,0|0,2:0|2:0,2:0:0:0:
96,224,53008,5,0,2:0:0:0:
336,328,53151,1,0,2:0:0:0:
232,56,53294,1,0,2:0:0:0:
392,64,53437,1,0,2:0:0:0:
176,328,53580,1,0,2:0:0:0:
464,224,53723,1,0,2:0:0:0:
112,112,53866,1,0,2:0:0:0:
456,320,54008,1,0,2:0:0:0:
88,104,54151,1,0,2:0:0:0:
176,176,54294,6,0,P|176:256|256:256,1,168.75,0|0,2:0|2:0,2:0:0:0:
249,261,54580,2,0,P|288:176|352:208,1,168.75,0|0,2:0|2:0,2:0:0:0:
341,193,54866,2,0,P|432:224|448:160,1,168.75,0|0,2:0|2:0,2:0:0:0:
451,175,55151,2,0,L|352:80,1,112.5,0|0,2:0|2:0,2:0:0:0:
160,128,55437,5,0,2:0:0:0:
384,320,55580,5,0,2:0:0:0:
336,96,55723,1,0,2:0:0:0:
80,144,55866,2,0,P|80:224|96:224,1,112.5,0|0,2:0|2:0,2:0:0:0:
192,304,56151,5,0,2:0:0:0:
256,160,56294,1,0,2:0:0:0:
368,256,56437,2,0,P|448:224|448:192,1,112.5,0|0,2:0|2:0,2:0:0:0:
384,80,56723,5,0,2:0:0:0:
272,80,56866,1,0,2:0:0:0:
160,80,57008,2,0,L|48:80,1,112.5,0|0,2:0|2:0,2:0:0:0:
64,192,57294,5,0,2:0:0:0:
192,192,57437,1,0,2:0:0:0:
304,192,57580,2,0,L|432:192,1,112.5,0|0,2:0|2:0,2:0:0:0:
264,344,57866,5,0,2:0:0:0:
112,56,58008,1,0,2:0:0:0:
424,240,58151,1,0,2:0:0:0:
80,296,58294,5,0,2:0:0:0:
488,168,58437,1,0,2:0:0:0:
48,120,58580,1,0,2:0:0:0:
496,112,58723,5,0,2:0:0:0:
128,128,58866,6,0,L|176:208,1,56.25,0|0,2:0|2:0,2:0:0:0:
384,256,59008,2,0,L|336:176,1,56.25,0|0,2:0|2:0,2:0:0:0:
192,320,59151,2,0,L|272:272,1,56.25,0|0,2:0|2:0,2:0:0:0:
320,64,59294,2,0,L|240:112,1,56.25,0|0,2:0|2:0,2:0:0:0:
352,272,59437,6,0,P|377:282|395:304,1,56.25,0|0,2:0|2:0,2:0:0:0:
160,112,59580,2,0,P|134:101|116:79,1,56.25,0|0,2:0|2:0,2:0:0:0:
176,288,59723,2,0,P|165:313|143:331,1,56.25,0|0,2:0|2:0,2:0:0:0:
336,96,59866,2,0,P|346:70|368:52,1,56.25,0|0,2:0|2:0,2:0:0:0:
352,280,60008,5,0,2:0:0:0:
405,279,60079,1,0,2:0:0:0:
440,237,60150,1,0,2:0:0:0:
430,184,60222,1,0,2:0:0:0:
389,156,60294,1,0,2:0:0:0:
334,160,60365,1,0,2:0:0:0:
296,192,60436,1,0,2:0:0:0:
288,240,60508,1,0,2:0:0:0:
264,280,60580,5,0,2:0:0:0:
224,304,60651,1,0,2:0:0:0:
176,304,60722,1,0,2:0:0:0:
136,280,60794,1,0,2:0:0:0:
100,239,60865,1,0,2:0:0:0:
94,184,60937,1,0,2:0:0:0:
122,136,61008,1,0,2:0:0:0:
172,112,61080,1,0,2:0:0:0:
232,123,61151,6,0,P|248:155|248:187,3,56.25,0|0|0|0,2:0|2:0|2:0|2:0,2:0:0:0:
240,304,61437,2,0,P|200:312|160:312,3,56.25,0|0|0|0,2:0|2:0|2:0|2:0,2:0:0:0:
312,160,61723,2,0,P|352:152|392:152,3,56.25,0|0|0|0,2:0|2:0|2:0|2:0,2:0:0:0:
200,176,62008,2,0,P|184:152|192:112,3,56.25,0|0|0|0,2:0|2:0|2:0|2:0,2:0:0:0:
240,176,62294,5,0,2:0:0:0:
280,160,62365,1,0,2:0:0:0:
292,123,62436,1,0,2:0:0:0:
283,80,62508,1,0,2:0:0:0:
247,55,62579,1,0,2:0:0:0:
208,56,62651,1,0,2:0:0:0:
168,72,62722,1,0,2:0:0:0:
136,104,62793,1,0,2:0:0:0:
120,144,62866,5,0,2:0:0:0:
119,187,62937,1,0,2:0:0:0:
131,230,63008,1,0,2:0:0:0:
160,264,63080,1,0,2:0:0:0:
201,282,63151,1,0,2:0:0:0:
246,280,63223,1,0,2:0:0:0:
285,259,63294,1,0,2:0:0:0:
311,224,63366,1,0,2:0:0:0:
336,176,63437,6,0,P|310:165|283:165,3,56.25,0|0|0|0,2:0|2:0|2:0|2:0,2:0:0:0:
124,131,63723,2,0,P|144:112|168:96,3,56.25,0|0|0|0,2:0|2:0|2:0|2:0,2:0:0:0:
200,312,64009,2,0,P|224:326|252:333,3,56.25,0|0|0|0,2:0|2:0|2:0|2:0,2:0:0:0:
448,208,64294,2,0,P|408:232|360:216,3,56.25,0|0|0|0,2:0|2:0|2:0|2:0,2:0:0:0:
472,168,64580,5,0,2:0:0:0:
507,142,64652,1,0,2:0:0:0:
512,99,64723,1,0,2:0:0:0:
483,67,64794,1,0,2:0:0:0:
444,67,64866,1,0,2:0:0:0:
407,90,64938,5,0,2:0:0:0:
403,133,65009,1,0,2:0:0:0:
376,168,65080,1,0,2:0:0:0:
336,176,65151,5,0,2:0:0:0:
288,176,65222,1,0,2:0:0:0:
248,144,65294,1,0,2:0:0:0:
232,96,65365,1,0,2:0:0:0:
248,48,65437,1,0,2:0:0:0:
280,24,65508,1,0,2:0:0:0:
328,16,65579,1,0,2:0:0:0:
376,40,65651,1,0,2:0:0:0:
400,88,65723,6,0,L|408:144,3,56.25,0|0|0|0,2:0|2:0|2:0|2:0,2:0:0:0:
304,200,66008,2,0,L|320:280,3,56.25,0|0|0|0,2:0|2:0|2:0|2:0,2:0:0:0:
144,168,66294,2,0,L|88:232,3,56.25,0|0|0|0,2:0|2:0|2:0|2:0,2:0:0:0:
136,24,66580,2,0,L|56:24,3,56.25,0|0|0|0,2:0|2:0|2:0|2:0,2:0:0:0:
400,64,66866,5,0,2:0:0:0:
400,64,66937,1,0,2:0:0:0:
400,64,67008,1,0,2:0:0:0:
352,288,67151,1,0,2:0:0:0:
96,96,67294,1,0,2:0:0:0:
80,208,67437,5,0,2:0:0:0:
80,208,67509,1,0,2:0:0:0:
80,208,67580,1,0,2:0:0:0:
352,160,67723,1,0,2:0:0:0:
416,320,67866,1,0,2:0:0:0:
192,112,68008,6,0,P|256:112|240:192,1,135,0|0,2:0|2:0,2:0:0:0:
160,256,68294,2,0,P|144:320|208:336,1,135,0|0,2:0|2:0,2:0:0:0:
352,240,68580,2,0,P|432:256|448:208,1,135,0|0,2:0|2:0,2:0:0:0:
336,80,68866,2,0,P|256:112|208:64,1,135,0|0,2:0|2:0,2:0:0:0:
96,256,69151,5,0,2:0:0:0:
240,256,69294,2,0,P|320:272|352:224,1,112.5,0|0,2:0|2:0,2:0:0:0:
352,176,69580,2,0,P|320:144|360:64,1,112.5,0|0,2:0|2:0,2:0:0:0:
440,48,69866,2,0,P|473:88|448:168,1,112.5,0|0,2:0|2:0,2:0:0:0:
256,304,70151,5,0,2:0:0:0:
48,240,70294,1,0,2:0:0:0:
336,96,70437,2,0,P|384:160|384:216,1,112.5,0|0,2:0|2:0,2:0:0:0:
304,224,70723,2,0,P|240:176|200:176,1,112.5,0|0,2:0|2:0,2:0:0:0:
176,248,71008,2,0,P|216:312|208:384,1,112.5,0|0,2:0|2:0,2:0:0:0:
80,256,71294,5,0,2:0:0:0:
352,336,71437,1,0,2:0:0:0:
416,176,71580,6,0,P|392:208|360:224,1,56.25,0|0,2:0|2:0,2:0:0:0:
248,224,71723,2,0,P|272:200|304:184,1,56.25,0|0,2:0|2:0,2:0:0:0:
376,80,71866,2,0,P|360:104|312:120,1,56.25,0|0,2:0|2:0,2:0:0:0:
176,144,72008,2,0,P|216:120|256:120,1,56.25,0|0,2:0|2:0,2:0:0:0:
328,8,72151,2,0,P|304:32|272:40,1,56.25,0|0,2:0|2:0,2:0:0:0:
104,64,72294,2,0,P|160:32|192:40,1,56.25,0|0,2:0|2:0,2:0:0:0:
328,8,72437,1,0,2:0:0:0:
320,304,72580,6,0,P|384:320|432:288,1,112.5,0|0,2:0|2:0,2:0:0:0:
176,224,72866,2,0,P|123:241|73:219,1,112.5,0|0,2:0|2:0,2:0:0:0:
320,144,73151,2,0,P|368:167|418:144,1,112.5,0|0,2:0|2:0,2:0:0:0:
176,80,73437,2,0,P|96:96|48:56,1,112.5,0|0,2:0|2:0,2:0:0:0:
400,224,73723,5,0,2:0:0:0:
336,256,73866,2,0,P|256:240|208:272,1,112.5,0|0,2:0|2:0,2:0:0:0:
230,251,74151,2,0,P|262:195|262:131,1,112.5,0|0,2:0|2:0,2:0:0:0:
301,46,74437,2,0,P|269:94|269:166,1,112.5,0|0,2:0|2:0,2:0:0:0:
240,320,74723,5,0,2:0:0:0:
48,192,74866,1,0,2:0:0:0:
144,64,75008,2,0,P|208:80|256:64,1,112.5,0|0,2:0|2:0,2:0:0:0:
392,64,75294,2,0,P|344:112|328:160,1,112.5,0|0,2:0|2:0,2:0:0:0:
272,328,75580,2,0,P|288:264|264:216,1,112.5,0|0,2:0|2:0,2:0:0:0:
416,320,75866,5,0,2:0:0:0:
256,160,76008,1,0,2:0:0:0:
128,320,76151,1,0,2:0:0:0:
416,176,76294,1,0,2:0:0:0:
64,80,76437,1,0,2:0:0:0:
304,320,76580,1,0,2:0:0:0:
224,32,76723,1,0,2:0:0:0:
64,288,76866,1,0,2:0:0:0:
384,112,77008,1,0,2:0:0:0:
256,336,77151,1,0,2:0:0:0:
320,48,77294,1,0,2:0:0:0:
176,80,77437,5,0,2:0:0:0:
144,64,77508,1,0,2:0:0:0:
112,64,77579,1,0,2:0:0:0:
80,80,77651,1,0,2:0:0:0:
64,112,77722,1,0,2:0:0:0:
64,144,77793,1,0,2:0:0:0:
80,176,77865,1,0,2:0:0:0:
112,192,77936,1,0,2:0:0:0:
144,192,78008,1,0,2:0:0:0:
176,176,78079,1,0,2:0:0:0:
192,144,78151,1,0,2:0:0:0:
208,112,78223,1,0,2:0:0:0:
240,96,78294,2,0,P|304:96|288:192,1,168.75,0|0,2:0|2:0,2:0:0:0:
184,160,78580,5,0,2:0:0:0:
168,208,78651,1,0,2:0:0:0:
176,256,78722,1,0,2:0:0:0:
219,287,78794,1,0,2:0:0:0:
272,288,78866,1,0,2:0:0:0:
314,253,78937,1,0,2:0:0:0:
320,198,79008,1,0,2:0:0:0:
288,154,79080,1,0,2:0:0:0:
240,128,79151,5,0,2:0:0:0:
184,122,79222,1,0,2:0:0:0:
132,141,79293,1,0,2:0:0:0:
92,181,79365,1,0,2:0:0:0:
80,224,79437,1,0,2:0:0:0:
133,239,79508,1,0,2:0:0:0:
189,237,79579,1,0,2:0:0:0:
241,217,79651,1,0,2:0:0:0:
272,176,79723,5,0,2:0:0:0:
298,127,79794,1,0,2:0:0:0:
350,111,79865,1,0,2:0:0:0:
399,137,79937,1,0,2:0:0:0:
416,189,80008,1,0,2:0:0:0:
400,240,80080,1,0,2:0:0:0:
353,269,80151,1,0,2:0:0:0:
299,262,80222,1,0,2:0:0:0:
256,224,80294,5,0,2:0:0:0:
217,184,80365,1,0,2:0:0:0:
162,175,80436,1,0,2:0:0:0:
113,200,80508,1,0,2:0:0:0:
80,240,80580,1,0,2:0:0:0:
30,216,80651,1,0,2:0:0:0:
11,164,80722,1,0,2:0:0:0:
33,114,80794,1,0,2:0:0:0:
72,96,80866,5,0,2:0:0:0:
76,100,80937,1,0,2:0:0:0:
80,104,81008,1,0,2:0:0:0:
84,108,81080,1,0,2:0:0:0:
88,112,81151,1,0,2:0:0:0:
92,116,81223,1,0,2:0:0:0:
96,120,81294,1,0,2:0:0:0:
100,124,81366,1,0,2:0:0:0:
104,128,81437,5,0,2:0:0:0:
108,132,81508,1,0,2:0:0:0:
112,136,81580,1,0,2:0:0:0:
116,140,81651,1,0,2:0:0:0:
120,144,81723,6,0,P|160:208|192:208,1,112.5,0|0,2:0|2:0,2:0:0:0:
240,144,82008,2,0,P|256:80|320:96,1,112.5,0|0,2:0|2:0,2:0:0:0:
352,144,82294,2,0,P|416:160|416:208,1,112.5,0|0,2:0|2:0,2:0:0:0:
368,320,82580,2,0,L|240:272,1,112.5,0|0,2:0|2:0,2:0:0:0:
128,128,82866,5,0,2:0:0:0:
224,288,83008,5,0,2:0:0:0:
400,256,83151,1,0,2:0:0:0:
288,112,83294,2,0,P|224:128|192:192,1,112.5,0|0,2:0|2:0,2:0:0:0:
64,208,83580,5,0,2:0:0:0:
256,272,83723,1,0,2:0:0:0:
192,96,83866,2,0,P|272:64|320:96,1,112.5,0|0,2:0|2:0,2:0:0:0:
368,144,84151,5,0,2:0:0:0:
416,304,84294,1,0,2:0:0:0:
224,224,84437,2,0,L|96:224,1,112.5,0|0,2:0|2:0,2:0:0:0:
160,80,84723,5,0,2:0:0:0:
336,256,84866,1,0,2:0:0:0:
160,80,85008,2,0,L|256:176,1,112.5,0|0,2:0|2:0,2:0:0:0:
96,272,85294,5,0,2:0:0:0:
320,128,85437,1,0,2:0:0:0:
288,352,85580,1,0,2:0:0:0:
80,128,85723,1,0,2:0:0:0:
432,288,85866,1,0,2:0:0:0:
48,272,86008,1,0,2:0:0:0:
288,64,86151,1,0,2:0:0:0:
224,272,86294,6,0,P|288:288|352:256,1,112.5,0|0,2:0|2:0,2:0:0:0:
336,144,86580,5,0,2:0:0:0:
320,128,86651,1,0,2:0:0:0:
304,112,86723,1,0,2:0:0:0:
176,80,86866,1,0,2:0:0:0:
48,208,87008,1,0,2:0:0:0:
160,304,87151,1,0,2:0:0:0:
352,336,87294,1,0,2:0:0:0:
456,232,87437,6,0,B|448:176|448:176|488:176|488:128|456:96|408:72|344:80|304:128|320:192|336:216|336:216|216:88|216:88|256:192|240:304|240:304|296:272|376:336,1,900
96,144,88294,5,0,2:0:0:0:
176,304,88580,1,0,2:0:0:0:
352,336,88866,1,0,2:0:0:0:
432,192,89151,6,0,B|464:160|464:128|448:96|416:64|368:64|336:96|320:128|320:160|352:192|352:192|320:200|320:200|272:176|248:208|224:192|192:128|144:176|112:208|112:208|184:216|224:208|280:48|280:48|216:72|168:56,1,900,0|0,2:0|2:0,2:0:0:0:
144,80,90008,5,0,2:0:0:0:
80,240,90294,1,0,2:0:0:0:
224,336,90580,1,0,2:0:0:0:
408,256,90866,6,0,B|368:224|352:192|352:160|416:128|368:80|368:80|304:176|256:192|256:192|232:40|232:40|192:80|176:96|96:48|96:48|216:144|128:256|128:256|176:240|184:240,1,900,0|0,2:0|2:0,2:0:0:0:
368,336,91723,5,0,2:0:0:0:
224,208,92008,1,0,2:0:0:0:
448,208,92294,1,0,2:0:0:0:
304,96,92580,6,0,B|288:80|272:80|256:96|256:112|272:128|288:128|304:112|304:80|320:64|336:64|352:80|352:96|336:112|320:112|288:176|352:256|400:256|400:256|304:256|272:336|272:336|256:240|256:240|160:240|208:192|240:144|224:128|192:112|144:112|112:128|96:144|128:192|128:224|64:240,1,900,0|0,2:0|2:0,2:0:0:0:
96,320,93437,6,0,P|144:336|208:288,1,135,0|0,2:0|2:0,2:0:0:0:
208,288,93723,2,0,P|208:208|256:192,1,135,0|0,2:0|2:0,2:0:0:0:
288,208,94008,5,0,2:0:0:0:
320,224,94104,1,0,2:0:0:0:
352,240,94199,1,0,2:0:0:0:
384,256,94294,2,0,P|464:240|480:208,1,90,0|0,2:0|2:0,2:0:0:0:
448,112,94580,5,0,2:0:0:0:
160,224,94723,1,0,2:0:0:0:
112,64,94866,1,0,2:0:0:0:
368,336,95008,1,0,2:0:0:0:
352,96,95151,2,0,L|256:128,1,90,0|0,2:0|2:0,2:0:0:0:
64,192,95437,5,0,2:0:0:0:
352,304,95580,1,0,2:0:0:0:
48,112,95723,1,0,2:0:0:0:
448,64,95866,1,0,2:0:0:0:
32,32,96008,2,0,L|144:64,1,90,0|0,2:0|2:0,2:0:0:0:
144,176,96294,5,0,2:0:0:0:
240,288,96437,1,0,2:0:0:0:
352,208,96580,2,0,P|384:176|336:144,1,90,0|0,2:0|2:0,2:0:0:0:
272,64,96866,2,0,P|208:96|176:64,1,90,0|0,2:0|2:0,2:0:0:0:
80,176,97151,5,0,2:0:0:0:
224,320,97294,1,0,2:0:0:0:
304,144,97437,1,0,2:0:0:0:
80,176,97580,1,0,2:0:0:0:
224,320,97723,2,0,P|288:304|304:256,1,90,0|0,2:0|2:0,2:0:0:0:
144,96,98008,6,0,B|176:64|224:64|256:112|320:80,3,180,0|0|0|0,2:0|2:0|2:0|2:0,2:0:0:0:
315,82,98580,1,0,2:0:0:0:
192,208,98723,6,0,P|176:144|96:208,3,180,0|0|0|0,2:0|2:0|2:0|2:0,2:0:0:0:
96,304,99294,1,0,2:0:0:0:
96,304,99437,5,0,2:0:0:0:
256,288,99723,1,0,2:0:0:0:
384,176,100009,1,0,2:0:0:0:
416,32,100294,2,0,P|320:32|400:128,1,270,0|0,2:0|2:0,2:0:0:0:
416,144,100580,5,0,2:0:0:0:
431,185,100651,1,0,2:0:0:0:
423,229,100722,1,0,2:0:0:0:
394,262,100794,1,0,2:0:0:0:
352,276,100865,1,0,2:0:0:0:
304,272,100937,1,0,2:0:0:0:
268,245,101008,1,0,2:0:0:0:
224,241,101079,1,0,2:0:0:0:
176,256,101151,5,0,2:0:0:0:
80,128,101580,5,0,2:0:0:0:
256,176,101866,1,0,2:0:0:0:
432,224,102151,1,0,2:0:0:0:
336,320,102866,5,0,2:0:0:0:
336,320,102937,1,0,2:0:0:0:
336,320,103008,1,0,2:0:0:0:
336,320,103080,1,0,2:0:0:0:
336,320,103151,1,0,2:0:0:0:
400,144,103437,6,0,P|336:96|304:96,1,90,0|0,2:0|2:0,2:0:0:0:
224,112,103723,1,0,2:0:0:0:
224,320,103866,1,0,2:0:0:0:
80,176,104008,1,0,2:0:0:0:
384,288,104151,1,0,2:0:0:0:
64,320,104294,1,0,2:0:0:0:
384,160,104437,1,0,2:0:0:0:
160,96,104580,2,0,P|80:96|64:128,1,90,0|0,2:0|2:0,2:0:0:0:
144,256,104866,5,0,2:0:0:0:
336,320,105008,1,0,2:0:0:0:
208,128,105151,1,0,2:0:0:0:
464,288,105294,1,0,2:0:0:0:
304,32,105437,1,0,2:0:0:0:
512,160,105580,1,0,2:0:0:0:
128,192,105723,2,0,P|176:240|224:224,1,90,0|0,2:0|2:0,2:0:0:0:
320,128,106008,5,0,2:0:0:0:
352,320,106151,1,0,2:0:0:0:
224,112,106294,1,0,2:0:0:0:
80,272,106437,1,0,2:0:0:0:
352,128,106580,1,0,2:0:0:0:
400,336,106723,1,0,2:0:0:0:
192,96,106866,1,0,2:0:0:0:
48,256,107008,1,0,2:0:0:0:
352,128,107151,1,0,2:0:0:0:
400,336,107294,1,0,2:0:0:0:
96,128,107437,5,0,2:0:0:0:
96,128,107508,1,0,2:0:0:0:
96,128,107580,1,0,2:0:0:0:
240,240,107723,5,0,2:0:0:0:
240,240,107794,1,0,2:0:0:0:
240,240,107866,1,0,2:0:0:0:
320,64,108008,5,0,2:0:0:0:
336,80,108080,1,0,2:0:0:0:
352,96,108151,1,0,2:0:0:0:
368,112,108223,1,0,2:0:0:0:
384,128,108294,1,0,2:0:0:0:
368,272,108437,5,0,2:0:0:0:
160,128,108580,5,0,2:0:0:0:
160,128,108651,1,0,2:0:0:0:
160,128,108723,1,0,2:0:0:0:
96,256,108866,5,0,2:0:0:0:
240,80,109008,1,0,2:0:0:0:
240,272,109151,5,0,2:0:0:0:
282,260,109222,1,0,2:0:0:0:
310,226,109293,1,0,2:0:0:0:
313,182,109365,1,0,2:0:0:0:
288,144,109436,1,0,2:0:0:0:
256,128,109508,1,0,2:0:0:0:
208,128,109580,1,0,2:0:0:0:
174,157,109651,1,0,2:0:0:0:
130,160,109722,1,0,2:0:0:0:
93,137,109794,1,0,2:0:0:0:
80,96,109866,5,0,2:0:0:0:
82,52,109937,1,0,2:0:0:0:
112,20,110008,1,0,2:0:0:0:
156,18,110080,1,0,2:0:0:0:
190,46,110151,1,0,2:0:0:0:
208,80,110223,1,0,2:0:0:0:
171,104,110294,2,0,P|160:192|144:208,1,90,0|0,2:0|2:0,2:0:0:0:
232,320,110580,5,0,2:0:0:0:
96,96,110723,1,0,2:0:0:0:
416,240,110866,1,0,2:0:0:0:
104,264,111008,1,0,2:0:0:0:
64,32,111151,1,0,2:0:0:0:
496,216,111294,1,0,2:0:0:0:
128,176,111437,2,0,P|64:160|64:128,1,90,0|0,2:0|2:0,2:0:0:0:
160,64,111723,5,0,2:0:0:0:
448,144,111866,1,0,2:0:0:0:
96,96,112008,5,0,2:0:0:0:
432,256,112151,1,0,2:0:0:0:
32,128,112294,5,0,2:0:0:0:
352,336,112437,1,0,2:0:0:0:
0,240,112580,6,0,L|96:272,1,90,0|0,2:0|2:0,2:0:0:0:
272,304,112866,5,0,2:0:0:0:
144,224,113008,1,0,2:0:0:0:
320,176,113151,1,0,2:0:0:0:
224,128,113294,1,0,2:0:0:0:
320,336,113437,1,0,2:0:0:0:
112,224,113580,1,0,2:0:0:0:
352,176,113723,2,0,P|384:128|368:112,1,90,0|0,2:0|2:0,2:0:0:0:
288,80,114008,5,0,2:0:0:0:
208,304,114151,1,0,2:0:0:0:
144,64,114294,1,0,2:0:0:0:
320,224,114437,1,0,2:0:0:0:
80,192,114580,1,0,2:0:0:0:
288,80,114723,1,0,2:0:0:0:
208,304,114866,2,0,L|320:304,1,90,0|0,2:0|2:0,2:0:0:0:
176,160,115151,5,0,2:0:0:0:
320,304,115294,1,0,2:0:0:0:
368,112,115437,1,0,2:0:0:0:
160,160,115580,1,0,2:0:0:0:
304,304,115723,1,0,2:0:0:0:
352,112,115866,1,0,2:0:0:0:
128,176,116008,1,0,2:0:0:0:
272,320,116151,1,0,2:0:0:0:
320,128,116294,1,0,2:0:0:0:
96,192,116437,5,0,2:0:0:0:
112,288,116580,2,0,P|144:272|160:256,1,45,0|0,2:0|2:0,2:0:0:0:
224,304,116723,2,0,P|240:272|240:224,1,45,0|0,2:0|2:0,2:0:0:0:
336,272,116866,2,0,P|352:240|352:208,1,45,0|0,2:0|2:0,2:0:0:0:
448,208,117008,2,0,P|464:176|464:128,1,45,0|0,2:0|2:0,2:0:0:0:
416,112,117151,6,0,B|400:128|400:128|464:160|448:224|400:256|336:256|256:176|304:96|368:48|384:48,1,360,0|0,2:0|2:0,2:0:0:0:
224,80,118008,5,0,2:0:0:0:
96,112,118294,5,0,2:0:0:0:
96,112,118366,1,0,2:0:0:0:
96,112,118437,2,0,L|120:176,1,45,0|0,2:0|2:0,2:0:0:0:
240,176,118580,5,0,2:0:0:0:
236,180,118651,1,0,2:0:0:0:
232,184,118723,2,0,L|192:224,1,45
100,212,118866,5,0,2:0:0:0:
104,216,118937,1,0,2:0:0:0:
108,220,119008,1,0,2:0:0:0:
112,224,119080,1,0,2:0:0:0:
116,228,119151,1,0,2:0:0:0:
149,256,119222,1,0,2:0:0:0:
193,256,119293,1,0,2:0:0:0:
227,227,119365,1,0,2:0:0:0:
240,192,119437,6,0,P|272:128|304:128,1,90,0|0,2:0|2:0,2:0:0:0:
328,32,119723,5,0,2:0:0:0:
369,68,119794,1,0,2:0:0:0:
382,121,119865,1,0,2:0:0:0:
360,172,119937,1,0,2:0:0:0:
312,200,120008,1,0,2:0:0:0:
257,194,120080,1,0,2:0:0:0:
216,157,120151,1,0,2:0:0:0:
206,102,120222,1,0,2:0:0:0:
216,56,120294,5,0,2:0:0:0:
265,81,120365,1,0,2:0:0:0:
297,126,120436,1,0,2:0:0:0:
305,181,120508,1,0,2:0:0:0:
286,234,120579,1,0,2:0:0:0:
245,272,120651,1,0,2:0:0:0:
192,286,120722,1,0,2:0:0:0:
137,274,120793,1,0,2:0:0:0:
96,240,120866,5,0,2:0:0:0:
146,215,120937,1,0,2:0:0:0:
200,201,121008,1,0,2:0:0:0:
256,198,121080,1,0,2:0:0:0:
312,207,121151,1,0,2:0:0:0:
364,227,121223,1,0,2:0:0:0:
411,258,121294,1,0,2:0:0:0:
451,298,121365,1,0,2:0:0:0:
480,344,121437,5,0,2:0:0:0:
424,334,121508,1,0,2:0:0:0:
373,310,121579,1,0,2:0:0:0:
331,274,121651,1,0,2:0:0:0:
300,227,121722,1,0,2:0:0:0:
283,174,121794,1,0,2:0:0:0:
280,118,121865,1,0,2:0:0:0:
293,63,121936,1,0,2:0:0:0:
320,16,122008,5,0,2:0:0:0:
349,63,122079,1,0,2:0:0:0:
354,118,122150,1,0,2:0:0:0:
333,170,122222,1,0,2:0:0:0:
291,207,122293,1,0,2:0:0:0:
237,220,122365,1,0,2:0:0:0:
182,208,122436,1,0,2:0:0:0:
140,172,122507,1,0,2:0:0:0:
120,120,122580,5,0,2:0:0:0:
144,72,122651,1,0,2:0:0:0:
198,69,122722,1,0,2:0:0:0:
228,114,122794,1,0,2:0:0:0:
224,160,122866,6,0,P|192:200|136:224,11,78.7500007510185,0|0|0|0|0|0|0|0|0|0|0|0,2:0|2:0|2:0|2:0|2:0|2:0|2:0|2:0|2:0|2:0|2:0|2:0,2:0:0:0:
88,256,123723,5,0,2:0:0:0:
88,256,123794,1,0,2:0:0:0:
88,256,123866,1,0,2:0:0:0:
248,112,124008,5,0,2:0:0:0:
248,112,124151,1,0,2:0:0:0:
192,336,124294,5,0,2:0:0:0:
192,336,124365,1,0,2:0:0:0:
192,336,124437,1,0,2:0:0:0:
112,96,124580,5,0,2:0:0:0:
112,96,124723,1,0,2:0:0:0:
256,128,124866,5,0,2:0:0:0:
256,128,124938,1,0,2:0:0:0:
256,128,125009,1,0,2:0:0:0:
408,264,125151,5,0,2:0:0:0:
408,264,125294,1,0,2:0:0:0:
384,352,125437,5,0,2:0:0:0:
384,352,125508,1,0,2:0:0:0:
384,352,125580,1,0,2:0:0:0:
136,240,125723,5,0,2:0:0:0:
136,240,125866,1,0,2:0:0:0:
296,136,126008,1,0,2:0:0:0:
296,136,126151,1,0,2:0:0:0:
112,80,126294,5,0,2:0:0:0:
432,272,126437,1,0,2:0:0:0:
128,304,126580,1,0,2:0:0:0:
336,96,126723,5,0,2:0:0:0:
336,96,126794,1,0,2:0:0:0:
336,96,126866,1,0,2:0:0:0:
304,176,127008,5,0,2:0:0:0:
288,208,127080,1,0,2:0:0:0:
256,224,127151,1,0,2:0:0:0:
224,224,127223,1,0,2:0:0:0:
192,208,127294,1,0,2:0:0:0:
112,96,127437,5,0,2:0:0:0:
96,128,127509,1,0,2:0:0:0:
96,168,127580,2,0,P|104:208|144:232,1,67.5000025749208,0|0,2:0|2:0,2:0:0:0:
192,320,127723,5,0,2:0:0:0:
208,288,127794,1,0,2:0:0:0:
216,240,127866,2,0,P|216:200|192:168,1,67.5000025749208,0|0,2:0|2:0,2:0:0:0:
200,32,128008,5,0,2:0:0:0:
248,48,128080,1,0,2:0:0:0:
296,72,128151,2,0,P|320:96|344:152,1,67.5000025749208,0|0,2:0|2:0,2:0:0:0:
432,176,128294,5,0,2:0:0:0:
400,208,128366,1,0,2:0:0:0:
352,224,128437,2,0,P|312:240|272:232,1,67.5000025749208,0|0,2:0|2:0,2:0:0:0:
184,168,128580,6,0,P|136:104|24:104,1,135.000005149842,0|0,2:0|2:0,2:0:0:0:
64,272,128866,1,0,2:0:0:0:
416,304,129008,1,0,2:0:0:0:
160,64,129151,6,0,P|112:128|160:128,1,135.000005149842,0|0,2:0|2:0,2:0:0:0:
256,304,129437,1,0,2:0:0:0:
160,64,129580,1,0,2:0:0:0:
336,96,129723,6,0,B|368:144|368:144|240:128,1,135.000005149842,0|0,2:0|2:0,2:0:0:0:
64,112,130008,1,0,2:0:0:0:
304,256,130151,1,0,2:0:0:0:
64,304,130294,6,0,B|96:288|96:288|80:256|112:272|112:240|96:224|96:224|128:192,1,135.000005149842,0|0,2:0|2:0,2:0:0:0:
208,96,130580,1,0,2:0:0:0:
384,192,130723,1,0,2:0:0:0:
240,336,130866,6,0,B|224:320|208:336|192:304|240:304|240:288|240:288|208:288|144:288|176:240,1,135.000005149842,0|0,2:0|2:0,2:0:0:0:
96,176,131151,1,0,2:0:0:0:
432,96,131294,1,0,2:0:0:0:
368,320,131437,6,0,B|352:288|368:256|368:256|352:256|352:272|336:272|336:272|352:240|320:208,1,135.000005149842,0|0,2:0|2:0,2:0:0:0:
208,128,131723,1,0,2:0:0:0:
368,320,131866,1,0,2:0:0:0:
32,64,132008,5,0,2:0:0:0:
32,64,132080,1,0,2:0:0:0:
32,64,132151,1,0,2:0:0:0:
112,288,132294,5,0,2:0:0:0:
448,224,132437,1,0,2:0:0:0:
352,64,132580,5,0,2:0:0:0:
352,64,132651,1,0,2:0:0:0:
352,64,132723,1,0,2:0:0:0:
96,112,132866,5,0,2:0:0:0:
224,304,133008,1,0,2:0:0:0:
80,192,133151,5,0,2:0:0:0:
128,208,133223,1,0,2:0:0:0:
176,224,133294,1,0,2:0:0:0:
352,288,133437,5,0,2:0:0:0:
80,192,133580,1,0,2:0:0:0:
272,96,133723,5,0,2:0:0:0:
304,144,133794,1,0,2:0:0:0:
288,192,133866,1,0,2:0:0:0:
160,288,134008,5,0,2:0:0:0:
16,64,134151,1,0,2:0:0:0:
16,64,134294,5,0,2:0:0:0:
64,80,134366,1,0,2:0:0:0:
112,96,134437,1,0,2:0:0:0:
224,144,134580,5,0,2:0:0:0:
304,288,134723,1,0,2:0:0:0:
416,112,134866,1,0,2:0:0:0:
144,240,135008,1,0,2:0:0:0:
224,32,135151,1,0,2:0:0:0:
432,320,135294,1,0,2:0:0:0:
288,80,135437,5,0,2:0:0:0:
240,112,135508,1,0,2:0:0:0:
192,144,135580,1,0,2:0:0:0:
144,176,135651,1,0,2:0:0:0:
96,208,135723,2,0,P|64:224|112:304,1,135.000005149842,0|0,2:0|2:0,2:0:0:0:
368,208,136008,5,0,2:0:0:0:
112,80,136151,1,0,2:0:0:0:
384,256,136294,5,0,2:0:0:0:
16,192,136437,1,0,2:0:0:0:
400,304,136580,5,0,2:0:0:0:
368,336,136651,1,0,2:0:0:0:
336,352,136723,1,0,2:0:0:0:
288,352,136794,1,0,2:0:0:0:
240,336,136866,1,0,2:0:0:0:
208,304,136937,1,0,2:0:0:0:
192,256,137008,1,0,2:0:0:0:
192,208,137080,1,0,2:0:0:0:
208,160,137151,5,0,2:0:0:0:
240,128,137223,1,0,2:0:0:0:
288,112,137294,1,0,2:0:0:0:
336,112,137366,1,0,2:0:0:0:
384,144,137437,1,0,2:0:0:0:
416,192,137508,1,0,2:0:0:0:
432,240,137580,1,0,2:0:0:0:
432,304,137651,1,0,2:0:0:0:
416,352,137723,6,0,P|384:336|368:240,1,135.000005149842,0|0,2:0|2:0,2:0:0:0:
272,320,138008,6,0,P|240:288|240:256,1,67.5000025749208,0|0,2:0|2:0,2:0:0:0:
128,256,138151,2,0,P|128:208|160:160,1,67.5000025749208,0|0,2:0|2:0,2:0:0:0:
416,192,138294,2,0,P|384:144|352:128,1,67.5000025749208,0|0,2:0|2:0,2:0:0:0:
464,64,138437,2,0,P|416:32|368:32,1,67.5000025749208,0|0,2:0|2:0,2:0:0:0:
368,32,138580,5,0,2:0:0:0:
313,41,138651,1,0,2:0:0:0:
277,83,138722,1,0,2:0:0:0:
277,138,138794,1,0,2:0:0:0:
313,180,138865,1,0,2:0:0:0:
367,189,138937,1,0,2:0:0:0:
414,161,139008,1,0,2:0:0:0:
433,110,139080,1,0,2:0:0:0:
448,64,139151,5,0,2:0:0:0:
393,77,139222,1,0,2:0:0:0:
352,114,139293,1,0,2:0:0:0:
335,167,139365,1,0,2:0:0:0:
336,224,139437,1,0,2:0:0:0:
352,276,139508,1,0,2:0:0:0:
397,309,139579,1,0,2:0:0:0:
452,308,139651,1,0,2:0:0:0:
496,272,139723,5,0,2:0:0:0:
493,216,139794,1,0,2:0:0:0:
459,172,139865,1,0,2:0:0:0:
406,156,139937,1,0,2:0:0:0:
354,174,140008,1,0,2:0:0:0:
320,224,140080,1,0,2:0:0:0:
283,264,140151,1,0,2:0:0:0:
228,268,140222,1,0,2:0:0:0:
176,240,140294,5,0,2:0:0:0:
140,199,140365,1,0,2:0:0:0:
152,147,140436,1,0,2:0:0:0:
203,127,140508,1,0,2:0:0:0:
240,160,140580,1,0,2:0:0:0:
195,194,140651,1,0,2:0:0:0:
151,229,140722,1,0,2:0:0:0:
106,263,140794,1,0,2:0:0:0:
72,304,140866,5,0,2:0:0:0:
120,332,140937,1,0,2:0:0:0:
175,332,141008,1,0,2:0:0:0:
224,305,141080,1,0,2:0:0:0:
248,256,141151,1,0,2:0:0:0:
226,205,141222,1,0,2:0:0:0:
245,153,141293,1,0,2:0:0:0:
294,127,141365,1,0,2:0:0:0:
344,128,141437,5,0,2:0:0:0:
394,146,141508,1,0,2:0:0:0:
406,199,141579,1,0,2:0:0:0:
368,238,141651,1,0,2:0:0:0:
312,224,141723,1,0,2:0:0:0:
287,174,141794,1,0,2:0:0:0:
235,156,141865,1,0,2:0:0:0:
185,179,141937,1,0,2:0:0:0:
168,224,142008,6,0,P|176:288|248:304,1,112.5,0|0,2:0|2:0,2:0:0:0:
352,336,142294,1,0,2:0:0:0:
368,96,142437,1,0,2:0:0:0:
112,112,142580,5,0,2:0:0:0:
128,112,142651,1,0,2:0:0:0:
144,112,142723,1,0,2:0:0:0:
64,304,142866,5,0,2:0:0:0:
368,256,143008,1,0,2:0:0:0:
256,64,143151,5,0,2:0:0:0:
304,112,143223,1,0,2:0:0:0:
352,160,143294,1,0,2:0:0:0:
80,144,143437,5,0,2:0:0:0:
80,144,143580,1,0,2:0:0:0:
256,272,143723,5,0,2:0:0:0:
224,224,143794,1,0,2:0:0:0:
256,176,143865,1,0,2:0:0:0:
432,96,144008,5,0,2:0:0:0:
192,80,144151,1,0,2:0:0:0:
304,288,144294,1,0,2:0:0:0:
304,288,144366,1,0,2:0:0:0:
304,288,144437,1,0,2:0:0:0:
96,112,144580,5,0,2:0:0:0:
80,272,144723,1,0,2:0:0:0:
240,144,144866,5,0,2:0:0:0:
272,128,144937,1,0,2:0:0:0:
304,112,145008,1,0,2:0:0:0:
336,96,145080,1,0,2:0:0:0:
368,112,145152,5,0,2:0:0:0:
320,144,145223,1,0,2:0:0:0:
272,176,145295,1,0,2:0:0:0:
224,208,145366,1,0,2:0:0:0:
208,256,145436,5,0,2:0:0:0:
272,224,145508,1,0,2:0:0:0:
336,192,145579,1,0,2:0:0:0:
400,160,145651,1,0,2:0:0:0:
464,128,145723,6,0,P|496:176|496:192,3,56.25,0|0|0|0,2:0|2:0|2:0|2:0,2:0:0:0:
416,192,146008,2,0,P|409:249|399:261,3,56.25,0|0|0|0,2:0|2:0|2:0|2:0,2:0:0:0:
352,224,146294,2,0,P|313:267|298:271,3,56.25,0|0|0|0,2:0|2:0|2:0|2:0,2:0:0:0:
272,272,146580,5,0,2:0:0:0:
240,272,146651,1,0,2:0:0:0:
208,256,146723,1,0,2:0:0:0:
192,224,146794,1,0,2:0:0:0:
192,192,146866,6,0,L|336:160,1,112.5,0|0,2:0|2:0,2:0:0:0:
208,64,147151,1,0,2:0:0:0:
320,320,147294,1,0,2:0:0:0:
384,80,147437,1,0,2:0:0:0:
160,224,147580,1,0,2:0:0:0:
464,224,147723,1,0,2:0:0:0:
272,48,147866,1,0,2:0:0:0:
384,288,148008,6,0,B|400:272|400:272|384:256|416:256|416:256|400:224|464:208,1,112.5,0|0,2:0|2:0,2:0:0:0:
384,128,148294,1,0,2:0:0:0:
256,16,148437,1,0,2:0:0:0:
112,32,148580,1,0,2:0:0:0:
0,160,148723,1,0,2:0:0:0:
48,336,148866,1,0,2:0:0:0:
224,368,149008,1,0,2:0:0:0:
368,320,149151,6,0,B|384:288|384:288|352:272|384:272|400:256|400:224,1,112.5,0|0,2:0|2:0,2:0:0:0:
320,176,149437,1,0,2:0:0:0:
192,224,149580,1,0,2:0:0:0:
320,160,149723,1,0,2:0:0:0:
112,144,149866,1,0,2:0:0:0:
320,144,150008,1,0,2:0:0:0:
32,48,150151,1,0,2:0:0:0:
320,128,150294,6,0,P|368:80|416:128,1,112.5,0|0,2:0|2:0,2:0:0:0:
432,192,150580,1,0,2:0:0:0:
336,304,150723,1,0,2:0:0:0:
224,208,150866,6,0,P|160:176|160:128,1,112.5,0|0,2:0|2:0,2:0:0:0:
256,64,151151,1,0,2:0:0:0:
448,144,151294,1,0,2:0:0:0:
160,224,151437,5,0,2:0:0:0:
384,336,151580,1,0,2:0:0:0:
104,72,151723,5,0,2:0:0:0:
120,120,151794,1,0,2:0:0:0:
152,160,151866,2,0,P|192:176|232:176,1,56.25,0|0,2:0|2:0,2:0:0:0:
336,136,152008,5,0,2:0:0:0:
360,184,152080,1,0,2:0:0:0:
360,232,152151,2,0,L|320:280,1,56.25,0|0,2:0|2:0,2:0:0:0:
168,336,152294,5,0,2:0:0:0:
112,320,152366,1,0,2:0:0:0:
72,280,152437,2,0,P|56:248|72:208,1,56.25,0|0,2:0|2:0,2:0:0:0:
96,96,152580,5,0,2:0:0:0:
177,80,152651,1,0,2:0:0:0:
253,115,152722,1,0,2:0:0:0:
295,186,152794,1,0,2:0:0:0:
288,269,152865,1,0,2:0:0:0:
224,328,152937,1,0,2:0:0:0:
208,232,153008,1,0,2:0:0:0:
240,136,153080,1,0,2:0:0:0:
296,56,153151,5,0,2:0:0:0:
80,80,153437,6,0,P|144:96|128:128,1,112.5,0|0,2:0|2:0,2:0:0:0:
96,192,153723,6,0,B|48:240|80:272|80:272|96:256|128:256|128:224|160:256|160:256|224:240,1,225,0|0,2:0|2:0,2:0:0:0:
288,128,154294,6,0,P|368:136|392:216,2,168.75,0|0|0,2:0|2:0|2:0,2:0:0:0:
320,184,154866,2,0,P|272:280|240:264,1,168.75,0|0,2:0|2:0,2:0:0:0:
200,240,155151,5,0,2:0:0:0:
151,210,155222,1,0,2:0:0:0:
129,160,155293,1,0,2:0:0:0:
138,105,155365,1,0,2:0:0:0:
177,65,155436,1,0,2:0:0:0:
231,53,155508,1,0,2:0:0:0:
282,74,155579,1,0,2:0:0:0:
313,120,155651,1,0,2:0:0:0:
320,176,155723,5,0,2:0:0:0:
329,230,155794,1,0,2:0:0:0:
368,270,155865,1,0,2:0:0:0:
423,280,155937,1,0,2:0:0:0:
474,260,156008,1,0,2:0:0:0:
505,214,156080,1,0,2:0:0:0:
505,158,156151,1,0,2:0:0:0:
475,112,156223,1,0,2:0:0:0:
424,88,156294,5,0,2:0:0:0:
368,82,156365,1,0,2:0:0:0:
315,101,156436,1,0,2:0:0:0:
276,140,156508,1,0,2:0:0:0:
257,193,156579,1,0,2:0:0:0:
263,248,156651,1,0,2:0:0:0:
291,296,156722,1,0,2:0:0:0:
338,327,156794,1,0,2:0:0:0:
392,336,156866,5,0,2:0:0:0:
378,281,156937,1,0,2:0:0:0:
358,228,157008,1,0,2:0:0:0:
331,179,157080,1,0,2:0:0:0:
299,133,157151,1,0,2:0:0:0:
261,91,157223,1,0,2:0:0:0:
219,54,157294,1,0,2:0:0:0:
176,32,157366,1,0,2:0:0:0:
120,32,157437,5,0,2:0:0:0:
132,86,157508,1,0,2:0:0:0:
144,141,157579,1,0,2:0:0:0:
157,196,157651,1,0,2:0:0:0:
144,240,157723,6,0,B|112:256|80:288|80:336|112:368|144:384|176:384|208:368|240:336|240:336|224:288|224:288|256:304,1,337.5,0|0,2:0|2:0,2:0:0:0:
288,256,158294,5,0,2:0:0:0:
313,304,158365,1,0,2:0:0:0:
364,327,158436,1,0,2:0:0:0:
417,314,158508,1,0,2:0:0:0:
452,271,158579,1,0,2:0:0:0:
453,216,158651,1,0,2:0:0:0:
420,172,158722,1,0,2:0:0:0:
366,157,158794,1,0,2:0:0:0:
320,176,158866,5,0,2:0:0:0:
272,204,158937,1,0,2:0:0:0:
217,204,159008,1,0,2:0:0:0:
170,174,159080,1,0,2:0:0:0:
144,120,159151,1,0,2:0:0:0:
152,64,159222,1,0,2:0:0:0:
208,24,159293,1,0,2:0:0:0:
264,24,159365,1,0,2:0:0:0:
312,64,159437,5,0,2:0:0:0:
328,128,159508,1,0,2:0:0:0:
288,184,159579,1,0,2:0:0:0:
216,176,159651,1,0,2:0:0:0:
192,104,159723,1,0,2:0:0:0:
224,40,159794,1,0,2:0:0:0:
296,32,159865,1,0,2:0:0:0:
344,88,159937,1,0,2:0:0:0:
352,128,160008,5,0,2:0:0:0:
366,144,160079,1,0,2:0:0:0:
358,160,160150,1,0,2:0:0:0:
346,176,160222,1,0,2:0:0:0:
336,191,160293,1,0,2:0:0:0:
347,202,160365,1,0,2:0:0:0:
357,213,160436,1,0,2:0:0:0:
367,224,160508,1,0,2:0:0:0:
356,240,160579,5,0,2:0:0:0:
345,256,160650,1,0,2:0:0:0:
338,270,160722,1,0,2:0:0:0:
348,281,160793,1,0,2:0:0:0:
358,292,160865,1,0,2:0:0:0:
366,304,160936,1,0,2:0:0:0:
355,320,161008,1,0,2:0:0:0:
328,336,161079,1,0,2:0:0:0:
304,336,161151,5,0,2:0:0:0:
287,350,161222,1,0,2:0:0:0:
272,342,161293,1,0,2:0:0:0:
256,330,161365,1,0,2:0:0:0:
240,320,161436,1,0,2:0:0:0:
229,331,161508,1,0,2:0:0:0:
218,341,161579,1,0,2:0:0:0:
207,351,161651,1,0,2:0:0:0:
192,340,161722,1,0,2:0:0:0:
80,160,162151,6,0,L|128:192,1,56.25,0|0,2:0|2:0,2:0:0:0:
160,208,162294,5,0,2:0:0:0:
192,224,162508,1,0,2:0:0:0:
224,240,162675,1,0,2:0:0:0:
256,256,162866,6,0,P|368:208|320:112,1,225,0|0,2:0|2:0,2:0:0:0:
176,96,163294,1,0,2:0:0:0:
160,224,163437,1,0,2:0:0:0:
288,144,163580,1,0,2:0:0:0:
384,64,163723,6,0,P|432:96|448:224,1,168.75,0|0,2:0|2:0,2:0:0:0:
416,128,164008,2,0,P|416:208|352:288,1,168.75,0|0,2:0|2:0,2:0:0:0:
384,192,164294,2,0,P|336:256|224:256,1,168.75,0|0,2:0|2:0,2:0:0:0:
320,208,164580,2,0,P|256:224|128:144,1,225,0|0,2:0|2:0,2:0:0:0:
160,32,165008,5,0,2:0:0:0:
272,80,165151,1,0,2:0:0:0:
160,160,165294,1,0,2:0:0:0:
48,224,165437,6,0,P|96:272|192:256,1,168.75,0|0,2:0|2:0,2:0:0:0:
112,224,165723,2,0,P|192:224|256:128,1,168.75,0|0,2:0|2:0,2:0:0:0:
160,176,166008,2,0,P|224:160|240:48,1,168.75,0|0,2:0|2:0,2:0:0:0:
208,48,166294,2,0,P|144:96|192:256,1,225,0|0,2:0|2:0,2:0:0:0:
304,208,166723,5,0,2:0:0:0:
160,224,166866,1,0,2:0:0:0:
304,208,167008,1,0,2:0:0:0:
160,224,167151,2,0,P|64:176|64:96,1,168.75,0|0,2:0|2:0,2:0:0:0:
160,80,167437,5,0,2:0:0:0:
320,160,167580,1,0,2:0:0:0:
320,336,167723,1,0,2:0:0:0:
128,384,167866,1,0,2:0:0:0:
8,200,168008,2,0,P|8:120|120:120,1,168.75,0|0,2:0|2:0,2:0:0:0:
128,112,168294,5,0,2:0:0:0:
176,140,168365,1,0,2:0:0:0:
224,169,168436,1,0,2:0:0:0:
272,198,168508,1,0,2:0:0:0:
320,227,168579,1,0,2:0:0:0:
368,256,168651,1,0,2:0:0:0:
415,285,168722,1,0,2:0:0:0:
463,315,168793,1,0,2:0:0:0:
512,352,168866,6,0,B|448:352|448:352|352:272,1,168.75,0|0,2:0|2:0,2:0:0:0:
367,284,169151,2,0,B|303:284|303:284|223:364,1,168.75,0|0,2:0|2:0,2:0:0:0:
216,360,169437,1,0,2:0:0:0:
200,360,169508,1,0,2:0:0:0:
184,360,169580,1,0,2:0:0:0:
168,360,169651,1,0,2:0:0:0:
152,360,169723,6,0,P|88:360|88:280,1,112.5,0|0,2:0|2:0,2:0:0:0:
176,64,170008,5,0,2:0:0:0:
224,352,170151,1,0,2:0:0:0:
320,48,170294,1,0,2:0:0:0:
144,192,170437,1,0,2:0:0:0:
400,160,170580,6,0,P|352:240|256:256,1,168.75,0|0,2:0|2:0,2:0:0:0:
256,256,170866,2,0,P|320:304|448:264,1,225,0|0,2:0|2:0,2:0:0:0:
224,72,171294,1,0,0:0:0:0:
72,248,171437,2,0,P|152:216|296:248,1,225
368,240,171866,5,0,2:0:0:0:
208,64,172008,1,0,2:0:0:0:
208,304,172151,1,0,2:0:0:0:
352,80,172294,1,0,2:0:0:0:
96,176,172437,1,0,2:0:0:0:
304,288,172580,1,0,2:0:0:0:
320,112,172723,5,0,2:0:0:0:
160,176,172866,1,0,2:0:0:0:
288,256,173008,1,0,2:0:0:0:
272,128,173151,2,0,P|208:112|128:144,1,112.5,0|0,2:0|2:0,2:0:0:0:
80,208,173437,5,0,2:0:0:0:
208,304,173580,1,0,2:0:0:0:
368,240,173723,1,0,2:0:0:0:
400,96,173866,1,0,2:0:0:0:
192,64,174008,2,0,L|272:192,1,112.5,0|0,2:0|2:0,2:0:0:0:
304,256,174294,5,0,2:0:0:0:
336,304,174437,1,0,2:0:0:0:
368,352,174580,1,0,2:0:0:0:
272,208,174723,1,0,2:0:0:0:
240,160,174866,2,0,B|224:128|224:128|192:144|256:112|208:96|192:48,1,112.5,0|0,2:0|2:0,2:0:0:0:
96,96,175151,5,0,2:0:0:0:
96,256,175294,1,0,2:0:0:0:
144,96,175437,1,0,2:0:0:0:
160,256,175580,2,0,L|224:224,1,56.25,0|0,2:0|2:0,2:0:0:0:
256,208,175723,5,0,2:0:0:0:
238,156,175794,1,0,2:0:0:0:
270,112,175865,1,0,2:0:0:0:
324,113,175937,1,0,2:0:0:0:
352,160,176008,1,0,2:0:0:0:
358,209,176079,1,0,2:0:0:0:
337,260,176150,1,0,2:0:0:0:
286,280,176222,1,0,2:0:0:0:
240,288,176294,6,0,P|160:256|160:224,1,112.5,0|0,2:0|2:0,2:0:0:0:
192,128,176580,2,0,P|288:96|288:144,1,168.75,0|0,2:0|2:0,2:0:0:0:
304,168,176866,5,0,2:0:0:0:
279,217,176937,1,0,2:0:0:0:
230,243,177008,1,0,2:0:0:0:
175,238,177080,1,0,2:0:0:0:
133,201,177151,1,0,2:0:0:0:
119,148,177223,1,0,2:0:0:0:
138,96,177294,1,0,2:0:0:0:
183,64,177366,1,0,2:0:0:0:
240,64,177437,5,0,2:0:0:0:
254,118,177508,1,0,2:0:0:0:
254,174,177579,1,0,2:0:0:0:
239,228,177651,1,0,2:0:0:0:
211,276,177722,1,0,2:0:0:0:
171,316,177794,1,0,2:0:0:0:
122,344,177865,1,0,2:0:0:0:
68,358,177937,1,0,2:0:0:0:
16,360,178008,5,0,2:0:0:0:
13,304,178079,1,0,2:0:0:0:
35,253,178150,1,0,2:0:0:0:
78,217,178222,1,0,2:0:0:0:
132,204,178293,1,0,2:0:0:0:
187,216,178365,1,0,2:0:0:0:
230,251,178436,1,0,2:0:0:0:
253,302,178508,1,0,2:0:0:0:
240,360,178580,6,0,P|240:296|224:264,1,56.25,0|0,2:0|2:0,2:0:0:0:
336,288,178723,2,0,L|320:224,1,56.25,0|0,2:0|2:0,2:0:0:0:
416,184,178866,2,0,P|416:152|384:120,1,56.25,0|0,2:0|2:0,2:0:0:0:
480,64,179008,2,0,P|448:48|384:48,1,56.25,0|0,2:0|2:0,2:0:0:0:
352,32,179151,5,0,2:0:0:0:
297,23,179222,1,0,2:0:0:0:
247,47,179293,1,0,2:0:0:0:
219,95,179365,1,0,2:0:0:0:
222,150,179436,1,0,2:0:0:0:
256,194,179508,1,0,2:0:0:0:
309,211,179579,1,0,2:0:0:0:
362,195,179651,1,0,2:0:0:0:
400,160,179723,5,0,2:0:0:0:
426,111,179794,1,0,2:0:0:0:
413,57,179865,1,0,2:0:0:0:
369,25,179937,1,0,2:0:0:0:
314,31,180008,1,0,2:0:0:0:
277,72,180080,1,0,2:0:0:0:
275,127,180151,1,0,2:0:0:0:
311,169,180223,1,0,2:0:0:0:
360,184,180294,5,0,2:0:0:0:
411,203,180365,1,0,2:0:0:0:
444,248,180436,1,0,2:0:0:0:
445,303,180508,1,0,2:0:0:0:
415,350,180579,1,0,2:0:0:0:
364,371,180651,1,0,2:0:0:0:
310,361,180722,1,0,2:0:0:0:
271,321,180794,1,0,2:0:0:0:
256,272,180866,5,0,2:0:0:0:
259,215,180937,1,0,2:0:0:0:
296,175,181008,1,0,2:0:0:0:
351,165,181080,1,0,2:0:0:0:
400,189,181151,1,0,2:0:0:0:
424,239,181223,1,0,2:0:0:0:
414,293,181294,1,0,2:0:0:0:
372,329,181366,1,0,2:0:0:0:
320,328,181437,6,0,L|280:367,1,56.25,0|0,2:0|2:0,2:0:0:0:
112,336,181580,2,0,L|151:296,1,56.25,0|0,2:0|2:0,2:0:0:0:
304,224,181723,2,0,L|264:263,1,56.25,0|0,2:0|2:0,2:0:0:0:
128,184,181866,2,0,L|167:144,1,56.25,0|0,2:0|2:0,2:0:0:0:
240,104,182008,2,0,L|279:143,1,56.25,0|0,2:0|2:0,2:0:0:0:
304,224,182151,2,0,L|264:263,1,56.25,0|0,2:0|2:0,2:0:0:0:
192,296,182294,2,0,L|143:247,1,56.25,0|0,2:0|2:0,2:0:0:0:
112,128,182437,2,0,L|180:128,1,56.25,0|0,2:0|2:0,2:0:0:0:
272,144,182580,6,0,B|240:128|240:96|256:64|288:48|336:48|352:96|440:88|440:88|392:224|344:240|368:160|368:160|488:216,1,562.5,0|0,2:0|2:0,2:0:0:0:
464,288,183437,5,0,2:0:0:0:
224,64,183580,1,0,2:0:0:0:
464,208,183723,1,0,2:0:0:0:
176,128,183866,1,0,2:0:0:0:
448,128,184008,1,0,2:0:0:0:
160,208,184151,1,0,2:0:0:0:
336,128,184294,6,0,P|352:224|272:288,1,168.75,0|0,2:0|2:0,2:0:0:0:
304,160,184580,2,0,P|288:224|176:208,1,168.75,0|0,2:0|2:0,2:0:0:0:
256,176,184866,2,0,P|224:208|176:128,1,168.75,0|0,2:0|2:0,2:0:0:0:
224,48,185151,5,0,2:0:0:0:
368,112,185294,1,0,2:0:0:0:
432,240,185437,1,0,2:0:0:0:
176,96,185580,1,0,2:0:0:0:
320,160,185723,1,0,2:0:0:0:
368,288,185866,1,0,2:0:0:0:
128,144,186008,6,0,B|192:112|224:192|224:192|192:208|192:208|176:304|144:240|144:240|100:278|80:240|80:240|47:294|47:294|48:208,1,450,0|0,2:0|2:0,2:0:0:0:
336,96,186866,6,0,B|352:96|384:80|384:80|352:128|352:128|384:128|320:176|368:256|368:256|384:224|384:224|336:288|352:304,1,337.5,0|0,2:0|2:0,2:0:0:0:
416,320,187437,6,0,P|336:352|288:352,1,112.5,0|0,2:0|2:0,2:0:0:0:
288,320,187723,2,0,P|368:304|416:256,1,150,0|0,2:0|2:0,2:0:0:0:
368,224,187961,2,0,P|320:272|272:288,1,112.5,0|0,2:0|2:0,2:0:0:0:
224,256,188151,2,0,P|288:224|304:192,1,75,0|0,2:0|2:0,2:0:0:0:
320,144,188294,2,0,P|305:206|272:240,1,112.5,0|0,2:0|2:0,2:0:0:0:
208,128,188580,5,0,2:0:0:0:
80,192,188866,1,0,2:0:0:0:
80,336,189151,1,0,2:0:0:0:
208,384,189437,1,0,2:0:0:0:
336,320,189723,5,0,2:0:0:0:
336,320,189794,1,0,2:0:0:0:
336,320,189866,1,0,2:0:0:0:
336,320,189937,1,0,2:0:0:0:
336,320,190008,1,0,2:0:0:0:
336,320,190080,1,0,2:0:0:0:
336,320,190151,1,0,2:0:0:0:
336,320,190223,1,0,2:0:0:0:
336,320,190294,5,0,2:0:0:0:
400,160,190723,5,0,2:0:0:0:
256,96,191009,1,0,2:0:0:0:
96,96,191294,1,0,2:0:0:0:
80,256,191580,5,0,2:0:0:0:
82,277,191651,1,0,2:0:0:0:
101,288,191722,1,0,2:0:0:0:
121,281,191794,1,0,2:0:0:0:
128,261,191865,1,0,2:0:0:0:
117,242,191937,1,0,2:0:0:0:
95,240,192008,1,0,2:0:0:0:
80,256,192080,1,0,2:0:0:0:
83,278,192151,1,0,2:0:0:0:
87,300,192222,1,0,2:0:0:0:
91,322,192294,1,0,2:0:0:0:
272,224,192580,6,0,L|224:128,1,90,0|0,2:0|2:0,2:0:0:0:
176,64,192866,1,0,2:0:0:0:
176,64,193008,1,0,2:0:0:0:
400,176,193151,6,0,L|288:176,1,90,0|0,2:0|2:0,2:0:0:0:
80,176,193437,1,0,2:0:0:0:
80,176,193580,1,0,2:0:0:0:
64,256,193723,6,0,P|128:272|144:256,1,90,0|0,2:0|2:0,2:0:0:0:
245,275,194008,2,0,P|231:316|192:336,1,90,0|0,2:0|2:0,2:0:0:0:
344,320,194294,2,0,P|376:272|368:232,1,90,0|0,2:0|2:0,2:0:0:0:
403,122,194580,2,0,P|444:136|464:176,1,90,0|0,2:0|2:0,2:0:0:0:
272,80,194866,5,0,2:0:0:0:
112,160,195008,1,0,2:0:0:0:
384,272,195151,1,0,2:0:0:0:
128,64,195294,1,0,2:0:0:0:
352,128,195437,5,0,2:0:0:0:
64,224,195580,1,0,2:0:0:0:
384,352,195723,1,0,2:0:0:0:
160,112,195866,1,0,2:0:0:0:
304,96,196008,5,0,2:0:0:0:
144,336,196151,1,0,2:0:0:0:
256,32,196294,5,0,2:0:0:0:
208,368,196437,1,0,2:0:0:0:
192,0,196580,5,0,2:0:0:0:
272,384,196723,1,0,2:0:0:0:
128,0,196866,5,0,2:0:0:0:
336,384,197008,1,0,2:0:0:0:
64,112,197151,5,0,2:0:0:0:
64,160,197223,1,0,2:0:0:0:
96,192,197294,1,0,2:0:0:0:
80,240,197366,1,0,2:0:0:0:
112,272,197437,1,0,2:0:0:0:
224,112,197580,5,0,2:0:0:0:
272,160,197723,1,0,2:0:0:0:
320,208,197866,1,0,2:0:0:0:
368,256,198008,6,0,L|272:256,1,90,0|0,2:0|2:0,2:0:0:0:
208,208,198294,5,0,2:0:0:0:
165,218,198365,1,0,2:0:0:0:
137,253,198436,1,0,2:0:0:0:
136,297,198508,1,0,2:0:0:0:
161,333,198579,1,0,2:0:0:0:
203,346,198651,1,0,2:0:0:0:
245,331,198722,1,0,2:0:0:0:
269,294,198794,1,0,2:0:0:0:
288,256,198866,5,0,2:0:0:0:
304,214,198937,1,0,2:0:0:0:
341,190,199008,1,0,2:0:0:0:
385,191,199080,1,0,2:0:0:0:
421,216,199151,1,0,2:0:0:0:
436,258,199223,1,0,2:0:0:0:
425,301,199294,1,0,2:0:0:0:
391,330,199366,1,0,2:0:0:0:
352,336,199437,6,0,P|304:272|304:240,1,90,0|0,2:0|2:0,2:0:0:0:
176,224,199723,5,0,2:0:0:0:
384,144,199866,1,0,2:0:0:0:
176,32,200008,1,0,2:0:0:0:
240,256,200151,1,0,2:0:0:0:
288,16,200294,1,0,2:0:0:0:
240,256,200437,1,0,2:0:0:0:
80,32,200580,6,0,P|48:96|64:112,1,90,0|0,2:0|2:0,2:0:0:0:
80,208,200866,5,0,2:0:0:0:
384,192,201008,1,0,2:0:0:0:
64,208,201151,1,0,2:0:0:0:
368,192,201294,1,0,2:0:0:0:
48,208,201437,1,0,2:0:0:0:
352,192,201580,1,0,2:0:0:0:
32,208,201723,2,0,L|112:288,1,90,0|0,2:0|2:0,2:0:0:0:
256,288,202008,5,0,2:0:0:0:
208,64,202151,1,0,2:0:0:0:
416,144,202294,6,0,L|304:144,1,90,0|0,2:0|2:0,2:0:0:0:
96,80,202580,5,0,2:0:0:0:
352,256,202723,1,0,2:0:0:0:
32,176,202866,6,0,L|160:192,1,90,0|0,2:0|2:0,2:0:0:0:
480,208,203151,2,0,L|352:192,1,90,0|0,2:0|2:0,2:0:0:0:
32,288,203437,6,0,B|48:272|48:272|48:256|64:288|64:256|64:256|96:256|80:224|128:272|112:240|112:240|144:256|128:224|144:192|144:192|224:128|224:128,1,270,0|0,2:0|2:0,2:0:0:0:
352,96,204008,6,0,P|384:160|368:208,1,90,0|0,2:0|2:0,2:0:0:0:
224,272,204294,1,0,2:0:0:0:
224,272,204437,1,0,2:0:0:0:
64,96,204580,6,0,P|64:160|80:192,1,90,0|0,2:0|2:0,2:0:0:0:
224,128,204866,1,0,2:0:0:0:
224,128,205008,1,0,2:0:0:0:
160,304,205151,5,0,2:0:0:0:
352,288,205294,1,0,2:0:0:0:
112,240,205437,5,0,2:0:0:0:
400,224,205580,1,0,2:0:0:0:
64,176,205723,5,0,2:0:0:0:
448,160,205866,1,0,2:0:0:0:
16,112,206009,5,0,2:0:0:0:
496,96,206152,1,0,2:0:0:0:
144,80,206294,5,0,2:0:0:0:
160,112,206366,1,0,2:0:0:0:
160,144,206437,1,0,2:0:0:0:
176,176,206508,2,0,L|192:256,1,45,0|0,2:0|2:0,2:0:0:0:
256,304,206723,5,0,2:0:0:0:
368,80,206866,5,0,2:0:0:0:
320,96,206937,1,0,2:0:0:0:
272,80,207008,1,0,2:0:0:0:
224,96,207080,2,0,P|160:112|144:112,1,45,0|0,2:0|2:0,2:0:0:0:
80,192,207294,5,0,2:0:0:0:
224,272,207437,5,0,2:0:0:0:
267,278,207508,1,0,2:0:0:0:
304,254,207579,1,0,2:0:0:0:
317,212,207651,1,0,2:0:0:0:
299,172,207722,1,0,2:0:0:0:
259,154,207794,1,0,2:0:0:0:
216,166,207865,1,0,2:0:0:0:
193,203,207937,1,0,2:0:0:0:
176,256,208008,5,0,2:0:0:0:
218,242,208079,1,0,2:0:0:0:
249,210,208150,1,0,2:0:0:0:
262,167,208222,1,0,2:0:0:0:
253,124,208293,1,0,2:0:0:0:
226,89,208365,1,0,2:0:0:0:
185,71,208436,1,0,2:0:0:0:
140,74,208508,1,0,2:0:0:0:
96,96,208580,2,0,P|160:144|272:112,1,180,0|0,2:0|2:0,2:0:0:0:
352,96,209008,5,0,2:0:0:0:
432,208,209151,1,0,2:0:0:0:
288,208,209294,1,0,2:0:0:0:
368,96,209437,1,0,2:0:0:0:
448,208,209580,1,0,2:0:0:0:
304,208,209723,2,0,P|288:144|176:176,1,180,0|0,2:0|2:0,2:0:0:0:
112,224,210151,5,0,2:0:0:0:
256,176,210294,1,0,2:0:0:0:
128,80,210437,1,0,2:0:0:0:
80,320,210580,1,0,2:0:0:0:
352,208,210723,1,0,2:0:0:0:
96,0,210866,2,0,P|48:48|80:160,1,180,0|0,2:0|2:0,2:0:0:0:
176,224,211294,5,0,2:0:0:0:
272,128,211437,2,0,P|400:96|448:112,1,180,0|0,2:0|2:0,2:0:0:0:
512,208,211866,1,0,2:0:0:0:
416,240,212008,6,0,P|320:272|288:240,1,135,0|0,2:0|2:0,2:0:0:0:
301,258,212294,2,0,P|237:258|189:306,1,135,0|0,2:0|2:0,2:0:0:0:
189,305,212580,2,0,P|109:289|93:241,1,135,0|0,2:0|2:0,2:0:0:0:
96,216,212866,5,0,2:0:0:0:
112,184,212937,1,0,2:0:0:0:
144,168,213008,1,0,2:0:0:0:
176,168,213080,1,0,2:0:0:0:
208,184,213151,1,0,2:0:0:0:
256,272,213294,5,0,2:0:0:0:
144,64,213437,1,0,2:0:0:0:
384,96,213580,1,0,2:0:0:0:
192,240,213723,1,0,2:0:0:0:
208,32,213866,1,0,2:0:0:0:
384,160,214008,1,0,2:0:0:0:
144,192,214151,1,0,2:0:0:0:
272,16,214294,6,0,P|352:16|368:32,1,90,0|0,2:0|2:0,2:0:0:0:
400,96,214580,1,0,2:0:0:0:
320,224,214723,1,0,2:0:0:0:
240,352,214866,1,0,2:0:0:0:
304,64,215008,1,0,2:0:0:0:
144,304,215151,1,0,2:0:0:0:
240,160,215294,1,0,2:0:0:0:
144,304,215437,6,0,P|208:288|224:256,1,90,0|0,2:0|2:0,2:0:0:0:
128,160,215723,1,0,2:0:0:0:
128,160,215866,1,0,2:0:0:0:
352,128,216008,1,0,2:0:0:0:
352,128,216151,1,0,2:0:0:0:
64,64,216294,1,0,2:0:0:0:
64,64,216437,1,0,2:0:0:0:
288,48,216580,5,0,2:0:0:0:
288,48,216723,1,0,2:0:0:0:
16,64,216866,1,0,2:0:0:0:
16,64,217008,1,0,2:0:0:0:
48,160,217151,5,0,2:0:0:0:
59,202,217222,1,0,2:0:0:0:
93,230,217293,1,0,2:0:0:0:
137,233,217365,1,0,2:0:0:0:
174,209,217436,1,0,2:0:0:0:
208,176,217508,1,0,2:0:0:0:
216,128,217580,2,0,P|161:147|129:195,1,90,0|0,2:0|2:0,2:0:0:0:
128,216,217794,5,0,2:0:0:0:
143,258,217865,1,0,2:0:0:0:
172,291,217936,1,0,2:0:0:0:
212,311,218008,1,0,2:0:0:0:
257,315,218079,1,0,2:0:0:0:
299,302,218151,1,0,2:0:0:0:
334,274,218222,1,0,2:0:0:0:
360,240,218294,5,0,2:0:0:0:
349,196,218365,1,0,2:0:0:0:
328,156,218436,1,0,2:0:0:0:
298,123,218508,1,0,2:0:0:0:
261,97,218579,1,0,2:0:0:0:
219,82,218651,1,0,2:0:0:0:
174,77,218722,1,0,2:0:0:0:
130,83,218794,1,0,2:0:0:0:
88,112,218866,5,0,2:0:0:0:
123,140,218937,1,0,2:0:0:0:
163,160,219008,1,0,2:0:0:0:
206,172,219080,1,0,2:0:0:0:
251,175,219151,1,0,2:0:0:0:
295,170,219223,1,0,2:0:0:0:
338,155,219294,1,0,2:0:0:0:
377,133,219366,1,0,2:0:0:0:
408,96,219437,5,0,2:0:0:0:
378,130,219508,1,0,2:0:0:0:
358,170,219579,1,0,2:0:0:0:
348,213,219651,1,0,2:0:0:0:
348,258,219722,1,0,2:0:0:0:
358,302,219794,1,0,2:0:0:0:
378,342,219865,1,0,2:0:0:0:
407,376,219937,1,0,2:0:0:0:
456,384,220008,5,0,2:0:0:0:
422,354,220079,1,0,2:0:0:0:
385,328,220150,1,0,2:0:0:0:
345,307,220222,1,0,2:0:0:0:
303,290,220293,1,0,2:0:0:0:
260,278,220365,1,0,2:0:0:0:
216,271,220436,1,0,2:0:0:0:
171,269,220508,1,0,2:0:0:0:
128,288,220580,5,0,2:0:0:0:
162,316,220651,1,0,2:0:0:0:
201,339,220722,1,0,2:0:0:0:
243,355,220794,1,0,2:0:0:0:
287,364,220865,1,0,2:0:0:0:
332,366,220937,1,0,2:0:0:0:
376,361,221008,1,0,2:0:0:0:
420,348,221080,1,0,2:0:0:0:
416,304,221151,5,0,2:0:0:0:
400,261,221222,1,0,2:0:0:0:
394,217,221293,1,0,2:0:0:0:
397,172,221365,1,0,2:0:0:0:
409,129,221436,1,0,2:0:0:0:
430,89,221508,1,0,2:0:0:0:
458,54,221579,1,0,2:0:0:0:
493,26,221651,1,0,2:0:0:0:
464,0,221723,5,0,2:0:0:0:
419,8,221794,1,0,2:0:0:0:
378,26,221865,1,0,2:0:0:0:
341,50,221937,1,0,2:0:0:0:
309,82,222008,1,0,2:0:0:0:
283,119,222080,1,0,2:0:0:0:
265,160,222151,1,0,2:0:0:0:
256,204,222223,1,0,2:0:0:0:
272,240,222294,5,0,2:0:0:0:
299,204,222365,1,0,2:0:0:0:
306,160,222436,1,0,2:0:0:0:
292,118,222508,1,0,2:0:0:0:
248,100,222580,5,0,2:0:0:0:
240,104,222651,1,0,2:0:0:0:
232,108,222723,1,0,2:0:0:0:
224,112,222794,1,0,2:0:0:0:
216,120,222866,1,0,2:0:0:0:
208,128,222937,1,0,2:0:0:0:
204,136,223008,1,0,2:0:0:0:
200,144,223080,1,0,2:0:0:0:
152,248,223151,5,0,2:0:0:0:
160,244,223223,1,0,2:0:0:0:
168,240,223294,1,0,2:0:0:0:
176,240,223366,1,0,2:0:0:0:
288,320,223437,5,0,2:0:0:0:
296,320,223508,1,0,2:0:0:0:
304,320,223580,1,0,2:0:0:0:
312,320,223651,1,0,2:0:0:0:
360,240,223723,5,0,2:0:0:0:
368,244,223794,1,0,2:0:0:0:
376,248,223866,1,0,2:0:0:0:
384,252,223937,1,0,2:0:0:0:
452,196,224008,5,0,2:0:0:0:
444,192,224080,1,0,2:0:0:0:
436,188,224151,1,0,2:0:0:0:
428,184,224223,1,0,2:0:0:0:
332,148,224294,5,0,2:0:0:0:
328,136,224366,1,0,2:0:0:0:
324,120,224437,1,0,2:0:0:0:
320,104,224508,1,0,2:0:0:0:
316,88,224580,1,0,2:0:0:0:
256,192,224722,12,0,228508,2:0:0:0:
128,144,241151,6,0,P|144:224|240:224,1,135.000005149842,0|0,2:0|2:0,2:0:0:0:
272,128,241723,6,0,B|304:96|352:80|400:96|432:128|448:176|448:208|416:272|368:288|304:272|272:224|272:224|288:288|288:288|192:224|256:256|224:272|160:272|135:234|48:208|48:320|48:352|96:368|128:368|192:368|192:304|144:192|144:192|176:128|64:128|64:128|160:64,1,1215.00004634857,0|0,2:0|2:0,2:0:0:0:
240,80,244580,5,0,2:0:0:0:
352,144,244866,1,0,2:0:0:0:
400,256,245151,6,0,B|352:320|320:304|288:272|256:288|224:336|224:336|208:272|144:288|144:256|96:272|112:336|48:336|48:336|64:256|96:224|64:208|96:192|112:160|160:160|160:160|176:208|208:240|272:240|320:208|336:160|320:112|320:64|240:32|208:48|208:48|176:16|176:16|64:112,1,1215.00004634857,0|0,2:0|2:0,2:0:0:0:
64,144,248008,5,0,2:0:0:0:
144,256,248294,1,0,2:0:0:0:
336,272,248580,1,0,2:0:0:0:
336,80,248866,5,0,2:0:0:0:
272,64,249008,1,0,2:0:0:0:
208,48,249151,1,0,2:0:0:0:
240,192,249437,5,0,2:0:0:0:
80,112,249723,5,0,2:0:0:0:
112,160,249866,1,0,2:0:0:0:
160,192,250008,1,0,2:0:0:0:
224,208,250151,1,0,2:0:0:0:
240,272,250223,1,0,2:0:0:0:
256,336,250294,1,0,2:0:0:0:
320,96,250437,5,0,2:0:0:0:
352,288,250580,1,0,2:0:0:0:
240,112,250723,5,0,2:0:0:0:
368,272,250866,1,0,2:0:0:0:
176,160,251008,5,0,2:0:0:0:
384,256,251151,1,0,2:0:0:0:
160,240,251294,5,0,2:0:0:0:
176,272,251366,1,0,2:0:0:0:
208,288,251437,1,0,2:0:0:0:
416,192,251580,5,0,2:0:0:0:
304,192,251723,1,0,2:0:0:0:
384,128,251866,5,0,2:0:0:0:
256,128,252008,1,0,2:0:0:0:
208,48,252151,5,0,2:0:0:0:
208,48,252294,1,0,2:0:0:0:
64,160,252580,5,0,2:0:0:0:
160,288,252723,1,0,2:0:0:0:
336,272,252866,1,0,2:0:0:0:
432,112,253008,1,0,2:0:0:0:
256,128,253151,5,0,2:0:0:0:
96,208,253437,5,0,2:0:0:0:
96,208,253580,1,0,2:0:0:0:
224,256,253723,5,0,2:0:0:0:
368,128,254008,5,0,2:0:0:0:
160,80,254294,5,0,2:0:0:0:
80,224,254580,5,0,2:0:0:0:
288,176,254866,5,0,2:0:0:0:
128,32,255151,5,0,2:0:0:0:
96,240,255437,6,0,P|160:256|224:96,1,270.000010299683,0|0,2:0|2:0,2:0:0:0:
96,80,256294,5,0,2:0:0:0:
112,176,256437,1,0,2:0:0:0:
192,240,256580,1,0,2:0:0:0:
320,96,256866,5,0,2:0:0:0:
352,208,257151,1,0,2:0:0:0:
384,320,257437,1,0,2:0:0:0:
288,0,257723,1,0,2:0:0:0:
384,320,258008,6,0,B|352:272|352:272|400:272|400:272|368:224|368:224|416:224|416:224|384:176|384:176|432:176|432:176|384:128|384:128|432:128,1,405.000015449525,0|0,2:0|2:0,2:0:0:0:
272,80,259151,5,0,2:0:0:0:
112,144,259437,1,0,2:0:0:0:
208,240,259723,2,0,P|256:256|336:192,1,135.000005149842,0|0,2:0|2:0,2:0:0:0:
320,96,260294,5,0,2:0:0:0:
128,272,260580,2,0,P|192:224|256:240,1,135.000005149842,0|0,2:0|2:0,2:0:0:0:
368,256,261151,5,0,2:0:0:0:
240,288,261437,5,0,2:0:0:0:
192,288,261580,1,0,2:0:0:0:
144,272,261722,1,0,2:0:0:0:
96,240,261865,1,0,2:0:0:0:
64,192,262008,1,0,2:0:0:0:
64,128,262151,1,0,2:0:0:0:
80,64,262294,6,0,L|272:96,1,135.000005149842,0|0,2:0|2:0,2:0:0:0:
336,96,262865,1,0,2:0:0:0:
352,208,263151,6,0,L|208:160,1,135.000005149842,0|0,2:0|2:0,2:0:0:0:
128,128,263580,1,0,2:0:0:0:
32,96,263722,1,0,2:0:0:0:
48,192,263865,1,0,2:0:0:0:
96,48,264008,1,0,2:0:0:0:
288,80,264294,5,0,2:0:0:0:
352,112,264437,1,0,2:0:0:0:
400,160,264580,1,0,2:0:0:0:
416,224,264722,1,0,2:0:0:0:
416,288,264865,1,0,2:0:0:0:
416,288,265151,5,0,2:0:0:0:
352,256,265294,1,0,2:0:0:0:
288,240,265437,1,0,2:0:0:0:
224,240,265580,1,0,2:0:0:0:
160,256,265722,1,0,2:0:0:0:
160,256,266008,5,0,2:0:0:0:
160,192,266151,1,0,2:0:0:0:
192,128,266294,1,0,2:0:0:0:
240,80,266437,1,0,2:0:0:0:
304,48,266580,1,0,2:0:0:0:
160,256,266865,5,0,2:0:0:0:
96,224,267008,1,0,2:0:0:0:
48,176,267151,1,0,2:0:0:0:
32,112,267294,1,0,2:0:0:0:
16,48,267437,1,0,2:0:0:0:
48,176,267722,5,0,2:0:0:0:
112,160,267865,1,0,2:0:0:0:
176,176,268008,1,0,2:0:0:0:
240,208,268151,1,0,2:0:0:0:
288,256,268294,1,0,2:0:0:0:
240,208,268579,5,0,2:0:0:0:
192,256,268722,1,0,2:0:0:0:
128,288,268865,1,0,2:0:0:0:
64,304,269008,1,0,2:0:0:0:
144,96,269151,6,0,P|192:160|240:176,1,90,0|0,2:0|2:0,2:0:0:0:
368,288,269345,2,0,P|320:224|272:208,1,90,0|0,2:0|2:0,2:0:0:0:
160,304,269540,2,0,P|224:256|240:208,1,90,0|0,2:0|2:0,2:0:0:0:
352,80,269735,2,0,P|288:128|272:176,1,90,0|0,2:0|2:0,2:0:0:0:
256,48,269930,6,0,L|256:160,1,90,0|0,2:0|2:0,2:0:0:0:
224,192,270125,2,0,L|112:192,1,90,0|0,2:0|2:0,2:0:0:0:
256,336,270319,2,0,L|256:240,1,90,0|0,2:0|2:0,2:0:0:0:
400,192,270514,2,0,L|272:192,1,90,0|0,2:0|2:0,2:0:0:0:
96,80,270719,6,0,L|144:192,1,90,0|0,2:0|2:0,2:0:0:0:
176,256,271024,1,0,2:0:0:0:
320,192,271125,1,0,2:0:0:0:
240,352,271227,1,0,2:0:0:0:
384,256,271329,1,0,2:0:0:0:
368,368,271430,1,0,2:0:0:0:
464,288,271532,6,0,B|448:256|416:240|464:240|448:208|416:208|416:176|448:192|448:176,1,90,0|0,2:0|2:0,2:0:0:0:
304,96,271837,1,0,2:0:0:0:
256,144,271939,1,0,2:0:0:0:
336,128,272041,1,0,2:0:0:0:
240,96,272142,1,0,2:0:0:0:
304,176,272244,1,0,2:0:0:0:
352,64,272346,6,0,B|320:48|304:48|288:64|272:48|256:80|240:80,1,90,0|0,2:0|2:0,2:0:0:0:
112,112,272651,1,0,2:0:0:0:
96,128,272752,1,0,2:0:0:0:
288,288,272854,1,0,2:0:0:0:
288,272,272956,1,0,2:0:0:0:
48,304,273057,1,0,2:0:0:0:
64,320,273159,6,0,P|96:288|64:256,1,90,0|0,2:0|2:0,2:0:0:0:
144,64,273464,1,0,2:0:0:0:
400,176,273566,1,0,2:0:0:0:
112,240,273668,1,0,2:0:0:0:
80,96,273769,1,0,2:0:0:0:
416,112,273871,1,0,2:0:0:0:
160,304,273973,6,0,P|208:304|128:256,1,270,0|0,2:0|2:0,2:0:0:0:
176,64,274735,6,0,L|80:128,1,90,0|0,2:0|2:0,2:0:0:0:
160,192,274937,2,0,L|256:128,1,90,0|0,2:0|2:0,2:0:0:0:
304,224,275139,2,0,L|208:288,1,90,0|0,2:0|2:0,2:0:0:0:
304,352,275341,2,0,L|400:288,1,90,0|0,2:0|2:0,2:0:0:0:
112,272,275515,5,0,2:0:0:0:
416,128,275615,1,0,2:0:0:0:
64,64,275715,1,0,2:0:0:0:
240,352,275816,5,0,2:0:0:0:
368,48,275916,1,0,2:0:0:0:
48,160,276016,1,0,2:0:0:0:
352,336,276117,5,0,2:0:0:0:
256,16,276217,1,0,2:0:0:0:
64,288,276317,1,0,2:0:0:0:
416,272,276418,5,0,2:0:0:0:
80,344,276518,1,0,2:0:0:0:
448,192,276618,5,0,2:0:0:0:
0,160,276719,1,0,2:0:0:0:
496,112,276819,5,0,2:0:0:0:
88,0,276919,1,0,2:0:0:0:
424,352,277020,1,0,2:0:0:0:
368,64,277120,6,0,P|272:80|224:144,1,135.000005149842,0|0,2:0|2:0,2:0:0:0:
48,304,277321,2,0,P|128:288|192:256,1,135.000005149842,0|0,2:0|2:0,2:0:0:0:
480,304,277521,2,0,P|448:240|352:176,1,135.000005149842,0|0,2:0|2:0,2:0:0:0:
64,32,277722,2,0,P|112:128|176:144,1,135.000005149842,0|0,2:0|2:0,2:0:0:0:
216,328,277923,5,0,2:0:0:0:
392,208,278023,1,0,2:0:0:0:
152,104,278123,1,0,2:0:0:0:
416,320,278224,1,0,2:0:0:0:
280,48,278324,1,0,2:0:0:0:
64,272,278424,1,0,2:0:0:0:
256,192,278525,1,0,2:0:0:0:
192,272,278625,1,0,2:0:0:0:
304,272,278725,6,0,B|336:256|320:240|352:240|384:224|352:208|352:192|416:176|416:160|416:160|400:128,1,135.000005149842,0|0,2:0|2:0,2:0:0:0:
352,96,278926,2,0,B|320:80|320:112|304:96|320:128|272:112|272:144|256:128|256:144|256:144|208:160,1,135.000005149842,0|0,2:0|2:0,2:0:0:0:
96,96,279127,2,0,B|128:128|128:128|128:80|160:96|144:80|112:64|176:64|176:64|160:32,1,135.000005149842,0|0,2:0|2:0,2:0:0:0:
80,240,279327,2,0,B|112:240|112:240|96:272|128:272|112:256|96:288|80:304|160:304|176:272|144:320|208:320,1,135.000005149842,0|0,2:0|2:0,2:0:0:0:
224,48,279528,6,0,P|304:96|336:160,1,135.000005149842,0|0,2:0|2:0,2:0:0:0:
256,64,279729,2,0,P|288:112|304:192,1,135.000005149842,0|0,2:0|2:0,2:0:0:0:
272,96,279929,2,0,P|272:160|224:224,1,135.000005149842,0|0,2:0|2:0,2:0:0:0:
256,128,280130,2,0,P|208:160|112:160,1,135.000005149842,0|0,2:0|2:0,2:0:0:0:
64,304,280331,5,0,2:0:0:0:
400,256,280431,1,0,2:0:0:0:
112,96,280632,5,0,2:0:0:0:
176,240,280732,1,0,2:0:0:0:
256,112,280832,1,0,2:0:0:0:
80,144,280933,1,0,2:0:0:0:
240,240,281033,1,0,2:0:0:0:
240,64,281133,6,0,B|224:48|224:48|192:64|208:64|208:80|224:80|192:112|192:80|160:96|160:48,1,135.000005149842,0|0,2:0|2:0,2:0:0:0:
288,176,281334,2,0,B|304:128|304:128|304:160|320:160|320:176|352:192|352:208,1,135.000005149842,0|0,2:0|2:0,2:0:0:0:
160,240,281535,2,0,B|160:224|160:224|144:224|176:192|176:208|144:176|160:160|160:160|192:112,1,135.000005149842,0|0,2:0|2:0,2:0:0:0:
304,336,281735,2,0,B|336:352|320:320|352:336|336:304|352:304|352:304|304:304|304:304|384:304,1,135.000005149842,0|0,2:0|2:0,2:0:0:0:
144,80,281936,5,0,2:0:0:0:
224,320,282036,1,0,2:0:0:0:
40,144,282137,1,0,2:0:0:0:
320,160,282237,1,0,2:0:0:0:
48,272,282337,1,0,2:0:0:0:
320,72,282438,1,0,2:0:0:0:
48,352,282538,1,0,2:0:0:0:
496,80,282638,1,0,2:0:0:0:
176,368,282739,6,0,B|144:368|144:368|208:352|192:336|160:336|208:320|160:288|192:304,1,135.000005149842,0|0,2:0|2:0,2:0:0:0:
320,32,282939,2,0,B|288:48|288:48|320:64|336:48|304:112|368:96|288:112,1,135.000005149842,0|0,2:0|2:0,2:0:0:0:
64,144,283140,2,0,P|64:176|80:128,1,135.000005149842,0|0,2:0|2:0,2:0:0:0:
448,176,283341,2,0,B|464:192|416:208|448:208|416:192|416:192|384:224|384:224|368:192,1,135.000005149842,0|0,2:0|2:0,2:0:0:0:
144,80,283541,6,0,P|176:144|320:176,1,202.500007724762,0|0,2:0|2:0,2:0:0:0:
294,183,283742,2,0,P|256:240|96:256,1,202.500007724762,0|0,2:0|2:0,2:0:0:0:
131,270,283943,2,0,P|128:192|224:112,1,202.500007724762,0|0,2:0|2:0,2:0:0:0:
214,113,284143,2,0,P|192:192|256:304,1,202.500007724762,0|0,2:0|2:0,2:0:0:0:
243,295,284344,2,0,L|448:240,1,202.500007724762,0|0,2:0|2:0,2:0:0:0:
432,240,284545,2,0,L|208:272,1,202.500007724762,0|0,2:0|2:0,2:0:0:0:
231,268,284745,2,0,L|432:192,1,202.500007724762,0|0,2:0|2:0,2:0:0:0:
420,196,284946,2,0,L|208:208,1,202.500007724762,0|0,2:0|2:0,2:0:0:0:
218,207,285147,6,0,B|224:176|224:176|176:160|240:160|256:144|224:128|192:96|224:64|224:64|240:16,1,202.500007724762,0|0,2:0|2:0,2:0:0:0:
234,32,285347,2,0,B|160:32|160:32|160:80|192:80|144:96|176:112|80:160,1,202.500007724762,0|0,2:0|2:0,2:0:0:0:
117,138,285548,2,0,P|192:144|192:256,1,202.500007724762,0|0,2:0|2:0,2:0:0:0:
192,256,285749,2,0,P|304:192|288:112,1,202.500007724762,0|0,2:0|2:0,2:0:0:0:
300,133,285949,2,0,P|368:208|336:304,1,202.500007724762,0|0,2:0|2:0,2:0:0:0:
342,298,286150,2,0,P|384:224|320:112,1,202.500007724762,0|0,2:0|2:0,2:0:0:0:
339,123,286351,2,0,P|416:192|400:304,1,202.500007724762,0|0,2:0|2:0,2:0:0:0:
416,288,286551,2,0,P|448:176|400:96,1,202.500007724762,0|0,2:0|2:0,2:0:0:0:
410,104,286752,5,0,2:0:0:0:
256,128,286852,1,0,2:0:0:0:
352,240,286953,1,0,2:0:0:0:
368,64,287053,1,0,2:0:0:0:
224,176,287153,1,0,2:0:0:0:
416,224,287254,1,0,2:0:0:0:
304,48,287354,1,0,2:0:0:0:
256,240,287454,1,0,2:0:0:0:
464,144,287555,5,0,2:0:0:0:
192,64,287655,1,0,2:0:0:0:
200,120,287755,5,0,2:0:0:0:
480,192,287856,1,0,2:0:0:0:
496,240,287956,5,0,2:0:0:0:
96,112,288056,1,0,2:0:0:0:
48,144,288157,5,0,2:0:0:0:
456,272,288257,1,0,2:0:0:0:
496,336,288357,5,0,2:0:0:0:
328,352,288458,1,0,2:0:0:0:
496,336,288558,5,0,2:0:0:0:
288,88,288658,1,0,2:0:0:0:
496,336,288759,5,0,2:0:0:0:
176,328,288859,1,0,2:0:0:0:
496,336,288959,5,0,2:0:0:0:
192,0,289060,1,0,2:0:0:0:
256,352,289160,5,0,2:0:0:0:
256,16,289260,1,0,2:0:0:0:
112,304,289361,1,0,2:0:0:0:
384,64,289461,1,0,2:0:0:0:
48,192,289561,1,0,2:0:0:0:
448,192,289662,1,0,2:0:0:0:
112,48,289762,1,0,2:0:0:0:
384,304,289862,1,0,2:0:0:0:
64,96,290966,5,0,2:0:0:0:
68,183,291066,1,0,2:0:0:0:
129,247,291166,1,0,2:0:0:0:
217,255,291266,1,0,2:0:0:0:
288,208,291366,1,0,2:0:0:0:
358,159,291466,1,0,2:0:0:0:
435,197,291566,1,0,2:0:0:0:
438,283,291666,1,0,2:0:0:0:
368,336,291766,5,0,2:0:0:0:
282,316,291866,1,0,2:0:0:0:
228,246,291966,1,0,2:0:0:0:
233,157,292066,1,0,2:0:0:0:
304,96,292166,1,0,2:0:0:0:
321,182,292266,1,0,2:0:0:0:
283,262,292366,1,0,2:0:0:0:
205,303,292466,1,0,2:0:0:0:
112,320,292566,5,0,2:0:0:0:
139,235,292666,1,0,2:0:0:0:
203,173,292766,1,0,2:0:0:0:
289,150,292866,1,0,2:0:0:0:
384,160,292966,1,0,2:0:0:0:
464,208,293066,1,0,2:0:0:0:
432,320,293166,5,0,2:0:0:0:
432,320,293266,1,0,2:0:0:0:
432,320,293366,1,4,0:0:0:0:
192,320,293466,5,0,2:0:0:0:
192,320,293566,1,0,2:0:0:0:
192,320,293666,1,4,0:0:0:0:
312,136,293766,5,0,2:0:0:0:
312,136,293866,1,0,2:0:0:0:
312,136,293966,1,4,0:0:0:0:
120,160,294066,5,0,0:0:0:0:
104,120,294166,1,0,0:0:0:0:
104,72,294266,1,4,0:0:0:0:
232,64,294366,5,0,0:0:0:0:
272,96,294466,1,0,0:0:0:0:
312,128,294566,1,4,0:0:0:0:
360,264,294666,5,0,0:0:0:0:
304,240,294766,1,0,0:0:0:0:
248,248,294866,1,4,0:0:0:0:
40,104,294966,6,0,L|24:184,1,45,0|4,0:0|0:0,0:0:0:0:
232,48,295166,2,0,L|248:104,1,45,0|4,0:0|0:0,0:0:0:0:
136,176,295366,1,0,0:0:0:0:
128,280,295466,1,4,0:0:0:0:
192,352,295566,1,0,0:0:0:0:
296,368,295666,1,0,0:0:0:0:
384,336,295766,5,0,2:0:0:0:
439,266,295866,1,0,2:0:0:0:
449,178,295966,1,0,2:0:0:0:
411,98,296066,1,0,2:0:0:0:
320,64,296166,1,0,2:0:0:0:
265,135,296266,1,0,2:0:0:0:
192,188,296366,1,0,2:0:0:0:
108,218,296466,1,0,2:0:0:0:
32,176,296566,5,0,2:0:0:0:
58,140,296666,1,0,2:0:0:0:
94,112,296766,1,0,2:0:0:0:
136,96,296866,1,0,2:0:0:0:
180,92,296966,1,0,2:0:0:0:
225,101,297066,1,0,2:0:0:0:
264,121,297166,1,0,2:0:0:0:
297,151,297266,1,0,2:0:0:0:
240,208,297366,5,0,2:0:0:0:
198,192,297466,1,0,2:0:0:0:
153,193,297566,1,0,2:0:0:0:
111,210,297666,1,0,2:0:0:0:
96,320,297766,5,0,2:0:0:0:
183,337,297866,1,0,2:0:0:0:
271,320,297966,1,0,2:0:0:0:
346,271,298066,1,0,2:0:0:0:
384,192,298166,1,0,2:0:0:0:
343,171,298266,1,0,2:0:0:0:
303,151,298366,1,0,2:0:0:0:
263,131,298466,1,0,2:0:0:0:
224,112,298566,5,0,2:0:0:0:
151,159,298666,1,0,2:0:0:0:
152,245,298766,1,0,2:0:0:0:
225,291,298866,1,0,2:0:0:0:
304,256,298966,1,0,2:0:0:0:
362,193,299066,1,0,2:0:0:0:
444,217,299166,1,0,2:0:0:0:
460,301,299266,1,0,2:0:0:0:
384,368,299366,5,0,2:0:0:0:
296,350,299466,1,0,2:0:0:0:
227,293,299566,1,0,2:0:0:0:
193,211,299666,1,0,2:0:0:0:
192,112,299766,1,0,2:0:0:0:
251,48,299866,1,0,2:0:0:0:
329,5,299966,1,0,2:0:0:0:
419,4,300066,1,0,2:0:0:0:
496,64,300166,5,0,2:0:0:0:
479,151,300266,1,0,2:0:0:0:
431,227,300366,1,0,2:0:0:0:
359,281,300466,1,0,2:0:0:0:
273,304,300566,1,0,2:0:0:0:
184,295,300666,1,0,2:0:0:0:
104,254,300766,1,0,2:0:0:0:
45,187,300866,5,0,2:0:0:0:
176,72,300966,1,0,2:0:0:0:
120,200,301066,5,0,2:0:0:0:
264,120,301166,1,0,2:0:0:0:
192,248,301266,5,0,2:0:0:0:
336,192,301366,1,0,2:0:0:0:
240,320,301466,5,0,2:0:0:0:
424,288,301566,1,0,2:0:0:0:
496,360,301666,5,0,2:0:0:0:
336,352,301766,1,0,2:0:0:0:
496,296,301866,5,0,2:0:0:0:
288,256,301966,1,0,2:0:0:0:
504,248,302066,5,0,2:0:0:0:
256,176,302166,1,0,2:0:0:0:
512,208,302266,5,0,2:0:0:0:
216,96,302366,1,0,2:0:0:0:
194,329,302466,1,0,2:0:0:0:
160,240,302566,5,0,2:0:0:0:
304,224,302666,1,0,2:0:0:0:
144,160,302766,5,0,2:0:0:0:
320,176,302866,1,0,2:0:0:0:
144,80,302966,5,0,2:0:0:0:
336,128,303066,1,0,2:0:0:0:
160,0,303166,5,0,2:0:0:0:
248,0,303266,1,0,2:0:0:0:
327,39,303366,1,0,2:0:0:0:
374,114,303466,1,0,2:0:0:0:
377,203,303566,1,0,2:0:0:0:
335,282,303666,1,0,2:0:0:0:
259,329,303766,1,0,2:0:0:0:
160,336,303866,1,0,2:0:0:0:
80,288,303966,5,0,2:0:0:0:
132,215,304066,1,0,2:0:0:0:
206,165,304166,1,0,2:0:0:0:
294,146,304266,1,0,2:0:0:0:
382,159,304366,1,0,2:0:0:0:
460,203,304466,1,0,2:0:0:0:
496,288,304566,5,0,2:0:0:0:
407,294,304666,1,0,2:0:0:0:
327,254,304766,1,0,2:0:0:0:
279,180,304866,1,0,2:0:0:0:
272,80,304966,1,0,2:0:0:0:
357,99,305066,1,0,2:0:0:0:
410,170,305166,1,0,2:0:0:0:
403,258,305266,2,0,L|344:304,1,45
248,319,305466,5,0,2:0:0:0:
183,259,305566,1,0,2:0:0:0:
159,173,305666,1,0,2:0:0:0:
183,88,305766,1,0,2:0:0:0:
249,28,305866,1,0,2:0:0:0:
337,12,305966,1,0,2:0:0:0:
419,44,306066,1,0,2:0:0:0:
464,112,306166,5,0,2:0:0:0:
456,198,306266,1,0,2:0:0:0:
381,240,306366,1,0,2:0:0:0:
304,201,306466,1,0,2:0:0:0:
240,144,306566,1,0,2:0:0:0:
153,132,306666,1,0,2:0:0:0:
88,190,306766,1,0,2:0:0:0:
90,277,306866,1,0,2:0:0:0:
160,352,306966,5,0,2:0:0:0:
226,359,307066,1,0,2:0:0:0:
288,334,307166,1,0,2:0:0:0:
331,283,307266,1,0,2:0:0:0:
345,218,307366,1,0,2:0:0:0:
320,160,307466,1,0,2:0:0:0:
320,95,307566,1,0,2:0:0:0:
374,58,307666,1,0,2:0:0:0:
434,82,307766,5,0,2:0:0:0:
448,146,307866,1,0,2:0:0:0:
432,200,307966,5,0,2:0:0:0:
272,168,308066,1,0,2:0:0:0:
432,256,308166,5,0,2:0:0:0:
248,232,308266,1,0,2:0:0:0:
432,312,308366,5,0,2:0:0:0:
232,296,308466,1,0,2:0:0:0:
448,360,308566,5,0,2:0:0:0:
232,352,308666,1,0,2:0:0:0:
368,360,308766,5,0,2:0:0:0:
144,344,308866,1,0,2:0:0:0:
320,320,308966,5,0,2:0:0:0:
104,288,309066,1,0,2:0:0:0:
272,272,309166,5,0,2:0:0:0:
80,232,309266,1,0,2:0:0:0:
256,216,309366,5,0,2:0:0:0:
64,168,309466,1,0,2:0:0:0:
272,144,309566,5,0,2:0:0:0:
40,96,309666,1,0,2:0:0:0:
320,88,309766,5,0,2:0:0:0:
32,24,309866,1,0,2:0:0:0:
376,56,309966,5,0,2:0:0:0:
96,0,310066,1,0,2:0:0:0:
256,192,310166,12,0,314737,2:0:0:0:
112,80,336156,5,0,2:0:0:0:
128,224,336441,1,0,2:0:0:0:
272,304,336727,1,0,2:0:0:0:
464,256,337013,1,0,2:0:0:0:
464,64,337298,1,0,2:0:0:0:
224,96,337584,6,0,P|144:64|160:256,1,360,0|0,2:0|2:0,2:0:0:0:
224,288,338441,1,0,2:0:0:0:
272,176,338727,6,0,B|256:160|256:144|272:128|288:128|304:144|304:160|312:200|312:200|336:208|336:208|368:224|368:224|384:224|400:208|400:192|384:176|368:176|368:160|368:160|416:128|416:128|384:112,1,360,0|0,2:0|2:0,2:0:0:0:
272,48,339584,1,0,2:0:0:0:
272,48,339870,5,0,2:0:0:0:
192,80,340012,1,0,2:0:0:0:
112,112,340155,1,0,2:0:0:0:
32,144,340298,1,0,2:0:0:0:
112,224,340584,5,0,2:0:0:0:
304,192,340870,5,0,2:0:0:0:
160,48,341155,5,0,2:0:0:0:
64,272,341584,6,0,B|96:288|96:288|96:256|112:288|112:256|144:288|144:240|144:240|176:272|192:224,1,180,0|0,2:0|2:0,2:0:0:0:
320,80,342155,5,0,2:0:0:0:
336,96,342298,1,0,2:0:0:0:
352,112,342441,1,0,2:0:0:0:
384,192,342727,5,0,2:0:0:0:
256,288,343012,5,0,2:0:0:0:
112,192,343298,5,0,2:0:0:0:
256,96,343584,5,0,2:0:0:0:
336,256,343870,5,0,2:0:0:0:
176,256,344155,5,0,2:0:0:0:
160,96,344441,5,0,2:0:0:0:
160,128,344512,1,0,2:0:0:0:
176,160,344584,1,0,2:0:0:0:
176,192,344655,1,0,2:0:0:0:
208,224,344727,1,0,2:0:0:0:
256,224,344798,1,0,2:0:0:0:
288,192,344870,1,0,2:0:0:0:
304,144,344941,1,0,2:0:0:0:
288,96,345012,5,0,2:0:0:0:
252,69,345084,1,0,2:0:0:0:
208,61,345155,1,0,2:0:0:0:
166,74,345227,1,0,2:0:0:0:
134,106,345298,1,0,2:0:0:0:
121,149,345370,1,0,2:0:0:0:
129,192,345441,1,0,2:0:0:0:
156,228,345512,1,0,2:0:0:0:
192,240,345584,5,0,2:0:0:0:
231,220,345655,1,0,2:0:0:0:
275,225,345727,1,0,2:0:0:0:
308,254,345798,1,0,2:0:0:0:
320,297,345870,1,0,2:0:0:0:
305,339,345941,1,0,2:0:0:0:
270,366,346012,1,0,2:0:0:0:
226,368,346084,1,0,2:0:0:0:
192,352,346155,1,0,2:0:0:0:
112,96,346441,5,0,2:0:0:0:
128,272,346727,6,0,L|224:240,1,90,0|0,2:0|2:0,2:0:0:0:
128,128,347013,2,0,L|232:144,1,90,0|0,2:0|2:0,2:0:0:0:
288,288,347298,2,0,L|384:240,1,90,0|0,2:0|2:0,2:0:0:0:
288,96,347584,2,0,L|384:144,1,90,0|0,2:0|2:0,2:0:0:0:
208,64,347870,6,0,L|112:80,1,90,0|0,2:0|2:0,2:0:0:0:
224,144,348155,2,0,L|128:160,1,90,0|0,2:0|2:0,2:0:0:0:
240,240,348441,2,0,L|112:240,1,90,0|0,2:0|2:0,2:0:0:0:
224,352,348727,2,0,L|128:336,1,90,0|0,2:0|2:0,2:0:0:0:
336,288,349013,6,0,L|384:208,1,90,0|0,2:0|2:0,2:0:0:0:
176,96,349298,2,0,L|129:173,1,90,0|0,2:0|2:0,2:0:0:0:
382,173,349584,2,0,L|336:96,1,90,0|0,2:0|2:0,2:0:0:0:
129,210,349870,2,0,L|176:288,1,90,0|0,2:0|2:0,2:0:0:0:
256,48,350155,6,0,L|256:160,1,90,0|0,2:0|2:0,2:0:0:0:
256,240,350441,2,0,L|256:368,1,90,0|0,2:0|2:0,2:0:0:0:
400,192,350727,2,0,L|272:192,1,90,0|0,2:0|2:0,2:0:0:0:
208,192,351012,5,0,2:0:0:0:
176,192,351084,1,0,2:0:0:0:
144,192,351155,1,0,2:0:0:0:
160,96,351298,5,0,2:0:0:0:
336,256,351441,1,0,2:0:0:0:
112,272,351584,1,0,2:0:0:0:
304,96,351727,1,0,2:0:0:0:
80,112,351870,1,0,2:0:0:0:
392,192,352012,1,0,2:0:0:0:
168,336,352155,1,0,2:0:0:0:
248,56,352298,1,0,2:0:0:0:
224,336,352441,5,0,2:0:0:0:
256,64,352584,1,0,2:0:0:0:
128,336,352727,5,0,2:0:0:0:
176,32,352870,1,0,2:0:0:0:
32,336,353012,5,0,2:0:0:0:
96,0,353155,1,0,2:0:0:0:
336,176,353298,1,0,2:0:0:0:
16,192,353441,1,0,2:0:0:0:
192,112,353584,5,0,2:0:0:0:
224,128,353655,1,0,2:0:0:0:
240,160,353727,1,0,2:0:0:0:
240,192,353798,1,0,2:0:0:0:
304,272,353870,5,0,2:0:0:0:
320,240,353941,1,0,2:0:0:0:
320,192,354012,1,0,2:0:0:0:
304,144,354084,1,0,2:0:0:0:
336,48,354155,5,0,2:0:0:0:
352,64,354227,1,0,2:0:0:0:
368,80,354298,1,0,2:0:0:0:
384,96,354370,1,0,2:0:0:0:
400,112,354441,5,0,2:0:0:0:
430,144,354512,1,0,2:0:0:0:
447,186,354584,1,0,2:0:0:0:
446,230,354655,1,0,2:0:0:0:
429,272,354727,1,0,2:0:0:0:
397,303,354798,1,0,2:0:0:0:
356,320,354870,1,0,2:0:0:0:
311,321,354941,1,0,2:0:0:0:
272,304,355012,5,0,2:0:0:0:
223,276,355084,1,0,2:0:0:0:
195,228,355155,1,0,2:0:0:0:
195,172,355227,1,0,2:0:0:0:
221,123,355298,1,0,2:0:0:0:
269,94,355370,1,0,2:0:0:0:
324,92,355441,1,0,2:0:0:0:
374,117,355512,1,0,2:0:0:0:
400,160,355584,5,0,2:0:0:0:
347,201,355655,1,0,2:0:0:0:
284,225,355727,1,0,2:0:0:0:
217,227,355798,1,0,2:0:0:0:
152,209,355870,2,0,P|96:128|96:80,1,135.000005149842,0|0,2:0|2:0,2:0:0:0:
256,64,356155,6,0,L|352:80,1,67.5000025749208,0|0,2:0|2:0,2:0:0:0:
160,128,356298,2,0,L|64:144,1,67.5000025749208,0|0,2:0|2:0,2:0:0:0:
256,208,356441,2,0,L|288:272,1,67.5000025749208,0|0,2:0|2:0,2:0:0:0:
112,272,356584,2,0,L|80:352,1,67.5000025749208,0|0,2:0|2:0,2:0:0:0:
416,288,356727,6,0,L|336:272,1,67.5000025749208,0|0,2:0|2:0,2:0:0:0:
128,192,356870,2,0,L|224:176,1,67.5000025749208,0|0,2:0|2:0,2:0:0:0:
448,128,357012,2,0,L|352:112,1,67.5000025749208,0|0,2:0|2:0,2:0:0:0:
128,32,357155,2,0,L|224:16,1,67.5000025749208,0|0,2:0|2:0,2:0:0:0:
336,96,357298,6,0,B|304:128|336:128|368:112|352:176|320:160|320:160,1,67.5000025749208,0|0,2:0|2:0,2:0:0:0:
192,192,357441,2,0,B|176:192|144:192|224:160|176:128|160:144,1,67.5000025749208,0|0,2:0|2:0,2:0:0:0:
352,288,357584,2,0,B|384:304|384:304|384:256|416:288|384:272|448:288,1,67.5000025749208,0|0,2:0|2:0,2:0:0:0:
144,336,357727,2,0,B|112:352|112:304|128:320|80:336,1,67.5000025749208,0|0,2:0|2:0,2:0:0:0:
144,96,357870,2,0,B|144:128|144:128|160:128|144:144|192:144|128:160,1,67.5000025749208,0|0,2:0|2:0,2:0:0:0:
368,144,358012,2,0,B|336:176|336:176|368:192|384:192|368:224|336:224,1,67.5000025749208,0|0,2:0|2:0,2:0:0:0:
80,256,358155,2,0,B|112:240|112:272|144:256|128:224,1,67.5000025749208,0|0,2:0|2:0,2:0:0:0:
432,288,358298,2,0,B|384:304|384:272|400:320,1,67.5000025749208,0|0,2:0|2:0,2:0:0:0:
224,80,358441,6,0,L|144:64,1,67.5000025749208,0|0,2:0|2:0,2:0:0:0:
336,176,358584,2,0,L|416:192,1,67.5000025749208,0|0,2:0|2:0,2:0:0:0:
192,160,358727,2,0,L|112:160,1,67.5000025749208,0|0,2:0|2:0,2:0:0:0:
352,80,358870,2,0,L|432:64,1,67.5000025749208,0|0,2:0|2:0,2:0:0:0:
176,256,359012,6,0,P|160:240|144:288,1,67.5000025749208,0|0,2:0|2:0,2:0:0:0:
256,304,359155,2,0,P|224:304|224:336,1,67.5000025749208,0|0,2:0|2:0,2:0:0:0:
352,288,359298,2,0,P|320:304|352:352,1,67.5000025749208,0|0,2:0|2:0,2:0:0:0:
432,240,359441,2,0,B|416:256|416:256|464:272,1,67.5000025749208,0|0,2:0|2:0,2:0:0:0:
432,128,359584,2,0,B|448:160|480:128|496:160,1,67.5000025749208,0|0,2:0|2:0,2:0:0:0:
384,32,359727,2,0,B|352:16|352:16|352:32|368:32|352:48,1,67.5000025749208,0|0,2:0|2:0,2:0:0:0:
240,48,359870,2,0,L|256:144,1,67.5000025749208,0|0,2:0|2:0,2:0:0:0:
112,96,360012,2,0,L|48:160,1,67.5000025749208,0|0,2:0|2:0,2:0:0:0:
64,256,360155,5,0,2:0:0:0:
112,240,360227,1,0,2:0:0:0:
144,208,360298,1,0,2:0:0:0:
160,160,360370,1,0,2:0:0:0:
160,112,360441,2,0,P|240:64|272:80,1,135.000005149842,0|0,2:0|2:0,2:0:0:0:
368,128,360727,5,0,2:0:0:0:
352,176,360798,1,0,2:0:0:0:
336,224,360870,1,0,2:0:0:0:
240,304,361013,6,0,P|240:272|208:320,1,135.000005149842,0|0,2:0|2:0,2:0:0:0:
64,224,361298,5,0,2:0:0:0:
80,192,361370,1,0,2:0:0:0:
96,160,361441,1,0,2:0:0:0:
160,64,361584,6,0,B|192:64|192:64|192:96|224:80|224:96|224:128|224:128|272:128,1,135.000005149842,0|0,2:0|2:0,2:0:0:0:
416,192,361870,5,0,2:0:0:0:
400,224,361941,1,0,2:0:0:0:
368,256,362012,1,0,2:0:0:0:
224,240,362155,6,0,B|224:208|192:208|288:208|272:176|176:176|240:192|240:192|224:144,1,135.000005149842,0|0,2:0|2:0,2:0:0:0:
144,80,362441,5,0,2:0:0:0:
128,128,362512,1,0,2:0:0:0:
112,176,362584,1,0,2:0:0:0:
112,320,362727,6,0,L|240:224,1,135.000005149842,0|0,2:0|2:0,2:0:0:0:
288,64,363012,5,0,2:0:0:0:
320,256,363155,1,0,2:0:0:0:
144,192,363298,1,0,2:0:0:0:
384,128,363441,1,0,2:0:0:0:
224,272,363584,1,0,2:0:0:0:
176,80,363727,1,0,2:0:0:0:
48,224,363870,5,0,2:0:0:0:
120,275,363977,1,0,2:0:0:0:
209,283,364048,1,0,2:0:0:0:
289,245,364155,1,0,2:0:0:0:
340,172,364262,1,0,2:0:0:0:
346,83,364334,1,0,2:0:0:0:
288,0,364441,5,0,2:0:0:0:
246,79,364548,1,0,2:0:0:0:
239,168,364620,1,0,2:0:0:0:
268,253,364727,1,0,2:0:0:0:
320,336,364834,1,0,2:0:0:0:
416,368,364905,1,0,2:0:0:0:
504,368,365012,6,0,B|496:328|480:296|440:288|392:296|368:328|368:328|360:376|360:376|304:304|304:304|256:352|256:352|240:320|224:240|224:240|208:344|160:368|160:368|120:320|120:256|120:256|88:320,1,810.000030899049,0|0,2:0|2:0,2:0:0:0:
96,80,366155,1,0,2:0:0:0:
80,224,366441,1,0,2:0:0:0:
160,336,366727,1,0,2:0:0:0:
304,368,367012,1,0,2:0:0:0:
440,288,367298,6,0,B|464:272|480:248|480:216|464:184|440:168|408:168|384:184|368:216|368:216|312:184|312:184|336:248|336:256|336:256|248:232|248:232|288:288|224:336,1,540.000020599366,0|0,2:0|2:0,2:0:0:0:
352,256,368155,5,0,2:0:0:0:
304,64,368441,6,0,P|240:144|208:32,1,270.000010299683,0|0,2:0|2:0,2:0:0:0:
240,48,368798,5,0,2:0:0:0:
272,64,368870,1,0,2:0:0:0:
304,80,368941,1,0,2:0:0:0:
336,96,369012,5,0,2:0:0:0:
368,112,369155,1,0,2:0:0:0:
400,128,369298,1,0,2:0:0:0:
432,144,369441,1,0,2:0:0:0:
464,160,369584,5,0,2:0:0:0:
458,225,369655,1,0,2:0:0:0:
408,267,369727,1,0,2:0:0:0:
343,259,369798,1,0,2:0:0:0:
304,208,369870,1,0,2:0:0:0:
322,146,369941,1,0,2:0:0:0:
280,97,370012,1,0,2:0:0:0:
216,106,370084,1,0,2:0:0:0:
160,144,370155,5,0,2:0:0:0:
226,149,370227,1,0,2:0:0:0:
291,130,370298,1,0,2:0:0:0:
345,91,370370,1,0,2:0:0:0:
384,32,370441,1,0,2:0:0:0:
317,41,370512,1,0,2:0:0:0:
256,80,370584,1,0,2:0:0:0:
229,137,370655,1,0,2:0:0:0:
224,192,370727,5,0,2:0:0:0:
232,257,370798,1,0,2:0:0:0:
277,306,370870,1,0,2:0:0:0:
342,319,370941,1,0,2:0:0:0:
402,291,371012,1,0,2:0:0:0:
432,232,371084,1,0,2:0:0:0:
427,167,371155,1,0,2:0:0:0:
382,118,371227,1,0,2:0:0:0:
320,96,371298,5,0,2:0:0:0:
277,147,371370,1,0,2:0:0:0:
259,212,371441,1,0,2:0:0:0:
268,278,371512,1,0,2:0:0:0:
303,336,371584,1,0,2:0:0:0:
357,375,371655,1,0,2:0:0:0:
423,388,371727,1,0,2:0:0:0:
489,375,371798,1,0,2:0:0:0:
480,336,371870,5,0,2:0:0:0:
480,304,371941,1,0,2:0:0:0:
464,272,372012,1,0,2:0:0:0:
464,240,372084,1,0,2:0:0:0:
448,208,372155,2,0,L|400:64,1,135.000005149842,0|0,2:0|2:0,2:0:0:0:
320,64,372441,5,0,2:0:0:0:
208,96,372584,1,0,2:0:0:0:
128,192,372727,2,0,P|176:288|304:224,1,270.000010299683,0|0,2:0|2:0,2:0:0:0:
336,128,373298,5,0,2:0:0:0:
448,240,373584,1,0,2:0:0:0:
336,352,373870,1,0,2:0:0:0:
224,288,374155,6,0,B|224:320|208:368|160:384|96:384|48:336|48:256|128:224|128:224|112:160|184:184|184:184|128:112|128:112|224:176|240:96|336:80|400:192|376:264|320:272|272:264|240:216|256:160|384:96|384:96|400:168,1,1080.00004119873,0|0,2:0|2:0,2:0:0:0:
432,240,375584,5,0,2:0:0:0:
304,320,375870,1,0,2:0:0:0:
160,272,376155,1,0,2:0:0:0:
222,112,376441,6,0,P|415:50|288:208,1,540.000020599366,0|0,2:0|2:0,2:0:0:0:
320,112,377298,1,0,2:0:0:0:
64,144,377584,6,0,L|224:176,1,135.000005149842,0|0,2:0|2:0,2:0:0:0:
320,192,377870,1,0,2:0:0:0:
48,256,378013,2,0,L|208:256,1,135.000005149842,0|0,2:0|2:0,2:0:0:0:
320,192,378298,1,0,2:0:0:0:
144,352,378441,5,0,2:0:0:0:
160,336,378512,1,0,2:0:0:0:
176,304,378584,1,0,2:0:0:0:
176,272,378655,1,0,2:0:0:0:
160,240,378727,2,0,L|48:144,1,135.000005149842,0|0,2:0|2:0,2:0:0:0:
208,112,379012,5,0,2:0:0:0:
241,57,379084,1,0,2:0:0:0:
305,63,379155,1,0,2:0:0:0:
327,123,379227,1,0,2:0:0:0:
304,176,379298,1,0,2:0:0:0:
274,236,379370,1,0,2:0:0:0:
277,302,379441,1,0,2:0:0:0:
311,360,379512,1,0,2:0:0:0:
368,368,379584,5,0,2:0:0:0:
427,340,379655,1,0,2:0:0:0:
451,279,379727,1,0,2:0:0:0:
426,218,379798,1,0,2:0:0:0:
368,192,379870,1,0,2:0:0:0:
308,160,379941,1,0,2:0:0:0:
242,163,380012,1,0,2:0:0:0:
175,175,380084,1,0,2:0:0:0:
111,159,380155,5,0,2:0:0:0:
64,112,380227,1,0,2:0:0:0:
92,54,380298,1,0,2:0:0:0:
155,59,380370,1,0,2:0:0:0:
176,128,380441,1,0,2:0:0:0:
143,185,380512,1,0,2:0:0:0:
153,251,380584,1,0,2:0:0:0:
202,295,380655,1,0,2:0:0:0:
256,296,380727,5,0,2:0:0:0:
312,263,380798,1,0,2:0:0:0:
319,198,380870,1,0,2:0:0:0:
271,154,380941,1,0,2:0:0:0:
216,176,381012,1,0,2:0:0:0:
204,239,381084,1,0,2:0:0:0:
144,262,381155,1,0,2:0:0:0:
92,223,381227,1,0,2:0:0:0:
96,160,381298,5,0,2:0:0:0:
124,99,381370,1,0,2:0:0:0:
183,69,381441,1,0,2:0:0:0:
248,82,381512,1,0,2:0:0:0:
291,132,381584,1,0,2:0:0:0:
294,199,381655,1,0,2:0:0:0:
256,253,381727,1,0,2:0:0:0:
192,272,381798,1,0,2:0:0:0:
128,256,381870,5,0,2:0:0:0:
150,192,381941,1,0,2:0:0:0:
195,142,382012,1,0,2:0:0:0:
255,112,382084,1,0,2:0:0:0:
321,105,382155,1,0,2:0:0:0:
352,112,382227,1,0,2:0:0:0:
384,128,382298,1,0,2:0:0:0:
416,144,382370,1,0,2:0:0:0:
448,160,382441,6,0,B|448:192|448:192|416:208|448:224|464:224|464:256|448:272|432:304|432:304|410:295|336:288|384:224,1,270.000010299683,0|0,2:0|2:0,2:0:0:0:
256,192,383012,5,0,2:0:0:0:
96,160,383298,6,0,P|128:96|208:80,1,135.000005149842,0|0,2:0|2:0,2:0:0:0:
272,112,383584,1,0,2:0:0:0:
176,256,383727,1,0,2:0:0:0:
352,272,383870,1,0,2:0:0:0:
144,144,384012,1,0,2:0:0:0:
384,128,384155,1,0,2:0:0:0:
256,288,384298,1,0,2:0:0:0:
208,80,384441,6,0,B|256:96|256:96|224:128|272:128|256:128|288:176,1,135.000005149842,0|0,2:0|2:0,2:0:0:0:
416,320,384727,1,0,2:0:0:0:
160,224,384870,1,0,2:0:0:0:
448,144,385012,1,0,2:0:0:0:
96,112,385155,1,0,2:0:0:0:
384,64,385298,1,0,2:0:0:0:
16,96,385441,1,0,2:0:0:0:
128,288,385584,6,0,P|208:272|240:224,1,135.000005149842,0|0,2:0|2:0,2:0:0:0:
304,96,385870,1,0,2:0:0:0:
352,256,386012,1,0,2:0:0:0:
192,192,386155,1,0,2:0:0:0:
320,96,386298,1,0,2:0:0:0:
368,288,386441,1,0,2:0:0:0:
160,192,386584,1,0,2:0:0:0:
352,80,386727,6,0,P|416:80|384:112,1,135.000005149842,0|0,2:0|2:0,2:0:0:0:
320,176,387012,1,0,2:0:0:0:
320,176,387155,1,0,2:0:0:0:
144,96,387298,1,0,2:0:0:0:
144,96,387441,1,0,2:0:0:0:
176,272,387584,1,0,2:0:0:0:
176,272,387727,1,0,2:0:0:0:
272,80,387870,5,0,2:0:0:0:
293,72,387941,1,0,2:0:0:0:
314,76,388012,1,0,2:0:0:0:
332,90,388084,1,0,2:0:0:0:
340,110,388155,1,0,2:0:0:0:
337,132,388227,1,0,2:0:0:0:
324,150,388298,1,0,2:0:0:0:
304,160,388370,1,0,2:0:0:0:
288,160,388441,5,0,2:0:0:0:
265,160,388512,1,0,2:0:0:0:
245,170,388584,1,0,2:0:0:0:
232,188,388655,1,0,2:0:0:0:
228,210,388727,1,0,2:0:0:0:
234,231,388798,1,0,2:0:0:0:
249,248,388870,1,0,2:0:0:0:
269,256,388941,1,0,2:0:0:0:
288,256,389012,5,0,2:0:0:0:
321,251,389084,1,0,2:0:0:0:
347,230,389155,1,0,2:0:0:0:
360,199,389227,1,0,2:0:0:0:
356,166,389298,1,0,2:0:0:0:
337,139,389370,1,0,2:0:0:0:
307,125,389441,1,0,2:0:0:0:
274,127,389512,1,0,2:0:0:0:
240,144,389584,5,0,2:0:0:0:
210,177,389655,1,0,2:0:0:0:
168,193,389727,1,0,2:0:0:0:
124,187,389798,1,0,2:0:0:0:
88,162,389870,1,0,2:0:0:0:
67,122,389941,1,0,2:0:0:0:
68,77,390012,1,0,2:0:0:0:
89,38,390084,1,0,2:0:0:0:
128,16,390155,6,0,L|240:64,1,90,0|0,2:0|2:0,2:0:0:0:
304,96,390441,1,0,2:0:0:0:
304,96,390584,1,0,2:0:0:0:
64,208,390727,6,0,L|160:176,1,90,0|0,2:0|2:0,2:0:0:0:
304,96,391012,1,0,2:0:0:0:
304,96,391155,1,0,2:0:0:0:
320,288,391298,6,0,P|384:240|384:192,1,90,0|0,2:0|2:0,2:0:0:0:
112,192,391584,2,0,P|128:256|176:272,1,90,0|0,2:0|2:0,2:0:0:0:
368,80,391870,2,0,P|320:32|272:32,1,90,0|0,2:0|2:0,2:0:0:0:
96,112,392155,2,0,P|96:176|144:208,1,90,0|0,2:0|2:0,2:0:0:0:
384,160,392441,5,0,2:0:0:0:
224,112,392584,1,0,2:0:0:0:
384,256,392727,2,0,L|272:320,1,90,0|0,2:0|2:0,2:0:0:0:
144,160,393013,2,0,L|192:272,1,90,0|0,2:0|2:0,2:0:0:0:
208,352,393298,5,0,2:0:0:0:
208,352,393441,1,0,2:0:0:0:
208,352,393584,1,0,2:0:0:0:
240,144,393727,2,0,P|304:144|304:192,1,90,0|0,2:0|2:0,2:0:0:0:
240,48,394013,2,0,P|176:48|160:80,1,90,0|0,2:0|2:0,2:0:0:0:
352,80,394298,2,0,L|448:96,1,90,0|0,2:0|2:0,2:0:0:0:
384,208,394584,5,0,2:0:0:0:
224,224,394727,1,0,2:0:0:0:
272,80,394870,1,0,2:0:0:0:
144,80,395013,2,0,P|96:96|64:128,1,90,0|0,2:0|2:0,2:0:0:0:
112,144,395298,2,0,P|80:192|80:240,1,90,0|0,2:0|2:0,2:0:0:0:
144,208,395584,2,0,P|144:272|176:304,1,90,0|0,2:0|2:0,2:0:0:0:
400,288,395870,6,0,P|416:256|400:112,1,135.000005149842,0|0,2:0|2:0,2:0:0:0:
384,224,396155,2,0,P|336:160|272:128,1,135.000005149842,0|0,2:0|2:0,2:0:0:0:
320,192,396441,2,0,P|224:192|160:240,1,135.000005149842,0|0,2:0|2:0,2:0:0:0:
256,224,396727,2,0,P|192:272|176:384,1,135.000005149842,0|0,2:0|2:0,2:0:0:0:
160,64,397012,5,0,2:0:0:0:
160,64,397155,1,0,2:0:0:0:
96,224,397298,2,0,P|144:192|144:272,1,135.000005149842,0|0,2:0|2:0,2:0:0:0:
256,352,397584,2,0,P|288:336|240:336,1,135.000005149842,0|0,2:0|2:0,2:0:0:0:
272,128,397870,5,0,2:0:0:0:
304,160,398012,1,0,2:0:0:0:
336,192,398155,1,0,2:0:0:0:
368,224,398298,2,0,B|400:224|416:208|400:256|416:240|384:272|432:272|400:320|448:320,1,135.000005149842,0|0,2:0|2:0,2:0:0:0:
304,352,398584,2,0,B|288:336|304:336|288:304|320:320|320:320|256:256,1,135.000005149842,0|0,2:0|2:0,2:0:0:0:
160,240,398870,2,0,B|128:256|128:256|176:272|176:272|144:304|160:336,1,135.000005149842,0|0,2:0|2:0,2:0:0:0:
112,64,399155,5,0,2:0:0:0:
160,80,399298,1,0,2:0:0:0:
208,96,399441,1,0,2:0:0:0:
256,112,399584,2,0,P|272:96|256:128,1,135.000005149842,0|0,2:0|2:0,2:0:0:0:
240,176,399870,2,0,P|256:192|224:176,1,135.000005149842,0|0,2:0|2:0,2:0:0:0:
192,128,400155,2,0,P|176:112|192:144,1,135.000005149842,0|0,2:0|2:0,2:0:0:0:
304,192,400441,1,0,2:0:0:0:
64,80,400584,5,0,2:0:0:0:
480,224,400727,1,0,2:0:0:0:
32,192,400870,1,0,2:0:0:0:
480,96,401012,1,0,2:0:0:0:
32,304,401155,1,0,2:0:0:0:
464,160,401298,1,0,2:0:0:0:
16,80,401441,1,0,2:0:0:0:
416,320,401584,5,0,2:0:0:0:
398,291,401655,1,0,2:0:0:0:
401,258,401727,1,0,2:0:0:0:
412,226,401798,1,0,2:0:0:0:
417,193,401870,1,0,2:0:0:0:
415,159,401941,1,0,2:0:0:0:
412,126,402012,1,0,2:0:0:0:
413,92,402084,1,0,2:0:0:0:
432,64,402155,5,0,2:0:0:0:
463,73,402227,1,0,2:0:0:0:
481,100,402298,1,0,2:0:0:0:
477,133,402370,1,0,2:0:0:0:
452,155,402441,1,0,2:0:0:0:
419,155,402512,1,0,2:0:0:0:
394,134,402584,1,0,2:0:0:0:
389,101,402655,1,0,2:0:0:0:
368,64,402727,5,0,2:0:0:0:
339,45,402798,1,0,2:0:0:0:
306,41,402870,1,0,2:0:0:0:
274,50,402941,1,0,2:0:0:0:
249,72,403012,1,0,2:0:0:0:
234,102,403084,1,0,2:0:0:0:
234,135,403155,1,0,2:0:0:0:
248,166,403227,1,0,2:0:0:0:
272,192,403298,5,0,2:0:0:0:
293,218,403370,1,0,2:0:0:0:
303,249,403441,1,0,2:0:0:0:
301,283,403512,1,0,2:0:0:0:
288,314,403584,1,0,2:0:0:0:
264,337,403655,1,0,2:0:0:0:
234,351,403727,1,0,2:0:0:0:
200,353,403798,1,0,2:0:0:0:
160,352,403870,5,0,2:0:0:0:
108,326,403941,1,0,2:0:0:0:
76,279,404012,1,0,2:0:0:0:
72,222,404084,1,0,2:0:0:0:
97,170,404155,1,0,2:0:0:0:
144,138,404227,1,0,2:0:0:0:
201,133,404298,1,0,2:0:0:0:
252,157,404370,1,0,2:0:0:0:
272,208,404441,5,0,2:0:0:0:
289,247,404512,1,0,2:0:0:0:
323,273,404584,1,0,2:0:0:0:
365,280,404655,1,0,2:0:0:0:
406,266,404727,1,0,2:0:0:0:
435,234,404798,1,0,2:0:0:0:
445,192,404870,1,0,2:0:0:0:
434,151,404941,1,0,2:0:0:0:
416,112,405012,6,0,L|336:96,1,67.5000025749208,0|0,2:0|2:0,2:0:0:0:
352,192,405298,2,0,L|272:224,1,67.5000025749208,0|0,2:0|2:0,2:0:0:0:
224,112,405584,2,0,L|160:80,1,67.5000025749208,0|0,2:0|2:0,2:0:0:0:
160,192,405870,2,0,L|80:192,1,67.5000025749208,0|0,2:0|2:0,2:0:0:0:
352,96,406155,5,0,2:0:0:0:
256,160,406298,1,0,2:0:0:0:
416,176,406441,2,0,L|480:208,1,67.5000025749208,0|0,2:0|2:0,2:0:0:0:
272,256,406727,2,0,L|272:336,1,67.5000025749208,0|0,2:0|2:0,2:0:0:0:
128,96,407012,5,0,2:0:0:0:
304,128,407155,1,0,2:0:0:0:
192,256,407298,1,0,2:0:0:0:
64,128,407441,2,0,L|32:192,1,67.5000025749208,0|0,2:0|2:0,2:0:0:0:
336,192,407727,2,0,L|352:272,1,67.5000025749208,0|0,2:0|2:0,2:0:0:0:
208,208,408013,2,0,L|176:288,1,67.5000025749208,0|0,2:0|2:0,2:0:0:0:
329,270,408298,2,0,L|304:208,1,67.5000025749208,0|0,2:0|2:0,2:0:0:0:
112,80,408584,5,0,2:0:0:0:
336,112,408727,1,0,2:0:0:0:
96,160,408870,1,0,2:0:0:0:
80,240,409155,1,0,2:0:0:0:
304,272,409298,1,0,2:0:0:0:
64,320,409441,1,0,2:0:0:0:
288,352,409584,1,0,2:0:0:0:
321,356,409655,5,0,2:0:0:0:
353,347,409727,1,0,2:0:0:0:
377,324,409798,1,0,2:0:0:0:
390,293,409870,1,0,2:0:0:0:
388,260,409941,1,0,2:0:0:0:
372,230,410012,1,0,2:0:0:0:
344,211,410084,1,0,2:0:0:0:
304,192,410155,5,0,2:0:0:0:
279,214,410227,1,0,2:0:0:0:
247,225,410298,1,0,2:0:0:0:
214,220,410370,1,0,2:0:0:0:
186,202,410441,1,0,2:0:0:0:
168,174,410512,1,0,2:0:0:0:
164,141,410584,1,0,2:0:0:0:
175,109,410655,1,0,2:0:0:0:
192,80,410727,5,0,2:0:0:0:
192,80,411012,1,0,2:0:0:0:
192,80,411298,1,0,2:0:0:0:
192,80,411584,1,0,2:0:0:0:
304,112,411727,1,0,2:0:0:0:
432,144,411870,1,0,2:0:0:0:
416,240,412012,5,0,2:0:0:0:
384,240,412084,1,0,2:0:0:0:
352,240,412155,1,0,2:0:0:0:
112,208,412298,5,0,2:0:0:0:
192,112,412441,1,0,2:0:0:0:
368,112,412584,1,0,2:0:0:0:
464,224,412727,1,0,2:0:0:0:
144,304,412870,1,0,2:0:0:0:
224,48,413012,1,0,2:0:0:0:
288,64,413298,5,0,2:0:0:0:
352,80,413584,1,0,2:0:0:0:
416,96,413870,1,0,2:0:0:0:
416,96,414012,1,0,2:0:0:0:
416,96,414155,1,0,2:0:0:0:
400,128,414227,5,0,2:0:0:0:
384,160,414298,1,0,2:0:0:0:
368,192,414370,1,0,2:0:0:0:
352,224,414441,1,0,2:0:0:0:
336,256,414512,1,0,2:0:0:0:
96,128,414727,5,0,2:0:0:0:
160,288,414870,5,0,2:0:0:0:
288,144,415155,5,0,2:0:0:0:
176,80,415298,6,0,P|128:144|128:208,1,135.000005149842,0|0,2:0|2:0,2:0:0:0:
144,240,415655,5,0,2:0:0:0:
187,269,415727,1,0,2:0:0:0:
238,283,415798,1,0,2:0:0:0:
291,278,415870,1,0,2:0:0:0:
338,255,415941,1,0,2:0:0:0:
375,217,416012,1,0,2:0:0:0:
396,169,416084,1,0,2:0:0:0:
400,116,416155,5,0,2:0:0:0:
352,112,416227,1,0,2:0:0:0:
297,123,416298,1,0,2:0:0:0:
251,155,416370,1,0,2:0:0:0:
223,203,416441,1,0,2:0:0:0:
216,259,416512,1,0,2:0:0:0:
232,312,416584,1,0,2:0:0:0:
268,355,416655,1,0,2:0:0:0:
320,368,416727,5,0,2:0:0:0:
337,314,416798,1,0,2:0:0:0:
340,258,416870,1,0,2:0:0:0:
330,203,416941,1,0,2:0:0:0:
307,152,417012,1,0,2:0:0:0:
272,108,417084,1,0,2:0:0:0:
227,74,417155,1,0,2:0:0:0:
176,52,417227,1,0,2:0:0:0:
128,48,417298,5,0,2:0:0:0:
96,92,417370,1,0,2:0:0:0:
112,144,417441,1,0,2:0:0:0:
163,162,417512,1,0,2:0:0:0:
200,152,417584,5,0,2:0:0:0:
208,152,417655,1,0,2:0:0:0:
216,152,417727,1,0,2:0:0:0:
224,152,417798,1,0,2:0:0:0:
232,152,417870,2,0,L|296:152,1,56.25,0|0,2:0|2:0,2:0:0:0:
376,176,418012,5,0,2:0:0:0:
376,184,418084,1,0,2:0:0:0:
376,192,418155,1,0,2:0:0:0:
376,200,418227,1,0,2:0:0:0:
376,208,418298,2,0,L|376:272,1,56.25,0|0,2:0|2:0,2:0:0:0:
224,336,418441,5,0,2:0:0:0:
188,292,418512,1,0,2:0:0:0:
153,248,418584,1,0,2:0:0:0:
118,204,418655,1,0,2:0:0:0:
83,160,418727,1,0,2:0:0:0:
336,96,419012,5,0,2:0:0:0:
128,128,419155,1,0,2:0:0:0:
272,304,419298,1,0,2:0:0:0:
288,64,419441,1,0,2:0:0:0:
112,192,419584,1,0,2:0:0:0:
336,288,419727,1,0,2:0:0:0:
256,192,419870,1,4,2:0:0:0:
256,192,420013,12,4,425584,2:0:0:0:
