osu file format v14

[General]
AudioFilename: audio.mp3
AudioLeadIn: 0
PreviewTime: 290045
Countdown: 0
SampleSet: Soft
StackLeniency: 0.3
Mode: 0
LetterboxInBreaks: 0
WidescreenStoryboard: 0

[Editor]
DistanceSpacing: 2.5
BeatDivisor: 4
GridSize: 32
TimelineZoom: 1.8

[Metadata]
Title:Fusyoku Ressentiment, Fushi Yoku no Sarugakuza.
TitleUnicode:腐蝕ルサンチマン、不死欲の猿楽座。
Artist:Imperial Circus Dead Decadence
ArtistUnicode:Imperial Circus Dead Decadence
Creator:Weriko
Version:Shibou
Source:
Tags:
BeatmapID:1435999
BeatmapSetID:679193

[Difficulty]
HPDrainRate:3
CircleSize:4
OverallDifficulty:10
ApproachRate:10
SliderMultiplier:2.3
SliderTickRate:1

[Events]
//Background and Video events
0,0,"oooo.jpg",0,0
//Break Periods
2,229245,241166
2,314245,335880
//Storyboard Layer 0 (Background)
//Storyboard Layer 1 (Fail)
//Storyboard Layer 2 (Pass)
//Storyboard Layer 3 (Foreground)
//Storyboard Sound Samples

[TimingPoints]
763,285.714285714286,3,2,2,60,1,0
977,-100,3,2,2,5,0,0
1048,-100,3,2,2,60,0,0
1263,-100,3,2,2,5,0,0
1334,-100,3,2,2,60,0,0
1548,-100,3,2,2,5,0,0
1620,-100,3,2,2,60,0,0
4477,-80,3,2,2,60,0,0
7905,-166.666666666667,3,2,2,60,0,0
11334,-74.0740740740741,3,2,2,60,0,0
14477,-66.6666666666667,3,2,2,60,0,0
29048,285.714285714286,4,2,2,60,1,0
29048,-166.666666666667,4,2,2,60,0,0
32762,-200,4,2,2,60,0,0
37048,-133.333333333333,4,2,2,60,0,0
40190,-100,4,2,2,60,0,0
41619,285.714285714286,4,2,2,60,1,0
45047,-50,4,2,2,60,0,0
53476,-66.6666666666667,4,2,2,60,0,0
54190,-50,4,2,2,60,0,0
60190,-74.0740740740741,4,2,2,60,0,0
72476,-50,4,2,2,60,0,0
74761,-80,4,2,2,60,0,0
76476,-62.5,4,2,2,60,0,0
77047,-50,4,2,2,60,0,0
78190,-100,4,2,2,60,0,0
78476,-100,4,2,2,60,0,0
81619,-50,4,2,2,60,0,0
85761,-100,4,2,2,60,0,0
86476,-50,4,2,2,60,0,0
87047,-83.3333333333333,4,2,2,60,0,0
87333,285.714285714286,3,2,2,60,1,0
87333,-200,3,2,2,60,0,0
95047,-80,3,2,2,60,0,0
99333,-50,3,2,2,60,0,0
101047,285.714285714286,4,2,2,60,1,0
101047,-80,4,2,2,60,0,0
116475,-76.9230769230769,4,2,2,60,0,0
119332,-71.4285714285714,4,2,1,60,0,1
123618,-71.4285714285714,4,2,2,60,0,0
127332,-100,4,2,2,60,0,0
131189,-66.6666666666667,4,2,2,60,0,0
134189,-66.6666666666667,4,2,2,60,0,0
136475,-100,4,2,2,60,0,0
137618,-100,4,2,1,60,0,0
137904,-66.6666666666667,4,2,1,60,0,1
139904,-64.5161290322581,4,2,1,60,0,1
140189,-66.6666666666667,4,2,1,60,0,1
141904,-66.6666666666667,4,2,2,60,0,0
145047,-200,4,2,2,60,0,0
148475,-66.6666666666667,4,2,2,60,0,0
151618,-133.333333333333,4,2,2,60,0,0
153618,-76.9230769230769,4,2,2,60,0,0
157332,-125,4,2,2,60,0,0
157618,-80,4,2,2,60,0,0
158332,-133.333333333333,4,2,2,60,0,0
162761,285.714285714286,3,2,2,60,1,0
162761,-200,3,2,2,60,0,0
170046,-100,3,2,2,60,0,0
176761,-74.0740740740741,3,2,2,60,0,0
182475,-100,3,2,2,60,0,0
190189,285.714285714286,4,2,2,60,1,0
208474,-66.6666666666667,4,2,2,60,0,0
211046,-50,4,2,2,60,0,0
211331,-66.6666666666667,4,2,2,60,0,0
217617,-90.9090909090909,4,2,2,60,0,0
224474,285.714285714286,3,2,2,60,1,0
224474,-200,3,2,2,60,0,0
269045,200,4,2,2,60,1,0
269045,-62.5,4,2,2,60,0,0
290845,200,4,2,2,60,1,0
290845,-58.8235294117647,4,2,2,60,0,1
310045,285.714285714286,4,2,2,60,1,0
336330,-133.333333333333,4,2,2,60,0,0
341473,-66.6666666666667,4,2,2,60,0,0
346616,-80,4,2,2,60,0,0
352330,-66.6666666666667,4,2,2,60,0,0
353473,-80,4,2,2,60,0,0
354616,-100,4,2,2,60,0,0
355759,-100,4,2,1,60,0,0
356045,-62.5,4,2,1,60,0,1
360330,-62.5,4,2,2,60,0,0
363759,-83.3333333333333,4,2,2,60,0,0
364330,-100,4,2,2,60,0,0
364902,-200,4,2,2,60,0,0
369473,-100,4,2,2,60,0,0
378616,-100,4,2,1,60,0,0
378902,-62.5,4,2,1,60,0,1
382616,-62.5,4,2,2,60,0,0
392330,-80,4,2,2,60,0,0
395759,-50,4,2,2,60,0,0
398902,-80,4,2,2,60,0,0
400616,-50,4,2,2,60,0,0
401472,-90.9090909090909,4,2,2,60,0,0
404902,-50,4,2,2,60,0,0
407187,-80,4,2,2,60,0,0
409473,-50,4,2,2,60,0,0
415473,-64.5161290322581,4,2,2,60,0,0
418902,-200,4,2,2,60,0,0

[Colours]
Combo1 : 250,22,68
Combo2 : 255,0,0
Combo3 : 255,128,0
Combo4 : 251,0,125

[HitObjects]
99,72,763,6,0,P|115:160|223:176,1,172.5,8|0,0:0|0:0,0:0:0:0:
280,196,1048,2,0,P|355:230|366:312,1,172.5,8|0,0:0|0:0,0:0:0:0:
243,350,1334,2,0,L|183:182,1,172.5,8|0,0:0|0:0,0:0:0:0:
172,105,1620,5,4,0:0:0:0:
366,312,1763,1,0,0:0:0:0:
199,76,1905,1,0,0:0:0:0:
236,58,1976,1,0,0:0:0:0:
275,55,2048,1,0,0:0:0:0:
314,64,2120,1,0,0:0:0:0:
347,87,2191,1,0,0:0:0:0:
370,120,2263,1,0,0:0:0:0:
394,151,2334,1,0,0:0:0:0:
432,165,2405,1,0,0:0:0:0:
470,157,2477,2,0,P|504:126|499:35,1,115,8|0,0:0|0:0,0:0:0:0:
276,140,2763,5,0,0:0:0:0:
294,194,2834,1,0,0:0:0:0:
331,237,2905,1,0,0:0:0:0:
381,264,2977,1,0,0:0:0:0:
438,270,3048,1,0,0:0:0:0:
511,59,3191,1,0,0:0:0:0:
492,258,3334,2,0,B|457:349|423:324|377:386|299:320|299:320|210:244|161:295|161:295|223:331,1,460,12|0,0:0|0:0,0:0:0:0:
176,90,4191,6,0,P|231:98|169:53,1,172.5,4|0,0:0|0:0,0:0:0:0:
110,29,4477,5,0,0:0:0:0:
83,86,4548,1,0,0:0:0:0:
99,148,4619,1,0,0:0:0:0:
147,189,4691,1,0,0:0:0:0:
210,193,4762,1,0,0:0:0:0:
263,159,4834,1,0,0:0:0:0:
303,109,4905,1,0,0:0:0:0:
366,102,4976,1,0,0:0:0:0:
415,141,5048,5,8,0:0:0:0:
376,190,5119,1,0,0:0:0:0:
313,198,5190,1,0,0:0:0:0:
263,159,5262,1,0,0:0:0:0:
256,96,5333,5,8,0:0:0:0:
248,155,5405,1,0,0:0:0:0:
218,212,5476,1,0,0:0:0:0:
167,251,5548,1,0,0:0:0:0:
104,265,5619,5,8,0:0:0:0:
154,225,5691,1,0,0:0:0:0:
218,212,5763,1,0,0:0:0:0:
279,212,5834,1,0,0:0:0:0:
329,251,5905,5,8,0:0:0:0:
269,273,5976,1,0,0:0:0:0:
206,263,6047,1,0,0:0:0:0:
154,225,6119,1,0,0:0:0:0:
121,171,6191,1,0,0:0:0:0:
59,162,6262,1,0,0:0:0:0:
11,202,6334,1,0,0:0:0:0:
10,265,6405,1,0,0:0:0:0:
56,307,6477,5,8,0:0:0:0:
104,267,6548,1,0,0:0:0:0:
105,204,6619,1,0,0:0:0:0:
59,162,6691,1,0,0:0:0:0:
25,109,6762,5,8,0:0:0:0:
75,148,6834,1,0,0:0:0:0:
137,140,6905,1,0,0:0:0:0:
176,90,6977,1,0,0:0:0:0:
169,26,7048,5,8,0:0:0:0:
132,77,7119,1,0,0:0:0:0:
137,140,7190,1,0,0:0:0:0:
183,183,7262,1,0,0:0:0:0:
246,185,7333,5,12,0:0:0:0:
316,223,7405,1,6,0:0:0:0:
317,303,7476,1,6,0:0:0:0:
248,343,7548,1,6,0:0:0:0:
168,340,7620,2,0,B|137:364|137:364|68:355,3,71.875,12|0|0|0,0:0|0:0|0:0|0:0,0:0:0:0:
83,258,7905,5,0,0:0:0:0:
74,224,7976,1,0,0:0:0:0:
81,191,8047,1,0,0:0:0:0:
102,164,8119,1,0,0:0:0:0:
133,150,8190,1,0,0:0:0:0:
167,151,8263,1,0,0:0:0:0:
201,155,8334,1,0,0:0:0:0:
234,147,8405,1,0,0:0:0:0:
263,128,8477,5,6,0:0:0:0:
255,161,8548,1,0,0:0:0:0:
266,194,8619,1,0,0:0:0:0:
291,217,8691,1,0,0:0:0:0:
324,224,8762,1,0,0:0:0:0:
356,214,8834,1,0,0:0:0:0:
380,190,8905,1,2,0:0:0:0:
393,221,8976,1,0,0:0:0:0:
422,238,9047,1,2,0:0:0:0:
451,220,9119,1,0,0:0:0:0:
470,191,9190,1,0,0:0:0:0:
474,157,9262,1,0,0:0:0:0:
464,125,9333,5,2,0:0:0:0:
446,154,9405,1,0,0:0:0:0:
442,188,9476,1,0,0:0:0:0:
451,220,9548,1,0,0:0:0:0:
465,251,9619,1,0,0:0:0:0:
462,285,9690,1,0,0:0:0:0:
444,314,9762,1,0,0:0:0:0:
414,330,9833,1,0,0:0:0:0:
380,330,9905,1,0,0:0:0:0:
350,313,9976,1,0,0:0:0:0:
320,297,10048,1,0,0:0:0:0:
285,295,10119,1,0,0:0:0:0:
254,309,10191,5,4,0:0:0:0:
275,282,10262,1,0,0:0:0:0:
279,248,10333,1,0,0:0:0:0:
266,217,10405,1,0,0:0:0:0:
238,196,10477,1,2,0:0:0:0:
271,187,10548,1,0,0:0:0:0:
296,164,10619,1,0,0:0:0:0:
305,131,10691,1,0,0:0:0:0:
297,98,10763,1,2,0:0:0:0:
327,114,10834,1,0,0:0:0:0:
362,117,10905,1,0,0:0:0:0:
394,108,10977,1,0,0:0:0:0:
422,87,11048,2,0,L|455:57,3,34.4999989471436,12|0|0|0,0:0|0:0|0:0|0:0,0:0:0:0:
277,44,11334,5,0,0:0:0:0:
210,55,11405,1,0,0:0:0:0:
176,113,11476,1,0,0:0:0:0:
200,176,11548,1,0,0:0:0:0:
264,197,11620,1,0,0:0:0:0:
331,187,11691,1,0,0:0:0:0:
389,222,11762,1,0,0:0:0:0:
410,287,11834,1,0,0:0:0:0:
388,350,11905,5,8,0:0:0:0:
329,315,11976,1,0,0:0:0:0:
307,251,12047,1,0,0:0:0:0:
331,187,12119,1,0,0:0:0:0:
390,153,12190,5,8,0:0:0:0:
414,214,12262,1,0,0:0:0:0:
388,282,12333,1,0,0:0:0:0:
329,315,12405,1,0,0:0:0:0:
263,304,12477,5,8,0:0:0:0:
287,240,12548,1,0,0:0:0:0:
346,206,12619,1,0,0:0:0:0:
414,214,12691,1,0,0:0:0:0:
462,263,12763,5,8,0:0:0:0:
488,199,12834,1,0,0:0:0:0:
473,133,12905,1,0,0:0:0:0:
422,87,12977,1,0,0:0:0:0:
353,80,13048,1,0,0:0:0:0:
294,114,13120,1,0,0:0:0:0:
240,155,13191,1,0,0:0:0:0:
173,146,13262,1,0,0:0:0:0:
135,92,13334,5,8,0:0:0:0:
202,99,13405,1,0,0:0:0:0:
240,155,13476,1,0,0:0:0:0:
219,219,13548,1,0,0:0:0:0:
156,242,13619,5,8,0:0:0:0:
178,178,13691,1,0,0:0:0:0:
240,155,13762,1,0,0:0:0:0:
301,181,13834,1,0,0:0:0:0:
322,249,13905,5,8,0:0:0:0:
261,219,13976,1,0,0:0:0:0:
240,155,14047,1,0,0:0:0:0:
272,95,14119,1,0,0:0:0:0:
337,77,14190,5,4,0:0:0:0:
424,88,14262,1,4,0:0:0:0:
484,154,14333,1,4,0:0:0:0:
483,243,14405,1,4,0:0:0:0:
433,331,14477,6,0,B|364:287|306:399|235:265,1,172.500006580353,2|0,0:0|0:0,0:0:0:0:
46,119,14763,1,0,0:0:0:0:
235,220,14905,1,0,0:0:0:0:
62,96,15048,1,0,0:0:0:0:
218,242,15190,1,0,0:0:0:0:
228,33,15334,6,0,B|290:59|290:59|317:105|317:105|386:154,1,172.500006580353,4|0,0:0|0:0,0:0:0:0:
218,242,15620,2,0,B|156:268|156:268|129:314|129:314|60:363,1,172.500006580353,8|0,0:0|0:0,0:0:0:0:
419,162,15905,2,0,B|357:136|357:136|330:90|330:90|261:41,1,172.500006580353,4|0,0:0|0:0,0:0:0:0:
130,238,16191,5,4,0:0:0:0:
423,198,16334,1,0,0:0:0:0:
129,199,16477,1,0,0:0:0:0:
423,236,16620,2,0,P|372:315|280:301,1,172.500006580353
217,159,16905,1,0,0:0:0:0:
423,198,17048,1,2,0:0:0:0:
278,364,17190,5,0,0:0:0:0:
252,365,17262,1,0,0:0:0:0:
227,359,17333,1,0,0:0:0:0:
206,345,17405,1,0,0:0:0:0:
189,326,17476,1,0,0:0:0:0:
172,307,17548,1,0,0:0:0:0:
151,293,17620,1,0,0:0:0:0:
126,287,17691,1,0,0:0:0:0:
100,288,17763,1,0,0:0:0:0:
76,297,17834,1,0,0:0:0:0:
56,313,17905,5,4,0:0:0:0:
243,255,18048,1,0,0:0:0:0:
204,48,18191,1,0,0:0:0:0:
204,48,18263,1,0,0:0:0:0:
204,48,18334,1,0,0:0:0:0:
259,283,18477,1,0,0:0:0:0:
435,118,18620,1,0,0:0:0:0:
163,181,18763,5,4,0:0:0:0:
394,251,18905,1,0,0:0:0:0:
339,16,19048,1,0,0:0:0:0:
339,16,19120,1,0,0:0:0:0:
339,16,19191,1,0,0:0:0:0:
163,181,19334,1,0,0:0:0:0:
435,118,19477,1,0,0:0:0:0:
204,48,19620,5,4,0:0:0:0:
394,251,19763,1,0,0:0:0:0:
339,16,19905,1,0,0:0:0:0:
339,16,19977,1,0,0:0:0:0:
339,16,20048,1,0,0:0:0:0:
394,251,20191,5,4,0:0:0:0:
435,118,20334,1,0,0:0:0:0:
298,271,20477,1,4,0:0:0:0:
350,64,20620,1,0,0:0:0:0:
192,265,20763,1,4,0:0:0:0:
245,27,20906,1,0,0:0:0:0:
195,363,21048,5,4,0:0:0:0:
122,321,21119,1,4,0:0:0:0:
111,239,21190,1,4,0:0:0:0:
169,180,21262,1,4,0:0:0:0:
254,191,21334,2,0,P|379:217|418:69,1,258.75000987053,4|0,0:0|0:0,0:0:0:0:
333,35,21620,5,0,0:0:0:0:
334,60,21691,1,0,0:0:0:0:
335,85,21762,1,0,0:0:0:0:
336,111,21834,1,0,0:0:0:0:
369,137,21905,1,0,0:0:0:0:
370,162,21976,1,0,0:0:0:0:
371,187,22047,1,0,0:0:0:0:
372,213,22119,1,0,0:0:0:0:
343,246,22191,6,0,P|253:291|172:181,1,258.75000987053,8|0,0:0|0:0,0:0:0:0:
243,0,22477,2,0,B|238:34|238:34|269:75|269:75|228:111|228:111|267:153|267:153|256:233,1,258.75000987053,8|0,0:0|0:0,0:0:0:0:
85,150,22763,2,0,P|175:105|258:214,1,258.75000987053,8|0,0:0|0:0,0:0:0:0:
171,182,23048,5,4,0:0:0:0:
280,322,23191,1,0,0:0:0:0:
312,293,23262,1,0,0:0:0:0:
345,265,23333,1,0,0:0:0:0:
333,136,23477,5,0,0:0:0:0:
305,156,23548,1,0,0:0:0:0:
291,187,23619,1,0,0:0:0:0:
295,221,23691,1,0,0:0:0:0:
314,249,23762,1,0,0:0:0:0:
345,265,23834,2,0,P|371:249|354:193,1,86.2500032901765
232,297,23977,5,0,0:0:0:0:
270,331,24048,1,0,0:0:0:0:
317,351,24119,1,0,0:0:0:0:
369,355,24191,1,0,0:0:0:0:
419,341,24262,1,0,0:0:0:0:
461,313,24334,1,0,0:0:0:0:
337,80,24477,6,0,P|276:25|118:119,1,258.75000987053
59,146,24763,1,4,0:0:0:0:
232,384,24905,1,0,0:0:0:0:
232,90,25048,1,0,0:0:0:0:
59,328,25191,1,0,0:0:0:0:
338,237,25334,1,0,0:0:0:0:
19,342,25477,1,0,0:0:0:0:
99,132,25620,5,4,0:0:0:0:
272,370,25762,1,0,0:0:0:0:
272,76,25905,1,0,0:0:0:0:
59,328,26048,1,0,0:0:0:0:
310,86,26191,1,0,0:0:0:0:
272,370,26334,1,0,0:0:0:0:
352,75,26477,5,4,0:0:0:0:
384,367,26620,1,0,0:0:0:0:
251,36,26763,1,0,0:0:0:0:
272,370,26905,1,0,0:0:0:0:
152,28,27048,1,0,0:0:0:0:
19,342,27191,1,0,0:0:0:0:
290,35,27334,5,4,0:0:0:0:
324,31,27405,1,0,0:0:0:0:
358,37,27476,1,0,0:0:0:0:
389,52,27548,1,0,0:0:0:0:
415,74,27619,5,2,0:0:0:0:
241,122,27763,1,2,0:0:0:0:
430,156,27905,1,2,0:0:0:0:
226,39,28049,1,2,0:0:0:0:
410,273,28191,5,4,0:0:0:0:
102,111,28334,1,4,0:0:0:0:
456,86,28477,1,4,0:0:0:0:
55,297,28620,1,4,0:0:0:0:
508,192,28763,1,4,0:0:0:0:
8,192,28906,1,4,0:0:0:0:
406,173,29048,6,0,B|382:226|470:257|506:183|523:125|484:84|429:55|376:50|338:67|306:109|297:139|270:180|282:229|308:298|352:304|376:284|401:327|442:316|485:324|500:317|500:317|327:372|284:370|77:369|86:257|64:52|217:5|217:5|249:54|244:189|141:231,1,1621.49995051575
81,252,32476,5,4,0:0:0:0:
406,173,32619,1,4,0:0:0:0:
82,155,32762,2,0,B|68:110|68:110|97:93|115:37,2,115
340,123,33619,5,0,0:0:0:0:
345,96,33690,1,0,0:0:0:0:
327,75,33761,1,0,0:0:0:0:
300,80,33833,1,0,0:0:0:0:
288,104,33905,1,0,0:0:0:0:
293,133,33976,1,0,0:0:0:0:
307,157,34047,1,0,0:0:0:0:
330,175,34119,1,0,0:0:0:0:
357,183,34190,1,0,0:0:0:0:
385,181,34262,1,0,0:0:0:0:
411,169,34333,1,0,0:0:0:0:
431,148,34405,1,0,0:0:0:0:
442,122,34476,1,0,0:0:0:0:
442,93,34547,1,0,0:0:0:0:
433,66,34619,1,0,0:0:0:0:
414,45,34690,1,0,0:0:0:0:
389,32,34762,5,0,0:0:0:0:
246,236,34905,1,4,0:0:0:0:
499,237,35048,2,0,B|469:275|469:275|475:321|475:321|438:340,2,115,4|0|0,0:0|0:0|0:0,0:0:0:0:
307,55,35905,5,0,0:0:0:0:
349,38,35976,1,0,0:0:0:0:
393,47,36047,1,0,0:0:0:0:
426,78,36119,1,0,0:0:0:0:
436,123,36190,1,0,0:0:0:0:
420,165,36262,1,0,0:0:0:0:
384,193,36333,1,0,0:0:0:0:
339,196,36405,1,0,0:0:0:0:
307,166,36476,5,0,0:0:0:0:
261,134,36548,1,0,0:0:0:0:
207,122,36619,1,0,0:0:0:0:
152,134,36690,1,0,0:0:0:0:
107,166,36762,5,0,0:0:0:0:
86,197,36833,1,0,0:0:0:0:
74,232,36905,1,0,0:0:0:0:
71,269,36976,1,0,0:0:0:0:
84,308,37048,6,0,B|169:287|169:287|215:344,1,129.375004935265
302,321,37333,2,0,L|224:217,1,129.375004935265
207,122,37619,2,0,P|288:142|320:201,1,129.375004935265
372,260,37905,2,0,B|403:295|396:337|396:337|419:301|425:261,1,129.375004935265
431,191,38190,2,0,P|429:289|407:298,1,129.375004935265
334,178,38476,2,0,P|361:120|438:91,1,129.375004935265
312,63,38762,2,0,B|273:43|273:43|222:73|163:55,1,129.375004935265
93,81,39048,2,0,B|130:102|131:152|131:152|101:193,1,129.375004935265
105,304,39333,5,0,0:0:0:0:
121,327,39404,1,0,0:0:0:0:
145,342,39475,1,0,0:0:0:0:
173,346,39547,1,0,0:0:0:0:
200,339,39618,1,0,0:0:0:0:
222,321,39690,1,0,0:0:0:0:
235,295,39761,5,0,0:0:0:0:
262,306,39833,1,0,0:0:0:0:
289,316,39904,1,0,0:0:0:0:
316,327,39976,1,0,0:0:0:0:
343,337,40047,1,0,0:0:0:0:
369,347,40119,1,0,0:0:0:0:
396,358,40191,6,0,L|398:258,1,57.5,4|0,0:0|0:0,0:0:0:0:
492,157,40333,2,0,L|490:257,1,57.5,4|0,0:0|0:0,0:0:0:0:
358,74,40476,1,4,0:0:0:0:
115,58,40905,5,2,0:0:0:0:
115,58,40952,5,2,0:0:0:0:
115,58,41000,5,2,0:0:0:0:
115,58,41048,6,2,B|139:122|139:122|108:165|108:165|126:229,2,172.5
30,296,41619,5,4,0:0:0:0:
301,299,41761,1,4,0:0:0:0:
39,291,41904,1,0,0:0:0:0:
294,201,42046,1,0,0:0:0:0:
48,287,42190,1,0,0:0:0:0:
258,109,42333,1,0,0:0:0:0:
173,335,42476,1,0,0:0:0:0:
441,188,42619,1,0,0:0:0:0:
243,18,42761,6,4,P|186:53|165:131,1,115
441,188,43047,1,0,0:0:0:0:
189,254,43189,1,0,0:0:0:0:
430,185,43333,1,0,0:0:0:0:
169,179,43476,1,0,0:0:0:0:
420,184,43618,1,0,0:0:0:0:
430,185,43690,1,0,0:0:0:0:
441,188,43761,1,0,0:0:0:0:
96,106,43904,6,4,P|68:182|80:237,1,115
314,333,44190,1,0,0:0:0:0:
203,77,44333,1,0,0:0:0:0:
177,286,44476,1,0,0:0:0:0:
312,98,44619,2,0,P|251:158|169:179,1,172.5
203,77,44904,1,0,0:0:0:0:
203,77,44975,1,0,0:0:0:0:
203,77,45047,6,0,B|298:124|371:90|414:42|414:42|420:174,1,345,8|0,0:0|0:0,0:0:0:0:
328,233,45333,2,0,B|363:315|430:340|430:340|434:253|434:253|490:197|490:197|489:97,1,345,8|0,0:0|0:0,0:0:0:0:
246,181,45619,2,0,B|165:244|111:212|111:212|162:282|142:386|27:369,1,345,8|0,0:0|0:0,0:0:0:0:
224,352,45904,2,0,B|209:291|246:251|246:251|223:209|198:171|203:122|203:122|248:83|228:0,1,345,8|0,0:0|0:0,0:0:0:0:
134,30,46190,5,4,0:0:0:0:
266,266,46332,1,4,0:0:0:0:
142,35,46475,1,0,0:0:0:0:
348,211,46619,1,0,0:0:0:0:
150,41,46761,1,0,0:0:0:0:
406,132,46904,1,0,0:0:0:0:
171,173,47047,1,0,0:0:0:0:
433,331,47190,1,0,0:0:0:0:
485,89,47333,6,4,P|413:37|317:119,1,230
496,247,47619,1,0,0:0:0:0:
243,253,47761,1,0,0:0:0:0:
433,331,47904,1,0,0:0:0:0:
260,184,48046,1,0,0:0:0:0:
497,126,48190,1,0,0:0:0:0:
497,126,48261,1,0,0:0:0:0:
497,126,48332,1,0,0:0:0:0:
282,42,48476,5,4,0:0:0:0:
373,233,48619,1,4,0:0:0:0:
433,29,48761,1,0,0:0:0:0:
260,184,48904,1,0,0:0:0:0:
462,24,49047,1,0,0:0:0:0:
235,217,49190,1,0,0:0:0:0:
194,16,49333,1,0,0:0:0:0:
194,16,49404,1,0,0:0:0:0:
194,16,49476,1,0,0:0:0:0:
37,144,49619,6,0,L|157:128,1,115,8|0,0:0|0:0,0:0:0:0:
348,232,49761,2,0,L|228:216,1,115,8|0,0:0|0:0,0:0:0:0:
106,327,49904,6,0,L|90:207,1,115,8|0,0:0|0:0,0:0:0:0:
194,16,50047,2,0,L|177:131,1,115,8|0,0:0|0:0,0:0:0:0:
120,324,50190,2,0,L|106:207,1,115,8|0,0:0|0:0,0:0:0:0:
208,13,50332,2,0,L|192:131,1,115,8|0,0:0|0:0,0:0:0:0:
219,322,50476,5,12,0:0:0:0:
260,340,50547,1,4,0:0:0:0:
306,346,50618,1,4,0:0:0:0:
351,340,50690,1,4,0:0:0:0:
393,322,50761,5,4,0:0:0:0:
337,90,50904,1,4,0:0:0:0:
219,322,51047,1,0,0:0:0:0:
489,251,51190,1,0,0:0:0:0:
303,66,51333,1,0,0:0:0:0:
393,322,51476,1,0,0:0:0:0:
337,90,51619,1,0,0:0:0:0:
219,322,51761,6,0,P|177:258|201:89,1,230,0|4,0:0|0:0,0:0:0:0:
381,89,52047,1,4,0:0:0:0:
152,23,52190,1,0,0:0:0:0:
347,215,52333,1,0,0:0:0:0:
117,25,52476,1,0,0:0:0:0:
381,89,52619,1,0,0:0:0:0:
45,140,52761,1,0,0:0:0:0:
45,140,52833,1,0,0:0:0:0:
45,140,52904,1,0,0:0:0:0:
136,300,53047,5,4,0:0:0:0:
140,29,53190,1,4,0:0:0:0:
355,100,53333,1,0,0:0:0:0:
83,146,53476,6,0,P|191:155|247:299,1,258.75000987053,8|0,0:0|0:0,0:0:0:0:
186,233,53761,2,0,P|232:118|354:99,1,258.75000987053,8|0,0:0|0:0,0:0:0:0:
405,106,54047,1,8,0:0:0:0:
98,342,54190,6,0,P|34:219|160:39,1,345,8|0,0:0|0:0,0:0:0:0:
138,291,54476,2,0,P|202:168|76:-12,1,345,8|0,0:0|0:0,0:0:0:0:
76,92,54761,2,0,P|199:156|379:30,1,345,8|0,0:0|0:0,0:0:0:0:
127,52,55047,2,0,P|250:-12|430:114,1,345,8|0,0:0|0:0,0:0:0:0:
317,92,55333,5,0,0:0:0:0:
76,92,55476,5,4,0:0:0:0:
245,311,55619,1,4,0:0:0:0:
127,52,55761,1,4,0:0:0:0:
333,223,55904,1,0,0:0:0:0:
46,148,56047,5,4,0:0:0:0:
414,257,56190,1,4,0:0:0:0:
49,70,56333,2,0,B|128:49|128:49|188:93|274:59|274:59|346:65,1,230,4|0,0:0|0:0,0:0:0:0:
428,120,56619,5,4,0:0:0:0:
188,312,56761,1,4,0:0:0:0:
203,29,56904,1,4,0:0:0:0:
367,254,57047,1,0,0:0:0:0:
120,155,57190,5,4,0:0:0:0:
414,89,57333,1,4,0:0:0:0:
414,89,57404,1,0,0:0:0:0:
414,89,57476,1,4,0:0:0:0:
46,148,57619,1,0,0:0:0:0:
188,312,57761,5,4,0:0:0:0:
231,38,57904,1,4,0:0:0:0:
273,315,58047,1,4,0:0:0:0:
321,14,58190,1,4,0:0:0:0:
356,326,58333,6,0,P|469:257|457:72,1,230,4|0,0:0|0:0,0:0:0:0:
231,38,58619,5,0,0:0:0:0:
231,38,58690,1,0,0:0:0:0:
231,38,58761,6,0,L|90:69,1,115,8|0,0:0|0:0,0:0:0:0:
16,189,58904,2,0,L|157:158,1,115,8|0,0:0|0:0,0:0:0:0:
343,244,59047,6,0,P|324:174|356:119,1,115,8|0,0:0|0:0,0:0:0:0:
181,259,59190,2,0,P|200:329|168:384,1,115,8|0,0:0|0:0,0:0:0:0:
348,230,59333,2,0,P|329:160|361:105,1,115,8|0,0:0|0:0,0:0:0:0:
186,245,59476,2,0,P|205:315|173:370,1,115,8|0,0:0|0:0,0:0:0:0:
430,103,59619,1,4,0:0:0:0:
412,49,59690,1,0,0:0:0:0:
365,19,59761,1,4,0:0:0:0:
309,27,59833,1,0,0:0:0:0:
271,68,59904,2,0,P|221:146|25:22,1,345,4|0,0:0|0:0,0:0:0:0:
137,40,60190,5,0,0:0:0:0:
189,96,60261,1,0,0:0:0:0:
207,170,60332,1,4,0:0:0:0:
185,244,60404,1,0,0:0:0:0:
180,318,60475,1,0,0:0:0:0:
240,363,60546,1,0,0:0:0:0:
310,337,60618,1,4,0:0:0:0:
327,265,60689,1,0,0:0:0:0:
275,211,60761,1,4,0:0:0:0:
232,148,60832,1,0,0:0:0:0:
236,72,60903,1,4,0:0:0:0:
286,14,60975,1,0,0:0:0:0:
360,0,61046,1,0,0:0:0:0:
429,33,61118,1,0,0:0:0:0:
463,101,61189,1,8,0:0:0:0:
448,176,61261,1,0,0:0:0:0:
390,226,61333,6,0,P|349:188|366:117,1,77.6250002961159,8|0,0:0|0:0,0:0:0:0:
186,92,61476,2,0,P|227:130|210:201,1,77.6250002961159,8|0,0:0|0:0,0:0:0:0:
313,278,61619,2,0,P|310:222|373:184,1,77.6250002961159,8|0,0:0|0:0,0:0:0:0:
263,39,61762,2,0,P|265:95|203:133,1,77.6250002961159,8|0,0:0|0:0,0:0:0:0:
221,261,61904,2,0,P|259:219|330:236,1,77.6250002961159,8|0,0:0|0:0,0:0:0:0:
355,56,62047,2,0,P|317:98|246:81,1,77.6250002961159,8|0,0:0|0:0,0:0:0:0:
76,134,62190,5,4,0:0:0:0:
16,181,62261,1,0,0:0:0:0:
2,256,62332,1,0,0:0:0:0:
38,322,62404,1,0,0:0:0:0:
109,350,62475,1,0,0:0:0:0:
181,325,62547,1,0,0:0:0:0:
220,260,62619,1,4,0:0:0:0:
220,184,62690,1,0,0:0:0:0:
265,122,62761,1,0,0:0:0:0:
338,99,62833,1,0,0:0:0:0:
410,124,62904,1,4,0:0:0:0:
454,187,62976,1,0,0:0:0:0:
452,263,63047,1,4,0:0:0:0:
405,323,63119,1,0,0:0:0:0:
332,344,63190,1,4,0:0:0:0:
260,317,63261,1,0,0:0:0:0:
220,260,63333,6,0,P|253:219|312:215,1,77.6250002961159,8|0,0:0|0:0,0:0:0:0:
410,124,63476,2,0,P|377:165|318:169,1,77.6250002961159,8|0,0:0|0:0,0:0:0:0:
200,173,63619,2,0,P|252:167|297:205,1,77.6250002961159,8|0,0:0|0:0,0:0:0:0:
430,210,63762,2,0,P|378:217|333:178,1,77.6250002961159,8|0,0:0|0:0,0:0:0:0:
247,97,63904,2,0,P|288:129|292:188,1,77.6250002961159,8|0,0:0|0:0,0:0:0:0:
383,286,64047,2,0,P|342:254|338:195,1,77.6250002961159,8|0,0:0|0:0,0:0:0:0:
333,77,64190,2,0,P|340:129|301:173,1,77.6250002961159,8|0,0:0|0:0,0:0:0:0:
296,307,64333,2,0,P|290:255|329:210,1,77.6250002961159,8|0,0:0|0:0,0:0:0:0:
470,85,64476,2,0,L|475:340,1,232.875000888348,12|0,0:0|0:0,0:0:0:0:
383,286,64761,5,4,0:0:0:0:
308,306,64832,1,0,0:0:0:0:
233,292,64903,1,4,0:0:0:0:
171,246,64976,1,0,0:0:0:0:
103,216,65047,1,0,0:0:0:0:
43,259,65118,1,0,0:0:0:0:
50,333,65190,1,4,0:0:0:0:
118,363,65261,1,0,0:0:0:0:
178,320,65333,1,4,0:0:0:0:
171,246,65404,1,0,0:0:0:0:
145,175,65475,1,4,0:0:0:0:
183,110,65546,1,0,0:0:0:0:
256,96,65618,1,0,0:0:0:0:
315,144,65690,1,0,0:0:0:0:
357,205,65761,1,8,0:0:0:0:
430,197,65832,1,0,0:0:0:0:
460,129,65904,6,0,P|449:76|419:57,1,77.6250002961159,8|0,0:0|0:0,0:0:0:0:
357,205,66047,2,0,P|368:258|398:277,1,77.6250002961159,8|0,0:0|0:0,0:0:0:0:
418,104,66190,2,0,P|372:74|337:82,1,77.6250002961159,8|0,0:0|0:0,0:0:0:0:
398,230,66333,2,0,P|444:260|479:252,1,77.6250002961159,8|0,0:0|0:0,0:0:0:0:
371,115,66476,2,0,P|317:127|298:157,1,77.6250002961159,8|0,0:0|0:0,0:0:0:0:
446,219,66620,2,0,P|500:207|519:177,1,77.6250002961159,8|0,0:0|0:0,0:0:0:0:
249,10,66761,5,4,0:0:0:0:
156,45,66832,1,4,0:0:0:0:
98,126,66903,1,4,0:0:0:0:
94,226,66975,1,4,0:0:0:0:
146,311,67047,2,0,P|205:227|192:114,1,155.250000592232,12|0,0:0|0:0,0:0:0:0:
9,249,67333,5,0,0:0:0:0:
42,317,67404,1,0,0:0:0:0:
106,360,67475,1,0,0:0:0:0:
183,364,67547,1,0,0:0:0:0:
251,328,67618,1,0,0:0:0:0:
292,263,67690,1,0,0:0:0:0:
343,209,67761,1,0,0:0:0:0:
416,224,67832,1,0,0:0:0:0:
442,294,67904,6,0,L|455:33,1,232.875000888348,4|0,0:0|0:0,0:0:0:0:
408,64,68190,2,0,L|419:296,1,232.875000888348,4|0,0:0|0:0,0:0:0:0:
343,209,68476,5,4,0:0:0:0:
297,149,68547,1,4,0:0:0:0:
223,135,68618,1,4,0:0:0:0:
158,174,68690,1,4,0:0:0:0:
137,247,68761,2,0,P|238:273|344:207,1,232.875000888348
297,149,69047,5,4,0:0:0:0:
30,78,69190,1,4,0:0:0:0:
137,247,69333,1,0,0:0:0:0:
116,26,69476,1,0,0:0:0:0:
137,247,69619,1,0,0:0:0:0:
211,35,69761,1,0,0:0:0:0:
342,209,69904,1,0,0:0:0:0:
41,120,70047,1,0,0:0:0:0:
425,264,70190,6,4,P|430:153|388:134,1,155.250000592232
211,35,70476,1,0,0:0:0:0:
245,258,70619,1,0,0:0:0:0:
193,42,70761,1,0,0:0:0:0:
227,265,70904,1,0,0:0:0:0:
348,57,71047,1,0,0:0:0:0:
348,57,71119,1,0,0:0:0:0:
348,57,71190,1,0,0:0:0:0:
50,83,71333,1,4,0:0:0:0:
227,265,71476,1,4,0:0:0:0:
193,42,71619,1,0,0:0:0:0:
325,249,71761,1,0,0:0:0:0:
165,20,71904,1,0,0:0:0:0:
405,189,72047,2,0,P|414:111|368:31,1,155.250000592232
193,42,72333,1,0,0:0:0:0:
58,274,72476,6,0,P|130:320|305:176,1,345,8|0,0:0|0:0,0:0:0:0:
193,42,72761,2,0,B|209:118|209:118|161:188|161:188|187:266|187:266|178:373,1,345,8|0,0:0|0:0,0:0:0:0:
305,182,73047,2,0,P|316:95|401:228,1,345,8|0,0:0|0:0,0:0:0:0:
178,365,73333,2,0,P|270:168|394:147,1,345,8|0,0:0|0:0,0:0:0:0:
450,192,73619,5,4,0:0:0:0:
149,130,73761,1,4,0:0:0:0:
296,262,73904,1,0,0:0:0:0:
165,30,74047,1,0,0:0:0:0:
284,342,74190,1,0,0:0:0:0:
249,28,74333,1,0,0:0:0:0:
450,192,74476,1,0,0:0:0:0:
179,134,74619,1,0,0:0:0:0:
378,80,74761,6,4,P|438:129|449:197,1,143.75
179,134,75047,1,0,0:0:0:0:
368,163,75190,1,0,0:0:0:0:
164,148,75333,1,0,0:0:0:0:
353,177,75476,1,0,0:0:0:0:
149,162,75618,5,0,0:0:0:0:
147,160,75690,1,0,0:0:0:0:
147,160,75761,1,0,0:0:0:0:
242,324,75904,1,4,0:0:0:0:
288,69,76047,1,4,0:0:0:0:
106,149,76190,1,0,0:0:0:0:
283,320,76333,1,0,0:0:0:0:
271,36,76476,6,0,P|139:23|55:80,1,184
100,257,76761,1,0,0:0:0:0:
283,320,76904,1,0,0:0:0:0:
327,121,77047,6,0,P|268:136|181:43,1,115,8|0,0:0|0:0,0:0:0:0:
134,226,77190,2,0,P|193:211|280:304,1,115,8|0,0:0|0:0,0:0:0:0:
388,344,77333,6,0,L|359:204,1,115,8|0,0:0|0:0,0:0:0:0:
219,117,77476,2,0,L|248:257,1,115,8|0,0:0|0:0,0:0:0:0:
401,359,77619,2,0,L|369:205,1,115,8|0,0:0|0:0,0:0:0:0:
215,109,77761,2,0,L|247:263,1,115,8|0,0:0|0:0,0:0:0:0:
467,236,77904,5,8,0:0:0:0:
447,181,77975,1,0,0:0:0:0:
409,140,78046,1,8,0:0:0:0:
357,115,78118,1,0,0:0:0:0:
299,114,78190,2,0,P|232:74|225:12,1,115
411,138,78476,5,0,0:0:0:0:
447,181,78547,1,0,0:0:0:0:
458,237,78618,1,0,0:0:0:0:
439,290,78690,1,0,0:0:0:0:
396,327,78761,1,0,0:0:0:0:
341,338,78833,1,0,0:0:0:0:
287,320,78904,1,0,0:0:0:0:
249,277,78975,1,0,0:0:0:0:
238,221,79047,1,0,0:0:0:0:
257,167,79118,1,0,0:0:0:0:
299,130,79190,1,0,0:0:0:0:
355,118,79261,1,0,0:0:0:0:
411,138,79333,2,0,P|376:178|335:178,1,57.5,8|0,0:0|0:0,0:0:0:0:
141,227,79476,5,8,0:0:0:0:
86,240,79547,1,0,0:0:0:0:
43,206,79618,1,0,0:0:0:0:
42,150,79690,1,0,0:0:0:0:
82,115,79761,1,0,0:0:0:0:
140,129,79833,1,0,0:0:0:0:
164,176,79904,1,0,0:0:0:0:
126,214,79975,1,0,0:0:0:0:
78,190,80046,1,0,0:0:0:0:
87,137,80118,1,0,0:0:0:0:
140,129,80189,1,0,0:0:0:0:
182,93,80261,1,0,0:0:0:0:
182,38,80332,1,0,0:0:0:0:
139,3,80404,1,0,0:0:0:0:
84,15,80475,5,8,0:0:0:0:
59,64,80547,1,0,0:0:0:0:
82,115,80618,1,8,0:0:0:0:
140,129,80690,1,0,0:0:0:0:
188,143,80761,5,0,0:0:0:0:
177,191,80832,1,0,0:0:0:0:
189,233,80903,1,0,0:0:0:0:
216,255,80975,1,0,0:0:0:0:
250,269,81046,5,0,0:0:0:0:
249,298,81118,1,0,0:0:0:0:
262,323,81189,1,0,0:0:0:0:
286,338,81261,1,0,0:0:0:0:
314,340,81332,1,0,0:0:0:0:
340,328,81404,1,0,0:0:0:0:
356,305,81475,1,0,0:0:0:0:
359,276,81546,1,0,0:0:0:0:
348,250,81619,6,0,P|347:134|479:253,1,345,8|0,0:0|0:0,0:0:0:0:
303,169,81904,2,0,B|265:117|265:117|175:155|175:155|86:101|86:101|-4:134,1,345,8|0,0:0|0:0,0:0:0:0:
59,321,82190,2,0,P|166:298|76:124,1,345,8|0,0:0|0:0,0:0:0:0:
14,129,82476,5,8,0:0:0:0:
343,20,82619,1,0,0:0:0:0:
98,225,82761,1,0,0:0:0:0:
277,158,82904,5,4,0:0:0:0:
59,321,83047,1,4,0:0:0:0:
238,254,83190,1,4,0:0:0:0:
56,261,83333,1,0,0:0:0:0:
388,291,83476,5,4,0:0:0:0:
170,155,83619,1,4,0:0:0:0:
420,296,83761,1,4,0:0:0:0:
218,343,83904,1,0,0:0:0:0:
327,94,84047,5,4,0:0:0:0:
462,306,84190,1,4,0:0:0:0:
343,60,84333,1,4,0:0:0:0:
340,346,84476,1,0,0:0:0:0:
168,145,84619,5,4,0:0:0:0:
448,191,84761,1,4,0:0:0:0:
448,191,84833,1,0,0:0:0:0:
448,191,84904,1,4,0:0:0:0:
120,131,85047,1,0,0:0:0:0:
343,60,85190,5,4,0:0:0:0:
218,343,85333,1,4,0:0:0:0:
343,60,85476,1,4,0:0:0:0:
468,343,85619,1,4,0:0:0:0:
343,60,85761,2,0,P|270:40|157:82,1,172.5,4|0,0:0|0:0,0:0:0:0:
121,117,86047,1,4,0:0:0:0:
218,343,86190,5,12,0:0:0:0:
437,31,86333,1,12,0:0:0:0:
353,282,86476,6,0,P|315:238|371:112,1,115,8|0,0:0|0:0,0:0:0:0:
451,62,86619,2,0,P|487:107|450:233,1,115,8|0,0:0|0:0,0:0:0:0:
338,343,86761,2,0,P|269:286|258:139,1,230
355,28,87047,1,4,0:0:0:0:
405,207,87190,1,0,0:0:0:0:
422,97,87333,6,0,B|335:145|292:75|198:115,1,230,2|0,0:0|0:0,0:0:0:0:
106,18,88190,6,0,P|81:70|76:127,1,115,2|0,0:0|0:0,0:0:0:0:
198,236,88618,1,0,0:0:0:0:
0,190,88761,2,2,P|51:215|108:220,1,115,0|0,0:0|0:0,0:0:0:0:
219,153,89333,5,0,0:0:0:0:
198,236,89475,1,0,0:0:0:0:
189,64,89618,2,2,P|245:68|297:93,1,115,0|0,0:0|0:0,0:0:0:0:
198,236,90190,6,0,L|249:293,1,57.5,2|0,0:0|0:0,0:0:0:0:
227,106,90475,2,0,L|176:49,1,57.5,2|0,0:0|0:0,0:0:0:0:
364,43,90761,2,0,P|378:81|359:156,1,115,0|4,0:0|0:0,0:0:0:0:
467,197,91190,5,2,0:0:0:0:
296,206,91333,1,0,0:0:0:0:
467,197,91475,1,2,0:0:0:0:
296,206,91618,2,2,P|309:275|358:304,2,115
157,0,92475,6,0,B|173:11|205:87|135:130|175:224,1,230
174,222,93333,6,0,P|187:278|217:293,1,86.25
255,291,93618,2,0,P|287:318|289:360,1,86.25
362,313,93904,5,2,0:0:0:0:
382,292,93999,1,2,0:0:0:0:
402,271,94094,1,2,0:0:0:0:
422,250,94190,1,6,0:0:0:0:
193,82,94333,1,0,0:0:0:0:
473,182,94475,1,0,0:0:0:0:
185,164,94618,1,0,0:0:0:0:
382,292,94761,5,4,0:0:0:0:
328,37,94904,1,4,0:0:0:0:
241,267,95047,2,0,P|177:282|93:228,1,143.75,4|0,0:0|0:0,0:0:0:0:
218,57,95333,2,0,B|308:55|308:55|335:108,1,143.75,4|0,0:0|0:0,0:0:0:0:
82,178,95618,2,0,P|67:114|121:30,1,143.75,4|0,0:0|0:0,0:0:0:0:
325,137,95904,5,4,0:0:0:0:
109,249,96047,1,0,0:0:0:0:
360,153,96190,1,0,0:0:0:0:
111,182,96333,1,0,0:0:0:0:
392,168,96475,2,0,P|326:217|252:140,1,143.75,4|0,0:0|0:0,0:0:0:0:
385,44,96761,2,0,P|451:-5|525:72,1,143.75,4|0,0:0|0:0,0:0:0:0:
452,290,97047,5,0,0:0:0:0:
455,75,97190,1,0,0:0:0:0:
274,197,97333,2,0,P|231:101|278:29,1,143.75
500,192,97618,5,4,0:0:0:0:
116,192,97761,1,4,0:0:0:0:
464,192,97904,2,4,P|425:138|466:69,1,143.75
505,290,98190,2,0,L|230:297,1,215.625
256,300,98475,5,4,0:0:0:0:
256,24,98618,1,4,0:0:0:0:
256,252,98761,1,0,0:0:0:0:
125,104,98904,1,4,0:0:0:0:
125,104,98976,1,4,0:0:0:0:
125,104,99047,2,0,P|207:88|339:186,1,215.625
182,287,99333,6,0,P|141:186|320:151,1,345,8|0,0:0|0:0,0:0:0:0:
308,292,99618,2,0,P|420:231|401:25,1,345,8|0,0:0|0:0,0:0:0:0:
318,148,99904,2,0,B|273:236|273:236|309:292|309:292|226:305|226:305|186:334|186:334|181:282,1,345,8|0,0:0|0:0,0:0:0:0:
196,204,100190,2,0,P|146:284|8:287,1,230,8|0,0:0|0:0,0:0:0:0:
13,52,100475,5,4,0:0:0:0:
35,52,100546,1,4,0:0:0:0:
58,52,100617,1,4,0:0:0:0:
81,52,100689,1,4,0:0:0:0:
104,53,100760,1,4,0:0:0:0:
127,53,100832,1,4,0:0:0:0:
150,53,100903,1,4,0:0:0:0:
173,53,100974,1,4,0:0:0:0:
198,57,101047,6,0,P|283:58|170:109,1,359.375,4|0,0:0|0:0,0:0:0:0:
196,55,101475,6,0,B|242:31|307:26|342:117|316:168|234:196,1,215.625,4|0,0:0|0:0,0:0:0:0:
170,127,101761,6,0,P|94:176|124:308,1,215.625,4|0,0:0|0:0,0:0:0:0:
164,219,102047,1,4,0:0:0:0:
445,44,102761,5,4,0:0:0:0:
445,79,102832,1,4,0:0:0:0:
446,115,102903,1,4,0:0:0:0:
447,151,102975,1,4,0:0:0:0:
448,187,103047,2,0,P|375:211|319:137,1,143.75,4|0,0:0|0:0,0:0:0:0:
233,15,103332,5,4,0:0:0:0:
233,245,103475,1,0,0:0:0:0:
98,59,103618,1,0,0:0:0:0:
315,129,103761,1,0,0:0:0:0:
98,200,103904,1,4,0:0:0:0:
346,110,104047,1,0,0:0:0:0:
237,284,104189,5,0,0:0:0:0:
237,284,104261,1,0,0:0:0:0:
237,284,104333,1,0,0:0:0:0:
233,15,104475,1,4,0:0:0:0:
365,224,104618,1,0,0:0:0:0:
98,200,104761,1,0,0:0:0:0:
349,112,104904,1,0,0:0:0:0:
237,284,105047,1,4,0:0:0:0:
233,15,105189,1,0,0:0:0:0:
388,249,105332,1,0,0:0:0:0:
59,212,105475,1,0,0:0:0:0:
374,27,105618,6,0,P|432:84|428:153,1,143.75,4|0,0:0|0:0,0:0:0:0:
237,284,105904,2,0,P|294:342|363:338,1,143.75,0|0,0:0|0:0,0:0:0:0:
192,64,106189,1,4,0:0:0:0:
341,268,106332,1,0,0:0:0:0:
341,15,106475,1,0,0:0:0:0:
192,220,106618,1,0,0:0:0:0:
432,142,106761,1,4,0:0:0:0:
162,48,106904,1,0,0:0:0:0:
352,300,107047,1,0,0:0:0:0:
336,43,107189,1,0,0:0:0:0:
150,233,107332,5,4,0:0:0:0:
179,253,107403,1,0,0:0:0:0:
209,273,107474,1,0,0:0:0:0:
404,162,107618,1,4,0:0:0:0:
374,141,107689,1,0,0:0:0:0:
344,121,107760,1,0,0:0:0:0:
142,100,107904,1,4,0:0:0:0:
244,293,108047,1,4,0:0:0:0:
211,38,108189,6,0,P|115:8|64:81,1,143.75
2,165,108475,1,4,0:0:0:0:
31,185,108546,1,0,0:0:0:0:
61,205,108617,1,0,0:0:0:0:
202,141,108761,1,4,0:0:0:0:
172,120,108832,1,0,0:0:0:0:
142,100,108903,1,0,0:0:0:0:
95,229,109047,5,4,0:0:0:0:
126,246,109118,1,0,0:0:0:0:
161,255,109189,1,4,0:0:0:0:
196,254,109261,1,0,0:0:0:0:
231,245,109332,1,4,0:0:0:0:
262,227,109404,1,0,0:0:0:0:
288,202,109475,1,4,0:0:0:0:
306,171,109546,1,0,0:0:0:0:
316,136,109618,5,4,0:0:0:0:
344,156,109689,1,0,0:0:0:0:
380,157,109760,1,0,0:0:0:0:
409,138,109832,1,0,0:0:0:0:
423,105,109903,5,4,0:0:0:0:
392,122,109975,1,0,0:0:0:0:
380,157,110046,1,0,0:0:0:0:
378,189,110118,1,0,0:0:0:0:
400,217,110189,5,4,0:0:0:0:
497,69,110332,1,0,0:0:0:0:
487,282,110475,1,0,0:0:0:0:
229,126,110618,1,0,0:0:0:0:
479,322,110761,2,0,P|399:350|332:331,1,143.75,4|0,0:0|0:0,0:0:0:0:
145,263,111047,1,0,0:0:0:0:
292,46,111189,1,0,0:0:0:0:
163,241,111332,2,0,P|118:167|132:85,1,143.75,4|0,0:0|0:0,0:0:0:0:
304,49,111617,1,0,0:0:0:0:
159,232,111761,2,0,P|120:155|161:55,1,143.75,4|0,0:0|0:0,0:0:0:0:
339,49,112046,1,0,0:0:0:0:
168,24,112189,1,4,0:0:0:0:
168,24,112261,1,0,0:0:0:0:
168,24,112333,1,0,0:0:0:0:
383,175,112475,5,4,0:0:0:0:
159,232,112618,1,0,0:0:0:0:
339,49,112761,1,0,0:0:0:0:
282,272,112904,1,0,0:0:0:0:
135,94,113047,1,4,0:0:0:0:
408,171,113189,1,0,0:0:0:0:
119,236,113332,1,0,0:0:0:0:
119,236,113404,1,0,0:0:0:0:
119,236,113475,1,0,0:0:0:0:
435,160,113618,6,0,P|426:238|339:246,1,143.75,4|0,0:0|0:0,0:0:0:0:
130,56,113904,1,0,0:0:0:0:
345,275,114047,1,0,0:0:0:0:
325,69,114190,1,4,0:0:0:0:
355,89,114261,1,0,0:0:0:0:
385,110,114332,1,0,0:0:0:0:
219,198,114475,1,0,0:0:0:0:
189,178,114546,1,0,0:0:0:0:
160,158,114617,1,0,0:0:0:0:
415,16,114761,5,4,0:0:0:0:
345,275,114904,1,0,0:0:0:0:
227,42,115047,1,0,0:0:0:0:
227,42,115118,1,0,0:0:0:0:
227,42,115189,1,0,0:0:0:0:
297,286,115332,1,4,0:0:0:0:
95,207,115475,1,0,0:0:0:0:
265,38,115618,1,0,0:0:0:0:
265,38,115689,1,0,0:0:0:0:
265,38,115761,1,0,0:0:0:0:
288,318,115904,1,4,0:0:0:0:
76,177,116047,1,0,0:0:0:0:
367,151,116189,1,4,0:0:0:0:
70,324,116332,1,0,0:0:0:0:
131,95,116475,5,4,0:0:0:0:
192,53,116546,1,0,0:0:0:0:
265,50,116617,1,4,0:0:0:0:
330,86,116689,1,0,0:0:0:0:
367,151,116761,1,4,0:0:0:0:
377,222,116832,1,0,0:0:0:0:
441,254,116903,1,4,0:0:0:0:
505,221,116975,1,0,0:0:0:0:
512,150,117046,1,4,0:0:0:0:
440,173,117332,5,0,0:0:0:0:
440,173,117618,1,0,0:0:0:0:
127,45,117904,6,0,P|90:133|123:269,1,224.24998973465
184,182,118189,2,0,L|184:106,3,74.7499965782167,4|0|0|0,0:0|0:0|0:0|0:0,0:0:0:0:
328,182,118475,2,0,L|328:106,3,74.7499965782167,4|0|0|0,0:0|0:0|0:0|0:0,0:0:0:0:
247,355,118761,2,0,L|247:279,3,74.7499965782167,4|0|0|0,0:0|0:0|0:0|0:0,0:0:0:0:
391,355,119047,2,0,L|391:279,3,74.7499965782167,4|0|0|0,0:0|0:0|0:0|0:0,0:0:0:0:
127,119,119332,6,0,L|128:37,3,80.499997543335,4|0|0|0,0:0|0:0|0:0|0:0,0:0:0:0:
266,162,119617,5,8,0:0:0:0:
307,226,119689,1,0,0:0:0:0:
300,301,119760,1,8,0:0:0:0:
247,355,119831,1,0,0:0:0:0:
172,361,119903,1,8,0:0:0:0:
110,317,119974,1,0,0:0:0:0:
92,244,120046,1,8,0:0:0:0:
126,175,120118,1,0,0:0:0:0:
192,145,120188,5,12,0:0:0:0:
211,218,120260,1,0,0:0:0:0:
179,286,120331,1,8,0:0:0:0:
110,317,120403,1,0,0:0:0:0:
37,295,120475,5,12,0:0:0:0:
79,230,120546,1,0,0:0:0:0:
88,154,120618,1,8,0:0:0:0:
106,81,120689,1,0,0:0:0:0:
169,39,120760,1,8,0:0:0:0:
244,51,120832,1,0,0:0:0:0:
291,111,120903,1,8,0:0:0:0:
324,178,120975,1,0,0:0:0:0:
397,195,121046,1,8,0:0:0:0:
458,151,121118,1,0,0:0:0:0:
462,76,121189,1,8,0:0:0:0:
407,24,121261,1,0,0:0:0:0:
336,31,121332,5,12,0:0:0:0:
326,108,121403,1,0,0:0:0:0:
381,162,121474,1,8,0:0:0:0:
458,151,121546,1,0,0:0:0:0:
494,82,121618,5,12,0:0:0:0:
439,26,121689,1,0,0:0:0:0:
363,38,121761,1,8,0:0:0:0:
326,108,121832,1,0,0:0:0:0:
291,181,121904,2,0,P|260:213|217:223,1,80.499997543335,12|0,0:0|0:0,0:0:0:0:
65,146,122047,5,12,0:0:0:0:
36,75,122118,1,0,0:0:0:0:
92,25,122189,1,8,0:0:0:0:
159,59,122261,1,0,0:0:0:0:
149,134,122332,1,12,0:0:0:0:
128,209,122403,1,0,0:0:0:0:
166,278,122474,1,8,0:0:0:0:
241,300,122546,1,0,0:0:0:0:
311,262,122618,5,12,0:0:0:0:
273,193,122689,1,0,0:0:0:0:
198,171,122760,1,8,0:0:0:0:
128,209,122832,1,0,0:0:0:0:
48,225,122904,2,0,P|15:183|9:135,1,80.499997543335,12|0,0:0|0:0,0:0:0:0:
261,86,123047,5,12,0:0:0:0:
333,120,123118,1,0,0:0:0:0:
383,182,123189,1,8,0:0:0:0:
421,247,123260,1,0,0:0:0:0:
494,231,123331,1,8,0:0:0:0:
501,156,123403,1,0,0:0:0:0:
432,126,123474,1,8,0:0:0:0:
383,182,123547,1,0,0:0:0:0:
421,247,123618,2,4,P|417:337|333:357,1,160.99999508667,12|4,0:0|0:0,0:0:0:0:
198,70,123904,5,4,0:0:0:0:
295,302,124047,1,0,0:0:0:0:
424,38,124189,1,2,0:0:0:0:
424,38,124261,1,0,0:0:0:0:
424,38,124332,1,4,0:0:0:0:
364,290,124475,5,0,0:0:0:0:
282,44,124618,1,0,0:0:0:0:
234,291,124761,1,2,0:0:0:0:
234,291,124832,1,0,0:0:0:0:
234,291,124904,1,0,0:0:0:0:
282,44,125047,5,4,0:0:0:0:
360,296,125190,1,0,0:0:0:0:
126,98,125332,1,2,0:0:0:0:
126,98,125404,1,0,0:0:0:0:
126,98,125475,1,4,0:0:0:0:
70,304,125618,5,0,0:0:0:0:
234,291,125761,1,0,0:0:0:0:
46,184,125904,1,6,0:0:0:0:
46,184,125975,1,0,0:0:0:0:
46,184,126047,1,0,0:0:0:0:
312,142,126189,5,4,0:0:0:0:
70,304,126332,1,0,0:0:0:0:
375,262,126475,1,0,0:0:0:0:
236,121,126618,1,4,0:0:0:0:
195,119,126689,1,0,0:0:0:0:
155,117,126760,1,0,0:0:0:0:
123,223,126904,1,0,0:0:0:0:
150,251,126975,1,0,0:0:0:0:
188,264,127046,1,4,0:0:0:0:
228,258,127118,1,0,0:0:0:0:
260,234,127189,1,0,0:0:0:0:
236,121,127332,5,4,0:0:0:0:
235,64,127403,1,0,0:0:0:0:
274,24,127474,1,0,0:0:0:0:
330,23,127546,1,0,0:0:0:0:
371,59,127618,5,4,0:0:0:0:
332,100,127689,1,0,0:0:0:0:
276,102,127760,1,0,0:0:0:0:
235,64,127832,1,0,0:0:0:0:
233,8,127903,5,4,0:0:0:0:
228,36,127975,1,0,0:0:0:0:
213,60,128046,1,0,0:0:0:0:
189,76,128118,1,0,0:0:0:0:
162,80,128189,5,4,0:0:0:0:
152,73,128260,1,0,0:0:0:0:
144,65,128331,1,0,0:0:0:0:
138,55,128403,1,0,0:0:0:0:
136,44,128475,5,4,0:0:0:0:
47,211,128618,1,0,0:0:0:0:
276,102,128761,1,0,0:0:0:0:
53,42,128904,1,4,0:0:0:0:
262,222,129047,1,0,0:0:0:0:
24,122,129189,1,0,0:0:0:0:
164,281,129332,5,4,0:0:0:0:
164,281,129404,1,0,0:0:0:0:
164,281,129476,1,0,0:0:0:0:
284,140,129618,1,4,0:0:0:0:
75,246,129761,1,0,0:0:0:0:
307,283,129904,1,0,0:0:0:0:
141,117,130046,1,4,0:0:0:0:
178,349,130189,1,0,0:0:0:0:
294,106,130332,1,0,0:0:0:0:
48,265,130475,5,4,0:0:0:0:
48,265,130547,1,0,0:0:0:0:
48,265,130618,1,0,0:0:0:0:
338,285,130761,1,4,0:0:0:0:
134,79,130904,1,0,0:0:0:0:
209,369,131047,1,0,0:0:0:0:
214,48,131189,2,0,P|153:-6|65:25,1,172.5,4|0,0:0|0:0,0:0:0:0:
106,244,131475,1,0,0:0:0:0:
332,160,131618,5,4,0:0:0:0:
303,131,131689,1,0,0:0:0:0:
275,102,131760,1,0,0:0:0:0:
134,164,131904,1,4,0:0:0:0:
162,192,131975,1,0,0:0:0:0:
190,221,132046,1,0,0:0:0:0:
436,144,132189,1,4,0:0:0:0:
156,43,132332,1,0,0:0:0:0:
305,298,132475,1,4,0:0:0:0:
114,45,132618,1,0,0:0:0:0:
43,269,132761,1,4,0:0:0:0:
43,269,132832,1,0,0:0:0:0:
43,269,132904,1,0,0:0:0:0:
357,161,133047,6,0,P|342:79|270:26,1,172.5,4|0,0:0|0:0,0:0:0:0:
168,224,133332,1,0,0:0:0:0:
168,224,133404,1,0,0:0:0:0:
168,224,133475,1,4,0:0:0:0:
274,27,133618,1,0,0:0:0:0:
66,113,133761,1,0,0:0:0:0:
279,233,133904,1,4,0:0:0:0:
279,233,133975,1,0,0:0:0:0:
279,233,134047,1,0,0:0:0:0:
35,137,134189,6,4,P|27:204|73:306,1,172.5,4|0,0:0|0:0,0:0:0:0:
382,12,134475,2,0,P|390:79|345:173,1,172.5,4|0,0:0|0:0,0:0:0:0:
54,143,134761,2,0,P|46:210|90:306,1,172.5,4|0,0:0|0:0,0:0:0:0:
401,18,135047,2,0,P|409:85|363:180,1,172.5,4|0,0:0|0:0,0:0:0:0:
114,65,135332,5,4,0:0:0:0:
114,65,135404,1,4,0:0:0:0:
114,65,135475,1,4,0:0:0:0:
114,65,135547,1,4,0:0:0:0:
114,65,135618,1,4,0:0:0:0:
258,40,135904,5,4,0:0:0:0:
261,63,135975,1,0,0:0:0:0:
264,87,136046,1,0,0:0:0:0:
268,111,136118,1,0,0:0:0:0:
296,132,136189,1,0,0:0:0:0:
299,155,136260,1,0,0:0:0:0:
302,179,136331,1,0,0:0:0:0:
306,203,136403,1,0,0:0:0:0:
283,247,136475,6,0,L|292:326,3,57.5,4|0|0|0,0:0|0:0|0:0|0:0,0:0:0:0:
510,78,136761,2,0,L|503:158,3,57.5,4|0|0|0,0:0|0:0|0:0|0:0,0:0:0:0:
187,224,137047,2,0,L|195:307,3,57.5,4|0|0|0,0:0|0:0|0:0|0:0,0:0:0:0:
414,50,137333,2,0,L|405:133,3,57.5,4|0|0|0,0:0|0:0|0:0|0:0,0:0:0:0:
45,224,137618,2,0,L|56:309,3,57.5,4|0|0|0,0:0|0:0|0:0|0:0,0:0:0:0:
6,70,137904,5,8,0:0:0:0:
84,38,137975,1,0,0:0:0:0:
166,61,138046,1,8,0:0:0:0:
217,128,138118,1,0,0:0:0:0:
217,213,138189,1,8,0:0:0:0:
232,294,138260,1,0,0:0:0:0:
308,327,138331,1,8,0:0:0:0:
378,283,138403,1,0,0:0:0:0:
388,203,138475,5,12,0:0:0:0:
316,244,138546,1,0,0:0:0:0:
308,327,138617,1,8,0:0:0:0:
370,382,138689,1,0,0:0:0:0:
452,362,138761,5,12,0:0:0:0:
459,279,138832,1,0,0:0:0:0:
399,227,138903,1,8,0:0:0:0:
316,244,138975,1,0,0:0:0:0:
246,197,139046,1,8,0:0:0:0:
230,114,139117,1,0,0:0:0:0:
276,44,139189,1,8,0:0:0:0:
359,28,139260,1,0,0:0:0:0:
429,74,139332,1,8,0:0:0:0:
445,157,139403,1,0,0:0:0:0:
399,227,139475,1,8,0:0:0:0:
316,244,139547,1,0,0:0:0:0:
246,197,139618,5,12,0:0:0:0:
328,180,139689,1,0,0:0:0:0:
399,227,139760,1,8,0:0:0:0:
419,307,139832,1,0,0:0:0:0:
375,379,139904,5,12,0:0:0:0:
302,329,139975,1,0,0:0:0:0:
217,306,140046,1,8,0:0:0:0:
128,312,140118,1,0,0:0:0:0:
47,347,140189,2,0,P|10:302|4:211,1,86.2500032901765,12|0,0:0|0:0,0:0:0:0:
64,50,140332,5,12,0:0:0:0:
146,49,140403,1,0,0:0:0:0:
187,120,140474,1,8,0:0:0:0:
146,191,140546,1,0,0:0:0:0:
65,191,140618,5,12,0:0:0:0:
105,119,140689,1,0,0:0:0:0:
187,120,140761,1,8,0:0:0:0:
270,137,140832,1,0,0:0:0:0:
349,105,140904,1,12,0:0:0:0:
430,85,140975,1,0,0:0:0:0:
492,140,141046,1,8,0:0:0:0:
484,222,141118,1,0,0:0:0:0:
412,263,141189,2,0,P|352:266|305:239,1,86.2500032901765,12|0,0:0|0:0,0:0:0:0:
105,119,141332,5,12,0:0:0:0:
152,49,141403,1,0,0:0:0:0:
232,20,141474,1,8,0:0:0:0:
314,44,141546,1,0,0:0:0:0:
365,112,141617,1,8,0:0:0:0:
367,197,141689,1,0,0:0:0:0:
318,266,141760,1,8,0:0:0:0:
238,294,141832,1,0,0:0:0:0:
157,271,141904,2,0,P|116:227|109:105,1,172.500006580353,8|0,0:0|0:0,0:0:0:0:
291,162,142189,1,4,0:0:0:0:
29,103,142332,1,0,0:0:0:0:
77,315,142475,5,2,0:0:0:0:
77,315,142547,1,0,0:0:0:0:
77,315,142618,1,4,0:0:0:0:
178,49,142761,1,0,0:0:0:0:
173,308,142904,1,0,0:0:0:0:
83,62,143047,5,4,0:0:0:0:
83,62,143118,1,0,0:0:0:0:
83,62,143190,1,0,0:0:0:0:
281,158,143333,1,4,0:0:0:0:
47,204,143475,1,0,0:0:0:0:
214,53,143618,5,2,0:0:0:0:
214,53,143690,1,0,0:0:0:0:
214,53,143761,1,4,0:0:0:0:
171,309,143904,1,0,0:0:0:0:
317,140,144047,1,0,0:0:0:0:
8,217,144189,1,4,0:0:0:0:
281,274,144332,1,0,0:0:0:0:
55,64,144475,1,4,0:0:0:0:
214,53,144618,1,0,0:0:0:0:
132,205,144761,2,0,P|67:142|57:51,1,172.500006580353
388,23,145047,5,4,0:0:0:0:
413,36,145118,1,0,0:0:0:0:
433,56,145189,1,0,0:0:0:0:
445,82,145261,1,0,0:0:0:0:
450,110,145332,1,0,0:0:0:0:
445,139,145404,1,0,0:0:0:0:
432,164,145475,5,4,0:0:0:0:
426,137,145546,1,0,0:0:0:0:
408,114,145617,1,4,0:0:0:0:
383,101,145689,1,0,0:0:0:0:
354,99,145760,1,0,0:0:0:0:
328,109,145832,1,0,0:0:0:0:
308,130,145903,5,4,0:0:0:0:
299,103,145975,1,0,0:0:0:0:
276,86,146046,1,0,0:0:0:0:
248,84,146118,1,0,0:0:0:0:
223,98,146189,5,4,0:0:0:0:
203,77,146260,1,0,0:0:0:0:
176,68,146331,1,0,0:0:0:0:
148,74,146403,1,0,0:0:0:0:
126,92,146474,5,4,0:0:0:0:
92,134,146546,1,4,0:0:0:0:
88,188,146617,1,4,0:0:0:0:
118,232,146689,1,4,0:0:0:0:
168,249,146761,5,4,0:0:0:0:
96,17,146904,1,0,0:0:0:0:
11,247,147047,1,4,0:0:0:0:
191,160,147189,1,4,0:0:0:0:
3,113,147332,1,0,0:0:0:0:
146,333,147475,1,0,0:0:0:0:
317,162,147618,5,0,0:0:0:0:
317,162,147689,1,0,0:0:0:0:
317,162,147761,1,0,0:0:0:0:
90,186,147904,1,4,0:0:0:0:
288,336,148047,1,0,0:0:0:0:
336,132,148189,1,0,0:0:0:0:
165,266,148332,1,0,0:0:0:0:
395,220,148475,6,0,P|427:158|403:58,1,172.500006580353,4|0,0:0|0:0,0:0:0:0:
156,26,148761,2,0,P|124:88|148:188,1,172.500006580353,4|0,0:0|0:0,0:0:0:0:
336,132,149047,1,0,0:0:0:0:
336,132,149118,1,0,0:0:0:0:
336,132,149189,1,0,0:0:0:0:
117,220,149332,6,0,P|85:158|109:58,1,172.500006580353,4|0,0:0|0:0,0:0:0:0:
356,26,149618,2,0,P|388:88|364:188,1,172.500006580353,4|0,0:0|0:0,0:0:0:0:
156,26,149904,2,0,P|124:88|148:188,1,172.500006580353,4|0,0:0|0:0,0:0:0:0:
395,220,150189,2,0,P|427:158|403:58,1,172.500006580353,4|0,0:0|0:0,0:0:0:0:
35,49,150475,5,4,0:0:0:0:
188,346,150618,1,4,0:0:0:0:
366,184,150761,2,0,P|389:103|356:26,1,172.500006580353,4|0,0:0|0:0,0:0:0:0:
41,135,151047,5,4,0:0:0:0:
287,334,151189,1,4,0:0:0:0:
156,26,151332,2,0,P|124:88|148:188,1,172.500006580353,4|0,0:0|0:0,0:0:0:0:
364,181,151618,5,0,0:0:0:0:
393,150,151689,1,0,0:0:0:0:
400,108,151760,1,4,0:0:0:0:
380,70,151832,1,0,0:0:0:0:
342,51,151903,1,0,0:0:0:0:
301,58,151975,1,0,0:0:0:0:
270,87,152046,1,0,0:0:0:0:
263,129,152118,1,0,0:0:0:0:
281,167,152189,1,4,0:0:0:0:
287,208,152260,1,0,0:0:0:0:
268,247,152331,1,0,0:0:0:0:
231,267,152404,1,0,0:0:0:0:
190,258,152475,5,4,0:0:0:0:
227,238,152546,1,0,0:0:0:0:
268,247,152617,1,0,0:0:0:0:
300,275,152689,1,0,0:0:0:0:
340,290,152760,1,0,0:0:0:0:
383,288,152832,1,0,0:0:0:0:
422,269,152903,1,0,0:0:0:0:
451,238,152975,1,0,0:0:0:0:
465,197,153046,1,4,0:0:0:0:
458,112,153332,5,4,0:0:0:0:
340,290,153475,1,4,0:0:0:0:
161,222,153618,2,0,B|165:166|165:166|196:149|196:149|257:175|257:175|241:277|241:277|195:330|195:330|116:313|116:313|66:284|66:284|55:184,1,523.249976047517,8|0,0:0|0:0,0:0:0:0:
48,141,154189,2,8,B|192:67|192:67|274:98,2,224.24998973465
335,359,154761,2,0,B|330:301|330:301|356:265|356:265|348:216,1,149.499993156433,8|0,0:0|0:0,0:0:0:0:
343,180,155047,5,0,0:0:0:0:
321,144,155118,1,0,0:0:0:0:
336,105,155189,1,0,0:0:0:0:
376,92,155261,1,0,0:0:0:0:
411,116,155332,1,0,0:0:0:0:
414,157,155404,1,0,0:0:0:0:
383,185,155475,1,0,0:0:0:0:
343,180,155547,1,0,0:0:0:0:
303,163,155618,1,0,0:0:0:0:
260,160,155689,1,0,0:0:0:0:
219,173,155761,1,0,0:0:0:0:
186,200,155832,1,0,0:0:0:0:
163,234,155904,5,0,0:0:0:0:
204,223,155975,1,0,0:0:0:0:
239,197,156046,1,0,0:0:0:0:
260,160,156118,1,0,0:0:0:0:
266,118,156189,1,0,0:0:0:0:
255,77,156261,1,0,0:0:0:0:
229,42,156332,1,0,0:0:0:0:
193,21,156404,1,0,0:0:0:0:
148,18,156475,5,0,0:0:0:0:
145,61,156546,1,0,0:0:0:0:
177,90,156618,1,0,0:0:0:0:
175,133,156689,1,0,0:0:0:0:
139,158,156761,1,0,0:0:0:0:
137,201,156832,1,0,0:0:0:0:
163,234,156904,1,0,0:0:0:0:
161,277,156975,1,0,0:0:0:0:
123,299,157047,1,0,0:0:0:0:
121,342,157118,1,0,0:0:0:0:
168,368,157189,2,0,P|248:358|271:331,1,74.7499965782167
310,134,157332,6,0,L|259:40,2,61.3333333333333
437,191,157618,2,0,B|399:170|412:145|412:145|450:106|519:123|520:185|541:260|553:298|477:335|427:343|363:351|306:240|306:240|303:320,1,575
17,165,158332,5,0,0:0:0:0:
59,165,158403,1,0,0:0:0:0:
92,139,158474,1,0,0:0:0:0:
127,22,158618,5,0,0:0:0:0:
143,40,158689,1,0,0:0:0:0:
170,62,158761,1,0,0:0:0:0:
206,84,158832,1,0,0:0:0:0:
248,95,158903,1,0,0:0:0:0:
290,93,158975,1,0,0:0:0:0:
331,78,159046,1,0,0:0:0:0:
365,51,159118,1,0,0:0:0:0:
389,16,159189,1,0,0:0:0:0:
399,58,159260,1,0,0:0:0:0:
421,95,159331,1,0,0:0:0:0:
453,123,159403,1,0,0:0:0:0:
492,140,159475,2,0,P|472:201|425:220,1,86.2500032901765
300,218,159761,5,0,0:0:0:0:
267,189,159832,1,0,0:0:0:0:
229,171,159903,1,0,0:0:0:0:
186,164,159975,1,0,0:0:0:0:
143,169,160046,1,0,0:0:0:0:
104,186,160118,1,0,0:0:0:0:
71,214,160189,1,0,0:0:0:0:
85,173,160260,1,0,0:0:0:0:
85,130,160331,1,0,0:0:0:0:
71,90,160403,1,0,0:0:0:0:
44,56,160474,5,0,0:0:0:0:
64,65,160546,1,0,0:0:0:0:
85,70,160617,1,0,0:0:0:0:
106,70,160689,1,0,0:0:0:0:
127,67,160760,1,0,0:0:0:0:
147,59,160832,1,0,0:0:0:0:
166,47,160903,1,0,0:0:0:0:
181,32,160975,1,0,0:0:0:0:
193,14,161046,5,0,0:0:0:0:
199,59,161118,1,0,0:0:0:0:
224,93,161189,1,0,0:0:0:0:
263,111,161261,1,0,0:0:0:0:
306,108,161332,5,4,0:0:0:0:
314,123,161403,1,4,0:0:0:0:
327,134,161474,1,4,0:0:0:0:
344,137,161546,1,4,0:0:0:0:
361,134,161617,1,4,0:0:0:0:
432,308,162047,5,0,0:0:0:0:
104,271,162189,1,4,0:0:0:0:
104,271,162404,1,4,0:0:0:0:
104,271,162618,1,4,0:0:0:0:
54,88,162761,6,2,P|92:76|159:129,1,115
269,213,163189,2,0,P|312:247|367:237,1,115,2|0,0:0|0:0,0:0:0:0:
332,49,163618,6,0,L|256:106,1,86.25,2|0,0:0|0:0,0:0:0:0:
340,106,163903,2,0,L|404:175,1,86.25,2|0,0:0|0:0,0:0:0:0:
337,160,164189,2,0,L|261:217,1,86.25,2|0,0:0|0:0,0:0:0:0:
370,237,164475,6,0,P|335:276|262:298,1,115,2|0,0:0|0:0,0:0:0:0:
136,283,164903,2,0,P|82:264|43:222,1,115,2|0,0:0|0:0,0:0:0:0:
145,82,165332,5,2,0:0:0:0:
277,297,165475,1,2,0:0:0:0:
262,93,165618,2,0,B|274:49|274:49|303:58|303:58|332:73|376:79|404:22,1,172.5,2|0,0:0|0:0,0:0:0:0:
455,175,166189,6,0,P|422:172|365:225,1,115,2|0,0:0|0:0,0:0:0:0:
425,349,166618,1,0,0:0:0:0:
294,314,166761,1,0,0:0:0:0:
435,318,166903,1,0,0:0:0:0:
286,173,167046,6,8,L|246:116,2,57.5
144,241,167475,2,8,L|184:184,2,57.5
54,165,167903,2,0,P|51:104|68:69,1,86.25,2|0,0:0|0:0,0:0:0:0:
85,40,168189,5,0,0:0:0:0:
82,62,168260,1,0,0:0:0:0:
90,84,168331,1,0,0:0:0:0:
106,100,168403,1,0,0:0:0:0:
127,108,168474,1,0,0:0:0:0:
150,107,168546,1,0,0:0:0:0:
170,96,168617,1,0,0:0:0:0:
183,78,168689,1,0,0:0:0:0:
191,53,168761,2,0,P|233:55|247:20,1,57.5
45,246,169189,5,4,0:0:0:0:
298,284,169332,1,0,0:0:0:0:
282,336,169403,1,0,0:0:0:0:
229,352,169474,1,0,0:0:0:0:
187,315,169546,1,0,0:0:0:0:
195,261,169617,5,0,0:0:0:0:
427,264,169761,1,0,0:0:0:0:
239,169,169903,1,0,0:0:0:0:
471,196,170046,2,0,P|501:239|511:313,1,115
243,156,170332,1,0,0:0:0:0:
512,299,170475,2,0,P|469:329|395:339,1,115,4|0,0:0|0:0,0:0:0:0:
148,178,170761,2,0,P|157:121|189:74,1,115,4|0,0:0|0:0,0:0:0:0:
324,243,171046,5,4,0:0:0:0:
293,290,171117,1,4,0:0:0:0:
243,318,171188,1,4,0:0:0:0:
186,320,171260,1,4,0:0:0:0:
136,288,171332,6,0,P|129:228|169:156,1,115
370,128,171618,1,0,0:0:0:0:
186,320,171761,1,0,0:0:0:0:
446,200,171903,1,0,0:0:0:0:
148,178,172046,1,0,0:0:0:0:
352,302,172189,1,4,0:0:0:0:
262,79,172332,1,4,0:0:0:0:
268,305,172475,6,0,P|241:251|243:172,1,115,4|0,0:0|0:0,0:0:0:0:
326,4,172761,2,0,P|353:58|351:137,1,115
88,108,173046,6,0,P|61:162|63:241,1,115,4|0,0:0|0:0,0:0:0:0:
270,306,173332,1,0,0:0:0:0:
232,68,173475,1,0,0:0:0:0:
151,177,173618,1,0,0:0:0:0:
372,186,173761,1,0,0:0:0:0:
65,128,173903,6,0,P|46:192|63:277,1,115,4|0,0:0|0:0,0:0:0:0:
300,308,174189,1,0,0:0:0:0:
213,57,174332,1,0,0:0:0:0:
146,191,174475,1,0,0:0:0:0:
387,158,174618,1,0,0:0:0:0:
40,153,174761,6,0,P|32:225|67:314,1,115,4|0,0:0|0:0,0:0:0:0:
329,302,175047,1,0,0:0:0:0:
188,47,175189,2,0,P|154:97|186:265,1,230
444,230,175618,5,4,0:0:0:0:
470,200,175689,1,0,0:0:0:0:
475,161,175760,1,0,0:0:0:0:
456,126,175832,1,0,0:0:0:0:
420,109,175903,1,0,0:0:0:0:
381,115,175975,1,0,0:0:0:0:
353,143,176046,1,0,0:0:0:0:
346,182,176118,1,0,0:0:0:0:
363,217,176189,2,0,P|345:134|203:153,1,230,0|4,0:0|0:0,0:0:0:0:
269,316,176618,5,4,0:0:0:0:
130,60,176761,1,4,0:0:0:0:
67,100,176832,1,0,0:0:0:0:
63,175,176903,1,4,0:0:0:0:
122,221,176975,1,0,0:0:0:0:
194,200,177046,1,4,0:0:0:0:
218,129,177118,1,0,0:0:0:0:
245,60,177189,1,4,0:0:0:0:
318,48,177260,1,0,0:0:0:0:
365,105,177332,5,4,0:0:0:0:
341,175,177403,1,0,0:0:0:0:
268,188,177475,1,4,0:0:0:0:
218,129,177546,1,0,0:0:0:0:
245,60,177618,1,4,0:0:0:0:
321,62,177689,1,0,0:0:0:0:
378,112,177760,1,4,0:0:0:0:
391,187,177832,1,0,0:0:0:0:
353,253,177903,5,4,0:0:0:0:
319,319,177974,1,0,0:0:0:0:
359,381,178045,1,4,0:0:0:0:
433,377,178117,1,0,0:0:0:0:
467,312,178188,1,4,0:0:0:0:
427,249,178260,1,0,0:0:0:0:
353,253,178332,1,4,0:0:0:0:
289,291,178403,1,0,0:0:0:0:
217,269,178474,5,4,0:0:0:0:
186,200,178546,1,0,0:0:0:0:
218,129,178617,1,4,0:0:0:0:
235,56,178689,1,0,0:0:0:0:
182,5,178760,1,4,0:0:0:0:
110,25,178832,1,0,0:0:0:0:
93,97,178903,1,4,0:0:0:0:
145,149,178975,1,0,0:0:0:0:
218,129,179046,5,4,0:0:0:0:
164,77,179117,1,0,0:0:0:0:
93,97,179188,1,0,0:0:0:0:
73,168,179260,1,0,0:0:0:0:
125,221,179331,1,4,0:0:0:0:
195,204,179403,1,0,0:0:0:0:
268,190,179474,1,0,0:0:0:0:
325,239,179545,1,0,0:0:0:0:
322,314,179617,1,4,0:0:0:0:
261,359,179688,1,0,0:0:0:0:
189,339,179760,1,0,0:0:0:0:
159,270,179831,1,0,0:0:0:0:
194,207,179903,6,0,P|221:175|281:158,1,77.6250002961159,12|0,0:0|0:0,0:0:0:0:
430,186,180046,2,0,P|402:217|342:234,1,77.6250002961159,12|0,0:0|0:0,0:0:0:0:
221,119,180189,2,0,P|262:115|317:146,1,77.6250002961159,12|0,0:0|0:0,0:0:0:0:
403,273,180332,2,0,P|360:276|307:245,1,77.6250002961159,12|0,0:0|0:0,0:0:0:0:
302,77,180475,2,0,P|333:104|350:164,1,77.6250002961159,12|0,0:0|0:0,0:0:0:0:
322,314,180618,2,0,P|290:286|273:226,1,77.6250002961159,12|0,0:0|0:0,0:0:0:0:
430,115,180761,5,4,0:0:0:0:
466,181,180832,1,0,0:0:0:0:
453,257,180904,1,0,0:0:0:0:
397,308,180975,1,0,0:0:0:0:
321,313,181047,1,4,0:0:0:0:
258,357,181117,1,0,0:0:0:0:
183,349,181189,1,0,0:0:0:0:
130,295,181260,1,0,0:0:0:0:
126,219,181332,1,4,0:0:0:0:
199,229,181403,1,0,0:0:0:0:
244,170,181475,1,0,0:0:0:0:
215,102,181546,1,0,0:0:0:0:
141,94,181618,6,0,P|164:141|185:160,1,77.6250002961159,12|0,0:0|0:0,0:0:0:0:
326,230,181761,2,0,P|303:183|282:164,1,77.6250002961159,12|0,0:0|0:0,0:0:0:0:
120,179,181903,2,0,P|169:196|197:195,1,77.6250002961159,12|0,0:0|0:0,0:0:0:0:
347,145,182046,2,0,P|298:127|270:128,1,77.6250002961159,12|0,0:0|0:0,0:0:0:0:
166,254,182189,2,0,P|212:232|231:211,1,77.6250002961159,12|0,0:0|0:0,0:0:0:0:
301,70,182332,2,0,P|255:92|236:113,1,77.6250002961159,12|0,0:0|0:0,0:0:0:0:
351,300,182475,6,0,B|446:368|532:204|413:160|365:177|337:212|337:212|257:296|208:374|87:332,1,575,4|0,0:0|0:0,0:0:0:0:
132,117,183332,1,4,0:0:0:0:
390,250,183475,1,0,0:0:0:0:
122,250,183618,1,4,0:0:0:0:
380,117,183761,1,0,0:0:0:0:
256,336,183903,1,4,0:0:0:0:
256,64,184046,1,0,0:0:0:0:
425,337,184189,6,0,P|457:289|441:161,1,172.5,4|0,0:0|0:0,0:0:0:0:
390,250,184475,2,0,P|378:193|276:114,1,172.5,4|0,0:0|0:0,0:0:0:0:
299,212,184761,2,0,P|251:180|123:196,1,172.5,4|0,0:0|0:0,0:0:0:0:
212,251,185046,1,4,0:0:0:0:
131,44,185189,1,0,0:0:0:0:
191,226,185332,1,4,0:0:0:0:
205,5,185475,1,0,0:0:0:0:
182,196,185618,1,4,0:0:0:0:
289,1,185761,1,0,0:0:0:0:
172,158,185903,6,0,B|175:72|273:51|278:98|285:172|285:172|296:285|477:270|510:181|517:108|378:42|368:179,1,632.5,4|0,0:0|0:0,0:0:0:0:
387,193,186761,5,4,0:0:0:0:
471,374,186903,1,0,0:0:0:0:
387,193,187046,1,0,0:0:0:0:
512,350,187188,1,0,0:0:0:0:
387,193,187332,2,0,P|322:161|260:264,1,172.5
277,256,187618,5,4,0:0:0:0:
100,203,187761,1,0,0:0:0:0:
277,256,187903,1,0,0:0:0:0:
104,301,188046,1,0,0:0:0:0:
35,263,188118,1,4,0:0:0:0:
27,226,188189,2,0,P|25:135|47:100,1,115
184,70,188475,6,0,P|272:45|370:91,1,172.5,4|0,0:0|0:0,0:0:0:0:
265,134,188761,6,0,P|346:159|427:134,1,172.5,4|0,0:0|0:0,0:0:0:0:
346,70,189046,6,0,L|342:260,1,172.5,4|0,0:0|0:0,0:0:0:0:
260,300,189332,6,0,B|245:238|245:238|269:208|265:157|265:157|264:110,1,172.5,4|0,0:0|0:0,0:0:0:0:
184,70,189618,6,8,L|149:130,4,57.5
63,271,190189,6,0,P|110:320|266:300,1,230,4|0,0:0|0:0,0:0:0:0:
294,204,190617,2,0,P|400:173|491:238,1,230,4|4,0:0|0:0,0:0:0:0:
260,305,191046,1,4,0:0:0:0:
412,325,191189,1,4,0:0:0:0:
227,137,191331,1,4,0:0:0:0:
424,110,191474,1,0,0:0:0:0:
433,65,191545,1,0,0:0:0:0:
414,25,191616,1,0,0:0:0:0:
374,4,191688,1,0,0:0:0:0:
329,12,191759,1,0,0:0:0:0:
299,46,191831,1,0,0:0:0:0:
296,91,191903,1,4,0:0:0:0:
287,146,191974,1,0,0:0:0:0:
238,172,192045,1,0,0:0:0:0:
187,150,192117,1,0,0:0:0:0:
173,97,192188,1,4,0:0:0:0:
328,230,192474,5,4,0:0:0:0:
80,311,192617,1,0,0:0:0:0:
237,105,192760,1,0,0:0:0:0:
234,361,192903,1,0,0:0:0:0:
80,150,193046,1,4,0:0:0:0:
352,238,193189,1,0,0:0:0:0:
62,351,193331,5,0,0:0:0:0:
62,351,193403,1,0,0:0:0:0:
62,351,193474,1,0,0:0:0:0:
237,64,193617,1,4,0:0:0:0:
239,333,193760,1,0,0:0:0:0:
248,34,193903,1,0,0:0:0:0:
409,239,194046,1,0,0:0:0:0:
158,168,194189,1,4,0:0:0:0:
403,79,194331,1,0,0:0:0:0:
258,295,194474,1,0,0:0:0:0:
258,295,194546,1,0,0:0:0:0:
258,295,194617,1,0,0:0:0:0:
454,13,194760,6,0,P|486:85|476:139,1,115,4|0,0:0|0:0,0:0:0:0:
302,267,195046,2,0,P|358:266|408:238,1,115
76,79,195331,5,0,0:0:0:0:
219,275,195474,1,0,0:0:0:0:
219,33,195617,1,0,0:0:0:0:
76,228,195760,1,0,0:0:0:0:
306,154,195903,1,4,0:0:0:0:
46,252,196046,1,0,0:0:0:0:
252,373,196189,1,0,0:0:0:0:
303,131,196331,1,0,0:0:0:0:
151,279,196474,5,2,0:0:0:0:
179,276,196545,1,0,0:0:0:0:
208,274,196616,1,0,0:0:0:0:
289,166,196760,1,2,0:0:0:0:
260,168,196831,1,0,0:0:0:0:
231,170,196902,1,0,0:0:0:0:
121,169,197046,5,4,0:0:0:0:
344,323,197189,1,4,0:0:0:0:
361,99,197331,2,0,P|282:76|222:93,1,115,4|0,0:0|0:0,0:0:0:0:
208,274,197617,1,4,0:0:0:0:
361,99,197760,1,2,0:0:0:0:
121,169,197903,1,4,0:0:0:0:
344,323,198046,1,2,0:0:0:0:
361,99,198189,5,4,0:0:0:0:
308,78,198260,1,0,0:0:0:0:
255,97,198331,1,0,0:0:0:0:
226,145,198403,1,0,0:0:0:0:
235,201,198474,1,4,0:0:0:0:
278,237,198546,1,0,0:0:0:0:
334,238,198617,1,0,0:0:0:0:
378,202,198689,1,0,0:0:0:0:
386,148,198760,5,4,0:0:0:0:
330,146,198831,1,0,0:0:0:0:
287,182,198902,1,0,0:0:0:0:
278,237,198974,1,0,0:0:0:0:
244,281,199046,6,0,P|175:271|113:218,1,115,4|0,0:0|0:0,0:0:0:0:
129,43,199331,1,4,0:0:0:0:
209,197,199474,1,0,0:0:0:0:
55,130,199617,1,0,0:0:0:0:
250,72,199760,1,0,0:0:0:0:
101,258,199903,6,0,P|24:241|0:171,1,115,4|0,0:0|0:0,0:0:0:0:
145,77,200189,1,0,0:0:0:0:
208,290,200331,1,0,0:0:0:0:
250,72,200474,6,0,P|317:62|372:91,1,115,4|0,0:0|0:0,0:0:0:0:
300,291,200760,1,0,0:0:0:0:
248,64,200903,6,0,P|322:53|382:85,1,115,4|0,0:0|0:0,0:0:0:0:
299,314,201189,1,0,0:0:0:0:
246,56,201331,6,0,P|327:44|394:79,1,115,4|0,0:0|0:0,0:0:0:0:
292,333,201617,1,4,0:0:0:0:
302,62,201760,1,0,0:0:0:0:
398,243,201903,1,0,0:0:0:0:
214,153,202046,1,0,0:0:0:0:
416,117,202189,1,0,0:0:0:0:
223,265,202331,1,0,0:0:0:0:
294,33,202474,1,0,0:0:0:0:
428,271,202617,1,0,0:0:0:0:
143,213,202760,6,0,P|130:126|157:94,1,115,4|0,0:0|0:0,0:0:0:0:
326,170,203046,1,0,0:0:0:0:
241,297,203189,1,0,0:0:0:0:
243,53,203331,5,4,0:0:0:0:
271,57,203402,1,0,0:0:0:0:
299,62,203473,1,0,0:0:0:0:
309,199,203618,1,2,0:0:0:0:
280,194,203689,1,0,0:0:0:0:
252,189,203760,1,0,0:0:0:0:
29,103,203903,5,4,0:0:0:0:
329,200,204046,1,0,0:0:0:0:
29,298,204189,1,0,0:0:0:0:
215,42,204331,1,0,0:0:0:0:
215,359,204474,1,4,0:0:0:0:
38,91,204617,1,0,0:0:0:0:
328,214,204760,1,0,0:0:0:0:
21,285,204903,1,0,0:0:0:0:
326,170,205045,5,4,0:0:0:0:
215,359,205189,1,0,0:0:0:0:
163,125,205331,1,0,0:0:0:0:
444,190,205474,1,0,0:0:0:0:
168,243,205617,1,4,0:0:0:0:
348,18,205760,1,0,0:0:0:0:
335,285,205903,1,0,0:0:0:0:
227,34,206046,1,0,0:0:0:0:
230,338,206189,5,4,0:0:0:0:
174,352,206260,1,0,0:0:0:0:
120,337,206331,1,0,0:0:0:0:
80,296,206403,1,0,0:0:0:0:
65,241,206474,1,4,0:0:0:0:
80,186,206546,1,0,0:0:0:0:
120,146,206617,1,0,0:0:0:0:
175,132,206689,1,0,0:0:0:0:
231,146,206760,5,4,0:0:0:0:
204,156,206831,1,0,0:0:0:0:
176,159,206902,1,0,0:0:0:0:
147,156,206974,1,0,0:0:0:0:
120,146,207046,5,4,0:0:0:0:
175,132,207117,1,0,0:0:0:0:
231,146,207189,1,0,0:0:0:0:
269,188,207260,1,0,0:0:0:0:
287,241,207331,5,4,0:0:0:0:
291,257,207402,1,0,0:0:0:0:
292,274,207473,1,0,0:0:0:0:
289,291,207545,1,0,0:0:0:0:
283,307,207616,1,0,0:0:0:0:
273,322,207688,1,0,0:0:0:0:
261,334,207759,1,0,0:0:0:0:
246,343,207831,1,0,0:0:0:0:
230,349,207902,5,8,0:0:0:0:
392,123,208046,1,8,0:0:0:0:
210,267,208189,1,8,0:0:0:0:
225,46,208331,1,8,0:0:0:0:
225,46,208403,1,0,0:0:0:0:
225,46,208474,6,0,P|157:122|160:11,1,258.75000987053
225,46,208760,2,0,P|245:154|414:220,1,258.75000987053,8|0,0:0|0:0,0:0:0:0:
472,201,209046,1,8,0:0:0:0:
138,186,209189,1,0,0:0:0:0:
390,37,209331,6,0,L|394:157,1,86.2500032901765,8|0,0:0|0:0,0:0:0:0:
277,320,209474,2,0,L|273:200,1,86.2500032901765,8|0,0:0|0:0,0:0:0:0:
122,101,209617,2,0,B|180:127|228:98|228:98|236:157|236:157|305:131|355:192,1,258.75000987053,8|0,0:0|0:0,0:0:0:0:
428,243,209903,2,0,P|462:345|379:300,1,258.75000987053,8|0,0:0|0:0,0:0:0:0:
276,320,210189,2,0,B|276:232|276:232|354:186|354:186|350:62,1,258.75000987053,8|0,0:0|0:0,0:0:0:0:
174,29,210474,2,0,B|229:25|254:95|254:95|281:4|397:9,1,258.75000987053,8|0,0:0|0:0,0:0:0:0:
246,123,210760,2,0,B|191:119|166:189|166:189|139:98|23:103,1,258.75000987053,8|0,0:0|0:0,0:0:0:0:
112,261,211046,6,0,B|170:334|267:307|267:307|259:180|140:190,1,345,8|0,0:0|0:0,0:0:0:0:
62,323,211331,6,0,P|174:383|323:366,1,258.75000987053,8|0,0:0|0:0,0:0:0:0:
364,256,211617,2,0,B|368:198|326:157|326:157|415:137|417:66|369:-2,1,258.75000987053,8|0,0:0|0:0,0:0:0:0:
186,24,211903,2,0,P|112:88|228:113,1,258.75000987053,8|0,0:0|0:0,0:0:0:0:
326,24,212189,2,0,P|400:88|284:113,1,258.75000987053,8|0,0:0|0:0,0:0:0:0:
30,77,212474,2,0,P|60:178|215:220,1,258.75000987053,8|0,0:0|0:0,0:0:0:0:
271,206,212760,5,4,0:0:0:0:
328,190,212831,1,4,0:0:0:0:
387,202,212902,1,4,0:0:0:0:
433,239,212974,1,4,0:0:0:0:
458,293,213045,1,4,0:0:0:0:
251,359,213189,1,0,0:0:0:0:
318,152,213331,1,0,0:0:0:0:
214,358,213474,1,0,0:0:0:0:
433,239,213617,5,4,0:0:0:0:
185,349,213760,1,0,0:0:0:0:
428,333,213903,1,4,0:0:0:0:
428,333,213974,1,0,0:0:0:0:
428,333,214046,1,0,0:0:0:0:
190,222,214189,6,0,P|239:148|206:51,1,172.500006580353,4|0,0:0|0:0,0:0:0:0:
63,222,214474,2,0,P|14:296|47:393,1,172.500006580353,4|0,0:0|0:0,0:0:0:0:
171,177,214760,2,0,P|153:90|61:45,1,172.500006580353,4|0,0:0|0:0,0:0:0:0:
81,267,215046,5,4,0:0:0:0:
77,306,215117,1,0,0:0:0:0:
93,347,215189,1,0,0:0:0:0:
171,177,215331,1,4,0:0:0:0:
5,185,215474,1,0,0:0:0:0:
244,266,215617,2,4,P|269:171|248:86,1,172.500006580353,0|0,0:0|0:0,0:0:0:0:
407,29,215903,2,0,P|392:113|417:195,1,172.500006580353,4|0,0:0|0:0,0:0:0:0:
492,76,216189,1,0,0:0:0:0:
492,76,216260,1,0,0:0:0:0:
492,76,216331,1,0,0:0:0:0:
216,0,216474,6,0,P|172:80|179:204,1,172.500006580353,4|0,0:0|0:0,0:0:0:0:
334,241,216760,2,0,P|376:167|384:82,1,172.500006580353
283,300,217046,5,4,0:0:0:0:
292,341,217117,1,0,0:0:0:0:
324,369,217188,1,0,0:0:0:0:
366,373,217260,1,0,0:0:0:0:
402,351,217331,1,4,0:0:0:0:
419,312,217403,1,0,0:0:0:0:
409,271,217474,1,0,0:0:0:0:
377,243,217546,1,0,0:0:0:0:
334,240,217617,5,4,0:0:0:0:
396,232,217688,1,0,0:0:0:0:
441,190,217759,1,0,0:0:0:0:
454,129,217831,1,0,0:0:0:0:
428,72,217903,1,8,0:0:0:0:
374,41,217974,1,0,0:0:0:0:
312,47,218045,1,8,0:0:0:0:
265,88,218117,1,0,0:0:0:0:
251,148,218189,1,0,0:0:0:0:
242,209,218260,1,0,0:0:0:0:
189,240,218331,1,0,0:0:0:0:
132,220,218403,1,0,0:0:0:0:
107,163,218474,5,4,0:0:0:0:
165,184,218545,1,0,0:0:0:0:
189,240,218616,1,0,0:0:0:0:
164,296,218688,1,0,0:0:0:0:
110,320,218760,5,4,0:0:0:0:
132,262,218831,1,0,0:0:0:0:
189,240,218902,1,0,0:0:0:0:
244,268,218974,1,0,0:0:0:0:
285,315,219045,1,8,0:0:0:0:
345,333,219116,1,0,0:0:0:0:
405,318,219188,1,8,0:0:0:0:
449,273,219259,1,0,0:0:0:0:
462,213,219331,1,0,0:0:0:0:
442,153,219402,1,0,0:0:0:0:
395,110,219474,1,0,0:0:0:0:
332,105,219546,1,0,0:0:0:0:
275,130,219617,5,4,0:0:0:0:
338,134,219688,1,0,0:0:0:0:
396,110,219759,1,4,0:0:0:0:
438,63,219831,1,0,0:0:0:0:
454,6,219903,5,4,0:0:0:0:
395,27,219974,1,0,0:0:0:0:
353,73,220045,1,0,0:0:0:0:
338,134,220117,1,0,0:0:0:0:
336,196,220188,1,4,0:0:0:0:
303,249,220259,1,0,0:0:0:0:
247,276,220331,1,4,0:0:0:0:
185,270,220402,1,0,0:0:0:0:
135,233,220474,1,0,0:0:0:0:
111,175,220545,1,0,0:0:0:0:
122,114,220617,1,0,0:0:0:0:
163,66,220688,1,0,0:0:0:0:
221,52,220760,5,12,0:0:0:0:
182,100,220831,1,0,0:0:0:0:
122,114,220902,1,0,0:0:0:0:
66,87,220974,1,0,0:0:0:0:
41,33,221046,5,12,0:0:0:0:
101,17,221117,1,0,0:0:0:0:
156,44,221188,1,0,0:0:0:0:
182,100,221260,1,0,0:0:0:0:
220,149,221331,1,0,0:0:0:0:
279,169,221402,1,0,0:0:0:0:
340,154,221474,1,0,0:0:0:0:
382,109,221545,1,0,0:0:0:0:
395,52,221617,5,4,0:0:0:0:
348,92,221688,1,0,0:0:0:0:
340,154,221759,1,0,0:0:0:0:
374,206,221831,1,0,0:0:0:0:
433,224,221903,5,4,0:0:0:0:
399,171,221974,1,0,0:0:0:0:
340,154,222045,1,0,0:0:0:0:
284,181,222117,1,0,0:0:0:0:
260,239,222188,5,4,0:0:0:0:
252,269,222260,1,0,0:0:0:0:
232,293,222331,1,0,0:0:0:0:
204,308,222403,1,0,0:0:0:0:
173,309,222474,1,0,0:0:0:0:
144,297,222546,1,0,0:0:0:0:
122,274,222617,5,4,0:0:0:0:
154,274,222688,1,0,0:0:0:0:
181,259,222759,1,0,0:0:0:0:
196,232,222831,1,0,0:0:0:0:
195,200,222902,1,0,0:0:0:0:
179,174,222974,1,0,0:0:0:0:
150,160,223045,5,4,0:0:0:0:
182,154,223117,1,0,0:0:0:0:
208,136,223188,1,0,0:0:0:0:
224,109,223260,1,0,0:0:0:0:
228,78,223331,5,4,0:0:0:0:
203,80,223402,1,0,0:0:0:0:
179,72,223473,1,0,0:0:0:0:
161,55,223545,1,0,0:0:0:0:
153,30,223617,5,4,0:0:0:0:
145,47,223688,1,0,0:0:0:0:
132,61,223759,1,0,0:0:0:0:
115,68,223831,1,0,0:0:0:0:
96,69,223902,5,4,0:0:0:0:
96,81,223974,1,0,0:0:0:0:
97,94,224045,1,0,0:0:0:0:
93,105,224117,1,0,0:0:0:0:
83,118,224189,5,4,0:0:0:0:
85,136,224260,1,0,0:0:0:0:
84,155,224331,1,0,0:0:0:0:
77,173,224403,1,0,0:0:0:0:
39,193,224474,6,0,B|-51:119|25:-7|125:17|176:59|199:132|142:186|142:186|153:206|251:257|349:182|346:86|302:39|302:39|249:90|298:227|415:233|481:190|481:84|481:84|537:279|420:402|331:359|260:326|200:342|112:193|-55:275|-2:407|61:328,1,1840,4|0,0:0|0:0,0:0:0:0:
125,108,241616,6,0,L|121:239,10,115,2|0|0|0|0|0|0|0|0|0|0,0:0|0:0|0:0|0:0|0:0|0:0|0:0|0:0|0:0|0:0|0:0,0:0:0:0:
256,128,244759,1,2,0:0:0:0:
387,108,245045,6,0,L|391:239,10,115,2|0|0|0|0|0|0|0|0|0|0,0:0|0:0|0:0|0:0|0:0|0:0|0:0|0:0|0:0|0:0|0:0,0:0:0:0:
256,128,248188,1,2,0:0:0:0:
368,288,248474,6,0,P|320:320|288:320,1,86.25,2|0,0:0|0:0,0:0:0:0:
224,320,248759,2,0,P|197:309|178:288,1,57.5
144,96,249045,6,0,P|192:64|224:64,1,86.25,0|0,0:0|0:0,0:0:0:0:
292,63,249331,2,0,P|335:68|368:96,1,86.25
256,192,249616,2,0,P|229:181|210:160,2,57.5
352,224,250045,2,0,L|352:176,2,28.75,0|0|0,0:0|0:0|0:0,0:0:0:0:
448,192,250331,2,0,P|474:181|493:160,2,57.5,0|0|0,0:0|0:0|0:0,0:0:0:0:
292,63,250759,6,0,P|335:68|384:128,1,115,2|0,0:0|0:0,0:0:0:0:
352,224,251188,2,0,L|352:176,2,28.75
448,192,251474,2,0,P|474:181|493:160,2,57.5
256,192,251902,2,0,P|229:181|210:160,1,57.5
144,96,252188,6,0,P|192:64|224:64,1,86.25,2|0,0:0|0:0,0:0:0:0:
256,192,252474,2,0,P|229:181|210:160,1,57.5,0|0,0:0|0:0,0:0:0:0:
448,192,252759,2,0,P|474:181|493:160,1,57.5,0|0,0:0|0:0,0:0:0:0:
292,63,253045,6,0,P|335:68|368:96,1,86.25,0|0,0:0|0:0,0:0:0:0:
256,192,253331,2,0,P|229:181|210:160,1,57.5,0|0,0:0|0:0,0:0:0:0:
292,63,253616,6,0,P|335:68|384:128,2,115,2|0|2,0:0|0:0|0:0,0:0:0:0:
219,63,254474,6,2,P|176:68|128:128,2,115
74,230,255331,6,2,P|99:278|162:286,2,115
256,192,256188,1,0,0:0:0:0:
256,64,256474,1,0,0:0:0:0:
438,230,256759,6,2,P|413:278|350:286,1,115
155,288,257331,2,2,P|100:278|74:230,1,115
256,64,257902,6,2,L|256:320,1,230
256,32,258759,1,0,0:0:0:0:
438,230,259045,2,2,P|413:278|350:286,1,115
256,64,259616,6,2,L|256:320,1,230
73,229,260474,6,2,P|100:278|155:288,2,115
256,352,261331,6,0,L|256:272,1,57.5
176,208,261616,2,0,L|176:128,1,57.5
336,208,261902,2,0,L|336:128,1,57.5
256,64,262188,6,2,L|256:192,2,115
256,352,263045,6,0,L|256:272,1,57.5
176,208,263331,2,0,L|176:126,1,57.5
356,288,263616,2,2,P|411:278|432:240,1,86.25,2|0,0:0|0:0,0:0:0:0:
336,208,263902,6,0,L|336:128,1,57.5
256,352,264188,2,0,L|256:272,1,57.5
155,288,264474,2,2,P|100:278|80:240,1,86.25,2|0,0:0|0:0,0:0:0:0:
176,208,264759,6,0,L|176:128,1,57.5
256,352,265045,2,0,L|256:272,1,57.5
356,288,265331,2,2,P|411:278|432:240,1,86.25,2|0,0:0|0:0,0:0:0:0:
336,208,265616,6,0,L|336:128,1,57.5
256,352,265902,2,0,L|256:272,1,57.5
155,288,266188,2,2,P|100:278|80:240,1,86.25,2|0,0:0|0:0,0:0:0:0:
176,208,266474,6,0,L|176:128,1,57.5
256,352,266759,2,0,L|256:272,1,57.5
356,288,267045,2,2,P|411:278|432:240,1,86.25,2|0,0:0|0:0,0:0:0:0:
336,208,267331,6,0,L|336:128,1,57.5
256,352,267616,2,0,L|256:272,1,57.5
155,288,267902,2,2,P|100:278|80:240,1,86.25,2|0,0:0|0:0,0:0:0:0:
256,192,268188,5,0,0:0:0:0:
176,112,268331,1,0,0:0:0:0:
336,112,268474,1,0,0:0:0:0:
176,208,268616,1,0,0:0:0:0:
336,208,268759,1,0,0:0:0:0:
112,64,268902,1,0,0:0:0:0:
416,48,269045,6,0,L|464:320,1,276
416,352,269245,6,0,L|376:142,1,184
297,57,269445,1,0,0:0:0:0:
297,57,269545,1,0,0:0:0:0:
297,57,269645,1,0,0:0:0:0:
181,88,269745,5,0,0:0:0:0:
181,88,269845,1,0,0:0:0:0:
181,88,269945,1,0,0:0:0:0:
102,186,270045,6,0,P|193:212|280:166,1,184
465,47,270245,2,0,P|374:21|287:67,1,184
450,338,270445,2,0,P|476:247|430:160,1,184
181,88,270645,5,4,0:0:0:0:
181,88,270745,2,4,P|99:126|177:349,2,368
181,88,271245,1,4,0:0:0:0:
469,278,271445,5,4,0:0:0:0:
469,278,271545,2,4,B|402:275|402:275|352:221|352:221|304:251|304:251|225:193|225:193|153:209,2,368
465,306,272045,2,4,B|398:303|398:303|348:249|348:249|300:279|300:279,1,184
249,338,272245,5,4,0:0:0:0:
249,338,272345,2,4,P|241:224|466:140,2,368
249,338,272845,1,4,0:0:0:0:
67,149,273045,5,4,0:0:0:0:
67,149,273145,2,4,B|143:79|143:79|215:138|215:138|310:73|310:73|383:75,2,368
71,171,273645,2,4,B|147:101|147:101|219:160|219:160,1,184
286,231,273845,5,4,0:0:0:0:
286,231,273945,2,4,P|310:102|479:213,2,368
286,231,274445,1,4,0:0:0:0:
46,317,274645,5,4,0:0:0:0:
239,320,274745,1,4,0:0:0:0:
5,306,274845,2,0,P|2:229|91:139,1,184,4|0,0:0|0:0,0:0:0:0:
228,106,275045,5,4,0:0:0:0:
141,302,275145,1,4,0:0:0:0:
236,71,275245,2,4,P|339:46|401:166,1,184,4|0,0:0|0:0,0:0:0:0:
455,308,275445,6,4,P|351:312|300:195,1,184
319,24,275645,2,4,P|256:87|267:176,1,184
455,76,275845,2,4,P|351:72|300:189,1,184
209,256,276045,2,4,P|145:318|57:308,1,184
83,122,276245,2,4,P|146:59|235:70,1,184
472,284,276445,2,4,P|408:346|319:335,1,184
134,274,276645,2,4,P|71:210|82:121,1,184
375,40,276845,2,4,P|437:103|426:192,1,184
219,304,277045,5,4,0:0:0:0:
219,304,277245,1,0,0:0:0:0:
219,304,277445,1,0,0:0:0:0:
222,157,277645,5,0,0:0:0:0:
222,157,277845,1,0,0:0:0:0:
222,157,278045,1,0,0:0:0:0:
337,245,278245,5,0,0:0:0:0:
337,245,278445,1,0,0:0:0:0:
337,245,278645,1,0,0:0:0:0:
270,45,278845,5,0,0:0:0:0:
270,45,279045,1,0,0:0:0:0:
270,45,279245,1,0,0:0:0:0:
106,111,279445,5,4,0:0:0:0:
88,305,279645,1,4,0:0:0:0:
106,111,279845,1,4,0:0:0:0:
88,305,280045,1,4,0:0:0:0:
238,33,280245,6,4,P|302:132|279:250,1,184
214,326,280545,1,4,0:0:0:0:
238,33,280745,2,4,P|302:132|279:250,1,184
108,110,281045,5,4,0:0:0:0:
203,302,281145,1,4,0:0:0:0:
88,71,281245,2,0,P|138:15|240:35,1,184
151,202,281445,5,4,0:0:0:0:
374,109,281545,1,4,0:0:0:0:
113,215,281645,2,0,P|60:171|97:65,1,184,4|0,0:0|0:0,0:0:0:0:
415,218,281845,6,4,P|403:301|286:337,1,184
97,166,282045,2,4,P|109:83|226:47,1,184
430,220,282245,2,4,P|417:311|289:351,1,184
81,163,282445,2,4,P|94:72|223:32,1,184
448,223,282645,2,4,P|433:323|292:367,1,184
63,160,282845,2,4,P|78:60|219:16,1,184
303,111,283045,5,4,0:0:0:0:
305,119,283095,1,4,0:0:0:0:
306,128,283145,1,4,0:0:0:0:
307,138,283195,1,4,0:0:0:0:
307,147,283245,1,4,0:0:0:0:
305,156,283295,1,4,0:0:0:0:
303,165,283345,1,4,0:0:0:0:
301,174,283395,1,4,0:0:0:0:
297,183,283445,6,0,P|245:123|294:23,1,184,4|0,0:0|0:0,0:0:0:0:
492,216,283645,2,0,L|277:275,1,184,4|0,0:0|0:0,0:0:0:0:
129,296,283845,2,0,L|344:355,1,184,4|0,0:0|0:0,0:0:0:0:
462,119,284045,6,0,P|402:52|271:37,1,184,4|0,0:0|0:0,0:0:0:0:
52,26,284245,2,0,L|109:228,1,184,4|0,0:0|0:0,0:0:0:0:
232,372,284445,2,0,L|175:170,1,184,4|0,0:0|0:0,0:0:0:0:
221,27,284645,2,0,L|278:229,1,184,4|0,0:0|0:0,0:0:0:0:
401,373,284845,2,0,L|344:171,1,184,4|0,0:0|0:0,0:0:0:0:
364,20,285045,6,0,P|455:108|432:214,1,184,4|0,0:0|0:0,0:0:0:0:
182,194,285245,2,0,P|238:167|353:198,1,184,4|0,0:0|0:0,0:0:0:0:
512,346,285445,2,0,L|327:342,1,184,4|0,0:0|0:0,0:0:0:0:
104,290,285645,6,0,P|77:164|134:76,1,184,4|0,0:0|0:0,0:0:0:0:
258,20,285845,2,0,L|274:260,1,184,4|0,0:0|0:0,0:0:0:0:
378,381,286045,2,0,L|365:197,1,184,4|0,0:0|0:0,0:0:0:0:
451,17,286245,2,0,L|467:257,1,184,4|0,0:0|0:0,0:0:0:0:
280,319,286445,6,0,P|184:250|189:150,1,184,4|0,0:0|0:0,0:0:0:0:
260,69,286645,2,0,P|339:111|365:197,1,184,4|0,0:0|0:0,0:0:0:0:
97,288,286845,6,0,P|54:184|108:112,1,184,4|0,0:0|0:0,0:0:0:0:
204,11,287045,1,0,0:0:0:0:
115,95,287145,1,0,0:0:0:0:
204,11,287245,1,0,0:0:0:0:
115,95,287345,1,0,0:0:0:0:
427,45,287445,6,0,P|437:103|353:200,1,184
180,165,287645,1,0,0:0:0:0:
320,200,287745,1,0,0:0:0:0:
180,165,287845,1,0,0:0:0:0:
320,200,287945,1,0,0:0:0:0:
57,197,288045,6,0,P|121:289|205:289,1,184
391,254,288245,1,0,0:0:0:0:
230,290,288345,1,0,0:0:0:0:
391,254,288445,1,0,0:0:0:0:
230,290,288545,1,0,0:0:0:0:
435,177,288645,6,0,P|469:256|397:350,1,184
264,357,288845,1,0,0:0:0:0:
379,351,288945,1,0,0:0:0:0:
264,357,289045,1,0,0:0:0:0:
379,351,289145,1,0,0:0:0:0:
155,338,289245,6,0,P|150:240|257:214,1,184
435,178,289445,1,0,0:0:0:0:
318,287,289545,1,0,0:0:0:0:
274,89,289645,1,0,0:0:0:0:
388,251,289745,1,0,0:0:0:0:
370,73,290845,6,0,P|282:159|162:83,1,195.500003728867,4|0,0:0|0:0,0:0:0:0:
50,76,291045,1,0,0:0:0:0:
181,137,291145,1,4,0:0:0:0:
60,60,291245,1,4,0:0:0:0:
170,152,291345,1,0,0:0:0:0:
19,177,291445,6,4,P|32:286|122:313,1,195.500003728867
353,362,291645,2,0,P|340:253|250:226,1,195.500003728867
86,230,291845,1,4,0:0:0:0:
234,222,291945,1,4,0:0:0:0:
87,210,292045,1,0,0:0:0:0:
232,241,292145,1,0,0:0:0:0:
101,137,292245,6,4,P|137:68|254:115,1,195.500003728867
403,215,292445,2,0,P|367:284|250:237,1,195.500003728867
179,131,292645,1,4,0:0:0:0:
234,222,292745,1,4,0:0:0:0:
191,125,292845,1,0,0:0:0:0:
221,227,292945,1,0,0:0:0:0:
239,85,293045,2,4,P|252:65|255:131,1,195.500003728867
399,48,293245,6,0,B|472:132|472:132|421:189|421:189|480:278|480:278|428:371|428:371,1,391.000007457733,4|0,0:0|0:0,0:0:0:0:
303,335,293545,2,0,B|278:300|299:258|397:285|397:285|333:186|333:186|376:131|376:131|300:87,1,391.000007457733,4|0,0:0|0:0,0:0:0:0:
179,131,293845,2,0,B|173:203|173:203|270:222|270:222|191:264|241:346|192:377|192:377|131:375,1,391.000007457733,4|0,0:0|0:0,0:0:0:0:
37,304,294145,5,4,0:0:0:0:
41,221,294245,1,0,0:0:0:0:
44,144,294345,1,0,0:0:0:0:
141,296,294445,5,4,0:0:0:0:
144,210,294545,1,0,0:0:0:0:
148,136,294645,2,0,P|178:57|326:62,1,195.500003728867
425,219,294845,2,0,P|395:298|247:293,1,195.500003728867,4|0,0:0|0:0,0:0:0:0:
278,31,295045,6,0,L|294:292,1,195.500003728867,4|0,0:0|0:0,0:0:0:0:
333,328,295245,2,0,L|317:60,1,195.500003728867,4|0,0:0|0:0,0:0:0:0:
353,34,295445,2,0,L|370:286,1,195.500003728867,4|0,0:0|0:0,0:0:0:0:
409,331,295645,6,0,P|305:358|221:282,1,195.500003728867,4|0,0:0|0:0,0:0:0:0:
215,133,295845,1,4,0:0:0:0:
134,251,295945,1,4,0:0:0:0:
228,145,296045,1,0,0:0:0:0:
120,238,296145,1,0,0:0:0:0:
139,85,296245,2,4,P|218:42|308:117,1,195.500003728867
294,259,296445,2,0,P|215:302|125:227,1,195.500003728867
254,149,296645,1,4,0:0:0:0:
115,168,296745,1,4,0:0:0:0:
254,167,296845,1,0,0:0:0:0:
114,149,296945,1,0,0:0:0:0:
295,61,297045,6,4,P|346:130|307:237,1,195.500003728867
193,329,297245,1,0,0:0:0:0:
316,228,297345,1,0,0:0:0:0:
182,311,297445,1,4,0:0:0:0:
326,245,297545,1,4,0:0:0:0:
128,262,297645,6,0,P|127:201|255:154,1,195.500003728867
405,189,297845,1,4,0:0:0:0:
265,153,297945,1,4,0:0:0:0:
405,189,298045,6,4,P|401:107|301:48,1,195.500003728867
142,88,298245,1,0,0:0:0:0:
270,46,298345,1,0,0:0:0:0:
138,70,298445,1,4,0:0:0:0:
273,63,298545,1,4,0:0:0:0:
153,174,298645,6,0,P|210:235|334:213,1,195.500003728867,4|0,0:0|0:0,0:0:0:0:
483,170,298845,1,0,0:0:0:0:
315,227,298945,1,0,0:0:0:0:
483,170,299045,1,0,0:0:0:0:
350,204,299145,6,0,P|277:119|298:45,1,195.500003728867,4|2,0:0|0:0,0:0:0:0:
415,94,299345,1,2,0:0:0:0:
351,201,299445,6,0,P|282:120|307:42,1,195.500003728867,4|2,0:0|0:0,0:0:0:0:
413,97,299645,1,2,0:0:0:0:
353,198,299745,6,0,P|287:121|314:39,1,195.500003728867,4|2,0:0|0:0,0:0:0:0:
414,97,299945,1,6,0:0:0:0:
245,214,300045,1,4,0:0:0:0:
459,215,300145,1,4,0:0:0:0:
245,204,300245,1,4,0:0:0:0:
459,224,300345,1,4,0:0:0:0:
245,195,300445,1,4,0:0:0:0:
471,41,300645,6,0,P|385:22|361:152,1,195.500003728867,4|0,0:0|0:0,0:0:0:0:
365,274,300845,1,0,0:0:0:0:
345,144,300945,1,0,0:0:0:0:
347,274,301045,1,4,0:0:0:0:
362,143,301145,1,4,0:0:0:0:
271,306,301245,6,0,P|173:260|172:162,1,195.500003728867,0|0,0:0|0:0,0:0:0:0:
273,62,301445,1,4,0:0:0:0:
188,146,301545,1,4,0:0:0:0:
282,74,301645,1,0,0:0:0:0:
178,133,301745,1,0,0:0:0:0:
175,15,301845,6,4,P|84:50|66:173,1,195.500003728867
119,289,302045,1,4,0:0:0:0:
67,173,302145,1,4,0:0:0:0:
103,293,302245,1,0,0:0:0:0:
82,168,302345,1,0,0:0:0:0:
36,344,302445,6,4,P|132:372|226:296,1,195.500003728867
227,162,302645,1,0,0:0:0:0:
220,284,302745,1,0,0:0:0:0:
268,160,302845,1,4,0:0:0:0:
289,68,302945,1,4,0:0:0:0:
377,39,303045,1,0,0:0:0:0:
448,97,303145,5,0,0:0:0:0:
360,129,303245,1,4,0:0:0:0:
289,68,303345,1,4,0:0:0:0:
208,56,303445,1,0,0:0:0:0:
161,73,303545,1,0,0:0:0:0:
117,147,303645,5,4,0:0:0:0:
116,195,303745,1,4,0:0:0:0:
211,236,303845,2,0,P|229:162|153:70,1,195.500003728867,4|0,0:0|0:0,0:0:0:0:
117,147,304045,5,4,0:0:0:0:
116,195,304145,1,4,0:0:0:0:
128,242,304245,1,0,0:0:0:0:
153,285,304345,1,0,0:0:0:0:
187,319,304445,1,0,0:0:0:0:
308,335,304545,5,4,0:0:0:0:
243,197,304645,1,4,0:0:0:0:
308,335,304745,1,4,0:0:0:0:
243,197,304845,1,4,0:0:0:0:
308,335,304945,2,0,P|421:307|417:194,1,195.500003728867
378,62,305145,2,4,P|265:90|269:203,1,195.500003728867
59,77,305445,5,4,0:0:0:0:
80,233,305545,1,4,0:0:0:0:
79,76,305645,1,0,0:0:0:0:
59,233,305745,1,0,0:0:0:0:
134,22,305845,6,4,P|215:60|248:155,1,195.500003728867,4|4,0:0|0:0,0:0:0:0:
170,333,306045,1,0,0:0:0:0:
233,188,306145,1,0,0:0:0:0:
152,322,306245,1,4,0:0:0:0:
250,198,306345,1,4,0:0:0:0:
288,337,306445,6,0,P|175:355|61:255,1,195.500003728867,0|0,0:0|0:0,0:0:0:0:
40,122,306645,1,4,0:0:0:0:
81,282,306745,1,4,0:0:0:0:
61,119,306845,1,0,0:0:0:0:
59,284,306945,1,0,0:0:0:0:
189,109,307045,6,4,P|270:111|320:229,1,195.500003728867
168,259,307245,1,4,0:0:0:0:
416,128,307345,1,4,0:0:0:0:
155,224,307445,1,4,0:0:0:0:
428,162,307545,1,4,0:0:0:0:
152,19,307645,6,0,P|105:59|132:189,1,195.500003728867,0|0,0:0|0:0,0:0:0:0:
366,206,307845,1,4,0:0:0:0:
155,224,307945,1,4,0:0:0:0:
363,234,308045,1,0,0:0:0:0:
152,184,308145,1,0,0:0:0:0:
416,128,308245,6,4,P|461:189|388:305,1,195.500003728867
166,309,308445,1,0,0:0:0:0:
379,302,308545,1,0,0:0:0:0:
168,281,308645,1,4,0:0:0:0:
376,329,308745,1,4,0:0:0:0:
134,121,308845,6,0,P|74:169|88:283,1,195.500003728867,0|0,0:0|0:0,0:0:0:0:
350,60,309045,5,4,0:0:0:0:
166,309,309145,1,4,0:0:0:0:
379,88,309245,1,2,0:0:0:0:
132,279,309345,1,2,0:0:0:0:
373,282,309445,5,2,0:0:0:0:
124,98,309545,1,2,0:0:0:0:
344,311,309645,1,2,0:0:0:0:
152,68,309745,1,2,0:0:0:0:
267,320,309845,5,4,0:0:0:0:
230,45,309945,1,4,0:0:0:0:
233,318,310045,1,4,0:0:0:0:
256,192,310116,12,0,314045,0:0:0:0:
191,105,336330,6,0,P|113:113|55:200,3,172.500006580353
212,274,337473,6,0,B|250:312|288:277|288:277|289:278|306:336|354:384|536:350|520:186|423:106|325:149,1,517.500019741059,8|0,0:0|0:0,0:0:0:0:
369,235,338545,6,0,B|265:269|206:161|233:93|303:55|303:55|263:91|166:98|107:22,1,517.500019741059,8|0,0:0|0:0,0:0:0:0:
106,23,339759,5,4,0:0:0:0:
91,221,339902,1,4,0:0:0:0:
91,221,340045,1,4,0:0:0:0:
219,104,340187,5,4,0:0:0:0:
234,302,340330,1,4,0:0:0:0:
234,302,340473,2,0,P|286:268|303:174,1,129.375004935265
314,175,340759,5,0,0:0:0:0:
311,145,340830,1,0,0:0:0:0:
322,117,340901,1,0,0:0:0:0:
344,97,340973,1,0,0:0:0:0:
373,90,341044,1,0,0:0:0:0:
402,97,341116,1,0,0:0:0:0:
425,116,341187,1,0,0:0:0:0:
436,143,341259,1,0,0:0:0:0:
434,173,341330,1,0,0:0:0:0:
418,199,341401,1,0,0:0:0:0:
393,214,341473,6,0,B|341:244|347:294|347:294|365:278|361:267|361:267|295:253|267:303|267:303|201:273|201:273|160:291,1,345.000013160706,4|0,0:0|0:0,0:0:0:0:
33,162,341901,1,0,0:0:0:0:
143,297,342045,1,0,0:0:0:0:
232,103,342187,1,0,0:0:0:0:
163,260,342330,1,4,0:0:0:0:
186,208,342616,5,4,0:0:0:0:
209,155,342902,5,4,0:0:0:0:
232,103,343187,1,0,0:0:0:0:
415,238,343330,1,0,0:0:0:0:
233,29,343473,1,0,0:0:0:0:
283,57,343759,5,0,0:0:0:0:
332,87,344045,5,0,0:0:0:0:
500,202,344330,5,0,0:0:0:0:
495,257,344401,1,0,0:0:0:0:
467,309,344472,1,0,0:0:0:0:
422,345,344544,1,0,0:0:0:0:
367,359,344615,1,0,0:0:0:0:
310,349,344687,1,0,0:0:0:0:
262,317,344758,1,0,0:0:0:0:
231,267,344830,1,0,0:0:0:0:
214,213,344901,1,0,0:0:0:0:
173,173,344972,1,0,0:0:0:0:
118,156,345044,1,0,0:0:0:0:
62,169,345115,1,0,0:0:0:0:
23,207,345187,5,0,0:0:0:0:
46,219,345258,1,0,0:0:0:0:
75,225,345329,1,0,0:0:0:0:
104,223,345401,1,0,0:0:0:0:
131,212,345472,1,0,0:0:0:0:
154,196,345544,1,0,0:0:0:0:
173,173,345615,1,0,0:0:0:0:
189,148,345687,1,0,0:0:0:0:
209,128,345758,1,0,0:0:0:0:
235,113,345830,1,0,0:0:0:0:
262,104,345901,1,0,0:0:0:0:
290,100,345973,1,0,0:0:0:0:
320,103,346044,1,0,0:0:0:0:
269,180,346616,5,4,0:0:0:0:
392,347,346759,1,0,0:0:0:0:
392,109,346902,1,0,0:0:0:0:
252,301,347045,1,4,0:0:0:0:
478,228,347187,6,0,P|497:158|463:75,1,143.75
119,65,347473,1,4,0:0:0:0:
252,301,347616,1,0,0:0:0:0:
252,301,347687,1,0,0:0:0:0:
252,301,347759,1,4,0:0:0:0:
252,33,347902,1,0,0:0:0:0:
94,249,348045,5,0,0:0:0:0:
349,167,348187,1,4,0:0:0:0:
94,84,348330,1,0,0:0:0:0:
252,301,348473,1,0,0:0:0:0:
216,18,348616,1,4,0:0:0:0:
74,276,348759,1,0,0:0:0:0:
376,162,348901,5,4,0:0:0:0:
376,162,348973,1,0,0:0:0:0:
376,162,349044,1,0,0:0:0:0:
93,54,349187,1,0,0:0:0:0:
267,331,349330,1,0,0:0:0:0:
252,33,349473,1,0,0:0:0:0:
74,317,349616,1,0,0:0:0:0:
363,263,349759,5,4,0:0:0:0:
58,160,349902,1,0,0:0:0:0:
58,160,349973,1,0,0:0:0:0:
58,160,350044,1,4,0:0:0:0:
363,263,350187,1,0,0:0:0:0:
238,27,350330,1,0,0:0:0:0:
201,292,350473,1,0,0:0:0:0:
329,116,350616,1,0,0:0:0:0:
110,245,350759,1,0,0:0:0:0:
402,95,350902,5,4,0:0:0:0:
461,131,350973,1,0,0:0:0:0:
474,200,351044,1,0,0:0:0:0:
432,256,351116,1,0,0:0:0:0:
363,263,351187,5,4,0:0:0:0:
226,80,351330,1,0,0:0:0:0:
288,320,351473,1,0,0:0:0:0:
288,320,351545,1,0,0:0:0:0:
288,320,351616,1,4,0:0:0:0:
402,95,351759,1,0,0:0:0:0:
129,178,351902,1,0,0:0:0:0:
432,256,352045,1,4,0:0:0:0:
432,256,352116,1,0,0:0:0:0:
432,256,352188,1,0,0:0:0:0:
170,35,352330,6,0,P|163:124|242:217,1,172.500006580353,4|0,0:0|0:0,0:0:0:0:
466,98,352616,2,0,P|473:187|394:280,1,172.500006580353,4|0,0:0|0:0,0:0:0:0:
155,31,352902,2,0,P|147:129|234:232,1,172.500006580353,4|0,0:0|0:0,0:0:0:0:
480,101,353188,2,0,P|488:199|401:301,1,172.500006580353,4|0,0:0|0:0,0:0:0:0:
261,208,353473,5,0,0:0:0:0:
249,139,353544,1,0,0:0:0:0:
295,86,353615,1,0,0:0:0:0:
365,87,353687,1,0,0:0:0:0:
408,142,353758,1,0,0:0:0:0:
395,210,353830,1,0,0:0:0:0:
334,243,353902,2,0,P|285:204|281:164,1,71.875
480,101,354045,5,0,0:0:0:0:
491,171,354116,1,0,0:0:0:0:
472,239,354187,1,0,0:0:0:0:
426,293,354259,1,0,0:0:0:0:
360,322,354330,1,0,0:0:0:0:
289,321,354402,1,0,0:0:0:0:
225,289,354473,2,0,P|177:258|148:219,1,71.875
38,39,354616,6,0,L|23:126,3,57.5
166,110,354902,2,0,L|175:166,3,57.5
354,91,355187,2,0,L|344:147,3,57.5
500,201,355473,2,0,L|509:257,3,57.5
58,89,355759,6,0,L|48:145,3,57.5,4|0|0|0,0:0|0:0|0:0|0:0,0:0:0:0:
40,305,356045,5,8,0:0:0:0:
106,365,356116,1,0,0:0:0:0:
196,374,356187,1,8,0:0:0:0:
274,328,356259,1,0,0:0:0:0:
309,244,356330,1,8,0:0:0:0:
286,157,356402,1,0,0:0:0:0:
216,99,356473,1,8,0:0:0:0:
126,95,356545,1,0,0:0:0:0:
48,146,356616,5,12,0:0:0:0:
120,201,356687,1,0,0:0:0:0:
210,206,356758,1,8,0:0:0:0:
286,157,356830,1,0,0:0:0:0:
317,74,356902,5,12,0:0:0:0:
226,67,356973,1,0,0:0:0:0:
150,116,357044,1,8,0:0:0:0:
120,201,357116,1,0,0:0:0:0:
153,285,357187,1,8,0:0:0:0:
223,343,357258,1,0,0:0:0:0:
312,361,357330,1,8,0:0:0:0:
399,333,357401,1,0,0:0:0:0:
462,267,357473,1,8,0:0:0:0:
485,179,357544,1,0,0:0:0:0:
463,90,357616,1,8,0:0:0:0:
401,24,357687,1,0,0:0:0:0:
314,0,357759,5,12,0:0:0:0:
290,87,357830,1,0,0:0:0:0:
313,176,357901,1,8,0:0:0:0:
376,242,357973,1,0,0:0:0:0:
462,267,358044,5,12,0:0:0:0:
442,178,358116,1,0,0:0:0:0:
380,111,358187,1,8,0:0:0:0:
290,87,358259,1,0,0:0:0:0:
205,105,358330,2,8,P|147:95|69:27,1,92,12|8,0:0|0:0,0:0:0:0:
401,24,358473,5,12,0:0:0:0:
454,89,358544,1,0,0:0:0:0:
442,178,358615,1,8,0:0:0:0:
370,232,358687,1,0,0:0:0:0:
282,218,358758,1,12,0:0:0:0:
231,147,358830,1,0,0:0:0:0:
245,57,358901,1,8,0:0:0:0:
319,6,358973,1,0,0:0:0:0:
401,24,359045,5,12,0:0:0:0:
391,112,359116,1,0,0:0:0:0:
318,165,359187,1,8,0:0:0:0:
231,147,359259,1,0,0:0:0:0:
140,138,359330,2,0,P|71:146|15:176,1,92,12|0,0:0|0:0,0:0:0:0:
208,359,359473,5,12,0:0:0:0:
296,370,359544,1,0,0:0:0:0:
367,314,359615,1,8,0:0:0:0:
376,225,359687,1,0,0:0:0:0:
320,156,359758,1,8,0:0:0:0:
231,147,359830,1,0,0:0:0:0:
162,205,359901,1,8,0:0:0:0:
155,294,359973,1,0,0:0:0:0:
208,359,360045,1,8,0:0:0:0:
305,379,360116,1,8,0:0:0:0:
399,346,360187,1,8,0:0:0:0:
462,268,360259,1,8,0:0:0:0:
474,169,360330,2,0,P|472:99|401:-2,1,184,12|0,0:0|0:0,0:0:0:0:
211,44,360616,1,0,0:0:0:0:
211,44,360687,1,0,0:0:0:0:
211,44,360759,1,4,0:0:0:0:
363,270,360902,1,0,0:0:0:0:
163,240,361045,1,0,0:0:0:0:
474,169,361187,5,4,0:0:0:0:
474,169,361259,1,0,0:0:0:0:
474,169,361330,1,0,0:0:0:0:
155,124,361473,1,4,0:0:0:0:
445,255,361616,1,0,0:0:0:0:
163,240,361759,5,0,0:0:0:0:
163,240,361830,1,0,0:0:0:0:
163,240,361902,1,4,0:0:0:0:
395,337,362045,1,0,0:0:0:0:
365,45,362187,1,0,0:0:0:0:
290,333,362330,1,4,0:0:0:0:
260,41,362472,1,0,0:0:0:0:
25,135,362616,5,4,0:0:0:0:
346,191,362759,1,0,0:0:0:0:
26,221,362902,1,0,0:0:0:0:
347,165,363045,1,0,0:0:0:0:
8,130,363187,1,0,0:0:0:0:
362,192,363330,1,0,0:0:0:0:
10,225,363473,1,4,0:0:0:0:
363,163,363616,1,0,0:0:0:0:
126,121,363759,6,4,L|101:244,2,91.9999971923829
219,215,364045,2,4,L|246:337,2,91.9999971923829
253,91,364330,2,4,L|317:39,2,76.6666666666667
332,182,364616,1,4,0:0:0:0:
355,189,364711,1,4,0:0:0:0:
379,197,364806,1,4,0:0:0:0:
471,240,364902,6,0,P|468:148|437:115,1,115
253,91,365473,1,0,0:0:0:0:
99,257,365759,1,0,0:0:0:0:
229,57,366045,6,0,P|175:16|127:28,2,115,0|4|4,0:0|0:0|0:0,0:0:0:0:
99,257,366902,6,4,P|153:298|201:286,2,115
132,24,367759,2,4,L|121:158,1,115
278,219,368330,2,0,L|288:117,1,86.25
288,89,368616,6,0,L|283:37,3,28.75
417,97,368902,1,0,0:0:0:0:
391,322,369045,1,0,0:0:0:0:
450,96,369187,1,0,0:0:0:0:
427,324,369330,1,0,0:0:0:0:
207,160,369473,5,4,0:0:0:0:
153,140,369544,1,0,0:0:0:0:
98,154,369615,1,0,0:0:0:0:
60,196,369687,1,0,0:0:0:0:
51,252,369758,1,0,0:0:0:0:
74,303,369830,1,0,0:0:0:0:
122,333,369901,1,0,0:0:0:0:
179,332,369973,1,0,0:0:0:0:
224,300,370045,5,4,0:0:0:0:
170,316,370116,1,0,0:0:0:0:
118,294,370187,1,0,0:0:0:0:
93,244,370259,1,0,0:0:0:0:
106,190,370330,1,0,0:0:0:0:
151,156,370402,1,0,0:0:0:0:
207,160,370473,1,0,0:0:0:0:
262,157,370544,1,0,0:0:0:0:
293,111,370616,5,4,0:0:0:0:
294,168,370687,1,0,0:0:0:0:
295,226,370758,1,0,0:0:0:0:
307,281,370830,1,0,0:0:0:0:
350,317,370901,1,0,0:0:0:0:
406,320,370973,1,0,0:0:0:0:
452,287,371044,1,0,0:0:0:0:
469,233,371116,1,0,0:0:0:0:
449,182,371187,5,4,0:0:0:0:
436,237,371258,1,0,0:0:0:0:
391,270,371329,1,0,0:0:0:0:
334,266,371401,1,0,0:0:0:0:
295,226,371472,1,0,0:0:0:0:
294,168,371544,1,0,0:0:0:0:
293,111,371615,1,0,0:0:0:0:
277,57,371687,1,0,0:0:0:0:
228,29,371758,5,4,0:0:0:0:
230,58,371830,1,0,0:0:0:0:
243,83,371901,1,0,0:0:0:0:
265,102,371973,1,0,0:0:0:0:
292,111,372044,1,0,0:0:0:0:
320,108,372116,1,0,0:0:0:0:
346,92,372187,5,4,0:0:0:0:
343,64,372258,1,0,0:0:0:0:
327,40,372329,1,0,0:0:0:0:
303,26,372401,1,0,0:0:0:0:
274,24,372472,1,0,0:0:0:0:
248,36,372544,1,0,0:0:0:0:
230,58,372615,5,4,0:0:0:0:
230,98,372687,1,0,0:0:0:0:
231,138,372758,1,0,0:0:0:0:
231,178,372830,1,0,0:0:0:0:
231,219,372901,5,4,0:0:0:0:
457,188,373187,1,4,0:0:0:0:
68,128,373473,1,4,0:0:0:0:
68,128,374045,5,0,0:0:0:0:
66,257,375473,6,4,P|106:308|268:277,1,230
446,257,376045,6,4,P|406:308|244:277,1,230
200,209,377187,5,4,0:0:0:0:
200,209,377473,1,4,0:0:0:0:
418,80,377759,5,4,0:0:0:0:
200,209,377902,1,4,0:0:0:0:
418,80,378187,5,4,0:0:0:0:
161,167,378330,1,4,0:0:0:0:
167,206,378401,1,0,0:0:0:0:
197,232,378472,1,0,0:0:0:0:
236,232,378544,1,0,0:0:0:0:
266,206,378616,2,0,P|359:240|453:210,1,172.5,4|0,0:0|0:0,0:0:0:0:
479,173,378902,5,8,0:0:0:0:
406,119,378973,1,0,0:0:0:0:
318,133,379044,1,8,0:0:0:0:
266,206,379116,1,0,0:0:0:0:
282,295,379187,1,8,0:0:0:0:
357,345,379259,1,0,0:0:0:0:
444,327,379330,1,8,0:0:0:0:
493,252,379402,1,0,0:0:0:0:
479,173,379473,5,12,0:0:0:0:
389,161,379544,1,0,0:0:0:0:
312,209,379615,1,8,0:0:0:0:
282,295,379687,1,0,0:0:0:0:
277,379,379759,5,12,0:0:0:0:
192,344,379830,1,0,0:0:0:0:
134,274,379901,1,8,0:0:0:0:
116,184,379973,1,0,0:0:0:0:
141,97,380044,1,8,0:0:0:0:
204,31,380116,1,0,0:0:0:0:
290,2,380187,5,12,0:0:0:0:
266,90,380258,1,0,0:0:0:0:
203,155,380329,1,8,0:0:0:0:
116,184,380401,1,0,0:0:0:0:
40,230,380473,1,8,0:0:0:0:
36,319,380544,1,0,0:0:0:0:
106,373,380616,5,12,0:0:0:0:
192,344,380687,1,0,0:0:0:0:
255,279,380758,1,8,0:0:0:0:
344,267,380829,1,0,0:0:0:0:
422,312,380902,5,12,0:0:0:0:
333,326,380973,1,0,0:0:0:0:
257,279,381044,1,8,0:0:0:0:
229,194,381116,1,0,0:0:0:0:
263,111,381187,1,8,0:0:0:0:
343,70,381259,1,0,0:0:0:0:
431,91,381330,1,8,0:0:0:0:
484,164,381402,1,0,0:0:0:0:
481,253,381473,1,8,0:0:0:0:
422,312,381545,1,0,0:0:0:0:
333,327,381616,1,8,0:0:0:0:
249,292,381687,1,0,0:0:0:0:
196,218,381759,6,0,P|185:153|161:117,1,92,12|0,0:0|0:0,0:0:0:0:
5,22,381902,2,0,P|16:87|40:123,1,92,12|0,0:0|0:0,0:0:0:0:
249,292,382045,5,12,0:0:0:0:
333,327,382116,1,0,0:0:0:0:
422,312,382187,1,8,0:0:0:0:
481,253,382259,1,0,0:0:0:0:
484,164,382330,2,0,L|453:34,1,92,8|0,0:0|0:0,0:0:0:0:
260,40,382473,2,0,L|289:164,1,92,8|0,0:0|0:0,0:0:0:0:
375,239,382616,1,10,0:0:0:0:
297,318,383187,5,4,0:0:0:0:
297,65,383330,1,0,0:0:0:0:
148,270,383473,5,0,0:0:0:0:
148,270,383545,1,0,0:0:0:0:
148,270,383616,1,0,0:0:0:0:
389,192,383759,1,4,0:0:0:0:
148,113,383902,1,0,0:0:0:0:
321,349,384045,5,0,0:0:0:0:
321,349,384116,1,0,0:0:0:0:
321,349,384187,1,0,0:0:0:0:
310,40,384330,1,4,0:0:0:0:
119,299,384473,1,0,0:0:0:0:
428,200,384616,5,0,0:0:0:0:
428,200,384687,1,0,0:0:0:0:
428,200,384759,1,0,0:0:0:0:
134,83,384902,1,4,0:0:0:0:
348,360,385045,1,0,0:0:0:0:
337,22,385187,5,0,0:0:0:0:
337,22,385259,1,0,0:0:0:0:
337,22,385330,1,0,0:0:0:0:
119,299,385473,1,4,0:0:0:0:
305,174,385616,1,0,0:0:0:0:
16,106,385759,5,0,0:0:0:0:
16,106,385830,1,0,0:0:0:0:
16,106,385901,1,4,0:0:0:0:
231,269,386045,1,0,0:0:0:0:
205,38,386187,1,0,0:0:0:0:
45,209,386330,5,4,0:0:0:0:
45,209,386402,1,0,0:0:0:0:
45,209,386473,1,0,0:0:0:0:
303,148,386616,1,4,0:0:0:0:
79,36,386759,1,0,0:0:0:0:
314,256,386902,5,0,0:0:0:0:
314,256,386973,1,0,0:0:0:0:
314,256,387045,1,4,0:0:0:0:
56,306,387187,1,0,0:0:0:0:
301,56,387330,1,0,0:0:0:0:
51,167,387473,5,4,0:0:0:0:
51,167,387545,1,0,0:0:0:0:
51,167,387616,1,0,0:0:0:0:
306,290,387759,5,4,0:0:0:0:
351,295,387830,1,0,0:0:0:0:
392,276,387901,1,0,0:0:0:0:
417,239,387973,1,0,0:0:0:0:
419,193,388044,1,0,0:0:0:0:
396,154,388116,1,0,0:0:0:0:
356,132,388187,1,0,0:0:0:0:
311,135,388259,1,0,0:0:0:0:
274,161,388330,1,0,0:0:0:0:
234,183,388401,1,0,0:0:0:0:
189,179,388472,1,0,0:0:0:0:
153,152,388544,1,0,0:0:0:0:
138,109,388615,1,0,0:0:0:0:
150,65,388687,1,0,0:0:0:0:
183,34,388758,1,0,0:0:0:0:
228,27,388830,1,0,0:0:0:0:
269,46,388901,1,0,0:0:0:0:
293,84,388972,1,0,0:0:0:0:
292,130,389044,1,0,0:0:0:0:
274,161,389116,1,0,0:0:0:0:
253,202,389187,1,0,0:0:0:0:
253,247,389258,1,0,0:0:0:0:
272,289,389330,1,0,0:0:0:0:
307,318,389401,1,0,0:0:0:0:
351,329,389473,1,0,0:0:0:0:
396,321,389544,1,0,0:0:0:0:
432,294,389616,1,0,0:0:0:0:
454,253,389687,1,0,0:0:0:0:
456,208,389759,1,4,0:0:0:0:
453,162,389830,1,0,0:0:0:0:
459,116,389901,1,0,0:0:0:0:
474,73,389973,1,0,0:0:0:0:
499,34,390045,5,4,0:0:0:0:
460,59,390116,1,0,0:0:0:0:
416,72,390187,1,0,0:0:0:0:
370,72,390259,1,0,0:0:0:0:
326,58,390330,1,0,0:0:0:0:
288,33,390402,1,0,0:0:0:0:
257,4,390473,5,4,0:0:0:0:
238,45,390544,1,0,0:0:0:0:
204,76,390615,1,0,0:0:0:0:
162,93,390687,1,0,0:0:0:0:
116,91,390758,1,0,0:0:0:0:
74,73,390830,1,0,0:0:0:0:
43,40,390901,5,4,0:0:0:0:
41,104,390973,1,0,0:0:0:0:
38,168,391044,1,0,0:0:0:0:
36,233,391116,1,0,0:0:0:0:
34,297,391188,5,4,0:0:0:0:
386,216,391330,1,4,0:0:0:0:
119,169,391473,1,4,0:0:0:0:
442,322,391616,1,4,0:0:0:0:
245,39,391759,1,4,0:0:0:0:
241,217,391902,1,4,0:0:0:0:
348,86,392045,5,0,0:0:0:0:
348,86,392116,1,0,0:0:0:0:
348,86,392187,1,0,0:0:0:0:
348,86,392259,1,0,0:0:0:0:
348,86,392330,6,4,P|367:206|341:278,1,143.75
119,98,392616,1,0,0:0:0:0:
225,318,392759,1,0,0:0:0:0:
181,86,392902,1,0,0:0:0:0:
162,329,393045,1,0,0:0:0:0:
232,59,393187,1,0,0:0:0:0:
101,322,393330,1,0,0:0:0:0:
308,18,393473,6,4,P|311:93|246:146,1,143.75
119,98,393759,1,0,0:0:0:0:
403,208,393902,1,0,0:0:0:0:
115,125,394045,1,0,0:0:0:0:
275,315,394187,1,0,0:0:0:0:
232,59,394330,5,0,0:0:0:0:
232,59,394402,1,0,0:0:0:0:
232,59,394473,1,0,0:0:0:0:
439,51,394616,2,4,P|435:136|410:202,1,143.75
208,198,394902,2,0,P|212:113|237:47,1,143.75
415,190,395187,1,0,0:0:0:0:
235,298,395330,2,0,B|288:312|288:312|365:282|365:282|444:289,1,215.625
485,290,395616,1,0,0:0:0:0:
231,58,395759,6,0,P|111:59|84:257,1,345,8|0,0:0|0:0,0:0:0:0:
148,155,396045,2,0,B|205:139|205:139|276:184|276:184|390:142|390:142|515:188,1,345,8|0,0:0|0:0,0:0:0:0:
364,246,396330,2,0,P|329:108|501:86,1,345,8|0,0:0|0:0,0:0:0:0:
512,216,396616,2,0,P|374:253|385:60,1,345,8|0,0:0|0:0,0:0:0:0:
373,62,396902,5,4,0:0:0:0:
118,46,397045,1,4,0:0:0:0:
241,241,397187,1,0,0:0:0:0:
51,104,397330,1,0,0:0:0:0:
298,99,397473,1,0,0:0:0:0:
67,197,397616,1,0,0:0:0:0:
285,174,397759,1,0,0:0:0:0:
113,328,397902,1,0,0:0:0:0:
165,94,398045,5,4,0:0:0:0:
165,94,398116,1,0,0:0:0:0:
165,94,398188,1,4,0:0:0:0:
240,289,398330,1,0,0:0:0:0:
297,75,398473,1,0,0:0:0:0:
156,256,398616,1,0,0:0:0:0:
225,30,398759,1,0,0:0:0:0:
325,246,398902,6,0,P|392:230|418:109,1,143.75
297,75,399187,1,4,0:0:0:0:
156,256,399330,1,4,0:0:0:0:
429,169,399473,1,0,0:0:0:0:
129,115,399616,1,0,0:0:0:0:
325,246,399759,1,0,0:0:0:0:
32,111,399902,2,0,P|19:209|95:322,1,215.625
102,324,400187,5,0,0:0:0:0:
228,40,400330,1,8,0:0:0:0:
236,328,400473,1,8,0:0:0:0:
447,191,400616,6,0,P|388:213|291:164,1,115,8|0,0:0|0:0,0:0:0:0:
194,106,400759,2,0,P|253:84|350:133,1,115,8|0,0:0|0:0,0:0:0:0:
459,195,400902,2,0,P|394:219|288:165,1,115,8|0,0:0|0:0,0:0:0:0:
181,101,401045,2,0,P|246:77|352:131,1,115,8|0,0:0|0:0,0:0:0:0:
462,306,401187,5,4,0:0:0:0:
413,336,401258,1,0,0:0:0:0:
357,349,401329,1,0,0:0:0:0:
300,345,401401,1,0,0:0:0:0:
250,322,401473,5,0,0:0:0:0:
311,318,401544,1,0,0:0:0:0:
353,273,401615,1,0,0:0:0:0:
355,208,401687,1,0,0:0:0:0:
334,150,401758,1,0,0:0:0:0:
367,98,401829,1,0,0:0:0:0:
427,92,401901,1,0,0:0:0:0:
470,136,401972,1,0,0:0:0:0:
462,197,402044,1,0,0:0:0:0:
409,227,402115,1,0,0:0:0:0:
355,208,402187,1,0,0:0:0:0:
334,150,402259,1,0,0:0:0:0:
297,100,402330,1,0,0:0:0:0:
239,77,402401,1,0,0:0:0:0:
178,88,402473,1,0,0:0:0:0:
132,131,402544,1,0,0:0:0:0:
115,187,402616,5,4,0:0:0:0:
163,148,402687,1,0,0:0:0:0:
178,88,402759,1,0,0:0:0:0:
206,32,402830,1,0,0:0:0:0:
259,0,402901,1,0,0:0:0:0:
322,0,402973,1,0,0:0:0:0:
376,29,403044,1,0,0:0:0:0:
406,84,403116,1,0,0:0:0:0:
405,146,403187,1,4,0:0:0:0:
341,146,403258,1,0,0:0:0:0:
290,183,403330,1,4,0:0:0:0:
226,183,403401,1,0,0:0:0:0:
163,148,403473,1,4,0:0:0:0:
99,148,403544,1,0,0:0:0:0:
40,165,403616,1,0,0:0:0:0:
12,220,403687,1,0,0:0:0:0:
34,278,403759,5,4,0:0:0:0:
76,196,403830,1,0,0:0:0:0:
166,176,403901,1,0,0:0:0:0:
240,231,403973,1,0,0:0:0:0:
246,322,404045,5,0,0:0:0:0:
299,355,404116,1,0,0:0:0:0:
360,346,404187,1,0,0:0:0:0:
402,300,404259,1,0,0:0:0:0:
405,238,404330,1,0,0:0:0:0:
392,177,404401,1,0,0:0:0:0:
412,118,404473,1,0,0:0:0:0:
415,56,404544,1,0,0:0:0:0:
371,13,404615,1,0,0:0:0:0:
310,15,404687,1,0,0:0:0:0:
270,61,404758,1,0,0:0:0:0:
277,122,404830,1,0,0:0:0:0:
327,159,404902,6,0,P|233:126|60:302,1,345,8|0,0:0|0:0,0:0:0:0:
185,307,405187,2,0,B|159:246|159:246|203:173|203:173|138:83|138:83|154:-8,1,345,8|8,0:0|0:0,0:0:0:0:
58,91,405473,2,0,P|156:187|267:50,1,345,8|0,0:0|0:0,0:0:0:0:
152,1,405759,2,0,P|56:99|193:210,1,345,8|0,0:0|0:0,0:0:0:0:
221,206,406045,5,4,0:0:0:0:
278,21,406187,1,0,0:0:0:0:
324,278,406330,1,0,0:0:0:0:
328,20,406473,1,0,0:0:0:0:
432,208,406616,1,0,0:0:0:0:
229,20,406759,1,0,0:0:0:0:
327,320,406902,1,0,0:0:0:0:
372,19,407045,1,0,0:0:0:0:
495,270,407187,6,4,P|420:291|348:202,1,143.75
474,51,407473,1,0,0:0:0:0:
224,159,407616,1,0,0:0:0:0:
497,155,407759,1,0,0:0:0:0:
263,52,407902,1,0,0:0:0:0:
308,296,408045,5,0,0:0:0:0:
308,296,408116,1,0,0:0:0:0:
308,296,408187,1,0,0:0:0:0:
99,35,408330,2,4,P|22:93|25:184,1,143.75
126,331,408616,2,0,P|203:273|200:182,1,143.75
219,38,408902,5,0,0:0:0:0:
212,72,408973,1,0,0:0:0:0:
225,106,409044,1,0,0:0:0:0:
252,128,409116,1,0,0:0:0:0:
288,132,409187,1,0,0:0:0:0:
320,118,409259,1,0,0:0:0:0:
341,89,409330,1,0,0:0:0:0:
344,54,409402,1,0,0:0:0:0:
328,22,409473,2,0,P|370:113|458:95,1,115,8|0,0:0|0:0,0:0:0:0:
348,316,409616,2,0,P|306:225|218:243,1,115,8|0,0:0|0:0,0:0:0:0:
137,324,409759,6,0,L|116:177,1,115,8|0,0:0|0:0,0:0:0:0:
176,24,409902,2,0,L|197:171,1,115,8|0,0:0|0:0,0:0:0:0:
139,306,410045,2,0,L|120:176,1,115,8|0,0:0|0:0,0:0:0:0:
173,41,410188,2,0,L|192:171,1,115,8|0,0:0|0:0,0:0:0:0:
141,292,410330,2,0,L|124:176,1,115,8|0,0:0|0:0,0:0:0:0:
171,55,410473,2,0,L|188:171,1,115,8|0,0:0|0:0,0:0:0:0:
64,53,410616,5,0,0:0:0:0:
64,53,410902,1,0,0:0:0:0:
64,53,411187,1,0,0:0:0:0:
64,53,411473,1,0,0:0:0:0:
351,143,411616,1,0,0:0:0:0:
68,178,411759,5,0,0:0:0:0:
232,326,411902,1,0,0:0:0:0:
242,69,412045,1,0,0:0:0:0:
125,280,412187,1,4,0:0:0:0:
125,280,412259,1,4,0:0:0:0:
125,280,412330,6,4,P|181:180|118:62,1,230
380,0,412616,2,0,P|324:100|387:218,1,230
488,47,412902,1,0,0:0:0:0:
488,47,413187,1,0,0:0:0:0:
488,47,413473,1,0,0:0:0:0:
448,53,413759,5,0,0:0:0:0:
161,143,413902,1,0,0:0:0:0:
390,310,414045,5,0,0:0:0:0:
414,258,414116,1,0,0:0:0:0:
403,203,414187,1,0,0:0:0:0:
362,164,414259,1,0,0:0:0:0:
306,157,414330,1,0,0:0:0:0:
257,185,414402,1,0,0:0:0:0:
233,236,414473,1,0,0:0:0:0:
244,291,414545,1,0,0:0:0:0:
285,330,414616,6,4,L|249:-27,1,345
126,150,415045,5,4,0:0:0:0:
126,150,415187,2,0,P|177:78|83:145,1,345
92,210,415473,5,0,0:0:0:0:
123,290,415544,1,0,0:0:0:0:
206,314,415615,1,0,0:0:0:0:
279,267,415687,1,0,0:0:0:0:
281,179,415758,1,0,0:0:0:0:
217,122,415830,1,0,0:0:0:0:
132,137,415901,1,0,0:0:0:0:
92,210,415973,1,0,0:0:0:0:
123,290,416045,1,0,0:0:0:0:
206,314,416116,1,0,0:0:0:0:
279,267,416187,1,0,0:0:0:0:
347,213,416258,1,0,0:0:0:0:
433,224,416330,5,0,0:0:0:0:
365,278,416401,1,0,0:0:0:0:
279,267,416472,1,0,0:0:0:0:
218,209,416544,1,0,0:0:0:0:
217,122,416616,1,0,0:0:0:0:
174,47,416687,1,0,0:0:0:0:
89,34,416758,1,0,0:0:0:0:
26,92,416830,1,0,0:0:0:0:
33,178,416901,1,0,0:0:0:0:
104,226,416973,1,0,0:0:0:0:
186,200,417044,1,0,0:0:0:0:
217,122,417116,1,0,0:0:0:0:
268,51,417187,1,0,0:0:0:0:
354,39,417258,1,0,0:0:0:0:
422,93,417330,1,0,0:0:0:0:
431,179,417401,1,0,0:0:0:0:
374,245,417473,6,0,L|342:129,5,89.1250006799698
137,245,417902,2,0,L|170:129,5,89.1250006799698
256,304,418330,6,0,L|256:160,1,89.1250006799698
137,74,418473,2,0,L|169:190,1,89.1250006799698
374,74,418616,2,0,L|341:190,1,89.1250006799698
422,301,418902,6,0,L|466:354,5,57.5,0|0|0|14|0|0,0:0|0:0|0:0|0:0|0:0|0:0,0:0:0:0:
256,192,419759,5,4,0:0:0:0:
256,192,419830,12,0,425473,0:0:0:0:
