osu file format v14

[General]
AudioFilename: audio.mp3
AudioLeadIn: 0
PreviewTime: 354217
Countdown: 1
SampleSet: Normal
StackLeniency: 0.5
Mode: 0
LetterboxInBreaks: 0
WidescreenStoryboard: 0

[Editor]
Bookmarks: 755,15326,29040,32469,41611,49397,59897,69040,87325,101040,119325,137611,153611,162754,176468,190182,208468,224468,241611,269039,270639,289839,290875,310075,337503,355789,364932,374075,383217,392360,410646,415217,419789
DistanceSpacing: 0.8
BeatDivisor: 4
GridSize: 16
TimelineZoom: 2.4

[Metadata]
Title:Fushoku rusanchiman, fushi yoku no saru rakuza.
TitleUnicode:腐蝕ルサンチマン、不死欲の猿楽座。
Artist:Imperial Circus Dead Decadence
ArtistUnicode:Imperial Circus Dead Decadence
Creator:ode
Version:/
Source:
Tags:icdd symphonic metal marathon
BeatmapID:1413662
BeatmapSetID:668165

[Difficulty]
HPDrainRate:6.1
CircleSize:4
OverallDifficulty:9.2
ApproachRate:9.7
SliderMultiplier:1.4
SliderTickRate:1

[Events]
//Background and Video events
0,0,"bg.jpg",0,0
//Break Periods
//Storyboard Layer 0 (Background)
//Storyboard Layer 1 (Fail)
//Storyboard Layer 2 (Pass)
//Storyboard Layer 3 (Foreground)
//Storyboard Sound Samples

[TimingPoints]
778,285.714285714286,4,1,0,65,1,0
778,-66.6666666666667,4,1,0,65,0,0
29063,285.714285714286,4,1,0,65,1,0
29063,-133.333333333333,4,1,0,65,0,0
29134,-133.333333333333,4,1,0,5,0,0
32491,-100,4,1,0,65,0,0
41063,-66.6666666666667,4,1,0,65,0,0
41205,-66.6666666666667,4,1,0,5,0,0
41277,-66.6666666666667,4,1,0,65,0,0
41420,-66.6666666666667,4,1,0,5,0,0
41491,-66.6666666666667,4,1,0,65,0,0
41634,-66.6666666666667,4,1,0,65,0,0
64705,-66.6666666666667,4,1,0,5,0,0
64777,-66.6666666666667,4,1,0,65,0,0
67920,-57.1428571428571,4,1,0,65,0,0
68134,-57.1428571428571,4,1,0,5,0,0
68205,-57.1428571428571,4,1,0,65,0,0
68420,-57.1428571428571,4,1,0,5,0,0
68491,-57.1428571428571,4,1,0,65,0,0
68991,-57.1428571428571,4,1,0,5,0,0
69063,-66.6666666666667,4,1,0,65,0,0
241634,571.428571428571,4,1,0,65,1,0
269062,400,4,1,0,65,1,0
290898,400,4,1,0,65,1,0
310098,285.714285714286,4,1,0,65,1,0

[HitObjects]
121,81,778,6,0,P|160:64|186:64,3,52.5000020027161
254,145,1063,2,0,P|216:152|200:161,3,52.5000020027161
192,275,1349,2,0,P|218:261|261:255,3,52.5000020027161
339,224,1635,2,0,P|371:199|383:139,1,105.000004005432
276,52,1920,5,0,0:0:0:0:
227,43,1992,1,0,0:0:0:0:
177,50,2063,1,0,0:0:0:0:
133,74,2135,1,0,0:0:0:0:
100,110,2206,1,0,0:0:0:0:
80,156,2278,1,0,0:0:0:0:
76,205,2349,1,0,0:0:0:0:
89,253,2420,1,0,0:0:0:0:
119,294,2492,6,0,P|172:250|223:248,1,105.000004005432
314,253,2778,5,0,0:0:0:0:
343,272,2849,1,0,0:0:0:0:
372,291,2920,1,0,0:0:0:0:
401,311,2992,1,0,0:0:0:0:
435,325,3063,5,0,0:0:0:0:
451,293,3135,1,0,0:0:0:0:
469,263,3206,1,0,0:0:0:0:
487,233,3278,1,0,0:0:0:0:
505,205,3349,1,0,0:0:0:0:
103,77,3920,5,0,0:0:0:0:
103,77,4206,2,0,B|114:129|67:154|67:154|77:227|134:237,1,157.500006008148
119,244,4492,6,0,P|143:277|146:303,1,52.5000020027161
167,184,4635,2,0,P|200:160|226:157,1,52.5000020027161
230,270,4778,2,0,P|243:308|239:334,1,52.5000020027161
291,177,4920,2,0,P|324:153|350:151,1,52.5000020027161
331,290,5063,2,0,P|362:316|371:340,1,52.5000020027161
477,332,5206,2,0,P|498:317|513:295,1,52.5000020027161
436,244,5349,6,0,P|443:203|460:184,3,52.5000020027161
431,72,5635,2,0,P|403:103|378:110,3,52.5000020027161
312,178,5920,6,0,P|320:202|338:221,1,52.5000020027161
249,117,6063,2,0,P|255:91|270:70,1,52.5000020027161
228,224,6206,2,0,P|242:245|264:259,1,52.5000020027161
170,129,6349,2,0,P|169:102|178:78,1,52.5000020027161
141,238,6492,6,0,P|160:287|169:295,3,52.5000020027161
309,198,6778,2,0,P|302:223|287:244,3,52.5000020027161
179,109,7063,2,0,P|185:134|200:155,3,52.5000020027161
320,50,7349,2,0,P|313:75|298:96,3,52.5000020027161
232,36,7635,5,0,0:0:0:0:
203,35,7706,1,0,0:0:0:0:
175,41,7778,1,0,0:0:0:0:
148,52,7849,1,0,0:0:0:0:
124,67,7920,1,0,0:0:0:0:
104,87,7992,1,0,0:0:0:0:
88,111,8063,1,0,0:0:0:0:
77,137,8135,1,0,0:0:0:0:
71,165,8206,1,0,0:0:0:0:
71,194,8278,1,0,0:0:0:0:
76,222,8349,1,0,0:0:0:0:
87,249,8420,1,0,0:0:0:0:
109,268,8492,5,0,0:0:0:0:
117,256,8563,1,0,0:0:0:0:
127,246,8635,1,0,0:0:0:0:
137,236,8706,1,0,0:0:0:0:
149,228,8778,1,0,0:0:0:0:
161,220,8849,1,0,0:0:0:0:
174,214,8920,1,0,0:0:0:0:
188,210,8992,1,0,0:0:0:0:
202,207,9063,1,0,0:0:0:0:
216,205,9135,1,0,0:0:0:0:
230,205,9206,1,0,0:0:0:0:
245,206,9278,1,0,0:0:0:0:
258,209,9349,5,0,0:0:0:0:
280,233,9420,1,0,0:0:0:0:
310,248,9492,1,0,0:0:0:0:
342,254,9563,1,0,0:0:0:0:
375,248,9635,1,0,0:0:0:0:
404,232,9706,1,0,0:0:0:0:
427,207,9778,1,0,0:0:0:0:
440,177,9849,1,0,0:0:0:0:
443,144,9920,1,0,0:0:0:0:
434,112,9992,1,0,0:0:0:0:
416,84,10063,1,0,0:0:0:0:
390,63,10135,1,0,0:0:0:0:
359,54,10206,5,8,0:0:0:0:
332,76,10278,1,0,0:0:0:0:
299,85,10349,1,0,0:0:0:0:
265,78,10420,1,0,0:0:0:0:
234,66,10492,5,8,0:0:0:0:
217,96,10563,1,0,0:0:0:0:
189,116,10635,1,0,0:0:0:0:
155,122,10706,1,0,0:0:0:0:
124,119,10778,5,8,0:0:0:0:
131,152,10849,1,0,0:0:0:0:
124,186,10920,1,0,0:0:0:0:
102,213,10992,1,0,0:0:0:0:
71,226,11063,2,0,P|41:240|25:265,3,52.5000020027161
137,280,11349,6,0,P|118:307|116:336,1,52.5000020027161
203,220,11492,2,0,P|198:187|211:160,1,52.5000020027161
200,331,11635,2,0,P|218:358|245:371,1,52.5000020027161
203,220,11778,2,0,P|194:188|203:159,1,52.5000020027161
289,312,11920,2,0,P|321:304|342:283,1,52.5000020027161
203,220,12063,2,0,P|186:191|187:161,1,52.5000020027161
274,152,12206,6,0,P|295:127|299:98,3,52.5000020027161
334,222,12492,2,0,P|390:222|412:202,3,52.5000020027161
418,129,12778,6,0,P|436:101|438:72,1,52.5000020027161
340,86,12920,2,0,P|334:53|314:31,1,52.5000020027161
253,102,13063,2,0,P|225:83|196:81,1,52.5000020027161
197,169,13206,2,0,P|164:174|142:194,1,52.5000020027161
118,275,13349,6,0,P|165:312|218:314,1,105.000004005432
363,311,13635,1,0,0:0:0:0:
40,201,13920,1,0,0:0:0:0:
324,107,14206,2,0,P|397:127|436:150,1,105.000004005432
452,171,14420,1,0,0:0:0:0:
460,203,14492,5,0,0:0:0:0:
365,349,14635,1,0,0:0:0:0:
212,203,14778,5,0,0:0:0:0:
396,249,14920,1,0,0:0:0:0:
243,317,15063,5,0,0:0:0:0:
320,122,15206,1,0,0:0:0:0:
396,249,15349,6,0,P|355:308|286:330,1,105.000004005432
230,98,15635,6,0,B|148:64|148:64|182:154|112:204,1,210.000008010865
19,268,16063,1,0,0:0:0:0:
184,263,16206,2,0,P|248:235|278:175,1,105.000004005432
359,257,16492,2,0,P|394:197|384:130,1,105.000004005432
502,151,16778,2,0,P|495:81|448:33,1,105.000004005432
241,218,17063,6,0,P|295:250|370:235,1,105.000004005432
453,176,17349,1,0,0:0:0:0:
471,157,17420,1,0,0:0:0:0:
489,138,17492,1,0,0:0:0:0:
333,133,17635,1,0,0:0:0:0:
332,106,17706,1,0,0:0:0:0:
331,80,17778,1,0,0:0:0:0:
219,177,17920,5,0,0:0:0:0:
441,211,18063,1,0,0:0:0:0:
240,81,18206,1,0,0:0:0:0:
238,322,18349,1,0,0:0:0:0:
355,152,18492,1,0,0:0:0:0:
122,265,18635,1,0,0:0:0:0:
334,324,18778,1,0,0:0:0:0:
158,130,18920,1,0,0:0:0:0:
79,342,19063,6,0,P|147:347|194:310,1,105.000004005432
147,45,19349,2,0,P|88:78|71:133,1,105.000004005432
122,265,19635,1,0,0:0:0:0:
267,76,19778,1,0,0:0:0:0:
57,177,19920,1,0,0:0:0:0:
332,161,20063,1,0,0:0:0:0:
88,98,20206,6,0,B|9:102|9:102|-13:132,1,105.000004005432
152,203,20492,2,0,B|194:269|194:269|231:273,1,105.000004005432
212,102,20778,2,0,B|248:31|248:31|233:-2,1,105.000004005432
88,98,21063,1,0,0:0:0:0:
88,98,21135,1,0,0:0:0:0:
88,98,21206,1,0,0:0:0:0:
88,98,21278,1,0,0:0:0:0:
88,98,21349,5,0,0:0:0:0:
436,182,21635,1,0,0:0:0:0:
133,259,21920,1,0,0:0:0:0:
133,259,21992,1,0,0:0:0:0:
133,259,22063,1,0,0:0:0:0:
133,259,22135,1,0,0:0:0:0:
133,259,22206,5,0,0:0:0:0:
340,30,22492,1,0,0:0:0:0:
251,226,22778,2,0,B|219:290|219:290|251:296|251:296|255:340|314:350,1,157.500006008148
319,347,23063,5,0,0:0:0:0:
349,354,23135,1,0,0:0:0:0:
380,356,23206,1,0,0:0:0:0:
411,351,23278,1,0,0:0:0:0:
440,339,23349,1,0,0:0:0:0:
464,319,23420,1,0,0:0:0:0:
481,292,23492,1,0,0:0:0:0:
489,262,23563,1,0,0:0:0:0:
487,231,23635,1,0,0:0:0:0:
477,201,23706,1,0,0:0:0:0:
460,174,23778,1,0,0:0:0:0:
439,151,23849,1,0,0:0:0:0:
415,131,23920,1,0,0:0:0:0:
388,114,23992,1,0,0:0:0:0:
360,100,24063,1,0,0:0:0:0:
331,87,24135,1,0,0:0:0:0:
300,78,24206,5,0,0:0:0:0:
278,105,24278,1,0,0:0:0:0:
257,133,24349,1,0,0:0:0:0:
236,161,24420,1,0,0:0:0:0:
219,188,24492,1,0,0:0:0:0:
219,188,24778,5,0,0:0:0:0:
35,345,24920,1,0,0:0:0:0:
137,131,25063,1,0,0:0:0:0:
198,346,25206,1,0,0:0:0:0:
40,148,25349,1,0,0:0:0:0:
286,124,25492,1,0,0:0:0:0:
107,260,25635,6,0,B|49:308|49:308|91:338,1,105.000004005432
256,236,25920,2,0,B|250:162|250:162|299:170,1,105.000004005432
431,237,26206,2,0,B|479:294|479:294|509:253,1,105.000004005432
461,116,26492,6,0,B|405:81|341:83|344:84,1,105.000004005432
123,91,26778,1,0,0:0:0:0:
350,220,26920,1,0,0:0:0:0:
261,78,27063,2,0,B|227:26|227:26|186:88,1,105.000004005432
164,266,27349,2,0,B|135:321|135:321|210:325,1,105.000004005432
391,258,27635,2,0,B|453:254|453:254|419:188,1,105.000004005432
325,33,27920,5,0,0:0:0:0:
285,227,28063,1,0,0:0:0:0:
406,73,28206,1,0,0:0:0:0:
136,133,28349,1,0,0:0:0:0:
446,249,28492,1,0,0:0:0:0:
241,47,28635,1,0,0:0:0:0:
164,325,28778,1,0,0:0:0:0:
434,67,28920,1,0,0:0:0:0:
176,200,29063,6,0,B|121:231|121:231|218:334|352:257|352:257|400:185|400:185|400:277|484:309|484:309|385:319|385:319|199:419|64:272,1,997.500038051607
355,66,32491,5,0,0:0:0:0:
120,244,32634,1,0,0:0:0:0:
120,244,33634,5,0,0:0:0:0:
130,230,33705,1,0,0:0:0:0:
143,218,33777,1,0,0:0:0:0:
159,210,33848,1,0,0:0:0:0:
176,205,33920,1,0,0:0:0:0:
193,203,33991,1,0,0:0:0:0:
210,203,34063,1,0,0:0:0:0:
228,204,34134,1,0,0:0:0:0:
240,209,34205,5,0,0:0:0:0:
268,229,34277,1,0,0:0:0:0:
301,237,34348,1,0,0:0:0:0:
336,230,34420,1,0,0:0:0:0:
364,210,34491,1,0,0:0:0:0:
382,181,34563,1,0,0:0:0:0:
387,146,34634,1,0,0:0:0:0:
378,113,34705,1,0,0:0:0:0:
358,87,34777,5,0,0:0:0:0:
192,280,34920,1,0,0:0:0:0:
192,280,35920,5,0,0:0:0:0:
141,278,35991,1,0,0:0:0:0:
94,259,36063,1,0,0:0:0:0:
55,228,36134,1,0,0:0:0:0:
28,187,36205,1,0,0:0:0:0:
17,138,36277,1,0,0:0:0:0:
19,89,36348,1,0,0:0:0:0:
39,41,36420,1,0,0:0:0:0:
73,10,36491,5,0,0:0:0:0:
91,38,36563,1,0,0:0:0:0:
122,55,36634,1,0,0:0:0:0:
157,60,36705,1,0,0:0:0:0:
190,65,36777,5,0,0:0:0:0:
210,94,36848,1,0,0:0:0:0:
241,111,36920,1,0,0:0:0:0:
275,114,36991,1,0,0:0:0:0:
309,107,37063,5,0,0:0:0:0:
105,256,37348,1,0,0:0:0:0:
427,159,37634,1,0,0:0:0:0:
7,111,37920,1,0,0:0:0:0:
306,37,38205,1,0,0:0:0:0:
16,282,38491,1,0,0:0:0:0:
362,161,38777,1,0,0:0:0:0:
201,323,39063,1,0,0:0:0:0:
360,302,39348,5,0,0:0:0:0:
388,294,39420,1,0,0:0:0:0:
414,282,39491,1,0,0:0:0:0:
438,266,39563,1,0,0:0:0:0:
460,246,39634,1,0,0:0:0:0:
478,223,39705,1,0,0:0:0:0:
493,198,39777,1,0,0:0:0:0:
503,171,39848,1,0,0:0:0:0:
509,142,39920,1,0,0:0:0:0:
510,113,39991,1,0,0:0:0:0:
507,84,40063,1,0,0:0:0:0:
499,56,40134,1,0,0:0:0:0:
488,29,40205,5,0,0:0:0:0:
359,55,40348,1,0,0:0:0:0:
432,157,40491,1,0,0:0:0:0:
171,201,40920,1,0,0:0:0:0:
171,201,40991,1,0,0:0:0:0:
171,201,41063,2,0,B|194:244|194:244|249:263|249:263,1,105.000004005432
247,262,41277,2,0,B|270:305|270:305|327:325|327:325,1,105.000004005432
323,321,41491,1,0,0:0:0:0:
341,118,41634,5,0,0:0:0:0:
114,118,41777,2,0,P|93:197|126:238,1,105.000004005432
268,290,42063,2,0,P|318:281|352:242,1,105.000004005432
233,63,42348,2,0,P|254:142|221:183,1,105.000004005432
139,305,42634,1,0,0:0:0:0:
98,111,42777,5,0,0:0:0:0:
319,112,42920,2,0,P|382:164|398:211,1,105.000004005432
181,285,43205,2,0,P|136:257|108:213,1,105.000004005432
319,112,43491,2,0,P|397:88|446:101,1,105.000004005432
386,323,43777,2,0,B|338:343|338:343|282:342,1,105.000004005432
119,269,44063,5,0,0:0:0:0:
54,104,44205,2,0,P|51:52|82:12,1,105.000004005432
154,116,44491,1,0,0:0:0:0:
218,279,44634,2,0,P|220:330|189:370,1,105.000004005432
6,248,44920,1,0,0:0:0:0:
56,130,45063,5,0,0:0:0:0:
331,259,45205,1,0,0:0:0:0:
164,59,45348,5,0,0:0:0:0:
467,201,45491,1,0,0:0:0:0:
71,308,45634,5,0,0:0:0:0:
386,194,45777,1,0,0:0:0:0:
127,171,45920,5,0,0:0:0:0:
412,67,46063,1,0,0:0:0:0:
198,75,46205,5,0,0:0:0:0:
342,249,46348,2,0,P|387:224|408:176,1,105.000004005432
127,171,46634,2,0,P|115:121|140:75,1,105.000004005432
295,14,46920,2,0,P|344:29|371:73,1,105.000004005432
283,225,47205,1,0,0:0:0:0:
381,113,47348,5,0,0:0:0:0:
170,192,47491,1,0,0:0:0:0:
254,45,47634,1,0,0:0:0:0:
379,250,47777,1,0,0:0:0:0:
159,50,47920,1,0,0:0:0:0:
432,137,48063,1,0,0:0:0:0:
116,250,48205,1,0,0:0:0:0:
335,42,48348,1,0,0:0:0:0:
136,142,48491,5,0,0:0:0:0:
267,91,48634,1,0,0:0:0:0:
394,146,48777,2,0,P|413:193|396:242,1,105.000004005432
294,343,49063,1,0,0:0:0:0:
268,212,49205,2,0,P|260:161|287:118,1,105.000004005432
394,27,49491,1,0,0:0:0:0:
495,130,49634,5,0,0:0:0:0:
388,304,49777,1,0,0:0:0:0:
350,117,49920,5,0,0:0:0:0:
512,254,50063,1,0,0:0:0:0:
295,243,50205,5,0,0:0:0:0:
264,244,50277,1,0,0:0:0:0:
235,234,50348,1,0,0:0:0:0:
213,213,50420,1,0,0:0:0:0:
205,189,50491,5,0,0:0:0:0:
201,148,50563,1,0,0:0:0:0:
177,116,50634,1,0,0:0:0:0:
139,102,50705,1,0,0:0:0:0:
102,118,50777,5,0,0:0:0:0:
126,245,50920,1,0,0:0:0:0:
282,130,51063,2,0,P|333:122|376:149,1,105.000004005432
260,314,51348,2,0,P|249:264|208:234,1,105.000004005432
73,248,51634,2,0,P|81:299|53:342,1,105.000004005432
108,124,51920,6,0,P|95:73|52:45,1,105.000004005432
171,243,52205,2,0,P|197:287|245:302,1,105.000004005432
396,275,52491,1,0,0:0:0:0:
272,191,52634,2,0,P|253:142|271:95,1,105.000004005432
401,105,52920,6,0,P|421:175|402:231,1,105.000004005432
273,327,53205,1,0,0:0:0:0:
251,166,53348,2,0,P|242:111|211:47,1,105.000004005432
76,70,53634,5,0,0:0:0:0:
122,252,53777,1,0,0:0:0:0:
251,166,53920,2,0,P|299:146|357:139,1,105.000004005432
501,167,54205,5,0,0:0:0:0:
274,315,54348,1,0,0:0:0:0:
358,70,54491,5,0,0:0:0:0:
448,307,54634,1,0,0:0:0:0:
190,253,54777,5,0,0:0:0:0:
443,114,54920,1,0,0:0:0:0:
361,353,55063,5,0,0:0:0:0:
159,133,55205,1,0,0:0:0:0:
357,79,55348,5,0,0:0:0:0:
287,226,55491,1,0,0:0:0:0:
240,35,55634,1,0,0:0:0:0:
410,182,55777,2,0,P|408:234|378:286,1,105.000004005432
169,265,56063,5,0,0:0:0:0:
342,172,56205,1,0,0:0:0:0:
241,373,56348,2,0,P|190:383|132:367,1,105.000004005432
135,160,56634,5,0,0:0:0:0:
0,298,56777,1,0,0:0:0:0:
196,297,56920,2,0,P|247:288|290:259,1,105.000004005432
363,96,57205,5,0,0:0:0:0:
484,244,57348,1,0,0:0:0:0:
289,226,57491,2,0,P|238:213|198:180,1,105.000004005432
108,38,57777,5,0,0:0:0:0:
276,116,57920,1,0,0:0:0:0:
59,175,58063,1,0,0:0:0:0:
242,34,58205,1,0,0:0:0:0:
235,278,58348,1,0,0:0:0:0:
138,120,58491,1,0,0:0:0:0:
326,243,58634,1,0,0:0:0:0:
232,107,58777,5,0,0:0:0:0:
211,78,58848,1,0,0:0:0:0:
183,58,58920,1,0,0:0:0:0:
150,47,58991,1,0,0:0:0:0:
115,46,59063,5,0,0:0:0:0:
109,80,59134,1,0,0:0:0:0:
115,114,59205,1,0,0:0:0:0:
130,146,59277,1,0,0:0:0:0:
155,171,59348,5,0,0:0:0:0:
120,168,59420,1,0,0:0:0:0:
86,176,59491,1,0,0:0:0:0:
56,193,59563,1,0,0:0:0:0:
33,219,59634,5,0,0:0:0:0:
53,247,59705,1,0,0:0:0:0:
81,267,59777,1,0,0:0:0:0:
114,278,59848,1,0,0:0:0:0:
149,279,59920,6,0,P|219:267|280:232,1,105.000004005432
386,171,60205,1,0,0:0:0:0:
147,171,60348,1,0,0:0:0:0:
362,305,60491,1,0,0:0:0:0:
289,83,60634,1,0,0:0:0:0:
136,268,60777,1,0,0:0:0:0:
345,174,60920,1,0,0:0:0:0:
126,62,61063,1,0,0:0:0:0:
224,240,61205,6,0,P|219:313|197:343,1,105.000004005432
24,353,61491,1,0,0:0:0:0:
202,337,61634,2,0,P|270:318|295:280,1,105.000004005432
263,117,61920,2,0,P|312:75|361:70,1,105.000004005432
456,232,62205,6,0,P|457:297|420:340,1,105.000004005432
197,322,62491,1,0,0:0:0:0:
371,132,62634,1,0,0:0:0:0:
340,333,62777,1,0,0:0:0:0:
127,212,62920,1,0,0:0:0:0:
405,215,63063,1,0,0:0:0:0:
100,334,63205,1,0,0:0:0:0:
221,78,63348,1,0,0:0:0:0:
337,265,63491,6,0,P|324:323|277:357,1,105.000004005432
119,311,63777,1,0,0:0:0:0:
251,172,63920,1,0,0:0:0:0:
351,333,64063,2,0,P|429:305|450:269,1,105.000004005432
423,95,64348,1,0,0:0:0:0:
305,230,64491,6,0,P|218:275|158:268,1,157.500006008148
118,250,64777,1,0,0:0:0:0:
226,83,64920,1,0,0:0:0:0:
217,286,65063,1,0,0:0:0:0:
29,176,65205,1,0,0:0:0:0:
208,26,65348,1,0,0:0:0:0:
142,224,65491,1,0,0:0:0:0:
6,48,65634,1,0,0:0:0:0:
179,127,65777,6,0,P|281:128|323:104,1,105.000004005432
461,58,66063,1,0,0:0:0:0:
244,46,66205,1,0,0:0:0:0:
389,180,66348,2,0,P|329:227|266:223,1,105.000004005432
121,160,66634,1,0,0:0:0:0:
293,74,66777,5,0,0:0:0:0:
317,64,66848,1,0,0:0:0:0:
343,61,66920,1,0,0:0:0:0:
369,65,66991,1,0,0:0:0:0:
394,74,67063,2,0,B|456:98|451:191,1,105.000004005432
389,284,67348,5,0,0:0:0:0:
351,294,67420,1,0,0:0:0:0:
311,293,67491,1,0,0:0:0:0:
274,281,67563,1,0,0:0:0:0:
247,254,67634,5,0,0:0:0:0:
258,216,67705,1,0,0:0:0:0:
249,178,67777,1,0,0:0:0:0:
222,151,67848,1,0,0:0:0:0:
185,140,67920,6,0,B|166:210|166:210|170:246|170:246|141:329,1,183.750001752377
131,383,68205,2,0,B|196:350|196:350|220:324|220:324|302:292,1,183.750001752377
360,271,68491,5,0,0:0:0:0:
355,225,68563,1,0,0:0:0:0:
337,181,68634,1,0,0:0:0:0:
329,137,68705,1,0,0:0:0:0:
325,92,68777,2,0,B|413:127|413:127|444:265,1,183.750001752377
443,283,69063,5,0,0:0:0:0:
248,303,69205,2,0,P|195:297|146:280,1,105.000004005432
297,188,69491,2,0,P|347:179|401:154,1,105.000004005432
252,48,69777,2,0,P|199:53|150:70,1,105.000004005432
13,158,70063,1,0,0:0:0:0:
194,133,70205,5,0,0:0:0:0:
377,172,70348,2,0,P|347:215|309:250,1,105.000004005432
266,108,70634,2,0,B|236:64|198:29,1,105.000004005432
132,173,70920,2,0,P|161:216|199:251,1,105.000004005432
371,254,71205,2,0,B|365:217|365:217|322:164,1,105.000004005432
175,103,71491,5,0,0:0:0:0:
110,268,71634,2,0,P|107:320|138:360,1,105.000004005432
210,256,71920,1,0,0:0:0:0:
274,93,72063,2,0,P|276:42|245:2,1,105.000004005432
133,159,72348,1,0,0:0:0:0:
356,164,72491,5,0,0:0:0:0:
121,37,72634,1,0,0:0:0:0:
291,275,72777,5,0,0:0:0:0:
252,42,72920,1,0,0:0:0:0:
182,208,73063,5,0,0:0:0:0:
441,225,73205,1,0,0:0:0:0:
203,308,73348,5,0,0:0:0:0:
404,140,73491,1,0,0:0:0:0:
