osu file format v14

[General]
AudioFilename: fushokurusanchiman.mp3
AudioLeadIn: 0
PreviewTime: 335759
Countdown: 0
SampleSet: None
StackLeniency: 0.7
Mode: 0
LetterboxInBreaks: 1
WidescreenStoryboard: 1

[Editor]
Bookmarks: 96242,290969
DistanceSpacing: 0.5
BeatDivisor: 4
GridSize: 4
TimelineZoom: 3.299999

[Metadata]
Title:Fushoku rusanchiman, Fushi Yoku no Sarugakuza.
TitleUnicode:腐蝕ルサンチマン、不死欲の猿楽座。
Artist:Imperial Circus Dead Decadence
ArtistUnicode:インペリアルサーカス・デッド・デカダンス
Creator:lilligantEX
Version:Resent (Old Version)
Source:
Tags:icdd jmetal symphonic black metal rib:y(uhki) nanomortis
BeatmapID:1311319
BeatmapSetID:568898

[Difficulty]
HPDrainRate:7
CircleSize:4.5
OverallDifficulty:9
ApproachRate:9.5
SliderMultiplier:1.4
SliderTickRate:1

[Events]
//Background and Video events
0,0,"kirai.jpg",0,0
//Break Periods
2,229083,240644
2,314740,335311
//Storyboard Layer 0 (Background)
//Storyboard Layer 1 (Fail)
//Storyboard Layer 2 (Pass)
//Storyboard Layer 3 (Foreground)
//Storyboard Sound Samples

[TimingPoints]
887,285.714285714286,3,2,1,100,1,0
4315,-100,3,2,1,100,0,1
14601,-66.6666666666667,4,3,1,100,0,0
29172,-200,4,3,1,100,0,0
29244,-200,4,3,1,50,0,0
32529,-200,4,3,1,10,0,0
32601,285.714285714286,4,3,1,100,1,0
32601,-100,4,3,1,100,0,0
41743,-80,4,3,1,100,0,0
60029,-80,4,3,1,100,0,1
69172,-80,4,3,1,100,0,0
87457,285.714285714286,3,2,1,100,1,0
87457,-133.333333333333,3,2,1,100,0,0
94314,-100,3,3,1,100,0,0
100599,-100,3,3,1,60,0,0
100671,-100,3,3,1,65,0,0
100742,-100,3,3,1,70,0,0
100814,-100,3,3,1,75,0,0
100885,-100,3,3,1,80,0,0
100957,-100,3,3,1,85,0,0
101028,-100,3,3,1,90,0,0
101099,-100,3,3,1,95,0,0
101171,285.714285714286,4,3,1,100,1,0
108313,-66.6666666666667,4,3,1,100,0,0
109742,-50,4,3,1,100,0,0
110028,-66.6666666666667,4,3,1,100,0,0
114885,-57.1428571428571,4,3,1,100,0,0
117171,-66.6666666666667,4,3,1,100,0,0
119456,-66.6666666666667,4,3,1,100,0,1
124028,-66.6666666666667,4,3,1,100,0,0
137742,-100,4,3,1,100,0,1
138028,-66.6666666666667,4,3,1,100,0,1
144599,-57.1428571428571,4,3,1,100,0,1
144885,-66.6666666666667,4,3,1,100,0,1
150313,-50,4,3,1,100,0,1
150885,-66.6666666666667,4,3,1,100,0,1
153171,-66.6666666666667,4,3,1,100,0,0
155099,-66.6666666666667,4,3,1,20,0,0
155171,-66.6666666666667,4,3,1,100,0,0
161599,-100,4,3,1,100,0,0
161742,-66.6666666666667,4,3,1,100,0,0
162171,-100,4,3,1,100,0,0
162313,-66.6666666666667,4,3,1,100,0,0
162885,285.714285714286,3,2,1,100,1,0
169742,-100,3,3,1,80,0,0
173170,-80,3,3,1,100,0,0
183456,-66.6666666666667,3,3,1,100,0,0
189742,-66.6666666666667,3,2,1,40,0,0
190313,285.714285714286,4,3,1,100,1,0
197170,-66.6666666666667,4,3,1,100,0,0
198884,-50,4,3,1,100,0,0
199170,-66.6666666666667,4,3,1,100,0,0
206313,-66.6666666666667,4,3,1,85,0,0
208027,-66.6666666666667,4,3,1,100,0,0
208598,-66.6666666666667,4,3,1,100,0,1
224598,285.714285714286,3,2,1,100,1,0
224669,-100,3,2,1,50,0,0
228883,-100,3,1,1,5,0,0
241169,-100,3,2,1,50,0,0
241669,-100,3,1,1,20,0,0
241740,-100,3,1,1,100,0,0
241883,-100,3,1,1,75,0,0
255455,-100,3,3,1,75,0,0
269169,200,4,3,1,100,1,0
269169,-66.6666666666667,4,3,1,100,0,0
270769,-100,4,3,1,90,0,0
290969,200,3,3,1,100,1,0
290969,-66.6666666666667,3,3,1,100,0,1
293369,-100,3,3,1,100,0,1
295169,-66.6666666666667,3,3,1,100,0,1
310169,571.428571428571,4,3,1,100,1,0
310454,-100,4,3,1,90,0,0
310740,-100,4,3,1,80,0,0
311026,-100,4,3,1,70,0,0
311311,-100,4,3,1,60,0,0
311597,-100,4,3,1,50,0,0
311883,-100,4,3,1,40,0,0
312169,-100,4,3,1,30,0,0
312454,-100,4,2,1,20,0,0
335311,285.714285714286,4,3,1,100,1,0
336168,-133.333333333333,4,3,1,60,0,0
337596,-133.333333333333,4,3,1,100,0,0
339882,-100,4,1,1,100,0,0
341596,-66.6666666666667,4,1,1,100,0,0
342025,-100,4,1,1,100,0,0
355882,-66.6666666666667,4,1,1,100,0,1
358453,-133.333333333333,4,1,1,100,0,1
360453,-66.6666666666667,4,1,1,100,0,1
363882,-100,4,1,1,100,0,1
365025,-100,4,3,1,70,0,0
368739,-100,4,3,1,80,0,0
369596,-100,4,3,1,100,0,0
370739,-100,4,3,1,80,0,1
374168,-100,4,3,1,70,0,0
377596,-80,4,3,1,70,0,0
378739,-66.6666666666667,4,3,1,80,0,1
382739,-66.6666666666667,4,3,1,100,0,1
383311,-66.6666666666667,4,3,1,90,0,1
387882,-50,4,3,1,100,0,1
392453,-66.6666666666667,4,3,1,100,0,0
410739,-66.6666666666667,4,3,1,100,0,1
415311,-50,4,3,1,100,0,1
415596,-100,4,3,1,100,0,1
417596,-50,4,3,1,100,0,1
418311,-133.333333333333,4,3,1,100,0,1
419882,571.428571428571,3,3,1,100,1,0
420167,-100,3,1,1,95,0,0
420453,-100,3,1,1,90,0,0
420739,-100,3,1,1,85,0,0
421024,-100,3,1,1,80,0,0
421310,-100,3,1,1,75,0,0
421596,-100,3,1,1,70,0,0
421882,-100,3,1,1,65,0,0
422167,-100,3,1,1,60,0,0
422453,-100,3,1,1,55,0,0
422739,-100,3,1,1,50,0,0
423024,-100,3,1,1,45,0,0
423310,-100,3,1,1,40,0,0
423596,-100,3,1,1,35,0,0
423882,-100,3,1,1,30,0,0
424167,-100,3,1,1,25,0,0
424453,-100,3,1,1,20,0,0
424739,-100,3,1,1,15,0,0
425024,-100,3,1,1,10,0,0
425310,-100,3,1,1,5,0,0
425596,-50,4,2,1,50,0,0

[Colours]
Combo1 : 92,34,132
Combo2 : 10,0,140
Combo3 : 179,107,239
Combo4 : 177,177,177

[HitObjects]
112,57,887,6,0,L|125:225,2,140,4|0|0,1:0|0:0|0:0,0:0:0:0:
400,57,1744,2,0,L|394:125,1,70,0|0,1:0|0:0,0:0:0:0:
377,213,2029,5,0,0:0:0:0:
379,230,2101,1,0,0:0:0:0:
385,246,2172,1,0,0:0:0:0:
393,261,2244,1,0,0:0:0:0:
402,275,2315,1,0,0:0:0:0:
413,287,2387,1,0,0:0:0:0:
425,299,2458,1,0,0:0:0:0:
440,307,2529,1,0,0:0:0:0:
456,313,2601,6,0,L|461:244,1,70,0|0,1:0|0:0,0:0:0:0:
454,165,2887,5,0,0:0:0:0:
437,159,2958,1,0,0:0:0:0:
419,157,3029,1,0,0:0:0:0:
402,161,3101,1,0,0:0:0:0:
387,170,3172,1,0,0:0:0:0:
370,176,3244,1,0,0:0:0:0:
352,180,3315,1,0,0:0:0:0:
334,180,3387,1,0,0:0:0:0:
314,175,3458,6,0,P|250:124|238:70,2,140,0|0|0,1:0|0:0|0:0,0:0:0:0:
131,100,4315,6,0,L|71:182,1,70,0|0,1:0|0:0,0:0:0:0:
97,269,4601,5,8,0:0:0:0:
113,275,4672,1,0,0:0:0:0:
130,276,4744,1,8,0:0:0:0:
147,273,4815,1,0,0:0:0:0:
164,269,4887,1,8,0:0:0:0:
181,267,4958,1,0,0:0:0:0:
198,268,5029,1,8,0:0:0:0:
214,272,5101,1,0,0:0:0:0:
230,278,5172,5,8,0:0:0:0:
246,284,5244,1,0,0:0:0:0:
263,286,5315,1,8,0:0:0:0:
280,282,5387,1,0,0:0:0:0:
299,275,5458,1,8,0:0:0:0:
316,263,5529,1,0,0:0:0:0:
329,246,5601,1,8,0:0:0:0:
334,225,5672,1,0,0:0:0:0:
335,204,5744,1,8,0:0:0:0:
322,186,5815,1,0,0:0:0:0:
300,172,5887,1,8,0:0:0:0:
275,167,5958,1,0,0:0:0:0:
251,172,6029,5,8,0:0:0:0:
227,177,6101,1,0,0:0:0:0:
202,178,6172,1,8,0:0:0:0:
177,174,6244,1,0,0:0:0:0:
153,166,6315,1,8,0:0:0:0:
131,154,6387,1,0,0:0:0:0:
112,137,6458,1,8,0:0:0:0:
98,116,6529,1,0,0:0:0:0:
89,89,6601,1,8,0:0:0:0:
94,61,6672,1,0,0:0:0:0:
114,42,6744,1,8,0:0:0:0:
141,38,6815,1,0,0:0:0:0:
165,51,6887,5,8,0:0:0:0:
191,61,6958,1,0,0:0:0:0:
218,61,7029,1,8,0:0:0:0:
244,53,7101,1,0,0:0:0:0:
274,43,7172,1,8,0:0:0:0:
305,37,7244,1,0,0:0:0:0:
336,37,7315,1,8,0:0:0:0:
366,44,7387,1,0,0:0:0:0:
393,59,7458,1,8,0:0:0:0:
413,83,7529,1,0,0:0:0:0:
422,112,7601,2,0,L|430:162,1,35,8|0,0:0|0:0,0:0:0:0:
395,225,7744,5,0,1:0:0:0:
387,240,7815,1,0,3:2:0:0:
383,257,7887,1,0,3:2:0:0:
383,274,7958,1,0,3:2:0:0:
385,291,8029,1,0,1:0:0:0:
389,307,8101,1,0,3:2:0:0:
396,322,8172,1,0,3:2:0:0:
407,335,8244,1,0,3:2:0:0:
421,344,8315,1,0,1:0:0:0:
437,349,8387,1,0,3:2:0:0:
454,350,8458,1,0,3:2:0:0:
471,346,8529,1,0,3:2:0:0:
485,336,8601,5,0,1:0:0:0:
493,320,8672,1,0,3:2:0:0:
488,302,8744,1,0,3:2:0:0:
476,288,8815,1,0,3:2:0:0:
458,283,8887,1,0,1:0:0:0:
440,281,8958,1,0,3:2:0:0:
422,283,9029,1,0,3:2:0:0:
405,289,9101,1,0,3:2:0:0:
388,295,9172,1,0,1:0:0:0:
370,298,9244,1,0,3:2:0:0:
352,297,9315,1,0,3:2:0:0:
335,291,9387,1,0,3:2:0:0:
320,281,9458,5,0,1:0:0:0:
307,268,9529,1,0,3:2:0:0:
296,253,9601,1,0,3:2:0:0:
287,237,9672,1,0,3:2:0:0:
281,220,9744,1,0,1:0:0:0:
277,202,9815,1,0,3:2:0:0:
277,184,9887,1,0,3:2:0:0:
280,166,9958,1,0,3:2:0:0:
285,149,10029,1,0,1:0:0:0:
293,133,10101,1,0,3:2:0:0:
299,116,10172,1,0,3:2:0:0:
302,98,10244,1,0,3:2:0:0:
301,80,10315,5,0,1:0:0:0:
292,64,10387,1,0,3:2:0:0:
277,54,10458,1,0,3:2:0:0:
259,50,10529,1,0,3:2:0:0:
241,53,10601,1,0,1:0:0:0:
231,67,10672,1,0,3:2:0:0:
230,84,10744,1,0,3:2:0:0:
241,97,10815,1,0,3:2:0:0:
256,104,10887,1,0,1:0:0:0:
273,106,10958,1,0,3:2:0:0:
289,110,11029,1,0,3:2:0:0:
305,117,11101,1,0,3:2:0:0:
319,125,11172,6,0,P|376:166|407:211,1,105,8|0,0:0|0:0,0:0:0:0:
344,322,11458,5,8,0:0:0:0:
327,328,11529,1,0,0:0:0:0:
309,329,11601,1,8,0:0:0:0:
291,327,11672,1,0,0:0:0:0:
274,320,11744,1,8,0:0:0:0:
259,310,11815,1,0,0:0:0:0:
246,297,11887,1,8,0:0:0:0:
236,282,11958,1,0,0:0:0:0:
228,258,12029,5,8,0:0:0:0:
229,233,12101,1,0,0:0:0:0:
227,208,12172,1,8,0:0:0:0:
221,184,12244,1,0,0:0:0:0:
210,161,12315,1,8,0:0:0:0:
196,140,12387,1,0,0:0:0:0:
176,124,12458,1,8,0:0:0:0:
152,115,12529,1,0,0:0:0:0:
120,119,12601,1,8,0:0:0:0:
93,136,12672,1,0,0:0:0:0:
79,164,12744,1,8,0:0:0:0:
75,195,12815,1,0,0:0:0:0:
81,228,12887,5,8,0:0:0:0:
105,248,12958,1,0,0:0:0:0:
135,257,13029,1,8,0:0:0:0:
166,256,13101,1,0,0:0:0:0:
198,244,13172,1,8,0:0:0:0:
226,224,13244,1,0,0:0:0:0:
256,206,13315,1,8,0:0:0:0:
289,197,13387,1,0,0:0:0:0:
323,195,13458,1,8,0:0:0:0:
357,200,13529,1,0,0:0:0:0:
389,214,13601,1,8,0:0:0:0:
412,240,13672,1,0,0:0:0:0:
426,271,13744,5,4,1:3:0:0:
405,267,13815,1,0,0:0:0:0:
381,261,13887,2,0,L|345:249,1,35
251,223,14029,5,4,1:3:0:0:
272,219,14100,1,0,0:0:0:0:
296,213,14172,2,0,L|332:201,1,35
426,172,14316,5,4,1:3:0:0:
405,168,14387,1,0,0:0:0:0:
381,162,14459,2,0,L|345:150,1,35
299,140,14601,6,0,L|69:89,1,210.000008010865
217,31,15029,2,0,B|246:78|246:78|239:127,1,105.000004005432,2|0,0:3|0:3,0:3:0:0:
213,343,15315,1,0,0:0:0:0:
391,238,15458,2,0,L|496:174,1,105.000004005432
47,83,15744,2,0,B|94:107|94:107|173:112,1,105.000004005432
474,109,16029,2,0,B|427:133|427:133|348:138,1,105.000004005432
34,271,16315,6,0,B|101:343|101:343|245:343,1,210.000008010865
495,297,16744,2,0,B|445:317|445:317|369:326,1,105.000004005432
239,231,17029,1,0,0:0:0:0:
478,131,17172,2,0,B|422:135|422:135|352:160,1,105.000004005432
104,68,17458,2,0,B|99:122|99:122|125:196,1,105.000004005432
326,345,17744,2,0,B|331:291|331:291|305:217,1,105.000004005432
199,68,18029,5,0,0:0:0:0:
146,324,18172,1,0,0:0:0:0:
365,163,18315,1,0,0:0:0:0:
82,181,18458,1,0,0:0:0:0:
324,308,18601,1,0,0:0:0:0:
199,68,18744,1,0,0:0:0:0:
64,301,18887,5,0,0:0:0:0:
324,308,19029,1,0,0:0:0:0:
54,229,19172,1,0,0:0:0:0:
353,241,19315,1,0,0:0:0:0:
44,159,19458,1,0,0:0:0:0:
381,174,19601,1,0,0:0:0:0:
132,40,19744,6,0,P|130:169|193:254,1,210.000008010865,0|0,1:0|0:0,0:0:0:0:
324,308,20172,1,0,0:0:0:0:
292,151,20315,2,0,P|259:125|185:121,1,105.000004005432
43,311,20601,2,0,L|157:294,1,105.000004005432
482,225,20887,2,0,L|368:208,1,105.000004005432
29,135,21172,2,2,B|63:131|63:131|98:140|98:140|146:132,1,105.000004005432,0|0,1:0|0:0,0:0:0:0:
79,331,21458,5,4,0:2:0:0:
361,275,21744,1,0,0:0:0:0:
366,254,21815,1,0,0:0:0:0:
371,233,21886,1,0,0:0:0:0:
376,212,21958,1,0,0:0:0:0:
381,191,22029,1,0,0:0:0:0:
386,170,22101,1,0,0:0:0:0:
391,149,22172,1,0,0:0:0:0:
395,128,22244,1,0,0:0:0:0:
399,107,22315,5,4,0:2:0:0:
76,71,22886,1,0,0:0:0:0:
146,245,23172,5,4,0:2:0:0:
161,243,23244,1,0,0:0:0:0:
176,241,23315,1,0,0:0:0:0:
191,240,23386,1,0,0:0:0:0:
206,239,23458,1,0,0:0:0:0:
221,238,23529,1,0,0:0:0:0:
247,238,23601,1,0,0:0:0:0:
272,243,23672,1,0,0:0:0:0:
295,254,23744,1,0,0:0:0:0:
317,268,23815,1,0,0:0:0:0:
340,278,23886,1,0,0:0:0:0:
366,279,23958,1,0,0:0:0:0:
391,271,24029,5,0,0:0:0:0:
412,255,24101,1,0,0:0:0:0:
426,233,24172,1,0,0:0:0:0:
434,208,24244,1,0,0:0:0:0:
433,181,24315,1,0,0:0:0:0:
419,158,24386,1,0,0:0:0:0:
397,143,24458,1,0,0:0:0:0:
371,135,24529,1,0,0:0:0:0:
344,136,24601,5,4,0:2:0:0:
101,243,24886,2,0,P|76:181|115:89,1,157.500006008148
167,60,25172,6,0,L|187:173,1,105.000004005432
414,180,25458,2,0,L|306:141,1,105.000004005432
186,335,25744,6,0,L|274:261,1,105.000004005432
468,86,26029,2,0,L|346:100,1,105.000004005432
60,128,26315,2,0,L|182:142,1,105.000004005432
442,335,26602,6,2,B|425:258|425:258|451:217|451:217|435:136,1,210.000008010865,0|0,0:0|0:0,0:0:0:0:
334,55,27029,1,0,0:0:0:0:
291,192,27172,1,0,0:0:0:0:
322,327,27315,1,0,0:0:0:0:
207,313,27458,5,0,0:0:0:0:
184,299,27529,1,0,0:0:0:0:
167,278,27601,1,0,0:0:0:0:
161,252,27672,1,0,0:0:0:0:
157,225,27744,1,0,0:0:0:0:
147,200,27815,1,0,0:0:0:0:
127,182,27886,1,0,0:0:0:0:
100,178,27958,1,0,0:0:0:0:
75,187,28029,1,0,0:0:0:0:
63,210,28101,1,0,0:0:0:0:
65,236,28172,1,0,0:0:0:0:
82,255,28244,1,0,0:0:0:0:
107,260,28315,5,0,0:0:0:0:
132,253,28386,1,0,0:0:0:0:
150,234,28458,1,0,0:0:0:0:
161,210,28529,1,0,0:0:0:0:
164,184,28601,1,0,0:0:0:0:
161,157,28672,1,0,0:0:0:0:
145,135,28744,1,0,0:0:0:0:
121,124,28815,1,0,0:0:0:0:
94,124,28886,1,0,0:0:0:0:
69,134,28958,1,0,0:0:0:0:
56,156,29029,1,0,0:0:0:0:
52,182,29101,1,0,0:0:0:0:
60,206,29172,6,0,B|146:273|225:271|296:268|296:268|354:233|377:187|377:187|344:140|292:115|292:115|238:146|215:191|215:191|241:235|294:268|294:268|362:262|419:303,1,822.5
460,338,32601,5,4,0:2:0:0:
183,350,32743,1,4,0:2:0:0:
325,67,33744,5,0,1:0:0:0:
327,84,33815,1,0,0:0:0:0:
325,101,33886,1,0,0:0:0:0:
319,117,33958,1,0,0:0:0:0:
312,133,34029,1,0,0:0:0:0:
308,150,34101,1,0,0:0:0:0:
307,167,34172,1,0,0:0:0:0:
309,184,34244,1,0,0:0:0:0:
320,205,34315,5,0,1:0:0:0:
338,220,34386,1,0,0:0:0:0:
359,232,34458,1,0,0:0:0:0:
382,238,34529,1,0,0:0:0:0:
406,240,34601,1,0,0:0:0:0:
430,238,34672,1,0,0:0:0:0:
453,230,34744,1,0,0:0:0:0:
470,212,34815,1,0,0:0:0:0:
477,188,34886,5,4,0:2:0:0:
228,96,35028,1,4,0:2:0:0:
75,278,36029,5,0,1:0:0:0:
99,276,36101,1,0,0:0:0:0:
123,274,36172,1,0,0:0:0:0:
147,272,36244,1,0,0:0:0:0:
171,270,36315,1,0,0:0:0:0:
195,268,36386,1,0,0:0:0:0:
219,266,36458,1,0,0:0:0:0:
243,264,36529,1,0,0:0:0:0:
277,260,36601,5,0,1:0:0:0:
243,250,36672,1,0,0:0:0:0:
209,240,36744,1,0,0:0:0:0:
175,231,36815,1,0,0:0:0:0:
141,222,36886,1,0,0:0:0:0:
107,213,36958,1,0,0:0:0:0:
73,204,37029,1,0,0:0:0:0:
39,195,37101,1,0,0:0:0:0:
5,184,37172,6,0,L|424:161,1,420,8|0,0:0|0:0,0:0:0:0:
503,40,38315,6,0,L|83:62,1,420,8|0,0:0|0:0,0:0:0:0:
89,221,39458,5,0,1:0:0:0:
120,237,39529,1,0,1:0:0:0:
154,244,39601,1,0,1:0:0:0:
188,244,39672,1,0,1:0:0:0:
220,231,39743,1,0,1:0:0:0:
249,212,39815,1,0,1:0:0:0:
281,199,39886,1,0,1:0:0:0:
315,193,39958,1,0,1:0:0:0:
349,194,40029,2,0,P|374:202|401:215,1,35,0|0,1:0|1:0,1:0:0:0:
470,260,40172,6,0,L|417:292,1,35,4|0,1:3|1:3,1:3:0:0:
284,285,40315,2,0,L|231:317,1,35,4|0,1:3|1:3,1:3:0:0:
98,310,40458,2,0,L|45:342,1,35,4|0,1:3|1:3,1:3:0:0:
148,76,40601,1,4,1:0:0:0:
148,76,41172,5,0,1:0:0:0:
410,156,41386,5,0,1:0:0:0:
209,343,41601,5,0,1:0:0:0:
75,41,41743,5,0,0:0:0:0:
167,149,41886,2,0,P|205:171|248:179,1,87.5
418,48,42172,2,0,P|380:71|351:103,1,87.5
379,317,42458,2,0,P|379:273|365:232,1,87.5
299,61,42743,1,0,0:0:0:0:
108,100,42886,5,0,0:0:0:0:
385,71,43029,2,0,L|367:180,1,87.5
166,210,43315,2,0,L|269:171,1,87.5
395,330,43601,2,0,L|309:259,1,87.5
277,119,43886,6,0,L|319:30,1,87.5,2|0,0:0|0:0,0:0:0:0:
442,213,44172,2,0,L|400:302,1,87.5,2|0,0:0|0:0,0:0:0:0:
120,140,44458,2,0,L|162:51,1,87.5,2|0,0:0|0:0,0:0:0:0:
330,196,44743,2,0,L|256:354,1,175,2|0,0:0|0:0,0:0:0:0:
41,57,45172,6,0,L|126:76,1,87.5,0|0,1:0|0:0,0:0:0:0:
472,135,45458,2,0,L|386:154,1,87.5,0|0,1:0|0:0,0:0:0:0:
39,214,45743,6,0,L|124:233,1,87.5,0|0,1:0|0:0,0:0:0:0:
474,291,46029,2,0,L|388:310,1,87.5,0|0,1:0|0:0,0:0:0:0:
82,67,46315,5,0,0:0:0:0:
284,170,46458,2,0,P|309:211|306:254,1,87.5
126,134,46743,2,0,P|148:93|187:73,1,87.5
173,290,47029,2,0,P|126:290|89:266,1,87.5
251,74,47315,1,0,0:0:0:0:
405,108,47458,5,0,0:0:0:0:
126,134,47601,2,0,L|232:171,1,87.5
468,185,47886,2,0,L|362:222,1,87.5
90,261,48172,2,0,L|196:298,1,87.5
408,298,48458,6,0,L|383:207,1,87.5,2|0,0:0|0:0,0:0:0:0:
182,72,48743,2,0,L|205:156,1,87.5,2|0,0:0|0:0,0:0:0:0:
491,337,49029,2,0,L|466:246,1,87.5,2|0,0:0|0:0,0:0:0:0:
182,72,49315,2,0,B|205:158|205:158|272:220,1,175,2|0,0:0|0:0,0:0:0:0:
358,61,49743,5,8,0:0:0:0:
141,243,49886,1,8,0:0:0:0:
423,223,50029,1,8,0:0:0:0:
182,72,50172,1,8,0:0:0:0:
288,334,50315,1,8,0:0:0:0:
358,61,50458,1,0,0:0:0:0:
331,59,50529,1,0,0:0:0:0:
304,63,50601,1,0,0:0:0:0:
280,74,50672,1,0,0:0:0:0:
259,91,50743,1,0,0:0:0:0:
245,113,50815,1,0,0:0:0:0:
241,135,50886,5,2,0:0:0:0:
326,266,51029,2,0,B|351:299|351:299|422:302,1,87.5
225,138,51315,2,0,B|183:143|183:143|145:203,1,87.5
386,114,51601,2,0,B|402:75|402:75|369:12,1,87.5
114,123,51886,1,0,0:0:0:0:
67,313,52029,5,0,0:0:0:0:
330,209,52172,2,0,L|418:147,1,87.5
167,220,52458,2,0,L|176:327,1,87.5
238,73,52743,2,0,L|140:27,1,87.5
14,190,53029,6,0,L|133:224,1,87.5,2|0,0:0|0:0,0:0:0:0:
498,190,53315,2,0,L|379:224,1,87.5,2|0,0:0|0:0,0:0:0:0:
15,257,53601,2,0,L|134:291,1,87.5,2|0,0:0|0:0,0:0:0:0:
497,257,53886,2,0,B|412:281|412:281|317:268,1,175,2|0,0:0|0:0,0:0:0:0:
75,36,54315,6,0,L|84:157,1,87.5,4|0,0:2|0:0,0:0:0:0:
328,304,54601,2,0,L|319:183,1,87.5,4|0,0:2|0:0,0:0:0:0:
81,123,54886,1,4,0:2:0:0:
77,144,54958,1,0,0:0:0:0:
77,165,55029,1,0,0:0:0:0:
80,186,55101,1,0,0:0:0:0:
87,206,55172,1,4,0:2:0:0:
321,216,55315,1,0,0:0:0:0:
186,38,55458,5,0,0:0:0:0:
457,130,55601,2,0,L|343:149,1,87.5
77,165,55886,2,0,L|191:184,1,87.5
470,267,56172,2,0,L|356:286,1,87.5
62,261,56458,1,0,0:0:0:0:
302,62,56601,5,0,0:0:0:0:
331,299,56743,2,0,P|315:339|277:361,1,87.5
177,109,57029,2,0,P|219:102|256:124,1,87.5
89,337,57315,2,0,P|62:303|62:260,1,87.5
425,85,57601,6,0,L|299:98,1,87.5,2|0,0:0|0:0,0:0:0:0:
57,175,57886,2,0,L|183:188,1,87.5,2|0,0:0|0:0,0:0:0:0:
478,228,58172,2,0,L|352:241,1,87.5,2|0,0:0|0:0,0:0:0:0:
99,299,58458,2,0,B|186:309|186:309|281:286,1,175,2|0,0:0|0:0,0:0:0:0:
211,42,58886,5,8,0:0:0:0:
211,325,59029,1,8,0:0:0:0:
377,96,59172,1,8,0:0:0:0:
108,183,59315,1,8,0:0:0:0:
377,271,59458,1,8,0:0:0:0:
211,42,59601,1,0,0:0:0:0:
193,55,59672,1,0,0:0:0:0:
180,72,59743,1,0,0:0:0:0:
170,91,59815,1,0,0:0:0:0:
164,111,59886,1,0,0:0:0:0:
161,132,59958,1,0,0:0:0:0:
162,158,60029,6,8,L|238:228,1,87.5,10|8,0:0|0:0,0:0:0:0:
309,245,60315,5,8,0:0:0:0:
330,244,60386,1,0,0:0:0:0:
350,236,60458,1,8,0:0:0:0:
365,220,60529,1,0,0:0:0:0:
376,201,60601,1,8,0:0:0:0:
379,179,60672,1,0,0:0:0:0:
371,158,60743,1,8,0:0:0:0:
350,150,60815,1,0,0:0:0:0:
328,151,60886,1,8,0:0:0:0:
306,157,60958,1,0,0:0:0:0:
286,167,61029,1,8,0:0:0:0:
264,171,61101,1,0,0:0:0:0:
242,172,61172,5,8,0:0:0:0:
220,169,61243,1,0,0:0:0:0:
199,159,61315,1,8,0:0:0:0:
182,144,61386,1,0,0:0:0:0:
169,125,61458,1,8,0:0:0:0:
165,103,61529,1,0,0:0:0:0:
169,81,61601,1,8,0:0:0:0:
180,62,61672,1,0,0:0:0:0:
200,54,61743,5,8,0:0:0:0:
221,56,61815,1,0,0:0:0:0:
241,64,61886,1,8,0:0:0:0:
254,81,61958,1,0,0:0:0:0:
261,101,62029,1,8,0:0:0:0:
263,122,62101,1,0,0:0:0:0:
259,143,62172,1,8,0:0:0:0:
252,163,62243,1,0,0:0:0:0:
248,184,62315,6,0,L|217:281,1,87.5,10|0,0:0|0:0,0:0:0:0:
342,109,62601,2,0,L|311:12,1,87.5,2|0,0:0|0:0,0:0:0:0:
386,249,62886,2,0,L|355:346,1,87.5,2|0,0:0|0:0,0:0:0:0:
485,121,63172,2,0,L|454:24,1,87.5,2|0,0:0|0:0,0:0:0:0:
194,122,63458,6,2,L|93:144,1,87.5,0|0,0:0|0:0,0:0:0:0:
359,175,63743,2,2,L|460:197,1,87.5,0|0,0:0|0:0,0:0:0:0:
219,245,64029,1,0,1:0:0:0:
126,346,64172,1,0,1:0:0:0:
107,236,64315,1,0,1:0:0:0:
237,354,64458,1,0,1:0:0:0:
72,124,64601,6,8,P|100:151|151:173,1,87.5,10|8,0:0|0:0,0:0:0:0:
267,195,64886,5,8,0:0:0:0:
288,199,64958,1,0,0:0:0:0:
307,208,65029,1,8,0:0:0:0:
322,223,65101,1,0,0:0:0:0:
333,241,65172,1,8,0:0:0:0:
336,262,65243,1,0,0:0:0:0:
329,283,65315,1,8,0:0:0:0:
316,300,65386,1,0,0:0:0:0:
296,310,65458,1,8,0:0:0:0:
274,312,65529,1,0,0:0:0:0:
252,308,65601,1,8,0:0:0:0:
234,295,65672,1,0,0:0:0:0:
225,274,65743,5,8,0:0:0:0:
208,258,65815,1,0,0:0:0:0:
187,249,65886,1,8,0:0:0:0:
165,247,65958,1,0,0:0:0:0:
143,250,66029,1,8,0:0:0:0:
124,261,66101,1,0,0:0:0:0:
111,278,66172,1,8,0:0:0:0:
107,299,66243,1,0,0:0:0:0:
113,320,66315,5,8,0:0:0:0:
132,330,66386,1,0,0:0:0:0:
153,332,66458,1,8,0:0:0:0:
172,321,66529,1,0,0:0:0:0:
188,305,66601,1,8,0:0:0:0:
198,286,66672,1,0,0:0:0:0:
203,265,66743,1,8,0:0:0:0:
200,243,66815,1,0,0:0:0:0:
191,222,66886,6,0,P|167:185|132:160,1,87.5,4|0,0:2|0:0,0:0:0:0:
4,74,67172,1,0,0:0:0:0:
131,94,67315,1,0,0:0:0:0:
245,55,67458,1,4,0:1:0:0:
250,76,67529,1,0,0:0:0:0:
254,97,67601,2,0,L|263:142,1,43.75
361,124,67743,1,0,0:0:0:0:
356,145,67814,1,0,0:0:0:0:
352,166,67886,2,0,L|343:211,1,43.75
79,300,68029,6,0,L|179:335,1,87.5,4|0,0:2|0:2,0:2:0:0:
445,246,68315,2,0,L|345:281,1,87.5,4|0,0:2|0:2,0:2:0:0:
22,193,68601,2,0,L|122:228,1,87.5,4|0,0:2|0:2,0:2:0:0:
512,89,68887,2,0,L|412:124,1,87.5,4|0,0:2|0:2,0:2:0:0:
98,137,69172,5,0,0:0:0:0:
277,102,69315,2,0,P|320:108|361:124,1,87.5
186,299,69601,2,0,P|169:259|162:215,1,87.5
401,278,69887,2,0,P|375:313|341:342,1,87.5
172,131,70172,1,0,0:0:0:0:
512,73,70315,5,0,0:0:0:0:
411,212,70458,2,0,L|315:218,1,87.5
19,240,70743,2,0,L|115:246,1,87.5
401,278,71029,2,0,L|305:284,1,87.5
165,281,71315,6,0,L|205:174,1,87.5,2|0,0:0|0:0,0:0:0:0:
367,73,71601,2,0,L|327:180,1,87.5,2|0,0:0|0:0,0:0:0:0:
85,303,71886,2,0,L|125:196,1,87.5,2|0,0:0|0:0,0:0:0:0:
367,73,72172,2,0,L|303:245,1,175,2|0,0:0|0:0,0:0:0:0:
50,47,72601,6,0,L|74:143,1,87.5,4|0,0:2|0:0,0:0:0:0:
462,47,72886,2,0,L|438:143,1,87.5,4|0,0:2|0:0,0:0:0:0:
123,90,73172,2,0,L|147:186,1,87.5,4|0,0:2|0:0,0:0:0:0:
389,90,73458,2,0,L|365:186,1,87.5,4|0,0:2|0:0,0:0:0:0:
62,206,73743,5,0,0:0:0:0:
289,257,73886,2,0,L|376:246,1,87.5
285,112,74172,2,0,L|199:124,1,87.5
138,277,74458,2,0,L|224:265,1,87.5
469,142,74743,1,0,0:0:0:0:
279,45,74886,5,0,0:0:0:0:
216,190,75029,2,0,L|304:188,1,87.5
200,46,75315,2,0,L|113:49,1,87.5
274,114,75601,2,0,L|362:112,1,87.5
67,96,75886,6,0,L|120:191,1,87.5,2|0,0:0|0:0,0:0:0:0:
445,96,76172,2,0,L|392:191,1,87.5,2|0,0:0|0:0,0:0:0:0:
126,63,76458,2,0,L|179:158,1,87.5,2|0,0:0|0:0,0:0:0:0:
386,63,76743,2,0,L|300:217,1,175,2|0,0:0|0:0,0:0:0:0:
253,349,77172,5,8,0:0:0:0:
258,34,77315,1,8,0:0:0:0:
118,268,77458,1,8,0:0:0:0:
393,115,77601,1,8,0:0:0:0:
120,110,77743,1,8,0:0:0:0:
391,273,77886,1,0,1:0:0:0:
397,284,77958,1,0,1:0:0:0:
401,296,78029,1,0,1:0:0:0:
402,309,78101,1,0,1:0:0:0:
401,322,78172,1,0,1:0:0:0:
397,334,78243,1,0,1:0:0:0:
388,349,78315,6,0,L|373:253,1,87.5
504,186,78601,2,0,L|408:201,1,87.5
341,70,78886,2,0,L|354:156,1,87.5
226,233,79172,2,0,L|312:219,1,87.5
195,85,79458,6,0,L|75:68,1,87.5
263,140,79743,2,0,L|383:123,1,87.5
173,177,80029,2,0,L|53:160,1,87.5
260,308,80315,1,0,0:0:0:0:
337,236,80458,6,0,L|349:353,1,87.5,2|0,0:0|0:0,0:0:0:0:
468,194,80743,2,0,L|459:106,1,87.5,2|0,0:0|0:0,0:0:0:0:
269,209,81029,2,0,L|280:325,1,87.5,2|0,0:0|0:0,0:0:0:0:
400,167,81315,2,0,B|388:76|388:76|294:46,1,175,2|0,0:0|0:0,0:0:0:0:
47,35,81743,6,0,L|138:94,1,87.5,4|0,0:2|0:0,0:0:0:0:
461,29,82029,2,0,L|370:88,1,87.5,4|0,0:2|0:0,0:0:0:0:
63,194,82315,1,4,0:2:0:0:
81,204,82386,1,0,0:0:0:0:
102,210,82458,1,0,0:0:0:0:
123,212,82529,1,0,0:0:0:0:
145,211,82601,1,4,0:2:0:0:
292,143,82743,1,0,0:0:0:0:
439,203,82886,6,0,L|409:307,1,87.5
292,143,83172,2,0,L|322:247,1,87.5
463,118,83458,2,0,L|433:222,1,87.5
267,58,83744,2,0,L|297:162,1,87.5
470,50,84029,6,0,L|376:51,1,87.5
204,144,84315,2,0,L|291:143,1,87.5
463,118,84601,2,0,L|369:119,1,87.5
206,210,84886,1,0,0:0:0:0:
279,205,85029,6,0,P|314:159|310:117,1,87.5,2|0,0:0|0:0,0:0:0:0:
184,36,85315,2,0,P|149:82|153:124,1,87.5,2|0,0:0|0:0,0:0:0:0:
338,248,85601,2,0,P|368:209|380:154,1,87.5,2|0,0:0|0:0,0:0:0:0:
184,36,85886,2,0,B|143:61|149:112|149:112|168:219,1,175,2|0,0:0|0:0,0:0:0:0:
396,70,86315,5,10,0:0:0:0:
345,288,86458,1,10,0:0:0:0:
116,70,86601,1,10,0:0:0:0:
167,288,86743,1,10,0:0:0:0:
453,199,86886,1,12,1:3:0:0:
59,199,87029,1,4,1:3:0:0:
256,36,87172,1,4,1:3:0:0:
104,284,87457,6,0,P|256:320|408:284,1,315.000012016297,2|0,1:2|0:0,0:0:0:0:
406,117,88599,1,0,0:0:0:0:
262,202,88885,1,0,0:0:0:0:
415,282,89171,6,0,B|389:224|355:180|316:150|316:150|286:125|245:123|207:133|188:187,1,315.000012016297
68,165,90314,2,0,P|87:195|104:215,1,52.5000020027161
233,208,90599,2,0,P|208:186|174:171,1,52.5000020027161
68,165,90885,6,0,B|120:264|158:213|227:319,1,210.000008010865
17,341,91742,1,4,0:3:0:0:
146,84,92028,2,0,L|156:154,1,52.5000020027161
304,171,92314,2,0,L|294:241,1,52.5000020027161
99,299,92599,6,0,P|74:239|84:93,1,210.000008010865
230,51,93457,1,8,0:2:0:0:
417,143,93742,1,0,0:0:0:0:
192,261,94028,2,0,L|243:269,2,35.0000013351441
105,235,94314,6,0,L|73:160,1,70,0|2,0:0|0:0,0:0:0:0:
284,129,94599,2,0,L|235:194,1,70,0|2,0:0|0:0,0:0:0:0:
103,27,94885,2,0,L|183:36,1,70,0|2,0:0|0:0,0:0:0:0:
418,289,95171,2,0,L|373:201,1,70,0|2,0:0|0:0,0:0:0:0:
172,182,95456,2,0,L|270:187,1,70,0|2,0:0|0:0,0:0:0:0:
387,22,95742,2,0,L|333:104,1,70,0|2,0:0|0:0,0:0:0:0:
350,307,96028,6,0,L|305:219,1,70,0|2,0:0|0:0,0:0:0:0:
236,56,96314,2,0,L|191:144,1,70,0|2,0:0|0:0,0:0:0:0:
133,250,96599,2,0,L|88:162,1,70,0|2,0:0|0:0,0:0:0:0:
56,100,96885,2,0,L|140:127,1,70,0|2,0:0|0:0,0:0:0:0:
291,181,97171,2,0,L|207:208,1,70,0|2,0:0|0:0,0:0:0:0:
10,263,97456,2,0,L|94:290,1,70,0|2,0:0|0:0,0:0:0:0:
409,48,97742,5,0,0:0:0:0:
409,48,97885,1,0,0:0:0:0:
265,99,98028,1,0,0:0:0:0:
238,249,98171,1,0,0:0:0:0:
382,198,98314,1,0,0:0:0:0:
103,48,98599,5,0,0:0:0:0:
103,48,98742,1,0,0:0:0:0:
247,99,98885,1,0,0:0:0:0:
274,249,99028,1,0,0:0:0:0:
130,198,99171,1,0,0:0:0:0:
426,73,99457,5,4,0:0:0:0:
69,145,99742,1,4,0:0:0:0:
426,217,100028,1,4,0:0:0:0:
69,290,100314,1,4,0:0:0:0:
409,318,100599,5,8,1:3:0:0:
404,304,100671,1,8,1:3:0:0:
394,289,100742,1,8,1:3:0:0:
378,274,100814,1,8,1:3:0:0:
353,260,100885,1,8,1:3:0:0:
331,236,100957,1,8,1:3:0:0:
319,206,101028,1,8,1:3:0:0:
319,174,101099,1,8,1:3:0:0:
334,122,101171,5,4,0:1:0:0:
33,114,101456,1,0,0:0:0:0:
33,114,101599,1,0,0:0:0:0:
105,297,101885,1,0,0:0:0:0:
50,40,102171,5,0,0:0:0:0:
97,153,102313,2,0,L|184:176,1,70
256,278,102599,1,0,0:0:0:0:
256,278,102742,1,0,0:0:0:0:
415,153,102885,2,0,L|328:176,1,70
256,278,103171,1,0,0:0:0:0:
257,85,103313,1,0,1:0:0:0:
37,199,103456,5,0,0:0:0:0:
145,88,103599,1,0,0:0:0:0:
272,168,103742,1,0,0:0:0:0:
400,40,103885,1,0,0:0:0:0:
272,168,104028,1,0,0:0:0:0:
443,170,104171,1,0,0:0:0:0:
272,168,104313,1,0,0:0:0:0:
381,295,104456,1,0,0:0:0:0:
240,250,104599,6,0,L|145:255,1,70
360,168,104885,2,0,L|455:173,1,70
194,128,105171,2,0,L|99:133,1,70
314,46,105457,2,0,L|409:51,1,70
441,194,105742,5,0,0:0:0:0:
377,324,105885,1,0,0:0:0:0:
296,203,106028,1,0,0:0:0:0:
437,41,106171,5,0,0:0:0:0:
358,163,106314,1,0,0:0:0:0:
292,50,106457,1,0,0:0:0:0:
244,112,106599,1,0,0:0:0:0:
405,100,106742,1,0,0:0:0:0:
436,171,106885,5,0,0:0:0:0:
184,198,107028,1,0,0:0:0:0:
442,202,107171,5,0,0:0:0:0:
204,223,107313,1,0,0:0:0:0:
439,233,107456,5,0,0:0:0:0:
214,248,107599,1,0,0:0:0:0:
432,264,107742,5,0,0:0:0:0:
223,276,107885,1,0,0:0:0:0:
223,276,107956,1,0,0:0:0:0:
223,276,108028,5,0,0:0:0:0:
349,333,108171,1,0,0:0:0:0:
335,89,108313,2,0,B|284:75|284:75|234:89,1,105.000004005432,0|0,1:0|0:0,0:0:0:0:
329,183,108599,1,0,0:0:0:0:
169,57,108742,2,0,B|123:79|123:79|94:137,1,105.000004005432,0|0,1:0|0:0,0:0:0:0:
233,255,109028,2,0,B|236:204|236:204|201:150,1,105.000004005432,0|0,1:0|0:0,0:0:0:0:
20,234,109313,5,2,0:0:0:0:
184,332,109456,1,2,0:0:0:0:
73,197,109599,1,2,0:0:0:0:
154,39,109742,6,2,L|190:203,1,140,2|0,0:0|0:0,0:0:0:0:
334,140,110028,2,0,L|303:283,1,105.000004005432,2|0,0:0|0:0,0:0:0:0:
98,105,110313,5,0,0:0:0:0:
111,278,110456,1,0,0:0:0:0:
255,181,110599,1,0,0:0:0:0:
166,57,110742,5,0,0:0:0:0:
179,230,110885,1,0,0:0:0:0:
323,133,111028,1,0,0:0:0:0:
172,220,111171,1,0,0:0:0:0:
328,141,111314,1,0,0:0:0:0:
68,143,111456,6,0,L|195:155,1,105.000004005432
446,177,111742,2,0,L|319:189,1,105.000004005432
68,213,112028,2,0,L|195:225,1,105.000004005432
446,247,112314,2,0,L|319:259,1,105.000004005432
125,303,112599,5,0,0:0:0:0:
102,139,112742,1,0,0:0:0:0:
255,201,112885,1,0,0:0:0:0:
112,228,113028,5,0,0:0:0:0:
89,64,113171,1,0,0:0:0:0:
242,126,113314,1,0,0:0:0:0:
91,57,113456,1,0,0:0:0:0:
239,132,113599,1,0,0:0:0:0:
43,113,113742,6,0,L|70:231,1,105.000004005432
316,334,114028,2,0,L|289:216,1,105.000004005432
76,142,114313,2,2,B|113:151|156:118|156:118|173:147|173:147|195:119|195:119|215:141|256:149,1,210.000008010865,2|0,0:0|0:0,0:0:0:0:
422,84,114742,1,0,0:0:0:0:
144,32,114885,6,0,P|170:86|173:147,1,122.500001168251
155,317,115171,1,0,0:0:0:0:
367,32,115313,2,0,P|341:86|338:147,1,122.500001168251
357,317,115599,2,0,P|383:262|386:201,1,122.500001168251
280,60,115885,1,0,0:0:0:0:
129,138,116028,6,0,P|146:197|209:238,1,122.500001168251
338,147,116313,2,0,P|278:132|211:166,1,122.500001168251
225,323,116599,2,0,P|267:278|271:203,1,122.500001168251
129,138,116885,2,0,L|147:278,1,122.500001168251
485,349,117171,6,0,P|235:283|64:89,1,525.000020027161,2|0,0:0|1:0,0:0:0:0:
271,37,118028,1,12,1:3:0:0:
427,104,118313,5,8,0:0:0:0:
431,124,118385,1,0,0:0:0:0:
435,144,118456,1,0,0:0:0:0:
439,164,118528,1,0,0:0:0:0:
443,184,118599,5,8,0:0:0:0:
439,215,118671,1,0,0:0:0:0:
425,243,118742,1,0,0:0:0:0:
398,258,118813,1,0,0:0:0:0:
366,259,118885,5,8,0:0:0:0:
332,244,118956,1,0,0:0:0:0:
309,214,119028,1,0,0:0:0:0:
276,196,119099,1,0,0:0:0:0:
239,192,119171,5,8,0:0:0:0:
222,212,119242,1,0,0:0:0:0:
205,232,119313,1,0,0:0:0:0:
188,253,119385,1,0,0:0:0:0:
171,272,119456,6,0,L|60:288,1,105.000004005432,4|0,0:2|0:0,0:0:0:0:
66,136,119742,5,8,0:0:0:0:
73,105,119813,1,0,0:0:0:0:
95,82,119885,1,8,0:0:0:0:
124,70,119956,1,0,0:0:0:0:
155,72,120028,1,8,0:0:0:0:
185,79,120099,1,0,0:0:0:0:
213,93,120171,1,8,0:0:0:0:
242,102,120242,1,0,0:0:0:0:
273,100,120313,1,8,0:0:0:0:
303,91,120385,1,0,0:0:0:0:
329,74,120456,1,8,0:0:0:0:
354,55,120528,1,0,0:0:0:0:
370,28,120599,5,8,0:0:0:0:
342,43,120671,1,0,0:0:0:0:
320,65,120742,1,8,0:0:0:0:
308,94,120813,1,0,0:0:0:0:
310,125,120885,1,8,0:0:0:0:
324,152,120956,1,0,0:0:0:0:
344,176,121028,1,8,0:0:0:0:
361,201,121099,1,0,0:0:0:0:
375,229,121171,5,8,0:0:0:0:
387,257,121242,1,0,0:0:0:0:
393,287,121313,1,8,0:0:0:0:
389,318,121385,1,0,0:0:0:0:
371,344,121456,1,8,0:0:0:0:
341,354,121528,1,0,0:0:0:0:
309,350,121599,1,8,0:0:0:0:
284,330,121671,1,0,0:0:0:0:
272,301,121742,6,8,L|251:192,1,105.000004005432,10|8,0:0|0:0,0:0:0:0:
180,77,122028,5,8,0:0:0:0:
169,106,122099,1,0,0:0:0:0:
169,137,122171,1,8,0:0:0:0:
176,167,122242,1,0,0:0:0:0:
189,195,122313,1,8,0:0:0:0:
211,216,122385,1,0,0:0:0:0:
237,231,122456,1,8,0:0:0:0:
268,236,122528,1,0,0:0:0:0:
298,229,122599,1,8,0:0:0:0:
327,216,122671,1,0,0:0:0:0:
349,194,122742,1,8,0:0:0:0:
356,163,122813,1,0,0:0:0:0:
345,132,122885,5,8,0:0:0:0:
318,115,122956,1,0,0:0:0:0:
286,116,123028,1,8,0:0:0:0:
262,137,123099,1,0,0:0:0:0:
249,166,123171,1,8,0:0:0:0:
251,197,123242,1,0,0:0:0:0:
270,221,123313,1,8,0:0:0:0:
293,242,123385,1,0,0:0:0:0:
315,264,123456,5,8,0:0:0:0:
326,293,123528,1,0,0:0:0:0:
318,323,123599,1,8,0:0:0:0:
290,339,123671,1,0,0:0:0:0:
258,340,123742,1,8,0:0:0:0:
228,329,123813,1,0,0:0:0:0:
209,303,123885,1,8,0:0:0:0:
186,281,123956,1,0,0:0:0:0:
155,272,124028,6,0,L|30:292,1,105.000004005432,2|0,0:0|0:0,0:0:0:0:
128,149,124313,1,0,0:0:0:0:
357,272,124456,6,0,L|482:292,1,105.000004005432,2|0,0:0|0:0,0:0:0:0:
384,149,124741,1,0,0:0:0:0:
224,249,124885,2,0,L|250:128,1,105.000004005432,2|0,0:0|0:0,0:0:0:0:
56,53,125171,6,0,L|159:69,1,105.000004005432,2|0,0:0|0:0,0:0:0:0:
169,231,125456,1,0,0:0:0:0:
456,53,125599,6,0,L|352:69,1,105.000004005432,2|0,0:0|0:0,0:0:0:0:
343,231,125884,1,0,0:0:0:0:
219,45,126028,2,0,L|281:141,1,105.000004005432,2|0,0:0|0:0,0:0:0:0:
45,158,126313,6,0,L|186:184,1,105.000004005432
388,104,126599,2,0,L|247:130,1,105.000004005432,2|0,0:0|0:0,0:0:0:0:
381,311,126885,2,0,L|485:292,1,105.000004005432,2|0,0:0|0:0,0:0:0:0:
234,177,127171,2,0,L|253:280,1,105.000004005432
64,84,127456,6,0,L|191:119,1,105.000004005432
483,174,127742,2,0,L|356:209,1,105.000004005432
86,224,128028,1,0,0:0:0:0:
86,224,128099,1,0,0:0:0:0:
86,224,128171,2,0,L|213:259,1,105.000004005432
359,226,128456,1,0,0:0:0:0:
155,62,128599,5,0,0:0:0:0:
155,62,128671,1,0,0:0:0:0:
155,62,128742,2,0,P|181:108|171:169,1,105.000004005432
19,260,129028,2,0,L|122:319,1,105.000004005432,2|0,0:0|0:0,0:0:0:0:
210,155,129313,2,0,L|107:214,1,105.000004005432
228,281,129599,1,0,0:0:0:0:
357,62,129742,5,0,0:0:0:0:
357,62,129814,1,0,0:0:0:0:
357,62,129885,2,0,P|331:108|341:169,1,105.000004005432
493,260,130171,2,0,L|390:319,1,105.000004005432,2|0,0:0|0:0,0:0:0:0:
302,155,130456,2,0,L|404:214,1,105.000004005432
284,281,130742,1,0,0:0:0:0:
194,50,130885,5,0,0:0:0:0:
194,50,130956,1,0,0:0:0:0:
194,50,131028,2,0,P|169:110|177:166,1,105.000004005432
256,302,131313,1,0,0:0:0:0:
340,148,131456,2,0,P|340:96|318:50,1,105.000004005432
193,49,131742,2,0,P|170:95|170:147,1,105.000004005432
46,85,132028,5,0,0:0:0:0:
149,105,132171,1,0,0:0:0:0:
251,125,132313,1,0,0:0:0:0:
353,146,132456,1,0,0:0:0:0:
455,166,132599,5,0,0:0:0:0:
384,187,132742,1,0,0:0:0:0:
313,208,132885,1,0,0:0:0:0:
242,230,133028,1,0,0:0:0:0:
171,252,133171,5,0,0:0:0:0:
152,270,133242,1,0,0:0:0:0:
144,294,133313,1,0,0:0:0:0:
149,320,133385,1,0,0:0:0:0:
165,340,133456,1,0,0:0:0:0:
189,350,133528,1,0,0:0:0:0:
215,347,133599,1,0,0:0:0:0:
238,334,133671,1,0,0:0:0:0:
261,318,133742,1,0,0:0:0:0:
283,304,133813,1,0,0:0:0:0:
308,295,133884,1,0,0:0:0:0:
334,290,133956,1,0,0:0:0:0:
360,290,134027,1,0,0:0:0:0:
386,293,134099,1,0,0:0:0:0:
411,301,134170,1,0,0:0:0:0:
434,313,134242,1,0,0:0:0:0:
455,328,134313,5,0,0:0:0:0:
464,303,134384,1,0,0:0:0:0:
468,277,134455,1,0,0:0:0:0:
467,251,134527,1,0,0:0:0:0:
461,226,134598,1,0,0:0:0:0:
450,202,134670,1,0,0:0:0:0:
435,181,134741,1,0,0:0:0:0:
416,163,134813,1,0,0:0:0:0:
393,150,134885,1,0,0:0:0:0:
371,136,134956,1,0,0:0:0:0:
345,135,135027,1,0,0:0:0:0:
322,148,135099,1,0,0:0:0:0:
310,171,135170,1,0,0:0:0:0:
311,197,135242,1,0,0:0:0:0:
326,218,135313,1,0,0:0:0:0:
350,229,135385,1,0,0:0:0:0:
375,226,135456,5,0,0:0:0:0:
392,188,135527,1,0,0:0:0:0:
394,146,135598,1,0,0:0:0:0:
382,106,135670,1,0,0:0:0:0:
355,74,135741,1,4,0:2:0:0:
319,53,135813,1,0,0:0:0:0:
278,47,135884,1,0,0:0:0:0:
236,55,135956,1,0,0:0:0:0:
202,79,136027,1,4,0:2:0:0:
182,116,136099,1,0,0:0:0:0:
178,157,136170,1,0,0:0:0:0:
192,196,136242,1,0,0:0:0:0:
221,226,136313,1,0,0:0:0:0:
247,260,136385,1,0,0:0:0:0:
263,298,136456,1,0,0:0:0:0:
272,339,136528,1,0,0:0:0:0:
231,332,136599,5,8,0:0:0:0:
198,291,136670,1,0,0:0:0:0:
191,240,136741,1,0,0:0:0:0:
210,192,136813,1,0,0:0:0:0:
251,160,136884,1,8,0:0:0:0:
303,154,136956,1,0,0:0:0:0:
351,174,137027,1,0,0:0:0:0:
381,216,137099,1,0,0:0:0:0:
422,249,137171,5,8,0:0:0:0:
472,233,137243,1,0,0:0:0:0:
502,190,137314,1,0,0:0:0:0:
501,137,137386,1,0,0:0:0:0:
483,87,137457,1,10,0:0:0:0:
444,50,137529,1,2,0:0:0:0:
393,37,137600,1,2,0:0:0:0:
341,42,137671,1,10,0:0:0:0:
294,64,137742,6,8,P|277:94|270:128,1,70,14|8,0:0|0:0,0:0:0:0:
231,210,138028,5,8,0:0:0:0:
179,217,138099,1,0,0:0:0:0:
126,216,138170,1,8,0:0:0:0:
81,191,138242,1,0,0:0:0:0:
55,146,138313,1,8,0:0:0:0:
58,94,138385,1,0,0:0:0:0:
89,53,138456,1,8,0:0:0:0:
138,36,138528,1,0,0:0:0:0:
189,48,138599,1,10,0:0:0:0:
230,81,138670,1,0,0:0:0:0:
263,122,138742,1,8,0:0:0:0:
292,165,138813,1,0,0:0:0:0:
324,207,138885,5,10,0:0:0:0:
360,245,138956,1,0,0:0:0:0:
405,271,139028,1,8,0:0:0:0:
457,271,139099,1,0,0:0:0:0:
500,243,139170,1,8,0:0:0:0:
512,196,139242,1,0,0:0:0:0:
512,145,139313,1,8,0:0:0:0:
474,120,139385,1,0,0:0:0:0:
424,136,139456,5,8,0:0:0:0:
382,167,139528,1,0,0:0:0:0:
344,203,139599,1,8,0:0:0:0:
309,242,139670,1,0,0:0:0:0:
260,263,139742,1,10,0:0:0:0:
208,273,139813,1,0,0:0:0:0:
155,266,139885,1,8,0:0:0:0:
114,233,139956,1,0,0:0:0:0:
99,182,140028,5,10,0:0:0:0:
147,162,140099,1,0,0:0:0:0:
195,141,140171,1,8,0:0:0:0:
243,121,140242,1,0,0:0:0:0:
290,100,140313,1,10,0:0:0:0:
253,137,140385,1,0,0:0:0:0:
234,185,140456,1,10,0:0:0:0:
245,236,140528,1,0,0:0:0:0:
290,262,140599,5,8,0:0:0:0:
342,262,140671,1,0,0:0:0:0:
386,235,140742,1,10,0:0:0:0:
403,185,140813,1,0,0:0:0:0:
378,137,140885,1,8,0:0:0:0:
363,187,140956,1,0,0:0:0:0:
348,237,141028,1,10,0:0:0:0:
334,287,141099,1,0,0:0:0:0:
298,326,141171,5,8,0:0:0:0:
247,319,141242,1,0,0:0:0:0:
208,285,141313,1,8,0:0:0:0:
195,235,141385,1,0,0:0:0:0:
211,186,141456,1,10,0:0:0:0:
252,155,141528,1,0,0:0:0:0:
304,151,141599,1,8,0:0:0:0:
349,177,141671,1,0,0:0:0:0:
376,206,141742,5,8,0:0:0:0:
325,199,141813,1,0,0:0:0:0:
286,165,141884,1,8,0:0:0:0:
273,115,141956,1,0,0:0:0:0:
289,66,142027,1,8,0:0:0:0:
330,35,142099,1,0,0:0:0:0:
382,31,142170,1,8,0:0:0:0:
427,57,142242,1,0,0:0:0:0:
475,104,142313,6,8,P|453:169|405:218,1,105.000004005432,10|0,0:0|0:0,0:0:0:0:
176,289,142599,1,0,0:0:0:0:
203,40,142742,1,10,0:0:0:0:
448,124,142885,2,8,P|426:189|378:238,1,105.000004005432,0|0,0:0|0:0,0:0:0:0:
149,309,143171,1,10,0:0:0:0:
176,60,143314,1,0,0:0:0:0:
301,43,143456,6,0,L|168:66,1,105.000004005432,10|0,0:0|0:0,0:0:0:0:
87,343,143742,1,0,0:0:0:0:
288,248,143885,1,10,0:0:0:0:
246,27,144028,2,0,L|113:50,1,105.000004005432
32,327,144313,1,10,0:0:0:0:
233,232,144456,1,0,0:0:0:0:
142,44,144599,6,0,B|125:92|181:122|142:184,1,122.500001168251,10|0,0:0|0:0,0:0:0:0:
0,268,144885,2,0,L|112:351,1,105.000004005432,8|0,0:0|0:0,0:0:0:0:
512,212,145171,2,8,L|400:295,1,105.000004005432,8|0,0:0|0:0,0:0:0:0:
100,194,145456,1,8,0:0:0:0:
412,194,145599,1,8,0:0:0:0:
166,62,145742,6,0,B|74:76|74:76|78:64,1,105.000004005432,4|0,0:2|0:0,0:0:0:0:
346,62,146028,6,0,B|438:76|438:76|433:64,1,105.000004005432,4|0,0:2|0:0,0:0:0:0:
189,192,146313,6,0,B|97:206|97:206|101:194,1,105.000004005432,4|0,0:2|0:0,0:0:0:0:
323,192,146599,6,0,L|381:201,3,52.5000020027161
117,298,146885,6,0,L|98:182,1,105.000004005432,0|2,0:0|0:0,0:0:0:0:
331,28,147171,2,0,L|350:144,1,105.000004005432,0|2,0:0|0:0,0:0:0:0:
194,311,147456,1,0,0:0:0:0:
194,311,147528,1,0,0:0:0:0:
194,311,147599,1,2,0:0:0:0:
238,54,147742,1,0,0:0:0:0:
287,233,147885,1,2,0:0:0:0:
90,126,148028,6,0,L|194:136,1,105.000004005432,0|2,0:0|0:0,0:0:0:0:
434,96,148313,2,0,L|330:106,1,105.000004005432,0|2,0:0|0:0,0:0:0:0:
161,69,148599,1,0,0:0:0:0:
161,69,148671,1,0,0:0:0:0:
161,69,148742,1,2,0:0:0:0:
287,233,148885,1,0,0:0:0:0:
100,194,149028,1,2,0:0:0:0:
330,59,149171,5,0,0:0:0:0:
330,59,149242,1,0,0:0:0:0:
330,59,149313,2,0,P|270:89|236:129,1,105.000004005432,2|0,0:0|0:0,0:0:0:0:
217,267,149599,1,2,0:0:0:0:
462,158,149742,2,0,L|335:174,1,105.000004005432,0|2,0:0|0:0,0:0:0:0:
42,215,150028,2,0,L|169:231,1,105.000004005432,0|2,0:0|0:0,0:0:0:0:
406,334,150313,6,0,P|404:195|355:65,1,280,2|0,0:0|0:0,0:0:0:0:
94,78,150742,1,0,0:0:0:0:
314,111,150885,2,0,P|346:205|350:317,1,210.000008010865,2|0,0:0|0:0,0:0:0:0:
145,336,151313,1,0,0:0:0:0:
256,198,151456,6,0,P|227:225|147:220,1,105.000004005432,2|0,0:0|0:0,0:0:0:0:
81,126,151742,5,0,0:0:0:0:
107,101,151813,1,0,0:0:0:0:
142,91,151885,1,0,0:0:0:0:
178,92,151956,1,0,0:0:0:0:
213,100,152028,1,0,0:0:0:0:
246,114,152099,1,0,0:0:0:0:
278,132,152171,1,0,0:0:0:0:
310,147,152242,1,0,0:0:0:0:
345,153,152313,1,0,0:0:0:0:
381,145,152385,1,0,0:0:0:0:
412,125,152456,1,0,0:0:0:0:
427,91,152528,1,0,0:0:0:0:
429,54,152599,5,0,0:0:0:0:
393,64,152671,1,0,0:0:0:0:
364,87,152742,1,0,0:0:0:0:
348,120,152813,1,0,0:0:0:0:
339,156,152885,1,0,0:0:0:0:
330,191,152956,1,0,0:0:0:0:
307,220,153028,1,0,0:0:0:0:
275,238,153099,1,0,0:0:0:0:
238,234,153171,5,12,0:0:0:0:
462,51,153456,6,0,L|312:70,1,105.000004005432
466,120,153742,2,0,L|217:150,1,210.000008010865
268,36,154171,1,0,0:0:0:0:
332,150,154313,2,0,P|351:207|308:304,2,157.500006008148
193,227,154885,2,0,P|174:170|217:73,1,157.500006008148
239,62,155171,5,0,0:0:0:0:
276,62,155242,1,0,0:0:0:0:
311,69,155313,1,0,0:0:0:0:
342,88,155385,1,0,0:0:0:0:
354,122,155456,1,0,0:0:0:0:
377,150,155528,1,0,0:0:0:0:
411,161,155599,1,0,0:0:0:0:
448,159,155671,1,0,0:0:0:0:
476,136,155742,1,0,0:0:0:0:
456,105,155813,1,0,0:0:0:0:
424,85,155885,1,0,0:0:0:0:
387,88,155956,1,0,0:0:0:0:
352,100,156028,5,0,0:0:0:0:
318,113,156099,1,0,0:0:0:0:
282,123,156171,1,0,0:0:0:0:
245,124,156242,1,0,0:0:0:0:
209,117,156313,1,0,0:0:0:0:
174,103,156385,1,0,0:0:0:0:
143,82,156456,1,0,0:0:0:0:
122,51,156528,1,0,0:0:0:0:
104,18,156599,5,0,0:0:0:0:
140,26,156671,1,0,0:0:0:0:
168,48,156742,1,0,0:0:0:0:
190,77,156813,1,0,0:0:0:0:
208,108,156885,1,0,0:0:0:0:
215,143,156956,1,0,0:0:0:0:
214,180,157028,1,0,0:0:0:0:
204,215,157099,1,0,0:0:0:0:
193,250,157171,5,0,0:0:0:0:
193,286,157242,1,0,0:0:0:0:
210,318,157313,1,0,0:0:0:0:
243,333,157385,1,0,0:0:0:0:
279,331,157456,1,0,0:0:0:0:
310,311,157528,1,0,0:0:0:0:
330,280,157599,1,0,0:0:0:0:
336,243,157671,1,0,0:0:0:0:
334,206,157742,6,0,B|323:168|284:137|284:137|315:102|318:47|318:47|283:44|217:66|212:133|214:154,1,315.000012016297
257,224,158313,6,0,L|282:277,1,52.5000020027161
237,142,158456,2,0,L|290:117,1,52.5000020027161
155,162,158599,2,0,L|130:109,1,52.5000020027161
175,244,158742,2,0,L|122:269,1,52.5000020027161
254,294,158885,5,0,0:0:0:0:
290,288,158956,1,0,0:0:0:0:
319,265,159028,1,0,0:0:0:0:
335,232,159099,1,0,0:0:0:0:
331,195,159171,1,0,0:0:0:0:
312,163,159242,1,0,0:0:0:0:
284,139,159313,1,0,0:0:0:0:
247,132,159385,1,0,0:0:0:0:
211,125,159456,5,0,0:0:0:0:
187,104,159528,1,0,0:0:0:0:
185,72,159599,1,0,0:0:0:0:
203,46,159671,1,0,0:0:0:0:
234,44,159742,1,0,0:0:0:0:
263,55,159813,1,0,0:0:0:0:
289,72,159885,1,0,0:0:0:0:
312,92,159956,1,0,0:0:0:0:
321,111,160028,5,0,0:0:0:0:
319,131,160099,1,0,0:0:0:0:
317,152,160171,1,0,0:0:0:0:
316,172,160242,1,0,0:0:0:0:
315,192,160313,1,0,0:0:0:0:
314,213,160385,1,0,0:0:0:0:
313,233,160456,1,0,0:0:0:0:
312,254,160528,1,0,0:0:0:0:
311,274,160599,5,0,0:0:0:0:
325,295,160671,1,0,0:0:0:0:
348,307,160742,1,0,0:0:0:0:
373,310,160813,1,0,0:0:0:0:
398,302,160885,1,0,0:0:0:0:
413,281,160956,1,0,0:0:0:0:
412,254,161028,1,0,0:0:0:0:
388,242,161099,1,0,0:0:0:0:
361,242,161171,5,0,0:0:0:0:
335,247,161242,1,0,0:0:0:0:
309,252,161313,1,0,0:0:0:0:
282,255,161385,1,0,0:0:0:0:
255,254,161456,1,0,0:0:0:0:
229,247,161528,1,0,0:0:0:0:
206,233,161599,2,0,P|188:210|176:182,1,35
180,88,161742,6,0,L|189:25,2,52.5000020027161,8|0|0,0:0|0:0|0:0,0:0:0:0:
184,114,161956,1,0,0:0:0:0:
199,135,162028,1,0,0:0:0:0:
221,147,162099,1,0,0:0:0:0:
247,150,162171,2,0,L|292:142,1,35
394,99,162313,6,0,L|441:54,2,52.5000020027161,8|0|0,0:0|0:0|0:0,0:0:0:0:
361,201,162528,2,0,L|376:264,2,52.5000020027161,8|0|0,0:0|0:0|0:0,0:0:0:0:
289,121,162742,2,0,L|226:102,1,52.5000020027161,8|0,0:0|0:0,0:0:0:0:
446,119,162885,5,0,0:0:0:0:
410,211,163027,1,0,0:0:0:0:
354,73,163171,1,0,0:0:0:0:
318,165,163313,2,0,P|299:239|334:321,1,140,2|0,0:0|0:0,0:0:0:0:
485,295,163742,2,0,P|419:272|402:254,1,70
429,113,164027,2,0,P|442:181|434:205,1,70
300,253,164313,2,0,P|352:207|377:201,1,70
485,295,164599,6,0,P|419:272|375:210,1,140,2|0,0:0|0:0,0:0:0:0:
349,51,165027,2,0,P|415:74|459:136,1,140,2|0,0:0|0:0,0:0:0:0:
262,166,165456,2,0,P|255:112|279:76,1,70,2|0,0:0|0:0,0:0:0:0:
317,255,165742,2,0,P|273:288|230:285,1,70,2|0,0:0|0:0,0:0:0:0:
367,163,166027,2,0,P|417:183|436:222,1,70,2|0,0:0|0:0,0:0:0:0:
262,166,166313,6,0,P|255:112|326:53,1,140,2|0,0:0|0:0,0:0:0:0:
455,141,166742,2,0,L|407:210,1,70
295,248,167027,1,0,0:0:0:0:
125,90,167170,2,0,L|212:215,1,140,8|0,0:3|0:0,0:0:0:0:
399,211,167599,1,0,0:0:0:0:
238,261,167742,1,0,0:0:0:0:
380,274,167885,1,0,0:0:0:0:
349,331,168027,6,0,P|309:334|280:318,1,70
238,220,168313,5,0,0:0:0:0:
218,228,168385,1,0,0:0:0:0:
205,244,168456,1,0,0:0:0:0:
198,263,168527,1,0,0:0:0:0:
193,283,168599,5,0,0:0:0:0:
180,299,168670,1,0,0:0:0:0:
163,312,168742,1,0,0:0:0:0:
143,320,168813,1,0,0:0:0:0:
121,322,168885,5,0,0:0:0:0:
101,314,168956,1,0,0:0:0:0:
88,297,169027,1,0,0:0:0:0:
83,276,169099,1,0,0:0:0:0:
84,255,169170,5,0,0:0:0:0:
90,234,169242,1,0,0:0:0:0:
99,215,169313,1,0,0:0:0:0:
109,196,169385,1,0,0:0:0:0:
117,177,169456,6,2,P|127:143|117:110,1,70,2|0,0:0|0:0,0:0:0:0:
46,38,169742,6,0,L|140:48,1,70
221,109,170027,1,0,0:0:0:0:
91,145,170170,2,0,P|63:94|130:47,1,140
221,109,170599,2,0,P|233:159|220:204,1,70
111,244,170885,2,0,P|135:217|165:201,1,70
284,271,171170,2,0,L|214:244,1,70
152,373,171456,5,0,0:0:0:0:
199,276,171599,1,0,0:0:0:0:
87,337,171742,1,0,0:0:0:0:
261,316,171885,2,0,P|275:278|202:210,1,140
60,214,172313,2,0,P|100:233|140:220,1,70
256,59,172599,2,0,P|216:40|175:173,1,210
440,87,173170,6,0,L|392:173,1,87.5,2|0,0:0|0:0,0:0:0:0:
203,111,173456,2,0,L|251:197,1,87.5
462,180,173742,2,0,L|414:266,1,87.5
72,87,174027,6,0,L|120:173,1,87.5,2|0,0:0|0:0,0:0:0:0:
309,111,174313,2,0,L|261:197,1,87.5
50,180,174599,2,0,L|98:266,1,87.5
336,109,174885,5,0,0:0:0:0:
173,112,175027,1,0,0:0:0:0:
176,275,175170,1,0,0:0:0:0:
339,272,175313,2,0,P|364:188|334:106,1,175
213,48,175742,5,8,0:0:0:0:
205,68,175813,1,0,0:0:0:0:
202,89,175885,1,0,0:0:0:0:
205,110,175956,1,0,0:0:0:0:
212,130,176027,1,0,0:0:0:0:
217,151,176099,1,0,0:0:0:0:
218,172,176170,1,0,0:0:0:0:
212,193,176242,1,0,0:0:0:0:
202,212,176313,2,0,P|162:254|121:260,1,87.5,8|0,0:0|0:0,0:0:0:0:
82,81,176599,6,8,L|66:193,1,87.5
215,154,176885,1,8,0:0:0:0:
245,150,176956,1,0,0:0:0:0:
274,141,177027,1,8,0:0:0:0:
301,127,177099,1,0,0:0:0:0:
324,107,177170,1,8,0:0:0:0:
342,82,177242,1,0,0:0:0:0:
348,52,177313,1,8,0:0:0:0:
343,21,177385,1,0,0:0:0:0:
320,41,177456,5,8,0:0:0:0:
309,69,177527,1,0,0:0:0:0:
306,99,177599,1,8,0:0:0:0:
312,128,177670,1,0,0:0:0:0:
321,157,177742,1,8,0:0:0:0:
320,187,177813,1,0,0:0:0:0:
312,217,177885,1,8,0:0:0:0:
297,243,177956,1,0,0:0:0:0:
273,262,178027,1,8,0:0:0:0:
243,272,178099,1,0,0:0:0:0:
212,272,178170,1,8,0:0:0:0:
182,263,178242,1,0,0:0:0:0:
162,239,178313,5,8,0:0:0:0:
192,239,178385,1,0,0:0:0:0:
221,245,178456,1,8,0:0:0:0:
249,254,178527,1,0,0:0:0:0:
276,268,178599,1,8,0:0:0:0:
302,283,178670,1,0,0:0:0:0:
331,293,178742,1,8,0:0:0:0:
361,295,178813,1,0,0:0:0:0:
391,287,178885,1,8,0:0:0:0:
415,268,178956,1,0,0:0:0:0:
425,239,179027,1,8,0:0:0:0:
425,208,179099,1,0,0:0:0:0:
415,179,179170,5,8,0:0:0:0:
395,155,179242,1,0,0:0:0:0:
365,146,179313,1,8,0:0:0:0:
334,149,179385,1,0,0:0:0:0:
305,159,179456,1,8,0:0:0:0:
279,175,179527,1,0,0:0:0:0:
250,186,179599,1,8,0:0:0:0:
220,191,179670,1,0,0:0:0:0:
189,189,179742,1,8,0:0:0:0:
160,179,179813,1,0,0:0:0:0:
138,157,179885,1,8,0:0:0:0:
128,128,179956,1,0,0:0:0:0:
133,98,180027,5,8,0:0:0:0:
156,77,180099,1,0,0:0:0:0:
186,75,180170,1,8,0:0:0:0:
215,84,180242,1,0,0:0:0:0:
235,106,180313,1,8,0:0:0:0:
251,132,180385,1,0,0:0:0:0:
259,161,180456,1,8,0:0:0:0:
272,188,180527,1,0,0:0:0:0:
294,209,180599,1,8,0:0:0:0:
321,221,180670,1,0,0:0:0:0:
351,226,180742,1,8,0:0:0:0:
381,221,180813,1,0,0:0:0:0:
407,205,180885,5,8,0:0:0:0:
419,177,180956,1,0,0:0:0:0:
419,146,181027,1,8,0:0:0:0:
404,118,181099,1,0,0:0:0:0:
380,98,181170,1,8,0:0:0:0:
349,94,181242,1,0,0:0:0:0:
318,97,181313,1,8,0:0:0:0:
288,104,181385,1,0,0:0:0:0:
257,108,181456,1,8,0:0:0:0:
226,107,181527,1,0,0:0:0:0:
195,101,181599,1,8,0:0:0:0:
166,91,181670,1,0,0:0:0:0:
139,74,181742,5,8,0:0:0:0:
112,58,181813,1,0,0:0:0:0:
81,53,181885,1,8,0:0:0:0:
52,64,181956,1,0,0:0:0:0:
35,89,182027,1,8,0:0:0:0:
38,119,182099,1,0,0:0:0:0:
58,141,182170,1,8,0:0:0:0:
88,147,182242,1,0,0:0:0:0:
116,157,182313,1,8,0:0:0:0:
138,178,182385,1,0,0:0:0:0:
153,203,182456,1,8,0:0:0:0:
158,232,182527,1,0,0:0:0:0:
150,261,182599,6,0,B|113:335|28:300|4:255|23:194|63:179|90:175|90:175|150:171|184:223|224:224|252:188|216:160|192:164,1,437.5,4|0,0:1|0:0,0:0:0:0:
134,278,183456,6,0,P|179:304|230:310,1,105.000004005432,0|2,0:0|0:0,0:0:0:0:
296,133,183742,2,0,P|250:158|219:200,1,105.000004005432,0|2,0:0|0:0,0:0:0:0:
341,345,184028,2,0,P|341:292|320:244,1,105.000004005432,0|2,0:0|0:0,0:0:0:0:
171,155,184313,2,0,P|150:107|150:54,1,105.000004005432,0|2,0:0|0:0,0:0:0:0:
299,151,184599,2,0,P|267:192|222:218,1,105.000004005432,0|2,0:0|0:0,0:0:0:0:
232,43,184885,2,0,P|283:49|328:75,1,105.000004005432,0|2,0:0|0:0,0:0:0:0:
449,146,185170,5,2,0:0:0:0:
219,150,185313,1,2,0:0:0:0:
430,214,185456,1,2,0:0:0:0:
221,218,185598,1,2,0:0:0:0:
413,280,185742,1,2,0:0:0:0:
223,286,185885,1,2,0:0:0:0:
381,342,186027,6,2,P|452:337|433:211,1,210.000008010865,0|0,0:0|0:0,0:0:0:0:
362,228,186456,1,0,0:0:0:0:
298,173,186599,2,0,L|275:295,1,105.000004005432
113,278,186885,6,4,L|244:240,1,105.000004005432
147,45,187170,1,0,0:0:0:0:
72,214,187313,1,0,0:0:0:0:
256,195,187456,1,0,0:0:0:0:
399,278,187742,6,4,L|268:240,1,105.000004005432
365,45,188027,1,0,0:0:0:0:
440,214,188170,1,0,0:0:0:0:
256,195,188313,1,0,0:0:0:0:
86,73,188599,5,4,0:0:0:0:
443,145,188885,1,4,0:0:0:0:
86,217,189170,1,4,0:0:0:0:
443,290,189456,1,4,0:0:0:0:
256,72,189742,5,0,0:0:0:0:
256,80,189813,1,0,0:0:0:0:
256,88,189885,1,0,0:0:0:0:
256,96,189956,1,0,0:0:0:0:
256,104,190027,1,2,0:0:0:0:
45,90,190313,6,0,L|199:105,1,140
402,192,190741,2,0,L|332:186,1,70
65,257,191027,2,0,L|134:264,1,70
276,308,191313,1,0,0:0:0:0:
157,194,191455,5,0,0:0:0:0:
153,169,191527,1,0,0:0:0:0:
157,145,191598,1,0,0:0:0:0:
169,123,191670,1,0,0:0:0:0:
188,108,191741,5,0,0:0:0:0:
208,104,191813,1,0,0:0:0:0:
228,105,191884,1,0,0:0:0:0:
247,112,191955,1,0,0:0:0:0:
264,123,192027,5,0,0:0:0:0:
274,136,192098,1,0,0:0:0:0:
283,151,192170,1,0,0:0:0:0:
289,167,192241,1,0,0:0:0:0:
297,182,192313,5,0,0:0:0:0:
308,189,192384,1,0,0:0:0:0:
321,193,192455,1,0,0:0:0:0:
335,193,192527,1,0,0:0:0:0:
347,190,192598,5,0,0:0:0:0:
405,85,192741,1,0,0:0:0:0:
291,35,192884,1,0,0:0:0:0:
154,47,193027,1,0,0:0:0:0:
79,149,193170,2,0,P|62:179|60:217,1,70
113,317,193456,1,0,0:0:0:0:
249,334,193599,1,0,0:0:0:0:
400,239,193741,6,0,L|328:295,1,70
191,182,194027,1,0,0:0:0:0:
282,117,194170,1,0,0:0:0:0:
380,166,194313,2,0,P|397:246|366:315,1,140
177,346,194741,1,0,0:0:0:0:
169,113,194884,6,0,P|163:174|169:202,1,70
232,303,195170,1,0,0:0:0:0:
331,129,195313,2,0,P|325:190|314:216,1,70
232,303,195598,1,0,0:0:0:0:
232,303,195741,2,0,L|193:227,1,70
199,101,196027,6,0,L|245:187,1,70
390,130,196313,2,0,L|304:176,1,70
361,321,196598,2,0,L|315:235,1,70
170,292,196884,2,0,L|256:246,1,70
435,125,197170,6,0,L|326:174,1,105.000004005432,4|0,0:2|0:0,0:0:0:0:
276,312,197455,2,0,L|371:268,1,105.000004005432,4|0,0:2|0:0,0:0:0:0:
204,205,197741,1,0,0:0:0:0:
441,49,197884,2,0,L|332:98,1,105.000004005432,4|0,0:2|0:0,0:0:0:0:
156,41,198170,2,0,L|197:149,1,105.000004005432,4|0,0:2|0:0,0:0:0:0:
198,159,198384,1,0,0:0:0:0:
197,179,198455,1,0,0:0:0:0:
191,199,198527,1,0,0:0:0:0:
179,216,198598,2,0,L|72:269,1,105.000004005432
178,43,198884,6,0,L|198:181,1,140,6|0,0:0|0:0,0:0:0:0:
366,261,199170,2,0,L|350:157,1,105.000004005432,2|0,0:0|0:0,0:0:0:0:
46,172,199455,6,0,P|94:207|156:218,1,105.000004005432
256,104,199741,1,0,0:0:0:0:
466,172,199884,2,0,P|418:207|356:218,1,105.000004005432
256,104,200170,1,0,0:0:0:0:
420,80,200313,2,0,P|455:128|466:190,1,105.000004005432
207,241,200598,6,0,L|88:190,1,105.000004005432
255,188,200884,2,0,L|374:137,1,105.000004005432
207,135,201170,2,0,L|88:84,1,105.000004005432
255,82,201455,2,0,L|374:31,1,105.000004005432
78,102,201741,6,0,P|67:165|86:226,1,105.000004005432
161,151,202027,1,0,0:0:0:0:
246,204,202170,1,0,0:0:0:0:
331,150,202313,2,0,P|342:87|323:26,1,105.000004005432
161,151,202598,2,0,P|150:214|169:275,1,105.000004005432
399,207,202884,6,0,L|276:229,1,105.000004005432
56,273,203170,2,0,L|179:295,1,105.000004005432
367,321,203455,2,2,B|376:284|343:241|343:241|372:224|372:224|344:202|344:202|366:182|374:141,1,210.000008010865,2|0,0:0|0:0,0:0:0:0:
341,34,203884,1,0,0:0:0:0:
108,66,204027,5,0,0:0:0:0:
88,201,204170,1,0,0:0:0:0:
215,151,204313,1,0,0:0:0:0:
108,66,204455,2,0,P|89:124|91:184,1,105.000004005432
220,266,204741,2,0,P|239:208|237:148,1,105.000004005432
65,129,205027,1,0,0:0:0:0:
67,285,205170,6,0,P|114:307|165:316,1,105.000004005432
397,187,205455,2,0,P|349:164|298:155,1,105.000004005432
90,278,205741,2,0,P|137:300|188:309,1,105.000004005432
374,194,206027,2,0,P|326:171|275:162,1,105.000004005432
56,195,206313,5,4,1:3:0:0:
76,211,206384,1,4,1:3:0:0:
99,221,206455,1,4,1:3:0:0:
124,226,206527,1,4,1:3:0:0:
150,224,206598,1,4,1:3:0:0:
175,216,206670,1,4,1:3:0:0:
198,203,206741,1,4,1:3:0:0:
223,194,206813,1,4,1:3:0:0:
243,193,206884,5,4,1:3:0:0:
263,198,206955,1,4,1:3:0:0:
280,209,207027,1,4,1:3:0:0:
292,225,207098,1,4,1:3:0:0:
294,245,207170,1,4,1:3:0:0:
286,264,207241,1,4,1:3:0:0:
269,276,207313,1,4,1:3:0:0:
248,277,207384,1,4,1:3:0:0:
234,269,207455,5,4,1:3:0:0:
224,256,207527,1,4,1:3:0:0:
221,240,207598,1,4,1:3:0:0:
223,224,207670,1,4,1:3:0:0:
227,209,207741,1,12,1:3:0:0:
229,193,207813,1,4,1:3:0:0:
228,177,207884,1,4,1:3:0:0:
223,161,207955,1,4,1:3:0:0:
212,149,208027,5,12,1:3:0:0:
95,74,208170,1,12,1:3:0:0:
245,131,208313,1,12,1:3:0:0:
62,92,208455,1,12,1:3:0:0:
299,169,208598,6,0,P|337:264|309:363,1,210.000008010865,4|2,0:1|0:0,0:0:0:0:
218,338,209027,1,0,0:0:0:0:
144,225,209170,2,0,P|188:197|239:186,1,105.000004005432,0|0,1:1|0:0,0:0:0:0:
148,323,209455,2,0,P|103:350|52:361,1,105.000004005432,0|0,1:1|0:0,0:0:0:0:
205,56,209741,6,0,L|233:186,1,105.000004005432,0|0,1:0|0:0,0:0:0:0:
28,136,210027,2,0,L|0:266,1,105.000004005432,0|0,1:0|0:0,0:0:0:0:
165,187,210313,2,0,L|193:317,1,105.000004005432,0|0,1:0|0:0,0:0:0:0:
68,267,210599,2,0,L|40:397,1,105.000004005432,0|0,1:0|0:0,0:0:0:0:
183,236,210884,5,0,0:0:0:0:
263,91,211027,1,0,0:0:0:0:
402,213,211170,2,0,L|305:20,1,210.000008010865,0|0,1:0|0:0,0:0:0:0:
227,170,211598,1,0,0:0:0:0:
88,48,211741,2,0,L|185:241,1,210.000008010865,0|0,1:0|0:0,0:0:0:0:
304,136,212170,5,0,0:0:0:0:
154,179,212313,2,0,B|136:231|136:231|133:280,1,105.000004005432,0|0,1:0|0:0,0:0:0:0:
250,220,212598,2,0,B|246:274|246:274|256:323,1,105.000004005432,0|0,1:0|0:0,0:0:0:0:
354,235,212884,2,0,B|364:289|364:289|386:333,1,105.000004005432,0|0,1:0|0:0,0:0:0:0:
454,132,213170,6,0,P|394:91|326:90,1,105.000004005432
190,86,213455,2,0,L|298:86,1,105.000004005432,0|0,1:0|0:0,0:0:0:0:
455,232,213741,2,0,P|395:273|327:274,1,105.000004005432
191,278,214027,2,0,L|299:278,1,105.000004005432,0|0,1:0|0:0,0:0:0:0:
259,80,214313,5,0,0:0:0:0:
177,204,214455,1,0,0:0:0:0:
333,143,214598,1,0,1:0:0:0:
161,106,214741,1,0,0:0:0:0:
275,247,214884,1,0,0:0:0:0:
263,39,215027,1,0,0:0:0:0:
148,246,215170,1,0,1:0:0:0:
375,129,215313,1,0,0:0:0:0:
140,73,215455,6,0,L|147:187,1,105.000004005432
377,161,215741,2,0,L|274:110,1,105.000004005432,0|0,1:0|0:0,0:0:0:0:
182,322,216027,2,0,L|277:258,1,105.000004005432
140,73,216313,2,0,L|147:187,1,105.000004005432,0|0,1:0|0:0,0:0:0:0:
298,138,216598,5,0,1:0:0:0:
202,40,216741,1,0,1:0:0:0:
104,136,216884,1,0,1:0:0:0:
200,234,217027,1,0,1:0:0:0:
311,122,217170,5,0,0:0:0:0:
287,111,217241,1,0,0:0:0:0:
261,119,217313,1,0,0:0:0:0:
246,140,217384,1,0,0:0:0:0:
242,165,217455,1,0,0:0:0:0:
247,190,217527,1,0,0:0:0:0:
259,213,217598,1,0,0:0:0:0:
278,230,217670,1,0,0:0:0:0:
302,238,217741,6,8,L|424:241,1,105.000004005432
465,183,218027,5,8,0:0:0:0:
429,173,218098,1,0,0:0:0:0:
391,171,218170,1,8,0:0:0:0:
355,177,218241,1,0,0:0:0:0:
320,189,218313,1,8,0:0:0:0:
287,204,218384,1,0,0:0:0:0:
251,213,218455,1,8,0:0:0:0:
213,212,218527,1,0,0:0:0:0:
177,202,218598,1,8,0:0:0:0:
147,179,218670,1,0,0:0:0:0:
128,147,218741,1,8,0:0:0:0:
120,110,218813,1,0,0:0:0:0:
128,74,218884,5,8,0:0:0:0:
152,47,218955,1,0,0:0:0:0:
188,42,219027,1,8,0:0:0:0:
223,51,219098,1,0,0:0:0:0:
249,76,219170,1,8,0:0:0:0:
259,111,219241,1,0,0:0:0:0:
259,148,219313,1,8,0:0:0:0:
247,182,219384,1,0,0:0:0:0:
226,211,219455,5,8,0:0:0:0:
196,233,219527,1,0,0:0:0:0:
175,263,219598,1,8,0:0:0:0:
171,299,219670,1,0,0:0:0:0:
192,328,219741,1,8,0:0:0:0:
228,334,219813,1,0,0:0:0:0:
262,321,219884,1,8,0:0:0:0:
282,291,219955,1,0,0:0:0:0:
283,253,220027,5,8,0:0:0:0:
264,221,220098,1,0,0:0:0:0:
247,187,220170,1,8,0:0:0:0:
238,151,220241,1,0,0:0:0:0:
239,113,220313,1,8,0:0:0:0:
253,79,220384,1,0,0:0:0:0:
281,55,220455,1,8,0:0:0:0:
316,44,220527,1,0,0:0:0:0:
352,44,220598,6,8,P|429:99|276:185,1,315.000012016297,4|8,1:0|0:0,0:0:0:0:
345,130,221170,2,8,P|422:185|269:271,1,315.000012016297,4|8,1:0|0:0,0:0:0:0:
260,174,221741,5,4,0:1:0:0:
340,284,221884,1,4,0:1:0:0:
211,242,222027,1,4,0:1:0:0:
340,200,222170,1,4,0:1:0:0:
260,310,222313,5,2,0:2:0:0:
224,320,222384,1,0,0:0:0:0:
187,324,222455,1,0,0:0:0:0:
150,322,222527,1,0,0:0:0:0:
115,310,222598,1,0,0:2:0:0:
90,282,222670,1,0,0:0:0:0:
79,247,222741,1,2,0:2:0:0:
83,210,222813,1,0,0:0:0:0:
102,179,222884,5,0,0:0:0:0:
127,160,222955,1,0,0:0:0:0:
158,155,223027,1,0,0:0:0:0:
188,159,223098,1,0,0:0:0:0:
219,165,223170,1,2,0:2:0:0:
248,174,223241,1,0,0:0:0:0:
278,181,223313,1,0,0:0:0:0:
308,185,223384,1,0,0:0:0:0:
339,182,223455,5,2,0:2:0:0:
363,172,223527,1,0,0:0:0:0:
379,151,223598,1,0,0:0:0:0:
385,125,223670,1,0,0:0:0:0:
381,99,223741,1,2,0:2:0:0:
369,75,223813,1,0,0:0:0:0:
347,60,223884,1,0,0:0:0:0:
320,58,223955,1,0,0:0:0:0:
294,64,224027,5,2,0:2:0:0:
275,82,224098,1,0,0:0:0:0:
256,100,224170,1,0,0:0:0:0:
237,118,224241,1,0,0:0:0:0:
218,137,224313,1,2,0:2:0:0:
199,155,224384,1,0,0:0:0:0:
181,173,224455,1,0,0:0:0:0:
162,192,224527,1,0,0:0:0:0:
143,211,224598,5,4,0:1:0:0:
256,192,224669,12,0,228883,0:0:0:0:
397,128,241169,6,0,P|467:59|369:47,1,245
321,94,241740,5,4,0:0:0:0:
240,156,242026,1,0,0:0:0:0:
227,158,242312,1,0,0:0:0:0:
214,161,242598,1,0,0:0:0:0:
201,163,242883,1,0,0:0:0:0:
189,166,243169,1,0,0:0:0:0:
176,169,243455,1,0,0:0:0:0:
163,171,243740,1,0,0:0:0:0:
150,174,244026,1,0,0:0:0:0:
138,176,244312,1,0,0:0:0:0:
125,179,244598,1,0,0:0:0:0:
95,86,244883,1,4,0:2:0:0:
23,152,245169,5,4,0:1:0:0:
48,244,245455,1,0,0:0:0:0:
62,248,245740,1,0,0:0:0:0:
76,252,246026,1,0,0:0:0:0:
90,256,246312,1,0,0:0:0:0:
104,260,246598,1,0,0:0:0:0:
118,264,246883,1,0,0:0:0:0:
132,268,247169,1,0,0:0:0:0:
146,272,247455,1,0,0:0:0:0:
160,276,247740,1,0,0:0:0:0:
174,281,248026,1,0,0:0:0:0:
211,365,248312,1,4,0:2:0:0:
294,344,248598,5,4,0:1:0:0:
80,278,248883,1,0,0:0:0:0:
80,278,249026,1,0,0:0:0:0:
80,278,249169,1,0,0:0:0:0:
244,125,249455,1,0,0:0:0:0:
432,284,249740,1,0,0:0:0:0:
332,308,249883,1,0,0:0:0:0:
242,236,250026,1,0,0:0:0:0:
142,260,250169,1,0,0:0:0:0:
142,260,250240,1,0,0:0:0:0:
142,260,250312,1,0,0:0:0:0:
122,147,250455,1,0,0:0:0:0:
228,277,250598,1,0,0:0:0:0:
208,164,250740,1,0,0:0:0:0:
273,69,250883,5,0,0:0:0:0:
448,127,251169,1,0,0:0:0:0:
448,127,251240,1,0,0:0:0:0:
448,127,251312,1,0,0:0:0:0:
399,223,251455,1,0,0:0:0:0:
322,302,251598,1,0,0:0:0:0:
423,349,251740,1,0,0:0:0:0:
500,270,251883,1,0,0:0:0:0:
344,195,252026,5,0,0:0:0:0:
196,65,252168,1,0,0:0:0:0:
157,258,252311,1,0,0:0:0:0:
177,236,252598,1,0,0:0:0:0:
205,92,252740,1,0,0:0:0:0:
316,188,252883,1,0,0:0:0:0:
177,236,253026,1,0,0:0:0:0:
205,92,253169,5,0,0:0:0:0:
236,95,253455,2,0,L|326:103,1,70
309,243,253740,5,2,0:2:0:0:
250,237,254026,2,0,L|160:229,1,70
177,89,254311,5,2,0:2:0:0:
82,290,254598,5,0,0:0:0:0:
250,69,254883,1,0,0:0:0:0:
424,287,255169,1,0,0:0:0:0:
170,165,255455,6,0,P|312:142|454:208,1,280
309,328,256312,1,8,0:0:0:0:
175,232,256598,2,0,L|74:354,1,140
64,109,257169,6,0,L|9:49,1,70
64,109,257455,2,0,L|162:213,1,140
160,308,257883,1,0,0:0:0:0:
160,211,258026,2,0,L|256:109,1,140
317,79,258455,1,0,0:0:0:0:
407,67,258598,1,4,1:3:0:0:
501,118,258740,1,4,1:3:0:0:
479,187,258883,5,0,0:0:0:0:
479,187,259026,1,0,0:0:0:0:
479,187,259169,2,0,P|438:208|387:198,1,70
320,183,259455,2,0,P|285:185|255:204,1,70
261,335,259740,6,0,P|258:300|239:270,1,70,8|0,0:0|0:0,0:0:0:0:
106,235,260026,2,0,P|108:269|195:325,1,140
203,135,260598,6,0,L|189:206,1,70
203,135,260883,2,0,L|231:279,1,140
259,61,261455,6,0,L|284:156,1,70
386,213,261740,2,0,L|403:145,1,70
300,199,262026,2,0,L|325:294,1,70
345,351,262312,6,0,L|362:283,1,70
321,180,262598,2,0,P|300:151|269:136,1,70
317,266,262883,2,0,P|351:262|380:243,1,70
244,219,263169,6,0,P|229:250|279:344,2,140
411,217,264026,6,0,P|418:165|406:131,1,70
411,217,264312,2,0,P|393:167|312:129,1,140
111,125,264883,6,0,L|129:197,1,70
248,215,265169,2,0,L|231:147,1,70
39,114,265455,1,0,0:0:0:0:
73,244,265598,1,0,0:0:0:0:
152,292,265740,5,0,0:0:0:0:
152,292,265883,1,0,0:0:0:0:
152,292,266026,2,0,P|210:286|298:323,1,140
469,207,266598,5,0,0:0:0:0:
469,207,266741,1,0,0:0:0:0:
469,207,266884,2,0,P|411:201|323:238,1,140
157,111,267455,5,0,0:0:0:0:
157,111,267598,1,0,0:0:0:0:
157,111,267740,2,0,P|145:147|147:202,1,70
213,302,268026,2,0,P|225:266|223:211,1,70
345,102,268312,5,0,0:0:0:0:
274,150,268455,1,0,0:0:0:0:
373,107,268598,1,0,0:0:0:0:
246,145,268741,1,0,0:0:0:0:
401,112,268883,1,0,0:0:0:0:
218,140,269026,1,0,0:0:0:0:
385,193,269169,6,0,P|338:214|285:215,1,105.000004005432
208,113,269369,1,0,0:0:0:0:
239,222,269469,6,0,P|286:243|339:244,1,105.000004005432
416,142,269669,1,0,0:0:0:0:
385,251,269769,6,0,P|338:272|285:273,1,105.000004005432
208,171,269969,1,0,0:0:0:0:
208,273,270069,6,0,P|255:294|308:295,1,105.000004005432
385,193,270269,1,0,0:0:0:0:
354,302,270369,5,0,0:0:0:0:
229,342,270469,1,0,0:0:0:0:
174,206,270569,1,0,0:0:0:0:
316,137,270669,1,0,0:0:0:0:
147,65,270769,6,0,L|152:113,1,35
272,143,271069,2,0,L|262:218,1,70
291,335,271269,1,0,0:0:0:0:
367,257,271369,2,0,L|371:220,1,35
335,91,271569,6,0,L|252:102,1,70
289,176,271869,2,0,L|206:187,1,70
243,261,272069,1,0,0:0:0:0:
243,261,272169,2,0,L|160:272,1,70,4|0,0:2|0:0,0:0:0:0:
118,141,272369,6,0,L|106:206,1,35
217,77,272669,2,0,L|231:166,1,70
283,241,272869,1,0,0:0:0:0:
352,146,272969,2,0,L|363:208,1,35
311,316,273169,6,0,L|219:297,1,70
49,250,273469,2,0,L|141:231,1,70
227,146,273669,1,0,0:0:0:0:
328,29,273769,1,4,0:2:0:0:
401,166,273969,6,0,L|434:175,1,35
388,200,274069,2,0,L|420:217,1,35
372,228,274169,2,0,L|402:255,1,35
345,253,274269,2,0,L|441:366,1,140
323,355,274569,2,0,L|262:283,1,70
275,197,274769,5,0,0:0:0:0:
220,126,274869,1,0,0:0:0:0:
129,105,274969,2,0,P|104:185|144:250,1,140
207,293,275269,1,0,0:0:0:0:
285,233,275369,2,0,P|305:204|312:169,1,70
203,99,275569,6,4,L|238:192,1,70
244,298,275769,2,4,L|270:202,1,70
332,95,275969,6,4,L|255:157,1,70
137,224,276169,2,4,L|236:220,1,70
389,234,276369,6,4,L|306:179,1,70
173,79,276569,2,4,L|208:172,1,70
262,349,276769,6,4,L|289:253,1,70
342,60,276969,2,4,L|265:122,1,70
57,298,277169,6,0,P|120:327|188:340,1,140,8|0,0:0|0:0,0:0:0:0:
359,171,277569,2,0,P|295:141|227:128,1,140,8|0,0:0|0:0,0:0:0:0:
63,183,277869,1,0,0:0:0:0:
167,270,277969,2,0,L|328:243,1,140,8|0,0:0|0:0,0:0:0:0:
444,90,278369,2,0,L|283:117,1,140,8|0,0:0|0:0,0:0:0:0:
119,95,278769,6,0,B|135:145|132:208|132:208|137:194|150:179,1,140,8|0,0:0|0:0,0:0:0:0:
310,55,279169,2,0,B|317:46|322:32|322:32|319:95|335:145,1,140,8|0,0:0|0:0,0:0:0:0:
402,278,279469,1,0,0:0:0:0:
472,157,279569,2,0,B|404:138|404:138|334:144,1,140,8|0,0:0|0:0,0:0:0:0:
119,95,279969,2,0,B|187:114|187:114|256:107,1,140,8|0,0:0|0:0,0:0:0:0:
353,219,280369,6,0,L|326:246,1,35
115,162,280669,2,0,L|142:189,1,35
127,200,280869,1,0,0:0:0:0:
138,293,280969,1,0,0:0:0:0:
319,303,281169,1,0,0:0:0:0:
319,303,281269,1,0,0:0:0:0:
318,303,281369,2,0,P|329:269|331:234,1,70
318,81,281569,1,0,0:0:0:0:
318,81,281669,1,0,0:0:0:0:
318,80,281769,2,0,P|328:113|330:148,1,70
256,256,281969,6,4,L|192:194,1,70
256,128,282169,2,4,L|320:190,1,70
237,265,282369,6,4,L|173:203,1,70
275,119,282569,2,4,L|339:181,1,70
218,274,282769,6,4,L|154:212,1,70
294,110,282969,2,4,L|358:172,1,70
199,283,283169,6,4,L|135:221,1,70
313,101,283369,2,4,L|377:163,1,70
194,294,283569,5,0,1:0:0:0:
194,294,283669,1,0,0:0:0:0:
194,294,283769,2,0,L|75:200,1,140
318,90,284169,1,0,1:0:0:0:
318,90,284269,1,0,0:0:0:0:
318,90,284369,2,0,L|437:184,1,140
116,270,284769,2,0,L|103:119,1,140,0|0,1:0|0:0,0:0:0:0:
176,119,285069,1,0,0:0:0:0:
229,171,285169,1,0,0:0:0:0:
396,114,285369,2,0,L|409:265,1,140,0|0,1:0|0:0,0:0:0:0:
336,265,285669,1,0,0:0:0:0:
283,213,285769,1,0,0:0:0:0:
127,98,285969,2,0,P|138:131|164:154,1,70
384,285,286169,2,0,P|373:252|347:229,1,70
127,98,286369,2,0,P|138:131|236:147,1,140
427,42,286769,6,0,B|395:69|395:69|383:94,1,70,0|4,0:0|0:0,0:0:0:0:
443,130,286969,2,0,B|411:157|411:157|399:182,1,70,0|4,0:0|0:0,0:0:0:0:
459,218,287169,2,0,B|427:245|427:245|415:270,1,70,0|4,0:0|0:0,0:0:0:0:
475,306,287369,2,0,B|443:333|443:333|431:358,1,70,0|4,0:0|0:0,0:0:0:0:
349,351,287569,6,0,L|320:275,1,70,0|4,0:0|0:0,0:0:0:0:
262,339,287769,2,0,L|233:263,1,70,0|4,0:0|0:0,0:0:0:0:
175,327,287969,2,0,L|146:251,1,70,0|4,0:0|0:0,0:0:0:0:
88,315,288169,2,0,L|59:239,1,70,0|4,0:0|0:0,0:0:0:0:
91,105,288369,6,0,B|110:135|110:135|111:183,1,70,0|4,0:0|0:0,0:0:0:0:
181,87,288569,2,0,B|162:57|162:57|161:9,1,70,0|4,0:0|0:0,0:0:0:0:
269,101,288769,2,0,B|288:131|288:131|289:179,1,70,0|4,0:0|0:0,0:0:0:0:
359,83,288969,2,0,B|340:53|340:53|339:5,1,70,0|4,0:0|0:0,0:0:0:0:
443,166,289169,5,4,0:0:0:0:
367,203,289269,1,4,0:0:0:0:
283,201,289369,1,4,0:0:0:0:
211,156,289469,1,4,0:0:0:0:
381,129,289569,5,4,0:0:0:0:
296,191,289669,1,4,0:0:0:0:
191,203,289769,1,4,0:0:0:0:
98,152,289869,1,12,0:0:0:0:
398,341,290969,6,0,L|356:222,1,105.000004005432,4|0,0:1|0:0,0:0:0:0:
211,289,291169,2,0,L|335:312,1,105.000004005432
349,153,291369,2,0,L|266:248,1,105.000004005432
450,244,291569,5,0,0:0:0:0:
460,181,291669,1,0,0:0:0:0:
454,118,291769,1,0,0:0:0:0:
420,64,291869,1,0,0:0:0:0:
359,46,291969,1,0,0:0:0:0:
296,51,292069,1,0,0:0:0:0:
236,70,292169,6,0,L|113:112,1,105.000004005432
15,131,292369,2,0,L|138:173,1,105.000004005432
236,192,292569,2,0,L|113:234,1,105.000004005432
46,298,292769,5,0,0:0:0:0:
108,305,292869,1,0,0:0:0:0:
170,311,292969,1,0,0:0:0:0:
232,318,293069,1,0,0:0:0:0:
294,325,293169,1,0,0:0:0:0:
356,331,293269,1,0,0:0:0:0:
416,337,293369,6,0,P|428:262|402:177,1,140,4|0,0:2|0:0,0:0:0:0:
216,196,293669,2,0,P|274:243|361:263,1,140,4|0,0:1|0:0,0:0:0:0:
437,92,293969,6,0,P|366:119|305:184,1,140,4|0,0:2|0:0,0:0:0:0:
411,181,294269,2,0,L|338:57,1,140,4|0,0:1|0:0,0:0:0:0:
258,34,294569,5,0,0:0:0:0:
226,88,294669,1,0,0:0:0:0:
194,142,294769,1,0,0:0:0:0:
163,196,294869,1,0,0:0:0:0:
132,251,294969,1,0,0:0:0:0:
102,306,295069,1,0,0:0:0:0:
168,337,295169,6,0,L|272:323,1,105.000004005432,0|0,1:1|0:0,0:0:0:0:
378,267,295369,2,0,L|273:253,1,105.000004005432,0|0,1:1|0:0,0:0:0:0:
168,197,295569,2,0,L|272:183,1,105.000004005432,0|0,1:1|0:0,0:0:0:0:
373,158,295769,6,0,P|334:101|193:126,1,210.000008010865
166,160,296069,1,0,0:0:0:0:
127,209,296169,1,0,0:0:0:0:
88,259,296269,1,0,0:0:0:0:
53,311,296369,5,0,0:0:0:0:
114,326,296469,1,0,0:0:0:0:
176,333,296569,1,0,0:0:0:0:
237,321,296669,1,0,0:0:0:0:
298,307,296769,1,0,0:0:0:0:
360,314,296869,1,0,0:0:0:0:
416,341,296969,5,0,0:0:0:0:
412,278,297069,1,0,0:0:0:0:
430,217,297169,1,0,0:0:0:0:
441,155,297269,1,0,0:0:0:0:
431,92,297369,1,0,0:0:0:0:
378,57,297469,1,0,0:0:0:0:
316,42,297569,5,0,0:0:0:0:
297,102,297669,1,0,0:0:0:0:
278,162,297769,1,0,0:0:0:0:
260,222,297869,1,0,0:0:0:0:
243,282,297969,1,0,0:0:0:0:
226,342,298069,1,0,0:0:0:0:
136,346,298169,6,0,P|111:245|140:145,1,210.000008010865,4|0,0:2|0:0,0:0:0:0:
256,192,298569,1,0,0:0:0:0:
375,346,298769,6,0,P|400:245|371:145,1,210.000008010865,4|0,0:2|0:0,0:0:0:0:
256,192,299169,1,0,0:0:0:0:
126,42,299369,5,0,0:0:0:0:
126,42,299469,1,0,0:0:0:0:
126,42,299569,2,0,L|231:64,1,105.000004005432
344,107,299769,2,0,L|239:129,1,105.000004005432
126,172,299969,2,0,L|231:194,1,105.000004005432
344,237,300169,2,0,L|239:259,1,105.000004005432
126,302,300369,2,0,L|231:324,1,105.000004005432
394,320,300569,6,0,P|431:258|348:143,1,210.000008010865
306,140,300869,1,0,0:0:0:0:
243,132,300969,1,0,0:0:0:0:
180,124,301069,1,0,0:0:0:0:
117,116,301169,5,0,0:0:0:0:
141,173,301269,1,0,0:0:0:0:
150,235,301369,1,0,0:0:0:0:
117,288,301469,1,0,0:0:0:0:
55,303,301569,1,0,0:0:0:0:
5,263,301669,1,0,0:0:0:0:
3,200,301769,5,0,0:0:0:0:
15,138,301869,1,0,0:0:0:0:
46,83,301969,1,0,0:0:0:0:
98,48,302069,1,0,0:0:0:0:
160,41,302169,1,0,0:0:0:0:
221,54,302269,1,0,0:0:0:0:
281,69,302369,6,0,L|393:94,1,105.000004005432
450,163,302569,2,0,L|338:188,1,105.000004005432
281,257,302769,2,0,L|393:282,1,105.000004005432
433,347,302969,6,0,L|220:324,1,210.000008010865,4|0,1:1|0:0,0:0:0:0:
80,271,303269,2,0,L|293:248,1,210.000008010865,4|0,1:1|0:0,0:0:0:0:
350,159,303569,1,0,0:0:0:0:
350,159,303669,1,0,0:0:0:0:
350,159,303769,1,0,0:0:0:0:
350,159,303869,1,0,0:0:0:0:
350,159,303969,6,0,P|356:229|419:280,1,105.000004005432,4|0,0:3|0:0,0:0:0:0:
426,67,304169,1,0,0:0:0:0:
329,137,304269,2,0,P|316:206|364:271,1,105.000004005432,4|0,0:3|0:0,0:0:0:0:
426,67,304469,1,0,0:0:0:0:
314,109,304569,2,0,P|284:172|313:248,1,105.000004005432,4|0,0:3|0:0,0:0:0:0:
426,67,304769,5,0,0:0:0:0:
363,60,304869,1,0,0:0:0:0:
300,53,304969,1,0,0:0:0:0:
237,47,305069,1,0,0:0:0:0:
174,54,305169,1,0,0:0:0:0:
111,61,305269,1,0,0:0:0:0:
49,72,305369,6,0,P|39:172|125:224,1,210.000008010865
187,227,305669,1,0,0:0:0:0:
249,230,305769,1,0,0:0:0:0:
311,233,305869,1,0,0:0:0:0:
373,236,305969,5,0,0:0:0:0:
344,181,306069,1,0,0:0:0:0:
363,123,306169,1,0,0:0:0:0:
418,96,306269,1,0,0:0:0:0:
476,116,306369,1,0,0:0:0:0:
502,171,306469,1,0,0:0:0:0:
490,233,306569,5,0,0:0:0:0:
478,294,306669,1,0,0:0:0:0:
430,334,306769,1,0,0:0:0:0:
367,335,306869,1,0,0:0:0:0:
305,320,306969,1,0,0:0:0:0:
242,314,307069,1,0,0:0:0:0:
180,329,307169,5,0,0:0:0:0:
193,267,307269,1,0,0:0:0:0:
193,204,307369,1,0,0:0:0:0:
180,142,307469,1,0,0:0:0:0:
138,94,307569,1,0,0:0:0:0:
82,63,307669,1,0,0:0:0:0:
19,62,307769,6,0,L|53:170,1,105.000004005432
101,261,307969,2,0,L|135:153,1,105.000004005432
183,62,308169,2,0,L|217:170,1,105.000004005432
265,261,308369,6,0,L|299:153,1,105.000004005432
347,62,308569,2,0,L|381:170,1,105.000004005432
429,261,308769,2,0,L|463:153,1,105.000004005432
357,79,308969,5,0,0:0:0:0:
301,49,309069,1,0,0:0:0:0:
239,44,309169,1,0,0:0:0:0:
180,64,309269,1,0,0:0:0:0:
133,105,309369,1,0,0:0:0:0:
106,162,309469,1,0,0:0:0:0:
104,224,309569,5,0,0:0:0:0:
126,283,309669,1,0,0:0:0:0:
170,327,309769,1,0,0:0:0:0:
228,351,309869,1,0,0:0:0:0:
290,351,309969,1,0,0:0:0:0:
348,325,310069,1,0,0:0:0:0:
386,276,310169,5,4,0:2:0:0:
256,192,310204,12,0,312454,0:0:0:0:
64,64,336168,5,0,0:0:0:0:
64,64,336453,2,0,L|156:114,1,105.000004005432
93,189,337025,2,0,L|185:239,1,105.000004005432
367,292,337596,6,0,P|396:192|368:92,1,210.000008010865,0|0,1:0|0:0,0:0:0:0:
256,192,338453,1,0,0:0:0:0:
144,292,338739,2,0,P|116:192|144:92,1,210.000008010865,0|0,1:0|0:0,0:0:0:0:
256,192,339596,1,0,0:0:0:0:
407,56,339882,5,0,0:0:0:0:
407,56,340025,2,0,L|377:136,1,70
120,123,340311,1,0,0:0:0:0:
120,123,340454,2,0,L|150:203,1,70
372,280,340739,1,0,0:0:0:0:
174,363,340882,6,0,B|137:370|137:370|95:365,1,70,4|0,0:3|0:0,0:0:0:0:
194,143,341168,1,0,0:0:0:0:
136,298,341311,2,0,B|98:294|98:294|59:278,1,70,4|0,0:3|0:0,0:0:0:0:
194,143,341596,6,2,B|219:111|228:45|228:45|279:101|310:111,1,210.000008010865,2|0,0:0|0:0,0:0:0:0:
417,42,342025,1,0,0:0:0:0:
273,169,342168,5,0,0:0:0:0:
273,169,342311,1,0,0:0:0:0:
273,169,342453,2,0,P|319:147|339:118,1,70
230,34,342739,2,0,P|226:84|241:116,1,70
368,64,343025,2,0,P|326:35|291:32,1,70
175,121,343311,5,0,0:0:0:0:
175,121,343453,1,0,0:0:0:0:
175,121,343596,2,0,L|162:213,1,70
279,262,343882,2,0,L|269:192,1,70
155,260,344168,2,0,L|142:352,1,70
297,335,344453,5,4,0:3:0:0:
330,323,344525,1,4,0:3:0:0:
357,301,344596,1,4,0:3:0:0:
373,269,344668,1,0,0:0:0:0:
373,234,344739,2,0,L|341:210,1,35
272,149,344882,5,4,0:3:0:0:
248,123,344953,1,4,0:3:0:0:
241,88,345025,1,4,0:3:0:0:
246,53,345096,1,0,0:0:0:0:
267,23,345168,2,0,L|309:32,1,35
412,85,345311,5,0,0:0:0:0:
410,119,345382,1,0,0:0:0:0:
398,151,345453,1,0,0:0:0:0:
372,175,345525,1,0,0:0:0:0:
342,193,345596,1,0,0:0:0:0:
306,195,345668,1,0,0:0:0:0:
273,182,345739,5,0,0:0:0:0:
238,173,345811,1,0,0:0:0:0:
203,176,345882,1,0,0:0:0:0:
173,193,345953,1,0,0:0:0:0:
151,221,346025,1,0,0:0:0:0:
142,254,346096,1,0,0:0:0:0:
150,288,346168,5,2,0:0:0:0:
150,288,346739,5,0,0:0:0:0:
306,195,346882,1,0,0:0:0:0:
189,85,347025,2,0,L|170:166,1,70
236,270,347311,2,0,L|220:201,1,70
156,225,347596,2,0,L|137:306,1,70
283,329,347882,6,0,P|316:320|338:227,1,140
304,154,348311,2,0,P|302:87|361:55,1,140
442,148,348739,2,0,P|447:182|437:215,1,70
327,272,349025,5,0,0:0:0:0:
374,153,349168,1,0,0:0:0:0:
249,100,349311,2,0,L|224:181,1,70
327,272,349596,2,0,L|269:209,1,70
139,253,349882,2,0,L|221:234,1,70
372,124,350168,5,0,0:0:0:0:
282,141,350311,1,0,0:0:0:0:
193,158,350453,1,0,0:0:0:0:
103,175,350596,1,0,0:0:0:0:
13,192,350739,5,0,0:0:0:0:
80,211,350882,1,0,0:0:0:0:
147,231,351025,1,0,0:0:0:0:
214,251,351168,1,0,0:0:0:0:
281,269,351311,6,0,L|306:199,1,70
219,90,351596,1,0,0:0:0:0:
219,90,351668,1,0,0:0:0:0:
219,90,351739,1,0,0:0:0:0:
303,203,351882,2,0,P|335:188|359:162,1,70
349,45,352168,1,0,0:0:0:0:
318,61,352239,1,0,0:0:0:0:
295,85,352311,1,0,0:0:0:0:
217,218,352453,6,0,L|300:227,1,70
406,194,352739,1,0,0:0:0:0:
406,194,352811,1,0,0:0:0:0:
406,194,352882,1,0,0:0:0:0:
331,309,353025,2,0,L|248:318,1,70
142,285,353311,1,0,0:0:0:0:
119,276,353382,1,0,0:0:0:0:
100,259,353453,1,0,0:0:0:0:
146,159,353596,5,4,0:3:0:0:
178,145,353668,1,4,0:3:0:0:
212,145,353739,1,4,0:3:0:0:
245,157,353811,1,0,0:0:0:0:
279,157,353882,2,0,P|302:149|319:125,1,35
270,62,354025,5,4,0:3:0:0:
248,89,354096,1,4,0:3:0:0:
234,121,354168,1,4,0:3:0:0:
230,155,354239,1,0,0:0:0:0:
233,190,354311,2,0,P|243:215|261:236,1,35
353,275,354453,5,4,0:3:0:0:
365,241,354525,1,0,0:0:0:0:
376,208,354596,1,4,0:3:0:0:
388,174,354668,1,0,0:0:0:0:
400,141,354739,5,8,0:3:0:0:
400,98,354811,1,0,0:0:0:0:
375,64,354882,2,0,P|343:64|319:73,1,35
224,107,355025,5,8,0:3:0:0:
182,113,355096,1,0,0:0:0:0:
139,109,355168,2,0,P|121:88|122:67,1,35
163,22,355311,5,8,0:3:0:0:
194,49,355382,1,0,0:0:0:0:
212,89,355453,2,0,L|206:130,1,35
182,211,355596,5,8,0:3:0:0:
167,250,355668,1,0,0:0:0:0:
171,291,355739,1,0,0:0:0:0:
196,324,355811,1,0,0:0:0:0:
235,318,355882,6,8,P|254:270|252:218,1,105.000004005432,8|8,0:3|0:3,0:3:0:0:
188,123,356168,5,8,0:3:0:0:
141,131,356239,1,0,0:3:0:0:
109,166,356311,1,8,0:3:0:0:
103,212,356382,1,0,0:3:0:0:
118,256,356453,1,8,0:3:0:0:
163,271,356525,1,0,0:3:0:0:
208,261,356596,1,8,0:3:0:0:
251,242,356668,1,0,0:3:0:0:
296,229,356739,1,8,0:3:0:0:
343,222,356811,1,0,0:3:0:0:
389,228,356882,1,8,0:3:0:0:
428,253,356953,1,0,0:3:0:0:
444,297,357025,5,8,0:3:0:0:
428,341,357096,1,0,0:3:0:0:
384,361,357168,1,8,0:3:0:0:
343,337,357239,1,0,0:3:0:0:
329,291,357311,1,8,0:3:0:0:
354,251,357382,1,0,0:3:0:0:
397,233,357453,1,8,0:3:0:0:
443,220,357525,1,0,0:3:0:0:
462,183,357596,5,8,0:3:0:0:
464,135,357668,1,0,0:0:0:0:
454,88,357739,1,8,0:3:0:0:
425,49,357811,1,0,0:0:0:0:
381,32,357882,1,8,0:3:0:0:
335,21,357953,1,0,0:0:0:0:
287,21,358025,1,8,0:3:0:0:
240,24,358096,1,0,0:0:0:0:
194,37,358168,5,10,0:3:0:0:
175,62,358239,1,0,0:0:0:0:
156,87,358311,1,8,0:3:0:0:
137,112,358382,1,0,0:0:0:0:
119,135,358453,2,0,L|94:116,1,26.2500010013581,10|0,0:3|0:0,0:0:0:0:
91,198,358596,1,8,0:3:0:0:
105,213,358668,1,0,0:0:0:0:
118,228,358739,1,8,0:3:0:0:
132,243,358811,1,0,0:0:0:0:
145,258,358882,1,10,0:3:0:0:
159,273,358953,1,0,0:0:0:0:
173,288,359025,1,8,0:3:0:0:
186,303,359096,1,0,0:0:0:0:
200,318,359168,1,10,0:3:0:0:
213,333,359239,1,0,0:0:0:0:
227,348,359311,5,8,0:3:0:0:
246,354,359382,1,0,0:0:0:0:
272,352,359453,1,8,0:3:0:0:
300,337,359525,1,0,0:0:0:0:
321,307,359596,1,10,0:3:0:0:
330,265,359668,1,0,0:0:0:0:
325,218,359739,1,8,0:3:0:0:
307,173,359811,1,0,0:0:0:0:
284,131,359882,5,8,0:3:0:0:
283,84,359953,1,0,0:0:0:0:
304,41,360025,1,8,0:3:0:0:
348,27,360096,1,0,0:0:0:0:
394,38,360168,1,8,0:3:0:0:
426,72,360239,1,0,0:0:0:0:
427,119,360311,1,8,0:3:0:0:
399,157,360382,1,0,0:0:0:0:
353,169,360453,6,0,L|219:176,1,105.000004005432,4|0,0:0|0:0,0:0:0:0:
216,332,360739,1,0,0:0:0:0:
333,108,360882,2,0,L|199:115,1,105.000004005432,4|0,0:0|0:0,0:0:0:0:
216,332,361168,1,0,0:0:0:0:
231,52,361311,2,0,L|225:191,1,105.000004005432,4|0,0:0|0:0,0:0:0:0:
80,92,361596,6,0,P|116:133|119:208,1,105.000004005432,4|0,0:0|0:0,0:0:0:0:
56,302,361882,1,0,0:0:0:0:
125,43,362025,2,0,P|165:83|189:148,1,105.000004005432,4|0,0:0|0:0,0:0:0:0:
56,302,362311,1,0,0:0:0:0:
51,44,362453,2,0,L|114:153,1,105.000004005432,4|0,0:0|0:0,0:0:0:0:
187,353,362739,6,0,L|200:238,1,105.000004005432
262,34,363025,2,0,L|275:149,1,105.000004005432
337,353,363311,2,0,L|350:238,1,105.000004005432
412,34,363596,2,0,L|425:149,1,105.000004005432
413,276,363882,6,0,L|427:334,2,46.6666666666667,0|0|0,3:0|3:0|3:0,3:0:0:0:
248,172,364168,2,0,L|190:158,2,46.6666666666667,0|0|0,3:0|3:0|3:0,3:0:0:0:
352,307,364453,2,0,L|366:365,2,46.6666666666667,0|0|0,3:0|3:0|3:0,3:0:0:0:
217,233,364739,2,0,L|159:219,2,46.6666666666667,0|0|0,3:0|3:0|3:0,3:0:0:0:
413,276,365025,6,0,P|432:209|422:141,1,140,4|0,0:1|0:0,0:0:0:0:
260,38,365596,1,2,0:2:0:0:
217,134,365882,1,0,0:2:0:0:
68,225,366168,6,0,L|223:286,1,140,8|0,0:0|0:0,0:0:0:0:
120,65,366739,1,2,0:2:0:0:
161,173,367025,1,0,0:0:0:0:
175,188,367168,1,0,0:0:0:0:
190,200,367311,6,0,L|352:210,1,140
214,345,367882,2,0,L|74:336,1,140
309,76,368453,6,0,P|273:152|276:225,1,140,4|0,0:1|0:0,0:0:0:0:
273,207,368811,1,0,0:0:0:0:
273,207,368882,1,0,0:0:0:0:
273,207,368953,1,0,0:0:0:0:
273,207,369025,2,0,P|306:216|340:210,1,70
462,128,369311,2,0,P|428:118|394:125,1,70
217,250,369596,5,6,0:0:0:0:
187,269,369668,1,0,0:0:0:0:
153,279,369739,1,0,0:0:0:0:
118,273,369811,1,0,0:0:0:0:
96,245,369882,2,0,L|96:202,1,35
127,125,370025,5,6,0:0:0:0:
142,90,370096,1,0,0:0:0:0:
142,51,370168,1,0,0:0:0:0:
116,22,370239,1,0,0:0:0:0:
77,21,370311,2,0,L|45:62,1,35
23,127,370453,5,6,0:0:0:0:
56,137,370525,1,0,0:0:0:0:
89,146,370596,1,0,0:0:0:0:
122,156,370668,1,0,0:0:0:0:
155,166,370739,5,10,1:3:0:0:
197,169,370811,1,0,0:0:0:0:
242,152,370882,1,0,0:0:0:0:
273,105,370953,1,0,0:0:0:0:
284,49,371025,5,10,1:3:0:0:
316,94,371096,1,0,0:0:0:0:
356,133,371168,1,0,0:0:0:0:
407,154,371239,1,0,0:0:0:0:
463,159,371311,5,10,1:3:0:0:
436,207,371382,1,0,0:0:0:0:
409,255,371453,1,0,0:0:0:0:
382,304,371525,1,0,0:0:0:0:
355,353,371596,5,10,1:3:0:0:
309,319,371668,1,0,0:0:0:0:
254,308,371739,1,0,0:0:0:0:
197,314,371811,1,0,0:0:0:0:
146,336,371882,5,12,1:3:0:0:
88,351,371953,1,0,0:0:0:0:
30,334,372025,1,0,0:0:0:0:
9,278,372096,1,0,0:0:0:0:
30,222,372168,1,0,0:0:0:0:
76,174,372239,1,0,0:0:0:0:
96,117,372311,1,0,0:0:0:0:
90,58,372382,1,0,0:0:0:0:
43,21,372453,5,4,0:1:0:0:
65,76,372525,1,4,0:0:0:0:
107,117,372596,1,4,0:0:0:0:
164,132,372668,1,4,0:0:0:0:
222,122,372739,1,4,0:0:0:0:
274,93,372811,1,4,0:0:0:0:
332,86,372882,1,4,0:0:0:0:
388,103,372953,1,4,0:0:0:0:
433,142,373025,6,0,P|380:193|233:217,1,210,4|0,0:2|0:0,0:0:0:0:
281,30,373596,6,0,L|370:255,1,210,4|0,0:2|0:0,0:0:0:0:
108,326,374168,6,0,P|143:257|220:233,1,140
467,288,374739,1,0,0:0:0:0:
197,322,375025,2,0,L|156:171,1,140
474,137,375596,1,0,0:0:0:0:
480,163,375739,1,0,0:0:0:0:
487,191,375882,1,0,0:0:0:0:
180,292,376168,1,0,0:0:0:0:
296,102,376453,6,0,P|221:90|143:98,1,140,4|0,0:1|0:0,0:0:0:0:
61,238,377025,1,0,0:0:0:0:
325,313,377311,1,0,0:0:0:0:
325,313,377596,2,0,L|264:128,1,175,4|0,0:2|0:0,0:0:0:0:
130,64,378025,2,0,L|184:230,1,175,4|0,0:1|0:0,0:0:0:0:
261,317,378453,1,4,0:0:0:0:
261,317,378525,1,4,0:0:0:0:
261,317,378596,1,4,0:0:0:0:
261,317,378668,1,0,0:0:0:0:
261,317,378739,6,8,L|366:295,1,105.000004005432,12|8,0:3|0:3,0:3:0:0:
447,125,379025,5,8,0:0:0:0:
396,127,379096,1,0,0:0:0:0:
343,141,379168,1,8,0:0:0:0:
295,159,379239,1,0,0:0:0:0:
240,163,379311,1,8,0:0:0:0:
190,157,379382,1,0,0:0:0:0:
144,127,379453,1,8,0:0:0:0:
135,76,379525,1,0,0:0:0:0:
152,27,379596,1,8,0:0:0:0:
203,10,379668,1,0,0:0:0:0:
249,30,379739,1,8,0:0:0:0:
266,80,379811,1,0,0:0:0:0:
248,129,379882,5,8,0:0:0:0:
233,178,379953,1,0,0:0:0:0:
216,228,380025,1,8,0:0:0:0:
214,280,380096,1,0,0:0:0:0:
227,330,380168,1,8,0:0:0:0:
272,357,380239,1,0,0:0:0:0:
323,359,380311,1,8,0:0:0:0:
371,336,380382,1,0,0:0:0:0:
391,288,380453,5,8,0:0:0:0:
389,235,380525,1,0,0:0:0:0:
352,197,380596,1,8,0:0:0:0:
300,188,380668,1,0,0:0:0:0:
247,198,380739,1,8,0:0:0:0:
196,208,380811,1,0,0:0:0:0:
143,218,380882,1,8,0:0:0:0:
92,208,380953,1,0,0:0:0:0:
56,168,381025,5,8,0:0:0:0:
58,115,381096,1,0,0:0:0:0:
91,73,381168,1,8,0:0:0:0:
142,66,381239,1,0,0:0:0:0:
192,82,381311,1,8,0:0:0:0:
220,125,381382,1,0,0:0:0:0:
209,176,381453,1,8,0:0:0:0:
198,227,381525,1,0,0:0:0:0:
207,278,381596,5,8,0:0:0:0:
230,325,381668,1,0,0:0:0:0:
279,340,381739,1,8,0:0:0:0:
331,334,381811,1,0,0:0:0:0:
375,306,381882,1,8,0:0:0:0:
401,261,381953,1,0,0:0:0:0:
410,208,382025,1,8,0:0:0:0:
403,156,382096,1,0,0:0:0:0:
382,107,382168,5,4,0:0:0:0:
350,134,382239,1,4,0:0:0:0:
318,161,382311,1,4,0:0:0:0:
286,188,382382,1,4,0:0:0:0:
254,215,382453,1,4,0:0:0:0:
222,243,382525,1,4,0:0:0:0:
190,270,382596,1,4,0:0:0:0:
158,298,382668,1,4,0:0:0:0:
124,320,382739,6,2,B|104:247|104:247|158:197|158:197|133:146|131:106|150:71|197:44,1,315.000012016297,2|0,1:0|3:0,1:0:0:0:
256,28,383311,6,0,L|269:132,1,105.000004005432
379,81,383596,2,0,L|392:185,1,105.000004005432
288,275,383882,1,0,0:0:0:0:
166,214,384025,2,0,L|152:109,1,105.000004005432
272,164,384311,1,0,0:0:0:0:
401,29,384453,6,0,L|281:34,1,105.000004005432
125,106,384739,2,0,L|245:111,1,105.000004005432
401,183,385025,2,0,L|281:188,1,105.000004005432
125,260,385311,2,0,L|245:265,1,105.000004005432
118,65,385596,6,0,L|139:167,1,105.000004005432
229,264,385882,1,0,0:0:0:0:
205,56,386025,2,0,L|226:158,1,105.000004005432
354,185,386311,2,0,L|332:82,1,105.000004005432
217,118,386596,1,0,0:0:0:0:
84,221,386739,6,0,L|188:210,1,105.000004005432
421,148,387025,2,0,L|317:159,1,105.000004005432
87,286,387311,2,0,L|191:275,1,105.000004005432
418,83,387597,2,0,L|314:94,1,105.000004005432
84,221,387882,5,0,0:0:0:0:
53,203,387953,1,0,0:0:0:0:
45,168,388025,1,0,0:0:0:0:
56,135,388096,1,0,0:0:0:0:
84,114,388168,1,0,0:0:0:0:
118,108,388239,1,0,0:0:0:0:
152,113,388311,1,0,0:0:0:0:
186,118,388382,1,0,0:0:0:0:
220,114,388453,5,0,0:0:0:0:
254,105,388525,1,0,0:0:0:0:
285,89,388596,1,0,0:0:0:0:
318,77,388668,1,0,0:0:0:0:
352,77,388739,1,0,0:0:0:0:
385,89,388811,1,0,0:0:0:0:
407,115,388882,1,0,0:0:0:0:
418,147,388953,1,0,0:0:0:0:
410,181,389025,5,0,0:0:0:0:
388,208,389096,1,0,0:0:0:0:
378,242,389168,1,0,0:0:0:0:
378,276,389239,1,0,0:0:0:0:
386,310,389311,1,0,0:0:0:0:
409,335,389382,1,0,0:0:0:0:
443,336,389453,1,0,0:0:0:0:
468,311,389525,1,0,0:0:0:0:
449,281,389596,5,0,0:0:0:0:
414,276,389668,1,0,0:0:0:0:
379,282,389739,1,0,0:0:0:0:
346,295,389811,1,0,0:0:0:0:
312,305,389882,1,0,0:0:0:0:
277,308,389953,1,0,0:0:0:0:
242,299,390025,1,0,0:0:0:0:
226,267,390096,1,0,0:0:0:0:
229,231,390168,6,0,L|397:243,1,140,4|0,0:1|0:0,0:0:0:0:
486,338,390453,1,0,0:0:0:0:
507,158,390596,2,0,L|339:170,1,140,4|0,0:1|0:0,0:0:0:0:
239,338,390882,1,0,0:0:0:0:
221,84,391025,2,0,L|389:96,1,140,0|0,0:1|0:0,0:0:0:0:
439,213,391311,5,8,0:0:0:0:
258,181,391453,1,0,0:0:0:0:
439,213,391596,5,8,0:0:0:0:
222,237,391739,1,0,0:0:0:0:
439,213,391882,5,8,0:0:0:0:
182,292,392025,1,0,0:0:0:0:
439,213,392168,5,8,0:0:0:0:
144,349,392311,1,0,0:0:0:0:
380,267,392453,5,0,0:0:0:0:
233,120,392596,2,0,B|183:101|183:101|129:102,1,105.000004005432
267,195,392882,2,0,B|308:161|308:161|333:113,1,105.000004005432
185,186,393168,2,0,B|193:238|193:238|221:284,1,105.000004005432
406,171,393453,1,0,0:0:0:0:
99,204,393596,5,0,0:0:0:0:
294,129,393739,2,0,P|240:91|168:107,1,105.000004005432
331,203,394025,2,0,P|390:175|413:104,1,105.000004005432
248,198,394311,2,0,P|242:263|291:318,1,105.000004005432
467,178,394596,6,0,L|341:184,1,105.000004005432
106,213,394882,2,0,L|232:219,1,105.000004005432
458,50,395168,2,0,L|332:56,1,105.000004005432
100,230,395453,2,0,L|320:241,1,210.000008010865
417,31,395882,6,0,P|419:98|388:160,1,105.000004005432,4|0,0:2|0:2,0:2:0:0:
156,294,396168,2,0,P|137:246|135:194,1,105.000004005432,4|0,0:2|0:2,0:2:0:0:
348,41,396453,2,0,P|343:109|294:151,1,105.000004005432,4|0,0:2|0:2,0:2:0:0:
207,243,396739,2,0,P|205:176|236:114,1,105.000004005432,4|0,0:2|0:2,0:2:0:0:
470,221,397025,5,0,0:0:0:0:
329,92,397168,2,0,L|228:119,1,105.000004005432
291,284,397453,2,0,L|320:183,1,105.000004005432
145,155,397739,2,0,L|219:230,1,105.000004005432
426,247,398025,1,0,0:0:0:0:
97,254,398168,5,0,0:0:0:0:
167,83,398311,2,0,L|269:56,1,105.000004005432
426,247,398596,2,0,L|324:274,1,105.000004005432
159,223,398882,2,0,L|260:195,1,105.000004005432
41,340,399168,6,0,L|73:213,1,105.000004005432
302,338,399453,2,0,L|270:211,1,105.000004005432
9,200,399739,2,0,L|41:73,1,105.000004005432
302,338,400025,2,0,L|249:130,1,210.000008010865
35,59,400453,5,2,0:0:0:0:
83,186,400596,1,2,0:0:0:0:
169,63,400739,1,2,0:0:0:0:
217,190,400882,1,2,0:0:0:0:
303,67,401025,1,2,0:0:0:0:
351,194,401168,1,2,0:0:0:0:
437,71,401310,1,2,0:0:0:0:
485,198,401453,1,2,0:0:0:0:
399,321,401596,5,0,0:0:0:0:
323,118,401739,2,0,L|424:60,1,105.000004005432
357,219,402025,2,0,L|256:160,1,105.000004005432
428,139,402311,2,0,L|427:255,1,105.000004005432
216,340,402596,1,0,0:0:0:0:
407,78,402739,5,0,0:0:0:0:
189,82,402882,2,0,L|87:159,1,105.000004005432
36,205,403167,1,0,0:0:0:0:
70,217,403238,1,0,0:0:0:0:
107,221,403310,1,0,0:0:0:0:
143,218,403381,1,0,0:0:0:0:
178,207,403453,1,0,0:0:0:0:
210,189,403524,1,0,0:0:0:0:
238,165,403596,1,0,0:0:0:0:
451,124,403739,6,0,L|339:153,1,105.000004005432
150,289,404025,2,0,L|262:260,1,105.000004005432
450,51,404311,2,0,L|338:80,1,105.000004005432
150,289,404596,2,0,L|362:233,1,210.000008010865
108,70,405025,6,0,L|158:204,1,105.000004005432,4|0,0:2|0:0,0:0:0:0:
385,122,405311,2,0,L|335:256,1,105.000004005432,4|0,0:2|0:0,0:0:0:0:
53,267,405596,1,4,0:2:0:0:
96,285,405668,1,0,0:0:0:0:
142,292,405739,1,0,0:0:0:0:
189,292,405811,1,0,0:0:0:0:
234,281,405882,1,4,0:2:0:0:
317,107,406025,1,0,0:0:0:0:
43,196,406168,5,0,0:0:0:0:
432,234,406311,2,0,L|302:254,1,105.000004005432
99,273,406596,2,0,L|229:293,1,105.000004005432
435,326,406882,2,0,L|305:346,1,105.000004005432
45,339,407168,1,0,0:0:0:0:
209,35,407311,5,0,0:0:0:0:
271,216,407453,2,0,P|305:256|377:263,1,105.000004005432
239,128,407739,2,0,P|187:137|145:196,1,105.000004005432
331,144,408025,2,0,P|348:94|318:28,1,105.000004005432
69,152,408311,6,0,L|114:263,1,105.000004005432
274,196,408596,2,0,L|313:98,1,105.000004005432
30,55,408882,2,0,L|75:166,1,105.000004005432
214,347,409168,2,0,L|292:152,1,210.000008010865
83,237,409596,5,2,0:0:0:0:
429,147,409739,1,2,0:0:0:0:
103,94,409882,1,2,0:0:0:0:
409,290,410025,1,2,0:0:0:0:
149,142,410168,1,2,0:0:0:0:
362,169,410311,1,2,0:0:0:0:
150,215,410453,1,2,0:0:0:0:
363,242,410596,1,2,0:0:0:0:
50,291,410739,5,4,0:2:0:0:
54,258,411025,1,0,0:0:0:0:
58,225,411311,1,0,0:0:0:0:
80,62,411596,5,0,0:0:0:0:
102,339,411739,1,0,0:0:0:0:
234,62,411882,2,0,L|138:175,1,105.000004005432,4|0,0:2|0:2,0:2:0:0:
175,329,412168,2,0,L|271:216,1,105.000004005432,4|0,0:2|0:2,0:2:0:0:
327,22,412453,1,0,0:0:0:0:
416,248,412596,1,0,0:0:0:0:
391,48,412739,1,0,0:0:0:0:
480,274,412882,1,0,0:0:0:0:
22,128,413025,5,4,0:2:0:0:
62,132,413311,1,0,0:0:0:0:
102,136,413596,1,0,0:0:0:0:
464,168,413882,5,0,0:0:0:0:
159,275,414025,1,0,0:0:0:0:
323,103,414168,1,4,0:0:0:0:
323,103,414239,1,4,0:0:0:0:
323,103,414311,1,4,0:0:0:0:
323,103,414382,1,4,0:0:0:0:
323,103,414453,1,4,0:1:0:0:
280,278,414596,1,0,0:0:0:0:
487,93,414739,5,4,0:2:0:0:
50,193,414953,5,4,0:2:0:0:
456,280,415168,5,4,0:2:0:0:
108,282,415311,6,8,L|144:101,1,140,4|8,0:2|0:0,0:0:0:0:
357,94,415597,5,8,0:0:0:0:
385,132,415667,1,0,0:0:0:0:
395,180,415739,1,8,0:0:0:0:
386,228,415810,1,0,0:0:0:0:
358,267,415882,1,8,0:0:0:0:
316,293,415953,1,0,0:0:0:0:
268,299,416025,1,8,0:0:0:0:
222,286,416096,1,0,0:0:0:0:
184,255,416167,1,8,0:0:0:0:
162,213,416238,1,0,0:0:0:0:
163,166,416311,1,8,0:0:0:0:
182,125,416382,1,0,0:0:0:0:
213,93,416453,5,8,0:0:0:0:
264,79,416525,1,0,0:0:0:0:
316,83,416596,1,8,0:0:0:0:
365,102,416668,1,0,0:0:0:0:
396,143,416739,1,8,0:0:0:0:
405,195,416811,1,0,0:0:0:0:
405,247,416882,1,8,0:0:0:0:
395,298,416953,1,0,0:0:0:0:
363,340,417025,5,8,0:0:0:0:
314,359,417096,1,0,0:0:0:0:
261,362,417168,1,8,0:0:0:0:
209,353,417239,1,0,0:0:0:0:
160,332,417311,1,8,0:0:0:0:
123,294,417382,1,0,0:0:0:0:
107,244,417453,1,8,0:0:0:0:
107,191,417525,1,0,0:0:0:0:
114,141,417596,5,10,1:3:0:0:
182,125,417667,1,10,1:3:0:0:
250,110,417738,1,10,1:3:0:0:
318,94,417810,1,10,1:3:0:0:
388,82,417882,1,10,1:3:0:0:
456,91,417953,1,10,1:3:0:0:
504,140,418024,1,10,1:3:0:0:
512,209,418096,1,10,1:3:0:0:
476,266,418168,2,0,P|449:288|414:291,1,70,0|0,1:0|1:0,1:0:0:0:
295,272,418311,6,0,L|307:222,1,26.2500010013581,10|0,1:3|1:3,1:3:0:0:
182,189,418453,2,0,L|194:139,1,26.2500010013581,10|0,1:3|1:3,1:3:0:0:
69,106,418596,2,0,L|81:56,1,26.2500010013581,10|0,1:3|1:3,1:3:0:0:
333,10,418739,5,0,1:0:0:0:
256,192,419882,5,4,0:1:0:0:
256,192,419917,12,2,425596,0:0:0:0:
