osu file format v14

[General]
AudioFilename: fushokurusanchiman.mp3
AudioLeadIn: 0
PreviewTime: 335759
Countdown: 0
SampleSet: Normal
StackLeniency: 0.4
Mode: 0
LetterboxInBreaks: 1
WidescreenStoryboard: 1

[Editor]
Bookmarks: 41743,69172,87457,101171,119456,137742,153742,176599,190313,208598,224598,241740,255455,270769,290969,310169,336168,355882,374168,392453,410739
DistanceSpacing: 1
BeatDivisor: 4
GridSize: 4
TimelineZoom: 2.5

[Metadata]
Title:Fushoku rusanchiman, Fushi Yoku no Sarugakuza.
TitleUnicode:腐蝕ルサンチマン、不死欲の猿楽座。
Artist:Imperial Circus Dead Decadence
ArtistUnicode:インペリアルサーカス・デッド・デカダンス
Creator:lilligantEX
Version:Kirai
Source:
Tags:icdd jmetal symphonic black metal fusyoku nanomortis
BeatmapID:1303897
BeatmapSetID:568898

[Difficulty]
HPDrainRate:7
CircleSize:4
OverallDifficulty:9
ApproachRate:9.5
SliderMultiplier:1.4
SliderTickRate:1

[Events]
//Background and Video events
0,0,"kirai.jpg",0,0
//Break Periods
2,192655,240644
2,255369,335643
//Storyboard Layer 0 (Background)
//Storyboard Layer 1 (Fail)
//Storyboard Layer 2 (Pass)
//Storyboard Layer 3 (Foreground)
//Storyboard Sound Samples

[TimingPoints]
887,285.714285714286,3,2,1,100,1,0
4315,-80,3,2,1,100,0,1
4387,-80,3,2,1,5,0,1
4601,-80,3,2,1,100,0,1
11244,-80,3,2,1,5,0,1
11458,-80,3,2,1,100,0,1
14601,-66.6666666666667,3,3,1,100,0,0
24887,-100,3,3,1,100,0,0
24958,-100,3,3,1,5,0,0
25172,-66.6666666666667,3,3,1,100,0,0
26672,-66.6666666666667,3,3,1,5,0,0
27029,-66.6666666666667,3,3,1,100,0,0
29172,-200,3,3,1,100,0,0
29244,-200,3,3,1,50,0,0
32458,-200,4,3,1,5,0,0
32601,285.714285714286,4,3,1,100,1,0
32601,-100,4,3,1,100,0,0
37172,-100,4,3,1,100,0,0
40601,-100,4,3,1,100,0,0
41743,-80,4,3,1,100,0,0
60029,-80,4,3,1,100,0,1
60243,-80,4,3,1,5,0,1
60315,-80,4,3,1,100,0,1
64815,-80,4,3,1,5,0,1
64886,-80,4,3,1,100,0,1
68029,-66.6666666666667,4,3,1,100,0,1
69172,-80,4,3,1,100,0,0
87457,285.714285714286,3,2,1,100,1,0
87457,-100,3,2,1,100,0,0
94314,-80,3,3,1,100,0,0
100599,-200,3,3,1,60,0,0
100671,-153.846153846154,3,3,1,65,0,0
100742,-125,3,3,1,70,0,0
100814,-105.263157894737,3,3,1,75,0,0
100885,-90.9090909090909,3,3,1,80,0,0
100957,-80,3,3,1,85,0,0
101028,-71.4285714285714,3,3,1,90,0,0
101099,-64.5161290322581,3,3,1,95,0,0
101171,285.714285714286,4,3,1,100,1,0
101171,-58.8235294117647,4,3,1,100,0,0
102885,-100,4,3,1,100,0,0
103456,-80,4,3,2,100,0,0
108313,-66.6666666666667,4,3,1,100,0,0
109456,-133.333333333333,4,3,1,100,0,0
109742,-50,4,3,1,100,0,0
110028,-66.6666666666667,4,3,1,100,0,0
110313,-66.6666666666667,4,3,2,100,0,0
114885,-57.1428571428571,4,3,1,100,0,0
117171,-100,4,3,1,100,0,0
119456,-66.6666666666667,4,3,3,100,0,1
119528,-66.6666666666667,4,3,1,5,0,1
119742,-66.6666666666667,4,3,1,100,0,1
124028,-66.6666666666667,4,3,3,100,0,0
128028,-66.6666666666667,4,3,1,100,0,0
128599,-66.6666666666667,4,3,2,100,0,0
137742,-80,4,3,3,100,0,1
137813,-100,4,3,1,5,0,1
138028,-66.6666666666667,4,3,1,100,0,1
144599,-57.1428571428571,4,3,1,100,0,1
144671,-57.1428571428571,4,3,1,5,0,1
144885,-66.6666666666667,4,3,1,100,0,1
150313,-50,4,3,1,100,0,1
150885,-66.6666666666667,4,3,1,100,0,1
153171,-66.6666666666667,4,3,3,100,0,0
153742,-80,4,3,1,100,0,0
155099,-66.6666666666667,4,3,1,20,0,0
155171,-66.6666666666667,4,3,1,100,0,0
161742,-66.6666666666667,4,3,1,100,0,0
162171,-100,4,3,1,100,0,0
162313,-66.6666666666667,4,3,1,100,0,0
162885,285.714285714286,3,2,1,100,1,0
169742,-80,3,3,1,80,0,0
172313,-66.6666666666667,3,3,1,80,0,0
173170,-80,3,3,1,100,0,0
176599,-80,3,3,3,100,0,0
176670,-80,3,3,1,5,0,0
176885,-80,3,3,1,100,0,0
183456,-66.6666666666667,3,3,2,100,0,0
186885,-66.6666666666667,3,3,1,100,0,0
188599,-66.6666666666667,3,3,3,100,0,0
189742,-66.6666666666667,3,2,1,40,0,0
190313,285.714285714286,4,3,1,100,1,0
192313,-66.6666666666667,4,3,1,100,0,0
197170,-66.6666666666667,4,3,1,100,0,0
198884,-50,4,3,1,100,0,0
199170,-66.6666666666667,4,3,1,100,0,0
206313,-66.6666666666667,4,3,1,85,0,0
208027,-66.6666666666667,4,3,1,100,0,0
208598,-66.6666666666667,4,3,1,100,0,1
224598,285.714285714286,3,2,1,100,1,0
224669,-100,3,2,1,50,0,0
228883,-100,3,1,1,5,0,0
241169,-100,3,2,1,50,0,0
241669,-133.333333333333,3,1,1,5,0,0
241740,-133.333333333333,3,1,1,100,0,0
241883,-133.333333333333,3,1,1,75,0,0
248526,-133.333333333333,3,1,1,5,0,0
248598,-100,3,1,1,75,0,0
255455,-100,3,3,1,75,0,0
269169,200,4,3,1,100,1,0
269169,-66.6666666666667,4,3,1,100,0,0
270769,-100,4,3,1,90,0,0
290969,200,3,3,3,100,1,0
290969,-66.6666666666667,3,3,3,100,0,1
293369,-100,3,3,3,100,0,1
295169,-66.6666666666667,3,3,3,100,0,1
310169,571.428571428571,4,3,1,100,1,0
310454,-100,4,3,1,90,0,0
310740,-100,4,3,1,80,0,0
311026,-100,4,3,1,70,0,0
311311,-100,4,3,1,60,0,0
311597,-100,4,3,1,50,0,0
311883,-100,4,3,1,40,0,0
312169,-100,4,3,1,30,0,0
312454,-100,4,2,1,20,0,0
335311,285.714285714286,4,3,1,100,1,0
336168,-133.333333333333,4,3,1,60,0,0
337596,-133.333333333333,4,3,1,100,0,0
338382,-133.333333333333,4,3,1,5,0,0
338453,-133.333333333333,4,3,1,100,0,0
339525,-133.333333333333,4,3,1,5,0,0
339596,-133.333333333333,4,3,1,100,0,0
339882,-66.6666666666667,4,1,1,100,0,0
341596,-50,4,1,1,100,0,0
342025,-100,4,1,1,100,0,0
355882,-66.6666666666667,4,1,1,100,0,1
358453,-133.333333333333,4,1,1,100,0,1
360453,-66.6666666666667,4,1,1,100,0,1
363882,-100,4,1,1,100,0,1
365025,-100,4,3,1,70,0,0
368739,-100,4,3,1,80,0,0
369596,-100,4,3,1,100,0,0
370739,-100,4,3,1,80,0,1
374168,-100,4,3,1,70,0,0
377596,-80,4,3,1,70,0,0
378739,-66.6666666666667,4,3,1,80,0,1
382739,-66.6666666666667,4,3,1,100,0,1
383311,-66.6666666666667,4,3,1,90,0,1
387882,-50,4,3,1,100,0,1
392453,-66.6666666666667,4,3,1,100,0,0
410739,-66.6666666666667,4,3,1,100,0,1
415311,-50,4,3,1,100,0,1
415596,-100,4,3,1,100,0,1
417596,-50,4,3,1,100,0,1
418311,-133.333333333333,4,3,1,100,0,1
419882,571.428571428571,3,3,1,100,1,0
420167,-100,3,1,1,95,0,0
420453,-100,3,1,1,90,0,0
420739,-100,3,1,1,85,0,0
421024,-100,3,1,1,80,0,0
421310,-100,3,1,1,75,0,0
421596,-100,3,1,1,70,0,0
421882,-100,3,1,1,65,0,0
422167,-100,3,1,1,60,0,0
422453,-100,3,1,1,55,0,0
422739,-100,3,1,1,50,0,0
423024,-100,3,1,1,45,0,0
423310,-100,3,1,1,40,0,0
423596,-100,3,1,1,35,0,0
423882,-100,3,1,1,30,0,0
424167,-100,3,1,1,25,0,0
424453,-100,3,1,1,20,0,0
424739,-100,3,1,1,15,0,0
425024,-100,3,1,1,10,0,0
425310,-100,3,1,1,5,0,0
425596,-50,4,2,1,50,0,0

[Colours]
Combo1 : 155,49,117
Combo2 : 254,40,71
Combo3 : 98,64,134
Combo4 : 185,132,230

[HitObjects]
131,85,887,5,4,0:2:0:0:
80,288,1172,1,0,0:0:0:0:
106,187,1458,1,0,0:0:0:0:
382,85,1744,5,8,0:0:0:0:
390,118,1815,1,0,0:0:0:0:
398,152,1887,1,8,0:0:0:0:
407,186,1958,1,0,0:0:0:0:
415,220,2029,1,4,0:3:0:0:
413,248,2100,1,4,0:3:0:0:
402,273,2171,1,4,0:3:0:0:
382,293,2243,1,4,0:3:0:0:
356,303,2315,1,4,0:3:0:0:
335,300,2386,1,4,0:3:0:0:
314,300,2458,2,4,P|281:312|260:333,1,35,4|4,0:3|0:3,0:3:0:0:
144,341,2601,5,8,0:0:0:0:
156,308,2672,1,0,0:0:0:0:
169,275,2744,1,8,0:0:0:0:
182,243,2815,1,0,0:0:0:0:
195,210,2887,1,4,0:3:0:0:
221,200,2958,1,4,0:3:0:0:
249,196,3029,1,4,0:3:0:0:
277,198,3101,1,4,0:3:0:0:
304,206,3172,1,4,0:3:0:0:
297,186,3243,1,4,0:3:0:0:
285,168,3314,1,4,0:3:0:0:
269,155,3386,1,4,0:3:0:0:
250,147,3458,6,0,B|166:111|166:111|152:77|163:35,1,140,8|0,0:0|0:0,0:0:0:0:
60,288,4029,1,12,0:0:0:0:
361,60,4315,6,0,B|399:71|399:71|445:160,1,131.25,4|0,0:0|0:0,0:0:0:0:
439,175,4602,5,8,0:0:0:0:
435,196,4672,1,0,0:0:0:0:
432,218,4744,1,8,0:0:0:0:
429,239,4815,1,0,0:0:0:0:
425,261,4887,1,8,0:0:0:0:
422,283,4958,1,0,0:0:0:0:
419,304,5029,1,8,0:0:0:0:
415,326,5101,1,0,0:0:0:0:
412,347,5172,5,8,0:0:0:0:
384,359,5243,1,0,0:0:0:0:
353,363,5314,1,8,0:0:0:0:
323,358,5386,1,0,0:0:0:0:
296,345,5457,1,8,0:0:0:0:
268,331,5529,1,0,0:0:0:0:
238,327,5601,1,8,0:0:0:0:
208,330,5672,1,0,0:0:0:0:
180,343,5743,1,8,0:0:0:0:
152,356,5815,1,0,0:0:0:0:
122,359,5886,1,8,0:0:0:0:
92,355,5958,1,0,0:0:0:0:
64,341,6029,5,8,0:0:0:0:
63,297,6100,1,0,0:0:0:0:
62,253,6171,1,8,0:0:0:0:
61,209,6243,1,0,0:0:0:0:
60,166,6314,1,8,0:0:0:0:
59,122,6387,1,0,0:0:0:0:
71,81,6458,1,8,0:0:0:0:
105,53,6529,1,0,0:0:0:0:
148,50,6601,1,8,0:0:0:0:
186,70,6672,1,0,0:0:0:0:
205,109,6744,1,8,0:0:0:0:
200,151,6815,1,0,0:0:0:0:
172,184,6887,5,8,0:0:0:0:
196,203,6958,1,0,0:0:0:0:
225,213,7029,1,8,0:0:0:0:
255,214,7101,1,0,0:0:0:0:
285,205,7172,1,8,0:0:0:0:
314,196,7244,1,0,0:0:0:0:
348,197,7315,1,8,0:0:0:0:
380,210,7386,1,0,0:0:0:0:
405,235,7458,5,8,0:0:0:0:
409,191,7529,1,8,0:0:0:0:
413,148,7600,1,8,0:0:0:0:
418,104,7672,1,8,0:0:0:0:
422,61,7744,5,12,0:3:0:0:
403,50,7815,1,4,0:3:0:0:
382,43,7886,1,4,0:3:0:0:
361,40,7958,1,4,0:3:0:0:
339,40,8029,1,4,0:3:0:0:
317,44,8101,1,4,0:3:0:0:
297,52,8172,1,4,0:3:0:0:
276,60,8243,1,4,0:3:0:0:
255,64,8315,1,4,0:3:0:0:
233,65,8386,1,4,0:3:0:0:
211,61,8458,1,4,0:3:0:0:
191,54,8529,1,4,0:3:0:0:
172,44,8601,5,12,0:3:0:0:
156,59,8672,1,4,0:3:0:0:
145,78,8744,1,4,0:3:0:0:
138,99,8815,1,4,0:3:0:0:
137,120,8886,1,4,0:3:0:0:
142,142,8958,1,4,0:3:0:0:
151,161,9029,1,4,0:3:0:0:
160,180,9101,1,4,0:3:0:0:
164,202,9173,1,4,0:3:0:0:
163,223,9244,1,4,0:3:0:0:
157,244,9316,1,4,0:3:0:0:
145,263,9387,1,4,0:3:0:0:
130,278,9458,5,12,0:3:0:0:
114,262,9529,1,4,0:3:0:0:
103,244,9600,1,4,0:3:0:0:
97,223,9672,1,4,0:3:0:0:
96,201,9743,1,4,0:3:0:0:
102,180,9815,1,4,0:3:0:0:
113,161,9886,1,4,0:3:0:0:
129,146,9957,1,4,0:3:0:0:
148,136,10029,1,4,0:3:0:0:
169,131,10100,1,4,0:3:0:0:
191,132,10172,1,4,0:3:0:0:
212,138,10243,1,4,0:3:0:0:
230,150,10315,5,12,0:3:0:0:
242,132,10386,1,4,0:3:0:0:
249,111,10457,1,4,0:3:0:0:
251,89,10529,1,4,0:3:0:0:
247,68,10600,1,12,0:3:0:0:
237,48,10672,1,4,0:3:0:0:
222,32,10743,1,4,0:3:0:0:
204,20,10814,1,4,0:3:0:0:
183,14,10886,1,12,0:3:0:0:
161,13,10957,1,4,0:3:0:0:
140,18,11029,1,4,0:3:0:0:
121,28,11100,1,4,0:3:0:0:
105,43,11172,6,0,L|137:177,1,131.25,4|0,0:0|0:0,0:0:0:0:
142,199,11458,5,8,0:0:0:0:
155,215,11529,1,0,0:0:0:0:
173,228,11600,1,8,0:0:0:0:
193,237,11672,1,0,0:0:0:0:
214,242,11743,1,8,0:0:0:0:
236,241,11815,1,0,0:0:0:0:
257,235,11886,1,8,0:0:0:0:
276,225,11957,1,0,0:0:0:0:
293,211,12029,5,8,0:0:0:0:
296,180,12100,1,0,0:0:0:0:
311,154,12171,1,8,0:0:0:0:
335,135,12243,1,0,0:0:0:0:
364,127,12314,1,8,0:0:0:0:
394,131,12386,1,0,0:0:0:0:
421,146,12457,1,8,0:0:0:0:
439,171,12528,1,0,0:0:0:0:
446,200,12600,1,8,0:0:0:0:
442,230,12671,1,0,0:0:0:0:
426,256,12743,1,8,0:0:0:0:
401,274,12814,1,0,0:0:0:0:
370,278,12887,5,8,0:0:0:0:
370,243,12958,1,0,0:0:0:0:
371,208,13029,1,8,0:0:0:0:
372,173,13101,1,0,0:0:0:0:
373,138,13172,1,8,0:0:0:0:
374,103,13244,1,0,0:0:0:0:
375,68,13315,1,8,0:0:0:0:
356,39,13386,1,0,0:0:0:0:
324,26,13457,1,8,0:0:0:0:
290,32,13529,1,0,0:0:0:0:
266,56,13600,1,8,0:0:0:0:
259,90,13672,1,0,0:0:0:0:
272,122,13744,5,4,0:3:0:0:
266,152,13815,1,0,0:0:0:0:
260,182,13887,2,0,L|247:243,1,43.75
185,158,14029,5,4,0:3:0:0:
178,187,14101,1,0,0:0:0:0:
172,217,14173,2,0,L|159:278,1,43.75
97,193,14315,5,4,0:3:0:0:
90,222,14387,1,0,0:0:0:0:
84,252,14459,2,0,L|71:313,1,43.75
178,328,14601,6,0,B|234:339|234:339|299:327,1,105.000004005432
400,351,14887,1,0,0:0:0:0:
451,177,15029,2,0,B|441:137|441:137|424:120|424:120|414:81,1,105.000004005432,2|0,0:0|0:0,0:0:0:0:
373,223,15315,1,0,0:0:0:0:
321,87,15458,1,0,0:0:0:0:
260,182,15601,1,0,0:0:0:0:
169,77,15744,6,0,P|112:68|55:90,1,105.000004005432
162,259,16029,2,0,P|219:268|276:246,1,105.000004005432
85,184,16315,6,0,P|56:241|119:363,1,210.000008010865
167,161,16744,2,0,B|205:153|205:153|232:163|232:163|270:154,2,105.000004005432
228,309,17172,2,0,P|268:277|284:227,1,105.000004005432
357,266,17458,2,0,P|363:215|339:169,1,105.000004005432
418,146,17744,2,0,P|386:105|336:89,1,105.000004005432
92,168,18029,5,0,0:0:0:0:
209,219,18172,1,0,0:0:0:0:
193,94,18315,1,0,0:0:0:0:
136,228,18458,1,0,0:0:0:0:
237,151,18601,1,0,0:0:0:0:
120,102,18744,1,0,0:0:0:0:
121,263,18887,5,0,0:0:0:0:
273,148,19030,1,0,0:0:0:0:
98,74,19173,1,0,0:0:0:0:
231,249,19316,1,0,0:0:0:0:
208,61,19459,1,0,0:0:0:0:
56,173,19602,1,0,0:0:0:0:
418,212,19744,6,2,P|483:104|354:129,1,315.000012016297,6|0,0:0|0:0,0:0:0:0:
424,142,20315,1,0,0:0:0:0:
471,277,20458,1,0,0:0:0:0:
348,315,20601,6,0,B|288:330|288:330|238:316,1,105.000004005432
65,248,20887,2,0,B|125:263|125:263|175:249,1,105.000004005432
364,95,21172,2,2,B|339:101|339:101|289:86|289:86|254:94,1,105.000004005432,2|0,0:0|0:0,0:0:0:0:
49,130,21458,5,6,0:0:0:0:
144,160,21744,5,4,0:0:0:0:
162,178,21815,1,4,0:0:0:0:
174,201,21886,1,4,0:0:0:0:
178,227,21958,1,4,0:0:0:0:
174,253,22029,1,4,0:0:0:0:
197,241,22100,1,4,0:0:0:0:
213,220,22172,2,4,P|222:182|222:160,1,52.5000020027161
187,50,22315,5,6,0:0:0:0:
198,59,22887,1,6,0:0:0:0:
232,84,23172,5,0,0:0:0:0:
252,95,23243,1,0,0:0:0:0:
272,104,23314,1,0,0:0:0:0:
293,110,23386,1,0,0:0:0:0:
314,114,23457,1,0,0:0:0:0:
336,117,23529,1,0,0:0:0:0:
358,116,23600,1,0,0:0:0:0:
379,114,23672,1,0,0:0:0:0:
401,109,23743,1,0,0:0:0:0:
422,102,23814,1,0,0:0:0:0:
441,93,23886,1,0,0:0:0:0:
460,82,23957,1,0,0:0:0:0:
478,70,24029,5,4,0:0:0:0:
476,102,24100,1,4,0:0:0:0:
474,135,24171,1,4,0:0:0:0:
472,168,24243,1,4,0:0:0:0:
470,201,24314,1,4,0:0:0:0:
468,233,24386,1,4,0:0:0:0:
467,266,24458,2,4,P|460:291|442:310,1,52.5000020027161
265,287,24601,1,4,0:2:0:0:
67,123,24887,6,0,B|121:120|121:120|155:82,1,105
175,58,25172,5,0,0:0:0:0:
218,174,25315,1,0,0:0:0:0:
264,40,25458,1,0,0:0:0:0:
296,191,25601,1,0,0:0:0:0:
354,22,25744,5,0,0:0:0:0:
374,208,25887,1,0,0:0:0:0:
469,47,26029,1,0,0:0:0:0:
298,122,26172,1,0,0:0:0:0:
481,162,26315,1,0,0:0:0:0:
354,22,26458,1,0,0:0:0:0:
297,216,26601,6,0,B|296:254|337:294|377:299|419:283|441:248|441:248|442:300|406:340|361:355,1,315.000012016297,4|0,0:2|0:0,0:0:0:0:
237,312,27172,2,0,L|126:336,1,105.000004005432
15,298,27458,5,0,0:0:0:0:
18,261,27529,1,0,0:0:0:0:
21,224,27600,1,0,0:0:0:0:
24,188,27672,1,0,0:0:0:0:
28,151,27743,1,4,0:0:0:0:
56,101,27815,1,4,0:0:0:0:
103,68,27886,1,4,0:0:0:0:
160,58,27958,1,4,0:0:0:0:
215,73,28029,1,4,0:0:0:0:
258,111,28101,1,4,0:0:0:0:
282,163,28172,1,4,0:0:0:0:
282,220,28244,1,4,0:0:0:0:
257,272,28315,5,4,0:0:0:0:
209,241,28386,1,4,0:0:0:0:
152,243,28457,1,4,0:0:0:0:
95,244,28529,1,4,0:0:0:0:
53,206,28600,1,4,0:0:0:0:
46,149,28671,1,4,0:0:0:0:
77,103,28743,1,4,0:0:0:0:
132,88,28814,1,4,0:0:0:0:
183,112,28886,1,4,0:0:0:0:
233,136,28958,1,4,0:0:0:0:
290,131,29029,1,4,0:0:0:0:
340,102,29101,1,4,0:0:0:0:
385,68,29172,6,0,B|409:33|489:22|514:94|498:153|450:166|414:157|414:157|374:218|374:218|434:239|484:221|512:197|512:197|523:241|492:268|492:268|463:300|481:343|481:343|425:315|371:337|371:337|326:356|282:326|282:326,1,822.5,4|0,0:1|0:0,0:0:0:0:
260,312,32601,5,4,0:2:0:0:
103,158,32743,1,4,0:2:0:0:
192,57,33743,5,4,0:0:0:0:
218,34,33814,1,4,0:0:0:0:
252,27,33885,1,4,0:0:0:0:
286,36,33957,1,4,0:0:0:0:
311,60,34028,1,4,0:0:0:0:
323,92,34100,1,0,0:0:0:0:
318,127,34171,1,4,0:0:0:0:
298,155,34243,1,0,0:0:0:0:
282,134,34315,5,4,0:0:0:0:
294,116,34387,1,4,0:0:0:0:
297,96,34458,1,4,0:0:0:0:
290,76,34530,1,4,0:0:0:0:
274,62,34601,1,4,0:0:0:0:
254,56,34673,1,4,0:0:0:0:
234,61,34744,1,4,0:0:0:0:
217,74,34815,1,4,0:0:0:0:
209,95,34886,5,4,0:2:0:0:
291,309,35028,1,4,0:2:0:0:
96,281,36029,5,0,0:0:0:0:
116,277,36100,1,0,0:0:0:0:
137,273,36171,1,0,0:0:0:0:
157,269,36243,1,0,0:0:0:0:
178,265,36314,1,0,0:0:0:0:
199,261,36386,1,0,0:0:0:0:
219,257,36457,1,0,0:0:0:0:
240,253,36529,1,0,0:0:0:0:
260,249,36600,5,4,0:0:0:0:
232,243,36672,1,4,0:0:0:0:
205,238,36743,1,4,0:0:0:0:
177,232,36815,1,4,0:0:0:0:
150,227,36886,1,4,0:0:0:0:
122,221,36958,1,0,0:0:0:0:
95,216,37029,1,0,0:0:0:0:
67,210,37101,1,0,0:0:0:0:
40,205,37172,6,0,L|453:124,1,420,4|0,0:1|0:0,0:0:0:0:
452,26,38315,2,0,L|39:107,1,420
91,219,39458,5,0,1:0:0:0:
126,243,39529,1,0,1:0:0:0:
169,252,39600,1,0,1:0:0:0:
211,244,39672,1,0,1:0:0:0:
248,220,39743,1,0,1:0:0:0:
284,195,39814,1,0,1:0:0:0:
326,187,39886,1,0,1:0:0:0:
369,196,39957,1,0,1:0:0:0:
405,221,40029,6,0,L|429:257,1,35,0|0,1:3|1:3,1:3:0:0:
325,273,40172,2,0,L|316:315,1,35,2|0,1:3|1:3,1:3:0:0:
231,253,40315,2,0,L|194:277,1,35,2|0,1:3|1:3,1:3:0:0:
178,172,40458,2,0,L|135:163,1,35,2|0,1:3|1:3,1:3:0:0:
318,61,40601,1,8,0:0:0:0:
187,92,41029,5,4,0:0:0:0:
187,92,41101,1,4,0:0:0:0:
187,92,41172,1,4,1:3:0:0:
178,172,41386,5,4,1:3:0:0:
169,252,41601,5,4,1:3:0:0:
308,280,41743,5,8,0:0:0:0:
227,314,41886,2,0,P|251:350|292:367,1,87.5
321,192,42173,2,0,P|278:195|241:222,1,87.5
379,337,42458,2,0,P|398:298|393:253,1,87.5
308,280,42743,1,0,0:0:0:0:
334,82,42886,5,8,0:0:0:0:
135,37,43029,2,0,B|99:52|99:52|60:95,1,87.5
90,192,43315,2,0,B|101:155|101:155|140:112,1,87.5
240,130,43601,2,0,B|204:145|204:145|165:188,1,87.5
165,315,43886,6,0,B|217:300|217:300|244:253,1,87.5,8|0,0:0|0:0,0:0:0:0:
363,287,44172,2,0,B|311:302|311:302|284:349,1,87.5
273,204,44458,2,0,P|306:175|348:171,1,87.5
359,80,44743,2,0,P|273:89|203:139,1,175
61,26,45172,5,4,0:2:0:0:
163,234,45315,1,0,0:2:0:0:
201,42,45458,1,4,0:2:0:0:
17,215,45601,1,0,0:2:0:0:
316,109,45743,2,0,B|352:119|352:119|405:172,1,87.5,4|0,0:2|0:2,0:2:0:0:
321,348,46029,2,0,B|285:338|285:338|232:285,1,87.5,4|0,0:2|0:2,0:2:0:0:
163,140,46315,5,8,0:0:0:0:
238,193,46458,2,0,P|211:218|153:235,1,87.5
170,46,46743,2,0,P|205:57|250:98,1,87.5
78,179,47029,2,0,P|70:142|83:83,1,87.5
163,140,47315,1,0,0:0:0:0:
355,272,47458,5,8,0:0:0:0:
442,90,47601,2,0,B|486:120|486:120|504:157,1,87.5
361,131,47886,2,0,B|365:77|365:77|383:49,1,87.5
437,179,48172,2,0,B|388:201|388:201|347:199,1,87.5
230,59,48458,6,0,B|208:104|208:104|216:171,1,87.5,8|0,0:0|0:0,0:0:0:0:
209,295,48743,2,0,B|231:250|231:250|223:183,1,87.5
137,149,49029,2,0,L|152:235,1,87.5
283,313,49315,2,0,B|308:263|308:263|289:130,1,175
62,54,49743,5,12,0:0:0:0:
129,300,49886,1,12,0:0:0:0:
220,61,50029,1,12,0:0:0:0:
6,201,50172,1,12,0:0:0:0:
260,214,50315,1,12,0:0:0:0:
135,166,50458,1,0,0:0:0:0:
135,166,50529,1,0,0:0:0:0:
135,166,50601,1,0,0:0:0:0:
135,166,50672,1,0,0:0:0:0:
135,166,50743,1,0,0:0:0:0:
135,166,50815,1,0,0:0:0:0:
135,166,50886,6,0,L|228:168,1,87.5,2|0,0:0|0:0,0:0:0:0:
360,36,51172,2,0,L|312:115,1,87.5,2|0,3:0|3:0,3:0:0:0:
361,295,51458,2,0,L|316:214,1,87.5,2|0,0:0|0:0,0:0:0:0:
135,166,51743,2,0,B|180:159|180:159|228:168,1,87.5,2|0,0:0|0:0,0:0:0:0:
215,253,52029,6,0,L|88:262,1,87.5,2|0,0:0|0:0,0:0:0:0:
151,88,52315,2,0,L|206:-25,1,87.5,2|0,0:0|0:0,0:0:0:0:
326,115,52601,2,0,L|396:219,1,87.5,2|0,0:0|0:0,0:0:0:0:
447,293,52886,1,0,0:0:0:0:
288,209,53029,6,0,P|246:215|204:243,1,87.5,8|0,0:0|0:0,0:0:0:0:
285,301,53315,2,0,P|327:295|369:267,1,87.5
229,143,53601,2,0,P|187:159|148:189,1,87.5
300,374,53886,2,0,P|386:351|453:282,1,175
188,51,54315,6,0,L|69:33,1,87.5,4|0,0:2|0:0,0:0:0:0:
324,51,54601,2,0,L|443:33,1,87.5,4|0,0:2|0:0,0:0:0:0:
256,326,54886,1,4,0:2:0:0:
256,282,54957,1,0,0:0:0:0:
256,238,55028,1,0,0:0:0:0:
256,194,55100,1,0,0:0:0:0:
256,151,55172,2,0,L|256:31,1,87.5,4|0,0:2|0:0,0:0:0:0:
163,175,55458,6,0,L|78:135,1,87.5,2|0,0:0|0:0,0:0:0:0:
106,263,55743,2,0,L|186:301,1,87.5,2|0,0:0|0:0,0:0:0:0:
349,175,56029,2,0,L|434:135,1,87.5,2|0,0:0|0:0,0:0:0:0:
405,263,56315,2,0,L|326:301,1,87.5,2|0,0:0|0:0,0:0:0:0:
214,37,56601,6,0,P|255:24|297:37,1,87.5,2|0,0:0|0:0,0:0:0:0:
216,180,56886,2,0,P|184:150|174:108,1,87.5,2|0,0:0|0:0,0:0:0:0:
337,106,57172,2,0,P|328:148|296:179,1,87.5,2|0,0:0|0:0,0:0:0:0:
255,108,57458,1,0,0:0:0:0:
100,183,57601,6,0,P|132:228|167:252,1,87.5,8|0,0:0|0:0,0:0:0:0:
225,27,57886,2,0,P|170:32|131:50,1,87.5
298,212,58172,2,0,P|321:161|325:119,1,87.5
76,111,58458,2,0,P|27:167|85:257,1,175
153,320,58886,5,4,0:2:0:0:
153,320,58958,1,0,0:2:0:0:
153,320,59029,2,0,L|172:272,1,43.75,4|0,0:2|0:2,0:2:0:0:
286,99,59172,2,0,L|267:147,1,43.75,4|0,0:2|0:2,0:2:0:0:
109,143,59315,2,0,L|157:162,1,43.75,4|0,0:2|0:2,0:2:0:0:
314,284,59458,1,4,0:2:0:0:
314,284,59529,1,0,0:2:0:0:
314,284,59601,1,4,0:2:0:0:
314,284,59672,1,0,0:2:0:0:
314,284,59743,1,4,0:2:0:0:
314,284,59815,1,0,0:2:0:0:
314,284,59886,1,4,0:2:0:0:
314,284,59958,1,0,0:2:0:0:
314,284,60029,6,0,P|365:265|360:190,1,131.25,14|0,0:2|0:0,0:0:0:0:
339,160,60315,5,8,0:0:0:0:
320,121,60386,1,0,0:0:0:0:
325,78,60459,1,8,0:0:0:0:
352,44,60529,1,0,0:0:0:0:
393,31,60601,1,8,0:0:0:0:
435,42,60672,1,0,0:0:0:0:
464,74,60743,1,8,0:0:0:0:
472,116,60815,1,0,0:0:0:0:
455,156,60886,1,8,0:0:0:0:
420,181,60957,1,0,0:0:0:0:
377,182,61029,1,8,0:0:0:0:
339,160,61101,1,0,0:0:0:0:
320,121,61173,5,8,0:0:0:0:
294,87,61243,1,0,0:0:0:0:
251,82,61315,1,8,0:0:0:0:
217,107,61386,1,0,0:0:0:0:
212,150,61458,1,8,0:0:0:0:
237,184,61529,1,0,0:0:0:0:
280,190,61601,1,8,0:0:0:0:
314,164,61672,1,0,0:0:0:0:
320,121,61744,1,8,0:0:0:0:
294,87,61814,1,0,0:0:0:0:
251,82,61886,1,8,0:0:0:0:
217,107,61957,1,0,0:0:0:0:
212,150,62029,1,8,0:0:0:0:
237,184,62100,1,0,0:0:0:0:
280,190,62171,1,8,0:0:0:0:
314,164,62243,1,0,0:0:0:0:
320,121,62315,6,0,B|328:62|328:62|355:16,1,87.5,2|0,0:0|0:0,0:0:0:0:
427,243,62601,2,0,B|419:302|419:302|392:348,1,87.5,2|0,0:0|0:0,0:0:0:0:
399,105,62886,2,0,B|454:82|454:82|508:82,1,87.5,2|0,0:0|0:0,0:0:0:0:
347,258,63172,2,0,B|292:281|292:281|239:281,1,87.5,2|0,0:0|0:0,0:0:0:0:
453,166,63458,2,0,B|500:202|500:202|526:248,1,87.5,2|0,0:0|0:0,0:0:0:0:
294,197,63744,2,0,B|246:161|246:161|220:115,1,87.5,2|0,0:0|0:0,0:0:0:0:
482,82,64029,1,2,0:0:0:0:
264,281,64172,1,2,0:0:0:0:
342,37,64314,1,2,0:0:0:0:
405,326,64457,1,2,0:0:0:0:
145,218,64601,6,0,P|117:147|159:100,1,131.25,4|0,0:2|0:0,0:0:0:0:
186,87,64886,5,8,0:0:0:0:
227,75,64957,1,0,0:0:0:0:
271,78,65028,1,8,0:0:0:0:
311,95,65100,1,0,0:0:0:0:
343,124,65171,1,8,0:0:0:0:
364,162,65243,1,0,0:0:0:0:
371,205,65314,1,8,0:0:0:0:
363,248,65386,1,0,0:0:0:0:
342,286,65457,1,8,0:0:0:0:
309,315,65528,1,0,0:0:0:0:
269,331,65600,1,8,0:0:0:0:
225,333,65671,1,0,0:0:0:0:
183,320,65743,5,8,0:0:0:0:
151,292,65814,1,0,0:0:0:0:
138,251,65885,1,8,0:0:0:0:
148,209,65957,1,0,0:0:0:0:
178,178,66028,1,8,0:0:0:0:
220,168,66100,1,0,0:0:0:0:
261,181,66171,1,8,0:0:0:0:
290,213,66242,1,0,0:0:0:0:
297,256,66314,1,8,0:0:0:0:
305,299,66387,1,0,0:0:0:0:
334,331,66458,1,8,0:0:0:0:
375,344,66529,1,0,0:0:0:0:
417,334,66601,1,8,0:0:0:0:
447,303,66672,1,0,0:0:0:0:
457,261,66744,1,8,0:0:0:0:
444,220,66815,1,0,0:0:0:0:
411,192,66886,6,0,L|326:121,1,87.5,8|0,0:0|0:0,0:0:0:0:
377,266,67172,1,0,0:0:0:0:
377,266,67315,2,4,L|326:223,1,43.75
203,124,67458,1,4,0:0:0:0:
190,82,67529,1,4,0:0:0:0:
207,43,67600,1,4,0:0:0:0:
245,24,67672,1,4,0:0:0:0:
288,33,67743,1,4,0:0:0:0:
312,68,67815,1,4,0:0:0:0:
310,111,67886,1,4,0:0:0:0:
280,141,67957,1,4,0:0:0:0:
237,146,68029,6,0,B|168:153|168:153|96:142,1,105.000004005432,4|0,0:2|0:2,0:2:0:0:
396,53,68315,2,0,B|465:46|465:46|537:57,1,105.000004005432,4|0,0:2|0:2,0:2:0:0:
385,363,68601,1,4,0:2:0:0:
366,300,68672,1,0,0:2:0:0:
347,237,68743,1,0,0:2:0:0:
328,174,68815,1,0,0:2:0:0:
310,111,68886,2,0,B|291:48|291:48|217:9,1,105.000004005432,4|0,0:2|0:2,0:2:0:0:
108,265,69172,5,8,0:0:0:0:
21,317,69315,2,0,B|-3:260|-3:260|14:209,1,87.5
196,313,69601,2,0,B|158:362|158:362|105:373,1,87.5,0|0,3:0|3:0,3:0:0:0:
106,163,69886,2,0,B|167:170|167:170|203:210,1,87.5
108,265,70172,1,0,0:0:0:0:
366,300,70315,5,8,0:0:0:0:
430,124,70458,2,0,B|417:73|417:73|390:44,1,87.5
350,110,70743,2,0,B|355:144|355:144|338:194,1,87.5
222,200,71029,2,0,B|264:168|264:168|281:132,1,87.5
71,43,71315,6,0,B|45:85|45:85|38:148,1,87.5,8|0,0:0|0:0,0:0:0:0:
123,317,71601,2,0,B|149:275|149:275|156:212,1,87.5
18,195,71886,2,0,B|27:225|27:225|74:255,1,87.5
232,225,72172,2,0,B|214:165|214:165|119:105,1,175
244,309,72601,5,4,0:2:0:0:
443,99,72743,1,0,0:2:0:0:
332,323,72886,1,4,0:2:0:0:
355,85,73028,1,0,0:2:0:0:
420,337,73172,2,0,B|417:273|417:273|393:219,1,87.5,4|0,0:2|0:2,0:2:0:0:
267,71,73458,2,0,B|270:135|270:135|294:189,1,87.5,4|0,0:2|0:2,0:2:0:0:
497,220,73743,5,8,0:0:0:0:
413,28,73886,2,0,B|402:80|402:80|420:124,1,87.5
301,142,74172,2,0,B|329:186|329:186|373:204,1,87.5
302,301,74458,2,0,B|354:312|354:312|398:294,1,87.5
497,220,74743,1,0,0:0:0:0:
157,325,74886,5,8,0:0:0:0:
79,106,75029,2,0,L|53:23,1,87.5
230,102,75315,2,0,L|203:185,1,87.5
131,257,75601,2,0,L|105:174,1,87.5
347,49,75886,6,0,B|362:103|362:103|354:159,1,87.5,8|0,0:0|0:0,0:0:0:0:
289,320,76172,2,0,B|274:266|274:266|282:210,1,87.5
433,143,76458,2,0,B|452:181|452:181|448:225,1,87.5
203,226,76743,2,0,B|165:150|165:150|171:61,1,175
418,64,77172,5,8,0:0:0:0:
276,259,77315,1,8,0:0:0:0:
505,184,77458,1,8,0:0:0:0:
276,110,77601,1,8,0:0:0:0:
418,305,77743,1,8,0:0:0:0:
418,64,77886,1,4,0:0:0:0:
404,105,77957,1,4,0:0:0:0:
390,147,78028,1,4,0:0:0:0:
377,188,78100,1,4,0:0:0:0:
363,230,78171,1,4,0:0:0:0:
349,271,78243,1,4,0:0:0:0:
336,313,78315,6,0,B|299:335|299:335|229:342,1,87.5,2|0,0:0|0:0,0:0:0:0:
74,171,78601,2,0,B|111:148|111:148|181:141,1,87.5,2|0,0:0|0:0,0:0:0:0:
134,373,78886,2,0,B|111:336|111:336|104:266,1,87.5,2|0,0:0|0:0,0:0:0:0:
276,110,79172,2,0,B|298:147|298:147|305:217,1,87.5,2|0,0:0|0:0,0:0:0:0:
110,106,79458,6,0,B|149:72|149:72|183:64,1,87.5,2|0,0:0|0:0,0:0:0:0:
183,143,79743,2,0,B|159:169|159:169|147:220,1,87.5,2|0,0:0|0:0,0:0:0:0:
243,292,80029,2,0,B|224:243|224:243|229:208,1,87.5,2|0,0:0|0:0,0:0:0:0:
362,295,80315,1,0,0:0:0:0:
457,119,80458,6,0,B|451:77|451:77|423:43,1,87.5,8|0,0:0|0:0,0:0:0:0:
311,191,80743,2,0,B|351:206|351:206|394:199,1,87.5
322,28,81029,1,0,0:0:0:0:
363,112,81172,1,4,0:0:0:0:
393,132,81243,1,4,0:0:0:0:
419,158,81314,1,4,0:0:0:0:
437,189,81386,1,4,0:0:0:0:
448,224,81457,1,4,0:0:0:0:
450,260,81529,1,4,0:0:0:0:
444,296,81601,2,4,P|433:315|418:331,1,43.75
85,203,81743,6,0,B|64:135|64:135|67:119,1,87.5,4|0,0:2|0:0,0:0:0:0:
277,243,82029,2,0,B|298:311|298:311|295:327,1,87.5,4|0,0:2|0:0,0:0:0:0:
140,347,82316,1,4,0:2:0:0:
160,285,82387,1,0,0:0:0:0:
181,223,82458,1,0,0:0:0:0:
201,160,82530,1,0,0:0:0:0:
221,98,82601,2,0,B|231:67|231:67|314:41,1,87.5,4|0,0:2|0:0,0:0:0:0:
461,93,82886,6,0,B|477:111|477:111|480:148|480:148|496:168,1,87.5,2|0,0:0|0:0,0:0:0:0:
407,145,83172,2,0,B|382:142|382:142|354:118|354:118|329:117,1,87.5,2|0,0:0|0:0,0:0:0:0:
252,227,83458,2,0,B|270:210|270:210|307:207|307:207|327:191,1,87.5,2|0,0:0|0:0,0:0:0:0:
303,280,83743,2,0,B|300:305|300:305|276:333|276:333|275:359,1,87.5,2|0,0:0|0:0,0:0:0:0:
120,327,84029,6,0,B|142:305|142:305|220:302,1,87.5,2|0,0:0|0:0,0:0:0:0:
155,232,84315,2,0,B|114:194|114:194|83:194,1,87.5,2|0,0:0|0:0,0:0:0:0:
150,73,84601,2,0,B|171:94|171:94|175:173,1,87.5,2|0,0:0|0:0,0:0:0:0:
243,106,84886,1,0,0:0:0:0:
395,37,85029,6,0,B|429:85|429:85|424:140,1,87.5,8|0,0:0|0:0,0:0:0:0:
303,280,85315,2,0,B|269:232|269:232|274:177,1,87.5
470,204,85601,2,0,B|422:238|422:238|367:233,1,87.5
151,143,85887,2,0,B|247:75|247:75|304:81,1,175
101,308,86315,6,0,B|60:276|60:276|50:241,1,87.5,4|0,0:2|0:2,0:2:0:0:
313,197,86601,2,0,B|321:232|321:232|302:279,1,87.5,4|0,0:2|0:2,0:2:0:0:
177,356,86886,1,12,0:0:0:0:
197,211,87029,1,12,0:0:0:0:
217,66,87172,1,12,0:0:0:0:
217,66,87458,6,0,B|221:78|251:91|270:93|289:95|311:95|311:95|332:95|346:87|355:78|365:66|362:47|357:36|347:21|337:18|327:14|309:14|297:18|286:30|279:45|278:57|280:70|288:80|297:87|311:95|311:95|338:96|362:102|375:122|378:147,1,420,2|8,0:0|0:0,0:0:0:0:
356,255,88599,1,0,0:0:0:0:
335,364,88885,1,0,0:0:0:0:
356,255,89171,2,0,B|326:178|244:197|244:197|162:216|133:140,1,280
213,122,90028,1,8,0:0:0:0:
173,256,90314,2,0,L|192:188,1,70,2|0,0:0|0:0,0:0:0:0:
153,323,90599,1,0,0:0:0:0:
213,122,90885,6,0,B|244:128|244:128|278:152|278:152|328:159|328:159|345:161|357:159|374:148|381:141|386:126|385:109|380:96|372:83|355:74|338:72|323:77|311:84|300:97|297:114|298:128|306:141|316:152|328:159|328:159|340:167|345:179|348:190|346:206|341:215,1,420,4|8,0:0|0:0,0:0:0:0:
205,375,92028,1,0,0:0:0:0:
273,294,92171,1,0,0:0:0:0:
341,214,92314,1,2,0:0:0:0:
273,294,92599,6,0,B|223:300|223:300|177:283|177:283|114:292|114:292|82:317|82:317|2:327,1,280
168,78,93457,1,4,0:0:0:0:
87,202,93742,1,0,0:0:0:0:
6,326,94028,2,8,L|47:262,2,46.6666666666667
164,266,94314,6,0,L|247:236,1,87.5,0|8,0:0|0:0,0:0:0:0:
249,48,94599,2,0,L|234:134,1,87.5,0|8,0:0|0:0,0:0:0:0:
396,229,94885,2,0,L|328:173,1,87.5,0|8,0:0|0:0,0:0:0:0:
226,348,95171,6,0,B|258:307|258:307|290:293,1,87.5,0|8,0:0|0:0,0:0:0:0:
435,135,95457,2,0,B|383:127|383:127|355:106,1,87.5,0|8,0:0|0:0,0:0:0:0:
147,60,95742,2,0,B|166:108|166:108|162:143,1,87.5,0|8,0:0|0:0,0:0:0:0:
139,301,96028,6,0,B|165:266|165:266|176:223,1,87.5,0|8,0:0|0:0,0:0:0:0:
231,8,96314,2,0,B|248:48|248:48|279:79,1,87.5,0|8,0:0|0:0,0:0:0:0:
438,234,96599,2,0,B|394:228|394:228|352:240,1,87.5,0|8,3:0|3:0,3:0:0:0:
96,232,96885,6,0,B|114:180|114:180|137:157,1,87.5,0|8,0:0|0:0,0:0:0:0:
400,305,97171,2,0,B|345:315|345:315|314:306,1,87.5,0|8,0:0|0:0,0:0:0:0:
312,5,97457,2,0,B|348:46|348:46|355:78,1,87.5,0|8,0:0|0:0,0:0:0:0:
180,311,97742,5,4,0:0:0:0:
180,311,97885,1,4,0:0:0:0:
158,174,98028,1,2,0:0:0:0:
180,311,98171,1,0,0:0:0:0:
136,37,98314,1,10,0:0:0:0:
332,311,98599,5,4,0:0:0:0:
332,311,98742,1,4,0:0:0:0:
376,37,98885,1,10,0:0:0:0:
354,174,99028,1,0,0:0:0:0:
332,311,99171,1,0,0:0:0:0:
256,328,99457,5,4,0:0:0:0:
256,56,99743,1,4,0:0:0:0:
256,328,100029,1,4,0:0:0:0:
256,56,100314,1,4,0:0:0:0:
397,352,100599,5,8,0:0:0:0:
399,331,100671,1,8,0:0:0:0:
402,306,100742,1,8,0:0:0:0:
405,276,100814,1,8,0:0:0:0:
409,241,100885,1,8,0:0:0:0:
414,201,100957,1,8,0:0:0:0:
419,157,101028,1,8,0:0:0:0:
425,108,101099,1,8,0:0:0:0:
432,54,101171,5,4,0:2:0:0:
432,54,101599,5,4,0:2:0:0:
252,277,101885,1,4,0:2:0:0:
432,54,102171,5,4,0:2:0:0:
252,277,102313,1,4,0:2:0:0:
81,277,102885,5,4,0:0:0:0:
84,242,102956,1,4,0:0:0:0:
88,207,103027,1,4,0:0:0:0:
92,172,103099,1,4,0:0:0:0:
96,137,103171,1,12,0:0:0:0:
342,137,103456,5,0,0:0:0:0:
384,225,103599,2,0,B|404:277|404:277|399:308,1,87.5,8|0,0:0|0:0,0:0:0:0:
291,60,103885,1,8,0:0:0:0:
274,155,104028,1,0,0:0:0:0:
257,251,104171,2,0,B|243:305|243:305|221:328,1,87.5,8|0,0:0|0:0,0:0:0:0:
302,54,104456,1,8,0:0:0:0:
384,225,104599,6,0,B|404:276|404:276|429:296,1,87.5,0|8,0:0|0:0,0:0:0:0:
435,87,104885,1,0,0:0:0:0:
435,87,105028,1,8,0:0:0:0:
305,222,105171,1,0,0:0:0:0:
410,364,105313,1,8,0:0:0:0:
463,224,105456,1,0,0:0:0:0:
303,351,105599,1,8,0:0:0:0:
201,60,105742,5,0,0:0:0:0:
86,191,105885,1,8,0:0:0:0:
155,350,106028,1,0,0:0:0:0:
252,134,106171,2,0,B|275:84|275:84|275:18,1,87.5,8|0,0:0|0:0,0:0:0:0:
168,241,106456,2,0,B|199:285|199:285|256:318,1,87.5,8|0,0:0|0:0,0:0:0:0:
349,231,106742,1,8,0:0:0:0:
118,114,106885,2,0,B|63:119|63:119|6:152,1,87.5,0|8,0:0|0:0,0:0:0:0:
18,244,107171,2,0,B|37:217|37:217|85:190,1,87.5,0|8,0:0|0:0,0:0:0:0:
185,166,107456,1,0,0:0:0:0:
185,166,107599,1,8,0:0:0:0:
88,273,107742,2,0,B|55:317|55:317|49:349,1,87.5,0|8,0:0|0:0,0:0:0:0:
218,313,108028,1,0,0:0:0:0:
218,313,108171,1,8,0:0:0:0:
371,136,108313,6,0,B|385:94|385:94|367:23,1,105.000004005432,4|0,0:2|0:0,0:0:0:0:
277,234,108599,1,0,0:0:0:0:
161,164,108742,2,0,B|136:127|136:127|135:53,1,105.000004005432,4|0,0:2|0:0,0:0:0:0:
277,234,109028,1,0,0:0:0:0:
253,45,109171,1,0,0:0:0:0:
391,220,109313,1,0,0:0:0:0:
291,348,109456,2,4,L|274:368,1,26.2500010013581
163,248,109599,2,4,L|146:268,1,26.2500010013581
319,120,109742,6,0,B|353:95|353:95|454:107,1,140,4|0,0:1|0:0,0:0:0:0:
481,293,110028,2,0,B|456:311|456:311|383:302,1,105.000004005432
166,137,110313,6,0,B|149:68|149:68|163:15,1,105.000004005432,0|8,0:0|0:0,0:0:0:0:
261,224,110599,1,0,0:0:0:0:
93,182,110742,2,0,B|32:145|32:145|4:97,1,105.000004005432,8|0,0:0|0:0,0:0:0:0:
194,238,111028,2,0,B|192:309|192:309|165:356,1,105.000004005432,8|0,0:0|0:0,0:0:0:0:
54,261,111313,1,8,0:0:0:0:
192,123,111456,6,0,B|228:107|228:107|308:118,1,105.000004005432,0|8,0:0|0:0,0:0:0:0:
465,178,111742,2,0,B|429:162|429:162|349:173,1,105.000004005432,0|8,0:0|0:0,0:0:0:0:
192,233,112028,2,0,B|228:217|228:217|308:228,1,105.000004005432,0|8,0:0|0:0,0:0:0:0:
465,288,112313,2,0,B|429:272|429:272|349:283,1,105.000004005432,0|8,0:0|0:0,0:0:0:0:
124,191,112599,5,0,0:0:0:0:
120,349,112742,1,8,0:0:0:0:
259,274,112885,1,0,0:0:0:0:
124,191,113028,1,8,0:0:0:0:
326,316,113171,5,0,0:0:0:0:
331,158,113313,1,8,0:0:0:0:
192,233,113456,1,0,0:0:0:0:
326,316,113600,1,8,0:0:0:0:
262,196,113742,6,0,B|240:137|240:137|246:69,1,105.000004005432,0|8,0:0|0:0,0:0:0:0:
401,233,114028,1,0,0:0:0:0:
401,233,114171,1,8,0:0:0:0:
316,124,114313,6,2,P|332:81|371:170,1,210.000008010865,2|0,0:0|0:0,0:0:0:0:
323,241,114742,1,8,0:0:0:0:
179,146,114885,5,0,0:0:0:0:
140,243,115028,1,8,0:0:0:0:
101,340,115171,1,0,0:0:0:0:
73,186,115313,2,0,B|75:128|75:128|122:83,1,122.500001168251,8|0,0:0|0:0,0:0:0:0:
228,246,115599,2,0,B|266:202|266:202|262:137,1,122.500001168251,8|0,0:0|0:0,0:0:0:0:
140,243,115885,1,8,0:0:0:0:
350,110,116028,6,0,B|422:101|422:101|477:113,1,122.500001168251,0|8,0:0|0:0,0:0:0:0:
416,176,116313,2,0,B|366:182|366:182|301:215,1,122.500001168251,0|8,0:0|0:0,0:0:0:0:
289,330,116599,2,0,B|339:278|339:278|384:256,1,122.500001168251,0|8,0:0|0:0,0:0:0:0:
488,262,116885,2,0,B|437:314|437:314|393:336,1,122.500001168251,0|8,0:0|0:0,0:0:0:0:
99,146,117171,6,0,P|102:84|180:191,1,350,4|0,0:1|0:0,0:0:0:0:
168,119,118028,1,8,0:0:0:0:
60,290,118313,5,4,0:0:0:0:
111,280,118384,1,4,0:0:0:0:
163,271,118455,2,4,L|217:261,1,35
358,329,118599,1,8,0:0:0:0:
351,290,118670,1,8,0:0:0:0:
345,252,118742,2,8,L|338:209,1,35
266,24,118885,1,4,0:0:0:0:
238,45,118956,1,4,0:0:0:0:
225,77,119027,1,4,0:0:0:0:
229,111,119099,1,4,0:0:0:0:
250,139,119170,1,12,0:0:0:0:
282,153,119242,1,4,0:0:0:0:
316,150,119313,2,4,P|344:142|364:128,1,35,12|4,0:0|0:0,0:0:0:0:
122,47,119456,6,0,L|78:225,1,157.500006008148,4|0,0:0|0:0,0:0:0:0:
71,245,119741,5,8,0:0:0:0:
90,292,119813,1,0,0:0:0:0:
136,316,119883,1,8,0:0:0:0:
186,304,119956,1,0,0:0:0:0:
216,263,120026,1,8,0:0:0:0:
213,212,120099,1,0,0:0:0:0:
177,175,120169,1,8,0:0:0:0:
125,170,120241,1,0,0:0:0:0:
84,200,120312,1,8,0:0:0:0:
71,245,120386,1,0,0:0:0:0:
90,292,120456,1,8,0:0:0:0:
136,316,120528,1,0,0:0:0:0:
186,304,120599,5,8,0:0:0:0:
232,279,120670,1,0,0:0:0:0:
283,268,120741,1,8,0:0:0:0:
335,271,120813,1,0,0:0:0:0:
385,289,120884,1,8,0:0:0:0:
436,293,120956,1,0,0:0:0:0:
478,264,121027,1,8,0:0:0:0:
491,214,121099,1,0,0:0:0:0:
470,168,121170,1,8,0:0:0:0:
423,146,121242,1,0,0:0:0:0:
372,155,121313,1,8,0:0:0:0:
320,155,121384,1,0,0:0:0:0:
281,122,121455,1,8,0:0:0:0:
274,71,121527,1,0,0:0:0:0:
302,28,121598,1,8,0:0:0:0:
352,14,121670,1,0,0:0:0:0:
398,36,121742,5,8,0:0:0:0:
365,77,121813,1,0,0:0:0:0:
332,118,121884,1,8,0:0:0:0:
299,159,121956,1,0,0:0:0:0:
266,200,122027,1,8,0:0:0:0:
233,240,122099,1,0,0:0:0:0:
191,271,122170,1,8,0:0:0:0:
140,273,122241,1,0,0:0:0:0:
96,245,122313,1,8,0:0:0:0:
76,197,122384,1,0,0:0:0:0:
86,147,122456,1,8,0:0:0:0:
123,110,122527,1,0,0:0:0:0:
174,101,122598,1,8,0:0:0:0:
226,112,122671,1,0,0:0:0:0:
270,141,122742,1,8,0:0:0:0:
299,184,122813,1,0,0:0:0:0:
311,235,122886,5,8,0:0:0:0:
354,261,122956,1,0,0:0:0:0:
404,249,123028,1,8,0:0:0:0:
431,205,123100,1,0,0:0:0:0:
418,156,123170,1,8,0:0:0:0:
375,129,123242,1,0,0:0:0:0:
325,141,123313,1,8,0:0:0:0:
298,185,123384,1,0,0:0:0:0:
311,235,123457,1,8,0:0:0:0:
354,261,123528,1,0,0:0:0:0:
404,249,123599,1,8,0:0:0:0:
431,205,123671,1,0,0:0:0:0:
418,156,123742,1,8,0:0:0:0:
375,129,123814,1,0,0:0:0:0:
325,141,123885,1,8,0:0:0:0:
298,185,123956,1,0,0:0:0:0:
311,235,124028,6,8,B|327:300|327:300|314:357,2,105.000004005432,2|0|0,0:0|0:0|0:0,0:0:0:0:
193,178,124456,2,0,B|177:243|177:243|190:300,2,105.000004005432,2|0|0,0:0|0:0|0:0,0:0:0:0:
75,121,124885,2,0,B|91:186|91:186|78:243,1,105.000004005432,2|0,0:0|0:0,0:0:0:0:
252,49,125171,6,0,B|313:32|313:32|377:32,2,105.000004005432,2|0|0,0:0|0:0|0:0,0:0:0:0:
340,156,125599,2,0,B|382:156|382:156|443:139,2,105.000004005432,2|0|0,0:0|0:0|0:0,0:0:0:0:
195,198,126028,2,0,B|174:234|174:234|158:295,1,105.000004005432,2|0,0:0|0:0,0:0:0:0:
331,350,126313,6,0,B|359:313|359:313|372:255,1,105.000004005432
96,212,126599,2,0,B|114:254|114:254|157:294,1,105.000004005432,4|0,0:2|0:2,0:2:0:0:
333,77,126885,2,0,B|286:71|286:71|230:88,1,105.000004005432,4|0,3:2|3:2,3:2:0:0:
372,255,127170,2,0,B|418:260|418:260|474:243,1,105.000004005432
428,44,127456,6,0,B|424:83|424:83|402:112|402:112|397:141,1,105.000004005432
294,264,127742,2,0,B|298:225|298:225|320:196|320:196|324:166,1,105.000004005432
440,325,128028,1,4,0:0:0:0:
400,328,128099,1,4,0:0:0:0:
361,331,128170,1,4,0:0:0:0:
322,334,128242,1,4,0:0:0:0:
283,337,128313,1,4,0:0:0:0:
165,346,128456,1,4,0:0:0:0:
115,95,128599,5,0,0:0:0:0:
115,95,128671,1,0,0:0:0:0:
115,95,128742,1,0,0:0:0:0:
100,248,128885,1,8,0:0:0:0:
204,142,129028,2,0,B|228:114|228:114|228:82|228:82|252:54,1,105.000004005432
383,73,129313,1,0,0:0:0:0:
279,179,129456,2,0,B|255:207|255:207|255:239|255:239|231:267,1,105.000004005432,8|0,0:0|0:0,0:0:0:0:
170,35,129742,5,0,0:0:0:0:
170,35,129813,1,0,0:0:0:0:
170,35,129885,1,0,0:0:0:0:
180,215,130028,1,8,0:0:0:0:
352,154,130171,2,0,B|375:144|375:144|457:156,1,105.000004005432
418,298,130456,1,0,0:0:0:0:
279,179,130599,2,0,B|258:164|258:164|228:87,1,105.000004005432,8|0,0:0|0:0,0:0:0:0:
338,230,130885,5,0,0:0:0:0:
343,235,130956,1,0,0:0:0:0:
348,241,131028,1,0,0:0:0:0:
191,338,131171,1,8,0:0:0:0:
93,217,131313,2,0,B|69:191|69:191|66:155|66:155|45:129,1,105.000004005432
143,158,131600,1,0,0:0:0:0:
241,279,131742,2,0,B|265:305|265:305|268:341|268:341|289:367,1,105.000004005432,8|0,0:0|0:0,0:0:0:0:
467,158,132028,6,0,B|483:155|497:143|502:121|487:98|487:98|455:65|455:65|403:52|403:52|378:28,1,210.000008010865,4|0,0:1|0:0,0:0:0:0:
397,198,132456,1,0,0:0:0:0:
239,109,132599,2,0,B|222:111|208:123|203:145|218:168|218:168|250:201|250:201|302:214|302:214|327:238,1,210.000008010865,4|0,0:1|0:0,0:0:0:0:
308,69,133027,1,0,0:0:0:0:
164,304,133171,6,0,B|129:291|129:291|89:295|89:295|62:286,1,105.000004005432
112,136,133456,1,0,0:0:0:0:
150,170,133527,1,0,0:0:0:0:
199,188,133598,1,0,0:0:0:0:
251,184,133670,1,0,0:0:0:0:
298,161,133742,2,0,B|332:174|332:174|359:204|359:204|385:215,1,105.000004005432
278,40,134028,1,0,0:0:0:0:
225,45,134099,1,0,0:0:0:0:
173,51,134170,1,0,0:0:0:0:
121,56,134242,1,0,0:0:0:0:
69,62,134313,6,0,B|31:92|31:92|30:160,1,105.000004005432
233,207,134599,2,0,B|225:159|225:159|166:124,1,105.000004005432
25,276,134885,2,0,B|70:292|70:292|129:259,1,105.000004005432
271,119,135171,2,0,B|225:102|225:102|166:135,1,105.000004005432
311,311,135456,5,4,0:0:0:0:
337,338,135527,1,4,0:0:0:0:
374,332,135598,1,4,0:0:0:0:
390,298,135670,1,4,0:0:0:0:
372,265,135742,2,0,B|350:233|350:233|321:220|321:220|303:190,1,105.000004005432,4|0,0:2|0:2,0:2:0:0:
410,33,136028,2,0,B|431:64|431:64|460:77|460:77|478:107,1,105.000004005432,4|0,0:2|0:2,0:2:0:0:
91,237,136313,5,0,0:0:0:0:
87,210,136384,1,0,0:0:0:0:
84,184,136455,1,0,0:0:0:0:
81,158,136527,1,0,0:0:0:0:
78,132,136599,5,4,0:0:0:0:
94,83,136670,1,4,0:0:0:0:
134,49,136741,1,4,0:0:0:0:
185,40,136813,1,0,0:0:0:0:
233,58,136884,1,0,0:0:0:0:
266,98,136956,1,0,0:0:0:0:
274,150,137027,1,4,0:0:0:0:
255,198,137099,1,0,0:0:0:0:
214,230,137171,1,4,0:0:0:0:
184,187,137242,1,4,0:0:0:0:
179,135,137313,1,4,0:0:0:0:
200,87,137385,1,4,0:0:0:0:
241,56,137456,1,4,0:0:0:0:
292,48,137528,1,4,0:0:0:0:
341,66,137599,1,4,0:0:0:0:
375,105,137671,1,4,0:0:0:0:
385,156,137742,6,0,B|383:200|383:200|366:238|366:238|363:282,1,131.25,12|0,0:3|0:0,0:0:0:0:
366,336,138028,5,8,3:2:0:0:
417,325,138099,1,0,3:2:0:0:
460,296,138170,1,8,3:2:0:0:
489,253,138242,1,0,3:2:0:0:
498,201,138313,1,8,3:2:0:0:
487,150,138385,1,0,3:2:0:0:
458,108,138456,1,8,3:2:0:0:
414,79,138528,1,0,3:2:0:0:
362,71,138599,1,8,3:2:0:0:
312,82,138670,1,0,3:2:0:0:
269,112,138742,1,8,3:2:0:0:
242,157,138813,1,0,3:2:0:0:
233,208,138885,5,8,0:2:0:0:
261,252,138956,1,0,0:2:0:0:
310,268,139027,1,8,0:2:0:0:
357,249,139099,1,0,0:2:0:0:
382,203,139170,1,8,0:2:0:0:
371,153,139242,1,0,0:2:0:0:
331,121,139313,1,8,0:2:0:0:
279,123,139385,1,0,0:2:0:0:
241,157,139456,1,8,0:2:0:0:
233,208,139528,1,0,0:2:0:0:
205,251,139599,1,8,0:2:0:0:
156,267,139670,1,0,0:2:0:0:
109,248,139742,1,8,0:2:0:0:
84,203,139813,1,0,0:2:0:0:
95,152,139885,1,8,0:2:0:0:
135,120,139956,1,0,0:2:0:0:
187,122,140028,5,8,0:2:0:0:
220,146,140099,1,0,0:2:0:0:
261,148,140170,1,8,0:2:0:0:
297,127,140242,1,0,0:2:0:0:
315,90,140313,1,8,0:2:0:0:
310,49,140385,1,0,0:2:0:0:
283,17,140456,1,8,0:2:0:0:
243,6,140528,1,0,0:2:0:0:
204,18,140599,1,8,0:2:0:0:
178,50,140670,1,0,0:2:0:0:
173,91,140742,1,8,0:2:0:0:
187,122,140813,1,0,0:2:0:0:
220,146,140884,1,8,0:2:0:0:
261,148,140955,1,0,0:2:0:0:
297,127,141027,1,8,0:2:0:0:
315,90,141099,1,0,0:2:0:0:
349,64,141171,5,8,0:2:0:0:
390,61,141242,1,0,0:0:0:0:
426,81,141313,1,8,0:2:0:0:
445,118,141385,1,0,0:0:0:0:
442,159,141456,1,8,0:2:0:0:
417,192,141528,1,0,0:0:0:0:
378,205,141599,1,8,0:2:0:0:
337,196,141671,1,0,0:0:0:0:
309,166,141742,1,8,0:2:0:0:
301,125,141813,1,0,0:0:0:0:
316,87,141885,1,8,0:2:0:0:
349,64,141957,1,0,0:0:0:0:
390,61,142028,2,8,P|441:103|440:169,1,105.000004005432,10|8,0:0|0:2,0:0:0:0:
253,314,142313,6,0,B|219:309|219:309|186:288|186:288|134:278,1,105.000004005432,8|0,0:0|0:0,0:0:0:0:
4,315,142599,1,0,0:0:0:0:
281,240,142742,2,0,B|247:235|247:235|214:214|214:214|162:204,1,105.000004005432,8|0,0:0|0:0,0:0:0:0:
32,241,143028,1,0,0:0:0:0:
309,166,143171,2,0,B|275:161|275:161|242:140|242:140|190:130,1,105.000004005432,8|0,0:0|0:0,0:0:0:0:
60,167,143456,6,0,B|69:102|69:102|110:64,1,105.000004005432,8|0,0:0|0:0,0:0:0:0:
299,84,143742,1,0,0:0:0:0:
218,205,143885,2,0,B|157:229|157:229|103:213,1,105.000004005432,8|0,0:0|0:0,0:0:0:0:
26,39,144171,1,0,0:0:0:0:
172,50,144313,2,0,B|223:90|223:90|236:144,1,105.000004005432,8|0,0:0|0:0,0:0:0:0:
279,341,144599,6,0,B|314:196|314:196|349:257,1,183.750001752377,4|0,0:1|0:0,0:0:0:0:
348,264,144885,1,0,0:0:0:0:
450,357,145028,1,0,0:0:0:0:
348,264,145171,1,0,0:0:0:0:
473,248,145313,1,0,0:0:0:0:
348,264,145456,1,0,0:0:0:0:
496,139,145599,1,0,0:0:0:0:
370,50,145742,5,0,0:0:0:0:
322,28,145813,1,0,0:0:0:0:
270,20,145884,1,0,0:0:0:0:
218,27,145956,1,0,0:0:0:0:
171,49,146028,2,0,B|154:81|154:81|156:119|156:119|142:146,1,105.000004005432,4|0,0:2|0:0,0:0:0:0:
221,348,146313,2,0,B|234:320|234:320|232:282|232:282|250:250,1,105.000004005432,4|0,0:2|0:0,0:0:0:0:
423,100,146599,2,0,B|405:131|405:131|407:169|407:169|393:197,1,105.000004005432,4|0,0:2|0:0,0:0:0:0:
159,304,146885,5,0,0:0:0:0:
57,195,147028,2,0,L|91:80,1,105.000004005432,2|0,0:0|0:0,0:0:0:0:
283,204,147313,2,0,L|166:232,1,105.000004005432,2|0,0:0|0:0,0:0:0:0:
178,4,147599,2,0,L|260:90,1,105.000004005432,2|0,0:0|0:0,0:0:0:0:
108,249,147885,2,0,P|94:342|206:361,1,210.000008010865,2|0,0:0|0:0,0:0:0:0:
283,204,148313,2,0,L|302:64,1,105.000004005432,2|0,0:0|0:0,0:0:0:0:
371,276,148599,2,0,L|390:416,1,105.000004005432,2|0,0:0|0:0,0:0:0:0:
458,207,148885,2,0,L|477:67,1,105.000004005432,2|0,0:0|0:0,0:0:0:0:
310,45,149171,5,2,0:0:0:0:
234,194,149313,1,0,0:0:0:0:
226,50,149456,1,2,0:0:0:0:
312,187,149599,1,0,0:0:0:0:
391,52,149742,1,2,0:0:0:0:
161,213,149885,1,0,0:0:0:0:
147,75,150028,1,2,0:0:0:0:
383,200,150171,1,0,0:0:0:0:
91,143,150313,6,0,B|74:359|74:359|111:307,1,280,4|0,0:2|0:0,0:0:0:0:
469,229,150742,1,0,0:0:0:0:
469,229,150885,2,0,B|481:67|481:67|453:105,1,210.000008010865,4|0,0:2|0:0,0:0:0:0:
386,206,151314,1,0,0:0:0:0:
233,27,151456,5,12,0:0:0:0:
205,230,151599,1,4,0:0:0:0:
81,73,151742,1,0,0:0:0:0:
81,73,151813,1,0,0:0:0:0:
81,73,151885,1,0,0:0:0:0:
81,73,151956,1,0,0:0:0:0:
81,73,152028,5,4,0:0:0:0:
62,120,152099,1,4,0:0:0:0:
83,167,152170,1,4,0:0:0:0:
130,186,152242,1,4,0:0:0:0:
178,166,152313,1,4,0:0:0:0:
197,119,152385,1,4,0:0:0:0:
178,72,152456,1,4,0:0:0:0:
131,51,152528,1,4,0:0:0:0:
81,73,152599,1,12,0:0:0:0:
80,125,152670,1,12,0:0:0:0:
102,171,152741,1,12,0:0:0:0:
144,203,152813,1,4,0:0:0:0:
195,213,152884,1,4,0:0:0:0:
245,198,152956,1,4,0:0:0:0:
283,163,153027,1,4,0:0:0:0:
301,115,153099,1,4,0:0:0:0:
296,63,153171,1,4,0:0:0:0:
408,323,153456,6,0,B|414:284|414:284|434:262|434:262|439:227,1,105.000004005432
370,152,153742,2,0,B|362:224|362:224|341:247|341:247|330:317,1,175,4|0,0:1|0:0,0:0:0:0:
244,361,154171,1,0,0:0:0:0:
157,317,154313,2,0,B|149:265|149:265|134:247|134:247|128:194,2,131.25
57,226,154885,2,0,B|53:173|53:173|80:130|80:130|77:102,1,131.25,2|0,0:0|0:0,0:0:0:0:
72,50,155171,5,0,0:0:0:0:
120,31,155242,1,0,0:0:0:0:
171,40,155313,1,0,0:0:0:0:
212,73,155385,1,0,0:0:0:0:
230,121,155456,1,0,0:0:0:0:
248,169,155528,1,0,0:0:0:0:
284,198,155600,1,0,0:0:0:0:
334,210,155671,1,0,0:0:0:0:
384,195,155742,1,0,0:0:0:0:
418,156,155814,1,0,0:0:0:0:
427,105,155885,1,0,0:0:0:0:
407,57,155957,1,0,0:0:0:0:
366,25,156028,5,0,0:0:0:0:
345,73,156099,1,0,0:0:0:0:
323,121,156170,1,0,0:0:0:0:
302,169,156242,1,0,0:0:0:0:
281,217,156313,1,0,0:0:0:0:
252,260,156384,1,0,0:0:0:0:
203,276,156455,1,0,0:0:0:0:
155,259,156527,1,0,0:0:0:0:
127,216,156598,1,0,0:0:0:0:
131,165,156670,1,0,0:0:0:0:
166,127,156741,1,0,0:0:0:0:
217,119,156813,1,0,0:0:0:0:
262,144,156885,1,0,0:0:0:0:
305,173,156956,1,0,0:0:0:0:
348,203,157027,1,0,0:0:0:0:
392,232,157099,1,0,0:0:0:0:
435,262,157170,5,0,0:0:0:0:
394,294,157242,1,0,0:0:0:0:
343,304,157313,1,0,0:0:0:0:
292,292,157385,1,0,0:0:0:0:
252,259,157456,1,0,0:0:0:0:
211,225,157528,1,0,0:0:0:0:
161,213,157600,1,0,0:0:0:0:
110,224,157671,1,0,0:0:0:0:
69,256,157742,2,0,P|125:301|149:149,1,315.000012016297
81,101,158313,6,0,L|75:158,1,52.5000020027161
158,79,158456,2,0,L|163:26,1,52.5000020027161
237,105,158599,2,0,L|231:162,1,52.5000020027161
314,83,158742,2,0,L|319:30,1,52.5000020027161
393,109,158885,1,0,0:0:0:0:
388,148,158956,1,0,0:0:0:0:
384,187,159027,1,0,0:0:0:0:
380,226,159099,1,0,0:0:0:0:
376,265,159171,2,0,L|323:259,1,52.5000020027161
243,346,159313,2,0,L|190:340,1,52.5000020027161
51,208,159456,5,0,0:0:0:0:
88,171,159527,1,0,0:0:0:0:
138,157,159599,2,0,P|164:155|189:162,1,52.5000020027161
296,238,159742,1,0,0:0:0:0:
329,270,159813,1,0,0:0:0:0:
373,283,159885,2,0,P|399:284|424:278,1,52.5000020027161
451,183,160028,1,0,0:0:0:0:
410,149,160099,1,0,0:0:0:0:
370,115,160171,2,0,L|307:62,1,52.5000020027161
169,48,160314,1,0,0:0:0:0:
209,81,160385,1,0,0:0:0:0:
250,116,160457,2,0,L|312:168,1,52.5000020027161
222,290,160599,5,0,0:0:0:0:
206,315,160670,1,0,0:0:0:0:
182,333,160741,1,0,0:0:0:0:
153,342,160813,1,0,0:0:0:0:
124,340,160884,1,0,0:0:0:0:
96,328,160956,1,0,0:0:0:0:
75,307,161027,1,0,0:0:0:0:
62,280,161099,1,0,0:0:0:0:
60,250,161170,1,0,0:0:0:0:
68,222,161241,1,0,0:0:0:0:
84,197,161313,2,0,P|103:178|127:167,1,52.5000020027161
309,328,161456,5,4,0:0:0:0:
312,275,161527,1,4,0:0:0:0:
315,223,161598,1,4,0:0:0:0:
319,170,161670,1,4,0:0:0:0:
322,118,161741,1,8,0:0:0:0:
309,328,162171,1,4,0:0:0:0:
322,118,162313,5,8,0:0:0:0:
203,158,162528,5,8,0:0:0:0:
84,197,162742,5,8,0:0:0:0:
170,256,162885,6,0,B|195:336,2,70,2|0|0,0:0|0:0|0:0,0:0:0:0:
134,114,163313,2,0,P|176:79|259:97,1,140,2|0,0:0|0:0,0:0:0:0:
241,213,163742,2,0,P|206:171|202:137,1,70,2|0,0:0|0:0,0:0:0:0:
421,194,164027,2,0,P|402:245|374:265,1,70,2|0,0:0|0:0,0:0:0:0:
315,47,164313,2,0,P|368:37|400:51,1,70,2|0,0:0|0:0,0:0:0:0:
306,268,164599,6,0,B|259:341|259:341|209:359,1,140,4|0,0:0|0:0,0:0:0:0:
84,243,165027,2,0,B|170:247|170:247|211:280,1,140,2|0,0:0|0:0,0:0:0:0:
142,384,165456,2,0,B|134:368|134:368|143:316,1,70,2|0,0:0|0:0,0:0:0:0:
400,315,165742,2,0,B|390:329|390:329|340:347,1,70,2|0,0:0|0:0,0:0:0:0:
212,127,166027,2,0,B|229:127|229:127|270:161,1,70,2|0,0:0|0:0,0:0:0:0:
84,243,166313,6,0,B|62:84|62:84|91:131,1,210,4|0,0:0|0:0,0:0:0:0:
160,249,166885,1,0,0:0:0:0:
137,56,167027,1,2,0:0:0:0:
235,255,167170,2,0,B|254:285|254:285|240:183,1,140,4|0,0:0|0:0,0:0:0:0:
321,204,167599,1,0,0:0:0:0:
403,186,167742,1,0,0:0:0:0:
438,109,167885,1,0,0:0:0:0:
325,34,168027,6,0,L|228:68,1,70,4|0,0:0|0:0,0:0:0:0:
248,309,168313,1,4,0:3:0:0:
268,281,168384,1,4,0:3:0:0:
277,247,168455,1,4,0:3:0:0:
271,213,168527,1,4,0:3:0:0:
253,183,168598,1,4,0:3:0:0:
234,153,168670,1,4,0:3:0:0:
229,119,168742,1,4,0:3:0:0:
237,85,168813,1,4,0:3:0:0:
258,57,168885,5,0,0:0:0:0:
277,85,168956,1,0,0:0:0:0:
281,120,169027,1,0,0:0:0:0:
268,152,169099,1,0,0:0:0:0:
241,174,169170,1,0,0:0:0:0:
207,181,169242,1,0,0:0:0:0:
174,171,169313,1,0,0:0:0:0:
150,146,169385,1,0,0:0:0:0:
139,113,169456,1,2,0:0:0:0:
418,79,169599,1,0,0:0:0:0:
418,79,169670,1,0,0:0:0:0:
418,79,169742,6,0,B|434:130|434:130|428:163,1,87.5
334,301,170027,1,8,0:0:0:0:
181,218,170170,2,0,B|138:183|138:183|130:118|130:118|85:87,1,175
65,317,170599,2,0,B|105:333|105:333|156:316,1,87.5,8|0,0:0|0:0,0:0:0:0:
64,161,170885,2,0,B|30:187|30:187|19:240,1,87.5
205,145,171170,1,8,0:0:0:0:
234,321,171313,1,0,0:0:0:0:
328,182,171456,6,0,B|344:138|344:138|327:91,1,87.5
286,245,171742,1,8,0:0:0:0:
395,221,171885,2,0,B|423:141|423:141|393:57,1,175
169,46,172313,2,0,L|205:145,1,105.000004005432,8|0,0:0|0:0,0:0:0:0:
73,128,172599,2,0,B|51:125|32:133|17:143|9:166|7:184|13:204|28:216|36:224|53:229|67:231|82:231|103:214|103:214|119:246|119:246|163:240|187:270,1,315.000012016297,2|0,0:0|0:0,0:0:0:0:
238,327,173170,5,4,0:1:0:0:
415,365,173313,1,0,0:0:0:0:
457,231,173456,1,0,0:0:0:0:
305,376,173599,1,0,0:0:0:0:
264,184,173742,1,0,0:0:0:0:
352,313,173885,1,0,0:0:0:0:
380,109,174027,5,4,0:1:0:0:
282,267,174170,1,0,0:0:0:0:
268,71,174313,1,0,0:0:0:0:
377,237,174456,1,0,0:0:0:0:
337,40,174599,1,0,0:0:0:0:
198,231,174742,1,0,0:0:0:0:
175,92,174885,6,0,B|143:61|143:61|94:50,1,87.5,4|0,0:2|0:0,0:0:0:0:
18,92,175170,1,2,0:2:0:0:
22,267,175313,2,0,B|25:283|37:300|51:304|73:307|86:301|104:290|104:290|116:309|116:309|146:306|163:323,1,175,2|0,0:2|0:0,0:0:0:0:
256,354,175742,5,4,0:0:0:0:
288,324,175813,1,4,0:0:0:0:
302,283,175884,1,4,0:0:0:0:
294,240,175956,1,4,0:0:0:0:
266,207,176027,1,4,0:0:0:0:
238,173,176099,1,4,0:0:0:0:
230,131,176171,1,4,0:0:0:0:
243,89,176242,1,4,0:0:0:0:
275,60,176313,2,0,L|329:139,1,87.5,4|0,0:2|0:0,0:0:0:0:
257,353,176599,6,0,L|180:240,1,131.25,4|0,0:0|0:0,0:0:0:0:
152,212,176885,5,8,0:0:0:0:
115,189,176956,1,0,0:0:0:0:
72,196,177027,1,8,0:0:0:0:
44,227,177099,1,0,0:0:0:0:
42,270,177170,1,8,0:0:0:0:
68,304,177242,1,0,0:0:0:0:
110,314,177313,1,8,0:0:0:0:
148,295,177385,1,0,0:0:0:0:
165,255,177456,5,8,0:0:0:0:
186,217,177527,1,0,0:0:0:0:
221,192,177598,1,8,0:0:0:0:
264,187,177670,1,0,0:0:0:0:
305,202,177741,1,8,0:0:0:0:
334,234,177813,1,0,0:0:0:0:
344,276,177884,1,8,0:0:0:0:
335,319,177956,1,0,0:0:0:0:
307,351,178027,1,8,0:0:0:0:
266,367,178098,1,0,0:0:0:0:
223,363,178170,1,8,0:0:0:0:
187,339,178241,1,0,0:0:0:0:
166,302,178313,5,8,0:0:0:0:
207,289,178384,1,0,0:0:0:0:
249,277,178455,1,8,0:0:0:0:
291,264,178527,1,0,0:0:0:0:
333,252,178598,1,8,0:0:0:0:
375,239,178670,1,0,0:0:0:0:
410,214,178741,1,8,0:0:0:0:
425,174,178812,1,0,0:0:0:0:
414,132,178884,1,8,0:0:0:0:
382,104,178955,1,0,0:0:0:0:
339,99,179027,1,8,0:0:0:0:
301,120,179098,1,0,0:0:0:0:
281,158,179170,5,8,0:0:0:0:
246,182,179241,1,0,0:0:0:0:
202,187,179312,1,8,0:0:0:0:
162,172,179384,1,0,0:0:0:0:
134,139,179455,1,8,0:0:0:0:
124,97,179527,1,0,0:0:0:0:
134,55,179598,1,8,0:0:0:0:
163,23,179670,1,0,0:0:0:0:
204,8,179741,1,8,0:0:0:0:
247,14,179812,1,0,0:0:0:0:
282,38,179885,2,0,P|296:55|302:76,1,43.75
287,287,180027,5,8,0:0:0:0:
251,311,180098,1,0,0:0:0:0:
208,315,180169,1,8,0:0:0:0:
169,297,180241,1,0,0:0:0:0:
144,261,180312,1,8,0:0:0:0:
140,218,180384,1,0,0:0:0:0:
158,179,180455,1,8,0:0:0:0:
193,154,180527,1,0,0:0:0:0:
236,150,180598,1,8,0:0:0:0:
276,168,180669,1,0,0:0:0:0:
301,203,180741,1,8,0:0:0:0:
305,246,180812,1,0,0:0:0:0:
287,287,180885,5,8,0:0:0:0:
252,260,180956,1,0,0:0:0:0:
217,233,181027,1,8,0:0:0:0:
183,206,181099,1,0,0:0:0:0:
148,179,181170,1,8,0:0:0:0:
123,143,181241,1,0,0:0:0:0:
122,100,181312,1,8,0:0:0:0:
146,64,181384,1,0,0:0:0:0:
186,48,181455,1,8,0:0:0:0:
228,57,181527,1,0,0:0:0:0:
258,88,181598,1,8,0:0:0:0:
265,130,181670,1,0,0:0:0:0:
247,170,181741,5,8,0:0:0:0:
229,209,181813,1,0,0:0:0:0:
236,252,181885,1,8,0:0:0:0:
266,283,181956,1,0,0:0:0:0:
308,292,182028,1,8,0:0:0:0:
348,275,182099,1,0,0:0:0:0:
372,240,182170,2,0,P|376:209|368:188,1,43.75,8|0,0:0|0:0,0:0:0:0:
192,122,182313,5,4,0:0:0:0:
183,164,182384,1,4,0:0:0:0:
175,207,182455,1,4,0:0:0:0:
167,250,182527,1,4,0:0:0:0:
159,293,182599,2,0,B|213:293|213:293|269:325|269:325|326:326|326:326|362:320|384:306|399:280|398:252|391:222|364:200|339:189|299:198|282:217|270:249,1,437.5,6|0,0:0|0:0,0:0:0:0:
191,369,183456,5,0,0:0:0:0:
246,85,183599,1,8,0:0:0:0:
191,369,183742,1,0,0:0:0:0:
98,145,183885,1,8,0:0:0:0:
191,369,184027,1,0,0:0:0:0:
162,52,184170,1,8,0:0:0:0:
380,291,184313,6,0,B|396:245|396:245|383:175,1,105.000004005432,4|8,0:2|0:0,0:0:0:0:
197,212,184599,2,0,B|228:248|228:248|295:272,1,105.000004005432,4|8,0:2|0:0,0:0:0:0:
356,93,184885,2,0,B|308:102|308:102|254:148,1,105.000004005432,4|8,2:2|0:0,2:0:0:0:
459,143,185170,5,0,0:0:0:0:
142,268,185313,1,8,0:0:0:0:
452,288,185456,1,0,0:0:0:0:
174,132,185599,1,8,0:0:0:0:
375,342,185742,1,0,0:0:0:0:
307,31,185885,1,8,0:0:0:0:
110,194,186027,2,2,B|90:203|81:212|72:220|63:231|54:258|53:275|58:296|66:313|77:327|89:339|107:349|129:357|146:355|170:348|188:338|200:323|200:323|245:333|245:333|252:311|266:287|286:274|310:268|330:266|330:266|307:230|326:189,1,525.000020027161,2|0,0:0|0:0,0:0:0:0:
277,69,186885,5,4,0:0:0:0:
142,268,187027,1,4,0:0:0:0:
228,183,187170,5,6,0:0:0:0:
126,100,187313,1,0,0:0:0:0:
330,266,187456,2,0,P|318:217|410:159,1,157.500006008148,8|0,0:0|0:0,0:0:0:0:
389,227,187742,5,4,0:0:0:0:
200,56,187885,1,4,0:0:0:0:
444,20,188027,5,6,0:0:0:0:
461,166,188170,1,0,0:0:0:0:
479,312,188313,2,0,B|481:341|498:358|498:358|465:348|441:346|411:349|393:363,1,157.500006008148,8|0,0:0|0:0,0:0:0:0:
365,379,188599,5,4,0:0:0:0:
78,298,188885,1,4,0:0:0:0:
291,90,189170,1,4,0:2:0:0:
244,255,189456,1,4,0:0:0:0:
426,183,189742,5,0,0:0:0:0:
423,170,189813,1,0,0:0:0:0:
421,157,189884,1,0,0:0:0:0:
418,144,189956,1,0,0:0:0:0:
416,131,190027,1,6,0:0:0:0:
109,113,190313,6,0,B|104:223|104:223|125:202,1,140,4|0,0:2|0:2,0:2:0:0:
176,71,190741,2,0,P|136:40|94:36,1,70,4|0,0:2|0:2,0:2:0:0:
38,265,191027,2,0,P|78:296|120:300,1,70,4|0,0:2|0:2,0:2:0:0:
236,132,191313,1,4,0:2:0:0:
394,319,191455,5,0,0:0:0:0:
383,344,191526,1,0,0:0:0:0:
358,355,191597,1,0,0:0:0:0:
332,345,191669,1,0,0:0:0:0:
319,321,191740,1,4,0:0:0:0:
327,295,191813,1,4,0:0:0:0:
347,266,191884,1,4,0:0:0:0:
356,232,191955,1,4,0:0:0:0:
353,198,192027,1,4,0:0:0:0:
339,166,192098,1,4,0:0:0:0:
324,134,192170,1,4,0:0:0:0:
321,99,192242,1,4,0:0:0:0:
331,66,192313,2,0,B|413:53|413:53|401:78,1,105.000004005432,4|0,0:1|0:0,0:0:0:0:
111,178,241169,6,0,P|104:218|183:159,1,245
162,104,241740,6,0,L|263:78,1,105.000004005432,4|0,0:0|0:0,0:0:0:0:
288,96,242312,1,0,0:0:0:0:
312,114,242598,1,0,0:0:0:0:
336,132,242883,1,0,0:0:0:0:
360,150,243170,1,0,0:0:0:0:
384,168,243455,1,0,0:0:0:0:
408,186,243740,1,0,0:0:0:0:
432,204,244027,1,0,0:0:0:0:
456,222,244312,1,0,0:0:0:0:
480,240,244598,1,0,0:0:0:0:
368,265,244883,6,4,L|259:235,1,105.000004005432
245,244,245455,1,0,0:0:0:0:
223,250,245740,1,0,0:0:0:0:
201,256,246026,1,0,0:0:0:0:
179,262,246312,1,0,0:0:0:0:
157,268,246598,1,0,0:0:0:0:
135,274,246883,1,0,0:0:0:0:
113,280,247169,1,0,0:0:0:0:
91,286,247455,1,0,0:0:0:0:
69,292,247740,1,0,0:0:0:0:
47,298,248027,1,0,0:0:0:0:
24,118,248312,6,4,L|113:139,1,78.7500030040742
138,145,248598,5,4,0:0:0:0:
138,145,248883,5,0,0:0:0:0:
172,237,249026,1,0,0:0:0:0:
206,329,249169,1,0,0:0:0:0:
206,329,249455,1,0,0:0:0:0:
138,145,249740,5,0,0:0:0:0:
172,237,249883,1,0,0:0:0:0:
206,329,250026,1,0,0:0:0:0:
243,192,250169,1,0,0:0:0:0:
243,192,250240,1,0,0:0:0:0:
243,192,250312,1,0,0:0:0:0:
396,213,250455,1,0,0:0:0:0:
256,270,250598,1,0,0:0:0:0:
409,291,250741,1,0,0:0:0:0:
323,86,250883,5,0,0:0:0:0:
323,86,251169,5,0,0:0:0:0:
323,86,251240,1,0,0:0:0:0:
323,86,251312,1,0,0:0:0:0:
323,86,251383,1,0,0:0:0:0:
323,86,251455,1,0,0:0:0:0:
170,115,251598,1,0,0:0:0:0:
176,273,251740,1,0,0:0:0:0:
329,244,251883,1,0,0:0:0:0:
323,86,252026,5,0,0:0:0:0:
170,115,252169,1,0,0:0:0:0:
17,144,252312,1,0,0:0:0:0:
329,244,252598,5,0,0:0:0:0:
227,264,252740,1,0,0:0:0:0:
125,282,252883,1,0,0:0:0:0:
23,302,253026,1,0,0:0:0:0:
227,264,253169,5,0,0:0:0:0:
205,342,253312,1,0,0:0:0:0:
165,212,253455,1,0,0:0:0:0:
187,134,253598,1,0,0:0:0:0:
375,56,253740,6,0,P|426:67|393:135,1,140,4|0,0:0|0:0,0:0:0:0:
295,182,254169,1,0,0:0:0:0:
215,56,254312,6,0,P|164:67|197:135,1,140,4|0,0:0|0:0,0:0:0:0:
295,182,254740,1,0,0:0:0:0:
269,311,254883,5,0,0:0:0:0:
37,322,255169,1,0,0:0:0:0:
256,136,336168,5,0,0:0:0:0:
84,52,336453,2,0,P|95:101|139:128,1,105.000004005432
427,52,337025,2,0,P|416:101|372:128,1,105.000004005432
51,349,337596,6,0,L|361:325,1,288.750011014939
410,322,338453,1,0,0:0:0:0:
461,35,338739,6,0,L|151:59,1,288.750011014939
102,62,339596,2,0,L|91:131,1,52.5000020027161
391,183,339882,6,0,P|343:160|290:171,1,105.000004005432
165,273,340168,1,0,0:0:0:0:
419,292,340311,2,0,P|371:315|318:303,1,105.000004005432
83,215,340597,1,0,0:0:0:0:
272,92,340739,2,0,P|323:82|374:89,1,105.000004005432
229,349,341025,6,0,L|104:358,1,105.000004005432
56,299,341311,1,0,0:0:0:0:
215,247,341453,1,0,0:0:0:0:
44,140,341596,6,0,B|24:113|22:83|38:61|61:41|79:37|109:39|147:59|151:91|139:125|139:125|193:93|193:93|214:119|247:131|285:119|302:101,1,420
