osu file format v14

[General]
AudioFilename: audio.mp3
AudioLeadIn: 0
PreviewTime: 335311
Countdown: 1
SampleSet: Soft
StackLeniency: 0.7
Mode: 0
LetterboxInBreaks: 0
WidescreenStoryboard: 0

[Editor]
Bookmarks: 5441,5726,6012,6584,6869,7155,7441,7726,8155,8584,8869,9155,9441,12012,12298,12584,12869,13441,13726,14012,15726,17155,18012,18869,19155,19441,19726,20298,20584,20869,21155,21726,22298,25726,29155,53172,54172,54315,61743,63886,81029,84886,86315,96569,97141,97998,109299,110013,110442,118998,119136
DistanceSpacing: 0.4
BeatDivisor: 4
GridSize: 4
TimelineZoom: 2

[Metadata]
Title:Fushoku rusanchiman, Fushi Yoku no Sarugakuza.
TitleUnicode:腐蝕ルサンチマン、不死欲の猿楽座。
Artist:Imperial Circus Dead Decadence
ArtistUnicode:Imperial Circus Dead Decadence
Creator:Hiro-chan
Version:Immortal
Source:
Tags:
BeatmapID:1564885
BeatmapSetID:741803

[Difficulty]
HPDrainRate:8
CircleSize:5
OverallDifficulty:9
ApproachRate:9.5
SliderMultiplier:2
SliderTickRate:1

[Events]
//Background and Video events
0,0,"45048064_p0.jpg",0,0
//Break Periods
//Storyboard Layer 0 (Background)
//Storyboard Layer 1 (Fail)
//Storyboard Layer 2 (Pass)
//Storyboard Layer 3 (Foreground)
//Storyboard Sound Samples

[TimingPoints]
866,285.714285714286,3,2,1,70,1,0
887,-133.333333333333,3,3,1,70,0,0
1172,-133.333333333333,3,2,1,40,0,0
1744,-133.333333333333,3,3,1,70,0,0
2744,-133.333333333333,3,3,1,50,0,0
2887,-133.333333333333,3,3,1,70,0,0
3458,-133.333333333333,3,2,1,70,0,0
4244,-133.333333333333,3,3,1,5,0,0
4315,-100,3,3,1,70,0,1
4458,-100,3,2,1,5,0,1
4584,285.714285714286,3,3,1,70,1,1
14584,-100,3,3,1,70,0,0
21155,-200,3,3,1,70,0,0
21441,-100,3,3,1,70,0,0
29155,-200,3,3,1,70,0,0
32601,285.714285714286,4,3,1,100,1,0
36012,285.714285714286,4,3,1,100,1,0
38315,285.714285714286,4,3,1,100,1,0
41585,285.714285714286,4,3,1,100,1,0
41743,285.714285714286,4,3,1,100,1,0
45458,-90.9090909090909,4,3,1,100,0,0
45743,-83.3333333333333,4,3,1,100,0,0
46458,-100,4,3,1,100,0,0
60029,-100,4,3,1,100,0,1
69172,-100,4,3,1,100,0,0
77743,262.008733624454,4,3,1,100,1,0
78314,285.714285714286,4,3,1,100,1,0
81009,285.714285714286,4,3,1,100,1,0
81314,263.157894736842,4,3,1,100,1,0
81742,285.714285714286,4,3,1,100,1,0
82300,285.714285714286,4,3,1,100,1,0
82884,285.714285714286,4,3,1,100,1,0
84741,-100,4,3,1,100,0,0
86312,285.714285714286,4,3,1,100,1,0
86863,285.714285714286,4,3,1,100,1,0
87019,-100,4,3,1,100,0,0
87457,285.714285714286,3,2,1,100,1,0
90596,285.714285714286,3,2,1,100,1,0
90885,285.714285714286,3,2,1,100,1,0
93446,285.714285714286,3,2,1,100,1,0
94017,335.195530726257,3,2,1,100,1,0
94313,285.714285714286,3,2,1,100,1,0
94427,285.714285714286,3,2,1,100,1,0
100630,275.229357798165,3,2,1,100,1,0
101171,285.714285714286,4,3,1,100,1,0
106157,310.880829015544,4,3,1,100,1,0
106442,285.714285714286,4,3,1,100,1,0
109442,257.510729613734,4,3,1,100,1,0
110013,285.714285714286,4,3,1,100,1,0
110695,342.857142857143,4,3,1,100,1,0
111013,285.714285714286,4,3,1,100,1,0
118298,221.40221402214,4,3,1,100,1,0
118584,276.497695852535,4,3,1,100,1,0
119441,306.122448979592,4,3,1,100,1,0
119551,-100,4,3,1,100,0,1
119747,251.046025104603,4,3,1,100,1,1
120171,266.666666666667,4,3,1,100,1,1
120672,266.666666666667,4,3,1,100,1,1
120938,410.958904109589,4,3,1,100,1,1
121158,319.148936170213,4,3,1,100,1,1
121397,253.164556962025,4,3,1,100,1,1
121682,253.164556962025,4,3,1,100,1,1
121832,253.164556962025,4,3,1,100,1,1
122097,253.164556962025,4,3,1,100,1,1
122309,277.777777777778,4,3,1,100,1,1
122430,437.956204379562,4,3,1,100,1,1
122539,222.222222222222,4,3,1,100,1,1
122723,222.222222222222,4,3,1,100,1,1
122943,222.222222222222,4,3,1,100,1,1
123079,301.507537688442,4,3,1,100,1,1
123850,301.507537688442,4,3,1,100,1,1
124031,285.714285714286,4,3,1,100,1,0
124602,272.727272727273,4,3,1,100,1,0
125165,280.373831775701,4,3,1,100,1,0
128029,280.373831775701,4,3,1,100,1,0
128290,280.373831775701,4,3,1,100,1,0
162885,285.714285714286,3,2,1,100,1,0
190313,285.714285714286,4,3,1,100,1,0
224598,285.714285714286,3,2,1,100,1,0
269169,200,4,3,1,100,1,0
290969,200,3,3,1,100,1,0
310169,571.428571428571,4,3,1,100,1,0
335311,285.714285714286,4,3,1,100,1,0
419882,571.428571428571,3,3,1,100,1,0

[HitObjects]
192,80,866,6,0,L|244:308,2,200,8|0|0,0:0|0:0|0:0,0:0:0:0:
66,203,1723,1,4,0:0:0:0:
66,203,1866,1,4,0:0:0:0:
175,308,2008,5,8,0:0:0:0:
175,308,2080,1,8,0:0:0:0:
175,308,2151,1,8,0:0:0:0:
297,247,2294,5,8,0:0:0:0:
311,245,2366,1,8,0:0:0:0:
326,247,2437,1,8,0:0:0:0:
341,250,2508,1,8,0:0:0:0:
356,259,2580,2,8,P|396:279|449:273,1,75.0000028610231
463,167,2866,5,0,0:0:0:0:
463,167,2937,1,0,0:0:0:0:
463,167,3008,1,0,0:0:0:0:
463,167,3080,1,0,0:0:0:0:
463,167,3151,1,0,0:0:0:0:
463,167,3223,1,0,0:0:0:0:
463,167,3294,1,0,0:0:0:0:
463,167,3366,1,0,0:0:0:0:
463,167,3437,2,0,B|314:151|314:151|453:98|453:98|321:47,1,412.500015735627
262,51,4294,6,0,L|146:84,1,112.500004291535,8|0,0:0|0:0,0:0:0:0:
39,93,4584,1,4,0:0:0:0:
108,20,4726,1,4,0:0:0:0:
148,158,4869,1,4,0:0:0:0:
263,218,5012,5,0,0:0:0:0:
285,229,5083,1,0,0:0:0:0:
307,241,5154,1,0,0:0:0:0:
329,253,5226,1,0,0:0:0:0:
351,264,5297,1,0,0:0:0:0:
373,276,5369,1,0,0:0:0:0:
393,289,5441,5,0,0:0:0:0:
371,301,5512,1,0,0:0:0:0:
349,313,5583,1,0,0:0:0:0:
327,326,5655,1,0,0:0:0:0:
306,339,5726,5,0,0:0:0:0:
345,336,5797,1,0,0:0:0:0:
385,333,5868,1,0,0:0:0:0:
425,330,5940,1,0,0:0:0:0:
465,327,6012,5,0,0:0:0:0:
462,312,6083,1,0,0:0:0:0:
458,298,6154,1,0,0:0:0:0:
454,283,6226,1,0,0:0:0:0:
451,269,6297,1,0,0:0:0:0:
447,254,6369,1,0,0:0:0:0:
444,239,6440,1,0,0:0:0:0:
440,225,6512,1,0,0:0:0:0:
435,209,6584,5,0,0:0:0:0:
444,170,6655,1,0,0:0:0:0:
453,131,6726,1,0,0:0:0:0:
462,92,6798,1,0,0:0:0:0:
471,53,6869,5,0,0:0:0:0:
432,64,6940,1,0,0:0:0:0:
394,75,7011,1,0,0:0:0:0:
356,86,7083,1,0,0:0:0:0:
317,98,7155,5,0,0:0:0:0:
279,87,7226,1,0,0:0:0:0:
240,76,7297,1,0,0:0:0:0:
202,65,7369,1,0,0:0:0:0:
162,55,7441,2,0,L|201:213,1,150
198,200,7726,5,0,0:0:0:0:
202,198,7797,1,0,0:0:0:0:
207,196,7868,1,0,0:0:0:0:
211,194,7940,1,0,0:0:0:0:
216,192,8011,1,0,0:0:0:0:
220,190,8083,1,0,0:0:0:0:
225,188,8155,5,0,0:0:0:0:
230,190,8226,1,0,0:0:0:0:
234,192,8297,1,0,0:0:0:0:
239,194,8369,1,0,0:0:0:0:
243,196,8440,1,0,0:0:0:0:
248,198,8512,1,0,0:0:0:0:
253,200,8584,5,0,0:0:0:0:
244,223,8655,1,0,0:0:0:0:
236,247,8726,1,0,0:0:0:0:
228,270,8798,1,0,0:0:0:0:
220,294,8869,5,0,0:0:0:0:
259,305,8940,1,0,0:0:0:0:
297,315,9011,1,0,0:0:0:0:
336,326,9083,1,0,0:0:0:0:
374,337,9155,5,0,0:0:0:0:
334,339,9226,1,0,0:0:0:0:
294,342,9297,1,0,0:0:0:0:
254,344,9369,1,0,0:0:0:0:
215,346,9441,5,0,0:0:0:0:
175,353,9512,1,0,0:0:0:0:
136,361,9583,1,0,0:0:0:0:
97,368,9655,1,0,0:0:0:0:
57,376,9726,5,0,0:0:0:0:
91,354,9797,1,0,0:0:0:0:
125,333,9868,1,0,0:0:0:0:
159,311,9940,1,0,0:0:0:0:
192,290,10012,5,0,0:0:0:0:
163,263,10083,1,0,0:0:0:0:
133,236,10154,1,0,0:0:0:0:
104,209,10226,1,0,0:0:0:0:
74,182,10298,2,0,L|160:92,1,100
256,40,10584,6,0,P|320:84|352:180,1,150
260,136,10869,2,0,P|280:200|256:312,1,150
352,270,11155,5,0,0:0:0:0:
353,260,11226,1,0,0:0:0:0:
355,250,11297,1,0,0:0:0:0:
357,240,11369,1,0,0:0:0:0:
358,230,11440,1,0,0:0:0:0:
360,220,11512,1,0,0:0:0:0:
362,210,11583,1,0,0:0:0:0:
363,201,11654,1,0,0:0:0:0:
365,191,11726,1,0,0:0:0:0:
367,181,11797,1,0,0:0:0:0:
369,171,11869,1,0,0:0:0:0:
370,161,11940,1,0,0:0:0:0:
372,149,12012,5,0,0:0:0:0:
369,134,12083,1,0,0:0:0:0:
366,119,12154,1,0,0:0:0:0:
363,104,12226,1,0,0:0:0:0:
360,87,12298,5,0,0:0:0:0:
348,103,12369,1,0,0:0:0:0:
337,119,12440,1,0,0:0:0:0:
325,136,12512,1,0,0:0:0:0:
312,152,12584,5,0,0:0:0:0:
288,144,12655,1,0,0:0:0:0:
264,137,12726,1,0,0:0:0:0:
240,130,12798,1,0,0:0:0:0:
216,123,12869,5,0,0:0:0:0:
217,132,12940,1,0,0:0:0:0:
219,142,13011,1,0,0:0:0:0:
220,152,13083,1,0,0:0:0:0:
222,162,13154,1,0,0:0:0:0:
223,172,13226,1,0,0:0:0:0:
225,182,13297,1,0,0:0:0:0:
226,192,13368,1,0,0:0:0:0:
228,202,13440,1,0,0:0:0:0:
334,253,13584,5,0,0:0:0:0:
176,342,13726,2,0,L|306:384,1,100
47,219,14012,2,0,L|155:254,1,100
70,40,14298,6,0,P|103:84|97:147,1,100
352,31,14584,2,0,L|192:63,1,150
204,60,14869,5,0,0:0:0:0:
334,146,15012,1,0,0:0:0:0:
418,98,15155,1,0,0:0:0:0:
339,244,15298,1,0,0:0:0:0:
207,221,15441,1,0,0:0:0:0:
312,340,15584,1,0,0:0:0:0:
453,181,15726,6,0,L|419:319,1,100
320,46,16012,2,0,L|337:171,1,100
79,58,16298,2,0,P|141:93|153:152,1,100
72,152,16584,2,0,P|94:219|63:276,1,100
265,287,16869,2,0,P|183:252|175:209,1,100
250,117,17155,6,0,L|249:229,1,100
229,37,17441,1,0,0:0:0:0:
229,37,17512,1,0,0:0:0:0:
229,37,17584,1,0,0:0:0:0:
471,40,17726,2,0,L|452:179,1,100
250,117,18012,5,0,0:0:0:0:
362,56,18155,1,0,0:0:0:0:
428,213,18298,1,0,0:0:0:0:
428,213,18441,1,0,0:0:0:0:
289,229,18584,1,0,0:0:0:0:
428,337,18726,1,0,0:0:0:0:
281,358,18869,6,0,P|224:352|172:302,1,100
140,377,19155,2,0,P|103:323|117:255,1,100
22,269,19441,2,0,P|70:209|131:206,1,100
190,240,19726,5,0,0:0:0:0:
94,104,19869,1,0,0:0:0:0:
201,26,20012,1,0,0:0:0:0:
234,153,20155,1,0,0:0:0:0:
82,309,20298,6,0,B|153:341|153:341|216:320,1,100
346,276,20584,2,0,B|275:308|275:308|212:287,1,100
98,214,20869,2,0,B|169:246|169:246|232:225,1,100
255,82,21155,6,0,L|255:168,1,75
290,198,21441,6,0,L|290:7,1,150
210,15,21726,1,0,0:0:0:0:
210,15,21869,1,0,0:0:0:0:
387,79,22012,5,0,0:0:0:0:
387,79,22084,1,0,0:0:0:0:
387,79,22155,1,0,0:0:0:0:
387,79,22226,1,0,0:0:0:0:
387,79,22298,6,0,L|388:193,1,100
469,340,22584,2,0,L|360:304,1,100
245,333,22869,1,0,0:0:0:0:
163,194,23155,1,0,0:0:0:0:
282,91,23298,5,0,0:0:0:0:
282,91,23369,1,0,0:0:0:0:
282,91,23441,1,0,0:0:0:0:
61,84,23584,1,0,0:0:0:0:
61,84,23655,1,0,0:0:0:0:
53,215,23798,5,0,0:0:0:0:
49,224,23869,1,0,0:0:0:0:
46,233,23940,1,0,0:0:0:0:
43,243,24012,1,0,0:0:0:0:
40,252,24083,1,0,0:0:0:0:
36,262,24155,1,0,0:0:0:0:
33,271,24226,1,0,0:0:0:0:
31,281,24298,6,0,L|100:386,1,100
192,152,24584,2,0,L|156:276,1,100
348,316,24869,5,0,0:0:0:0:
224,280,25012,1,0,0:0:0:0:
46,164,25155,5,0,0:0:0:0:
192,152,25298,1,0,0:0:0:0:
285,19,25441,5,0,0:0:0:0:
319,188,25584,1,0,0:0:0:0:
451,63,25726,2,0,L|335:100,1,100
112,174,26012,2,0,L|246:213,1,100
316,359,26298,2,0,P|250:316|252:273,1,100
319,188,26584,5,0,0:0:0:0:
216,78,26726,1,0,0:0:0:0:
112,174,26869,1,0,0:0:0:0:
329,283,27012,1,0,0:0:0:0:
445,102,27155,6,0,L|338:116,1,100
461,31,27441,1,0,0:0:0:0:
461,31,27512,1,0,0:0:0:0:
461,31,27584,1,0,0:0:0:0:
461,31,27655,1,0,0:0:0:0:
461,31,27726,5,0,0:0:0:0:
445,102,27869,1,0,0:0:0:0:
428,204,28012,1,0,0:0:0:0:
423,228,28083,1,0,0:0:0:0:
418,253,28154,1,0,0:0:0:0:
391,348,28298,2,0,L|257:385,1,100
92,195,28584,6,0,P|97:121|190:126,1,150
191,126,28869,2,0,P|189:196|121:216,1,150
142,160,29155,1,0,0:0:0:0:
256,192,29226,12,0,32512,0:0:0:0:
325,101,32601,5,0,0:0:0:0:
177,277,32743,1,0,0:0:0:0:
412,71,33743,5,0,0:0:0:0:
412,71,33815,1,0,0:0:0:0:
412,71,33886,1,0,0:0:0:0:
373,165,34029,5,0,0:0:0:0:
373,165,34101,1,0,0:0:0:0:
373,165,34172,5,0,0:0:0:0:
372,174,34243,1,0,0:0:0:0:
372,184,34314,1,0,0:0:0:0:
372,194,34386,1,0,0:0:0:0:
372,204,34457,1,0,0:0:0:0:
372,214,34529,1,0,0:0:0:0:
372,224,34600,1,0,0:0:0:0:
372,234,34672,1,0,0:0:0:0:
372,244,34743,1,0,0:0:0:0:
372,254,34814,1,0,0:0:0:0:
372,265,34886,2,0,L|235:337,1,150
216,332,36011,5,0,0:0:0:0:
195,317,36082,1,0,0:0:0:0:
175,302,36154,1,0,0:0:0:0:
155,288,36226,1,0,0:0:0:0:
134,273,36297,1,0,0:0:0:0:
114,259,36368,1,0,0:0:0:0:
94,244,36439,1,0,0:0:0:0:
73,230,36511,1,0,0:0:0:0:
53,215,36583,5,0,0:0:0:0:
73,200,36654,1,0,0:0:0:0:
93,185,36725,1,0,0:0:0:0:
113,171,36797,1,0,0:0:0:0:
134,156,36868,1,0,0:0:0:0:
154,142,36940,1,0,0:0:0:0:
174,127,37011,1,0,0:0:0:0:
195,113,37083,1,0,0:0:0:0:
216,100,37154,6,0,L|386:220,3,200
379,215,38315,6,0,L|209:335,3,200
359,349,39458,5,0,0:0:0:0:
359,349,39529,1,0,0:0:0:0:
359,349,39601,1,0,0:0:0:0:
499,215,39743,5,0,0:0:0:0:
499,215,39815,1,0,0:0:0:0:
499,215,39886,1,0,0:0:0:0:
499,215,39957,1,0,0:0:0:0:
499,215,40029,6,0,L|462:315,4,100
126,66,41029,5,0,0:0:0:0:
291,125,41172,1,0,0:0:0:0:
191,207,41386,1,0,0:0:0:0:
205,339,41585,1,0,0:0:0:0:
395,366,41743,5,0,0:0:0:0:
476,208,41886,2,0,P|495:266|485:323,1,100
291,125,42172,2,0,L|401:101,1,100
160,46,42458,2,0,L|308:46,1,100
83,204,42743,2,0,L|203:184,1,100
203,272,43029,6,0,L|70:302,1,100
314,367,43315,2,0,L|311:240,1,100
499,279,43601,2,0,L|377:318,1,100
372,186,43886,6,0,L|446:89,1,100
320,69,44172,2,0,L|350:-48,1,100
273,216,44458,2,0,L|241:114,1,100
67,31,44743,6,0,P|118:80|50:213,1,200
9,260,45172,2,0,P|49:288|57:360,1,100
170,284,45458,2,0,P|232:309|264:380,1,110.000003356934
360,299,45743,2,0,P|421:320|466:377,1,119.999996337891
435,231,46029,6,0,P|470:140|412:198,1,239.999992675781
249,154,46458,2,0,L|359:113,1,100
111,189,46743,2,0,L|213:228,1,100
198,26,47029,2,0,L|164:136,1,100
32,110,47315,2,0,L|44:225,1,100
161,308,47601,6,0,L|37:338,1,100
168,121,47886,2,0,L|128:239,1,100
251,36,48172,2,0,L|266:158,1,100
270,303,48458,2,0,L|363:225,1,100
159,357,48743,2,0,L|43:294,1,100
70,89,49029,2,0,L|123:228,1,100
257,21,49315,2,0,L|173:91,1,100
326,97,49601,2,0,L|460:103,1,100
441,244,49886,5,0,0:0:0:0:
316,169,50029,1,0,0:0:0:0:
286,340,50172,1,0,0:0:0:0:
378,302,50315,1,0,0:0:0:0:
185,228,50458,1,0,0:0:0:0:
124,342,50601,1,0,0:0:0:0:
285,251,50743,1,0,0:0:0:0:
128,112,50886,5,0,0:0:0:0:
128,112,51029,2,0,L|90:220,1,100
294,37,51315,2,0,L|190:48,1,100
185,228,51601,2,0,L|219:111,1,100
25,326,51886,2,0,L|149:345,1,100
35,118,52172,2,0,L|17:-7,1,100
212,131,52458,2,0,L|163:45,1,100
351,123,52743,2,0,L|426:215,1,100
225,302,53029,2,0,L|323:226,1,100
85,122,53315,5,0,0:0:0:0:
51,299,53458,1,0,0:0:0:0:
304,240,53601,1,0,0:0:0:0:
186,101,53743,1,0,0:0:0:0:
335,71,53886,6,0,P|403:80|464:209,1,200
283,334,54315,2,0,L|414:294,1,100
134,175,54601,2,0,L|251:204,1,100
10,334,54886,2,0,L|64:121,1,200
38,34,55315,1,0,0:0:0:0:
138,234,55458,2,0,L|307:344,1,200
129,326,55886,6,0,L|-12:304,1,100
262,239,56172,2,0,L|403:217,1,100
108,157,56458,2,0,L|9:141,1,100
212,11,56743,6,0,L|199:132,1,100
323,64,57029,2,0,L|454:40,1,100
443,244,57315,2,0,L|412:144,1,100
496,8,57601,2,0,L|496:153,1,100
336,207,57886,2,0,L|310:316,1,100
163,276,58172,2,0,L|37:335,1,100
382,350,58458,2,0,L|487:389,1,100
457,223,58743,6,0,L|486:108,1,100
362,28,59029,2,0,L|382:139,1,100
355,203,59315,1,0,0:0:0:0:
300,261,59458,1,0,0:0:0:0:
224,286,59601,1,0,0:0:0:0:
144,277,59743,1,0,0:0:0:0:
178,349,59886,1,0,0:0:0:0:
98,336,60029,6,0,P|75:280|188:213,1,200
239,170,60458,5,0,0:0:0:0:
242,166,60529,1,0,0:0:0:0:
246,162,60600,1,0,0:0:0:0:
249,159,60672,1,0,0:0:0:0:
253,155,60743,1,0,0:0:0:0:
256,152,60815,1,0,0:0:0:0:
260,148,60886,1,0,0:0:0:0:
263,145,60958,1,0,0:0:0:0:
267,141,61029,1,0,0:0:0:0:
270,138,61100,1,0,0:0:0:0:
274,134,61172,1,0,0:0:0:0:
277,130,61243,1,0,0:0:0:0:
281,127,61315,1,0,0:0:0:0:
284,123,61386,1,0,0:0:0:0:
288,120,61458,1,0,0:0:0:0:
291,116,61529,1,0,0:0:0:0:
295,113,61600,1,0,0:0:0:0:
298,109,61672,1,0,0:0:0:0:
302,106,61743,1,0,0:0:0:0:
378,80,61886,5,0,0:0:0:0:
381,94,61958,1,0,0:0:0:0:
384,108,62029,2,0,L|403:175,1,50
316,295,62172,5,0,0:0:0:0:
322,281,62243,1,0,0:0:0:0:
328,267,62315,2,0,L|359:194,1,50
394,344,62458,1,0,0:0:0:0:
186,362,62601,5,0,0:0:0:0:
173,353,62672,1,0,0:0:0:0:
160,345,62743,2,0,L|116:318,1,50
134,212,62886,5,0,0:0:0:0:
141,198,62958,1,0,0:0:0:0:
147,184,63029,2,0,L|173:133,1,50
242,58,63172,2,0,L|186:85,1,50
110,37,63315,2,0,L|127:111,1,50
240,137,63458,5,0,0:0:0:0:
255,133,63530,1,0,0:0:0:0:
270,131,63601,2,0,L|325:119,1,50
416,72,63743,2,0,L|375:119,1,50
367,182,63886,1,0,0:0:0:0:
367,182,64029,1,0,0:0:0:0:
280,372,64172,6,0,L|305:301,1,50
307,205,64315,2,0,L|313:274,1,50
244,271,64458,2,0,L|159:275,1,50
362,329,64601,2,0,L|431:361,1,50
471,373,64743,1,0,0:0:0:0:
484,215,64886,5,0,0:0:0:0:
471,223,64958,1,0,0:0:0:0:
459,231,65029,2,0,L|410:261,1,50
311,254,65172,1,0,0:0:0:0:
397,47,65315,6,0,L|364:99,1,50
299,101,65458,2,0,L|208:109,1,50
346,150,65601,2,0,L|360:199,1,50
311,254,65743,5,0,0:0:0:0:
304,267,65815,1,0,0:0:0:0:
299,281,65886,2,0,L|269:341,1,50
203,281,66029,2,0,L|149:320,1,50
118,334,66172,1,0,0:0:0:0:
157,211,66315,5,0,0:0:0:0:
154,196,66386,1,0,0:0:0:0:
151,182,66458,2,0,L|137:116,1,50
201,33,66601,2,0,L|142:92,1,50
39,76,66743,2,0,L|87:86,1,50
250,160,66886,6,0,L|201:124,2,50
385,108,67172,1,0,0:0:0:0:
462,288,67315,6,0,L|402:322,1,50
406,321,67458,1,0,0:0:0:0:
394,330,67529,1,0,0:0:0:0:
382,339,67601,2,0,L|322:373,1,50
215,333,67743,2,0,L|298:366,1,50
352,240,67886,2,0,L|324:295,1,50
245,252,68029,6,0,P|227:206|289:115,1,150
357,59,68315,2,0,P|248:37|173:64,1,150
126,121,68601,1,0,0:0:0:0:
126,121,68672,1,0,0:0:0:0:
126,121,68743,1,0,0:0:0:0:
126,121,68815,1,0,0:0:0:0:
126,121,68886,2,0,P|130:197|101:248,1,100
29,306,69172,5,0,0:0:0:0:
29,306,69315,2,0,L|9:174,1,100
46,60,69601,2,0,L|142:133,1,100
308,43,69886,2,0,L|165:60,1,100
196,211,70172,2,0,L|285:111,1,100
394,17,70458,6,0,L|413:137,1,100
512,120,70743,2,0,L|471:231,1,100
384,194,71029,2,0,L|273:232,1,100
403,318,71315,2,0,L|501:276,1,100
276,318,71601,2,0,L|389:402,1,100
183,251,71886,2,0,L|179:368,1,100
145,146,72172,6,0,P|2:214|-2:228,1,150
10,218,72458,1,0,0:0:0:0:
70,319,72601,2,0,P|113:254|91:218,1,100
176,78,72886,2,0,P|219:143|197:179,1,100
253,271,73172,2,0,P|316:257|436:315,1,200
484,384,73601,1,0,0:0:0:0:
464,121,73743,5,0,0:0:0:0:
464,121,73886,2,0,L|473:229,1,100
343,354,74172,2,0,L|441:309,1,100
346,235,74458,2,0,L|265:128,1,100
111,65,74744,2,0,L|233:66,1,100
105,149,75029,2,0,L|63:255,1,100
154,363,75315,6,0,L|20:328,1,100
260,233,75601,2,0,L|145:272,1,100
316,339,75886,2,0,L|449:335,1,100
237,140,76172,6,0,P|241:205|274:246,1,100
207,57,76458,2,0,P|160:102|151:154,1,100
181,220,76743,2,0,P|104:214|74:142,1,150
75,73,77029,1,0,0:0:0:0:
0,160,77172,1,0,0:0:0:0:
151,134,77315,1,0,0:0:0:0:
289,251,77458,5,0,0:0:0:0:
262,326,77601,1,0,0:0:0:0:
193,366,77743,2,0,L|144:375,1,50
262,326,77874,2,0,L|334:315,1,50
184,272,78005,2,0,L|134:244,1,50
241,199,78136,2,0,L|268:155,1,50
224,91,78315,5,0,0:0:0:0:
385,25,78458,2,0,L|276:51,1,100
457,143,78744,2,0,L|328:113,1,100
463,272,79029,2,0,L|372:210,1,100
271,224,79315,6,0,L|315:324,1,100
196,147,79601,2,0,L|155:281,1,100
169,50,79886,2,0,L|44:111,1,100
84,286,80172,6,0,L|63:169,1,100
264,264,80458,2,0,L|159:240,1,100
361,298,80743,2,0,L|273:365,1,100
335,223,81009,1,0,0:0:0:0:
335,223,81081,1,0,0:0:0:0:
335,223,81152,1,0,0:0:0:0:
280,139,81314,5,0,0:0:0:0:
280,139,81379,1,0,0:0:0:0:
280,139,81445,1,0,0:0:0:0:
280,139,81511,1,0,0:0:0:0:
280,139,81577,1,0,0:0:0:0:
280,139,81642,1,0,0:0:0:0:
280,139,81743,6,2,L|381:87,1,100,0|0,0:0|0:0,0:0:0:0:
128,45,82029,2,0,L|247:62,1,100
75,180,82300,1,0,0:0:0:0:
100,255,82442,1,0,0:0:0:0:
171,291,82585,1,0,0:0:0:0:
250,292,82728,1,0,0:0:0:0:
57,353,82886,5,0,0:0:0:0:
310,362,83029,2,0,L|381:266,1,100
421,134,83315,2,0,L|474:245,1,100
301,153,83601,2,0,L|340:39,1,100
161,16,83886,2,0,L|259:82,1,100
99,118,84172,6,0,L|117:231,1,100
162,331,84458,2,0,P|201:340|240:393,1,100
23,357,84743,2,0,P|0:287|11:247,1,100
17,241,84958,1,0,0:0:0:0:
31,221,85029,2,0,P|54:175|53:122,1,100
150,34,85315,6,0,P|146:87|170:143,1,100
340,76,85601,2,0,P|255:87|205:69,1,100
233,184,85886,2,0,L|256:296,1,100
278,382,86172,1,0,0:0:0:0:
445,273,86315,6,0,P|481:227|478:177,1,100
388,114,86601,2,0,P|381:69|403:43,2,50
482,188,86863,1,0,0:0:0:0:
379,229,87005,1,0,0:0:0:0:
285,194,87148,1,0,0:0:0:0:
250,110,87291,1,0,0:0:0:0:
266,31,87457,6,0,P|254:105|28:-24,1,500
136,55,88314,1,0,0:0:0:0:
50,328,88599,1,0,0:0:0:0:
357,210,88885,1,0,0:0:0:0:
128,233,89171,6,0,P|150:148|424:328,1,600
465,54,90314,5,0,0:0:0:0:
292,320,90599,1,0,0:0:0:0:
44,275,90885,6,0,P|268:229|294:61,1,400
214,14,91742,1,0,0:0:0:0:
175,333,92028,5,0,0:0:0:0:
483,212,92314,1,0,0:0:0:0:
408,38,92599,6,0,P|370:206|181:152,1,400
110,29,93446,5,0,0:0:0:0:
54,310,93731,1,0,0:0:0:0:
0,125,94017,1,0,0:0:0:0:
0,125,94100,1,0,0:0:0:0:
0,125,94184,1,0,0:0:0:0:
191,188,94314,5,0,0:0:0:0:
191,188,94427,2,0,L|297:227,1,100
373,162,94712,1,0,0:0:0:0:
454,350,94855,2,0,L|463:235,1,100
285,375,95141,2,0,L|379:331,1,100
257,126,95427,6,0,L|286:228,1,100
90,86,95712,2,0,L|42:215,1,100
138,261,95998,2,0,L|136:385,1,100
43,250,96284,1,0,0:0:0:0:
221,336,96427,1,0,0:0:0:0:
232,182,96569,6,0,P|300:139|344:140,1,100
305,44,96855,2,0,P|393:66|415:102,1,100
432,269,97141,2,0,P|379:262|323:311,1,100
300,363,97427,1,0,0:0:0:0:
365,130,97569,2,0,L|369:237,1,100
454,79,97855,1,0,0:0:0:0:
305,44,97998,5,0,0:0:0:0:
224,175,98141,1,0,0:0:0:0:
55,84,98284,2,0,P|66:138|45:187,1,100
17,275,98569,1,0,0:0:0:0:
17,275,98712,1,0,0:0:0:0:
123,328,98855,2,0,P|198:324|276:377,1,150
272,379,99141,1,0,0:0:0:0:
215,195,99427,5,0,0:0:0:0:
294,196,99712,1,0,0:0:0:0:
133,196,99998,1,0,0:0:0:0:
373,196,100284,1,0,0:0:0:0:
257,29,100630,5,0,0:0:0:0:
257,34,100698,1,0,0:0:0:0:
257,39,100767,1,0,0:0:0:0:
257,44,100836,1,0,0:0:0:0:
257,49,100905,1,0,0:0:0:0:
257,54,100974,1,0,0:0:0:0:
257,59,101042,1,0,0:0:0:0:
257,64,101111,1,0,0:0:0:0:
258,71,101171,6,0,L|258:186,1,100
174,60,101599,1,0,0:0:0:0:
174,160,101885,1,0,0:0:0:0:
174,300,102171,1,0,0:0:0:0:
174,300,102313,2,0,L|288:300,1,100
174,160,102599,2,0,L|288:160,1,100
425,135,102885,5,0,0:0:0:0:
431,153,102956,1,0,0:0:0:0:
431,173,103027,1,0,0:0:0:0:
426,193,103099,1,0,0:0:0:0:
414,211,103171,2,0,P|365:251|317:255,1,100
224,113,103456,6,0,P|230:176|206:217,1,100
124,273,103742,1,0,0:0:0:0:
80,108,103885,2,0,L|113:14,2,100
45,207,104313,1,0,0:0:0:0:
128,346,104456,2,0,L|222:377,2,100
317,317,104885,5,0,0:0:0:0:
408,177,105028,1,0,0:0:0:0:
172,71,105171,1,0,0:0:0:0:
281,198,105313,1,0,0:0:0:0:
434,42,105456,2,0,L|325:73,1,100
111,204,105742,6,0,L|123:327,1,100
52,366,106028,1,0,0:0:0:0:
317,317,106157,2,0,L|190:255,1,100
160,144,106442,2,0,L|292:108,1,100
37,36,106727,6,0,L|52:148,2,100
212,46,107156,2,0,L|332:28,1,100
162,149,107442,1,0,0:0:0:0:
162,149,107513,1,0,0:0:0:0:
162,149,107584,1,0,0:0:0:0:
314,197,107727,5,0,0:0:0:0:
314,197,107799,1,0,0:0:0:0:
314,197,107870,1,0,0:0:0:0:
401,82,108013,1,0,0:0:0:0:
401,82,108156,1,0,0:0:0:0:
397,225,108299,6,0,L|451:341,1,100
221,280,108584,1,0,0:0:0:0:
238,180,108727,2,0,L|261:65,1,100
133,55,109013,2,0,L|23:-5,1,100
89,169,109299,1,0,0:0:0:0:
26,272,109442,5,0,0:0:0:0:
31,280,109506,1,0,0:0:0:0:
37,288,109570,1,0,0:0:0:0:
43,296,109635,1,0,0:0:0:0:
49,303,109699,2,0,L|102:353,1,50
190,346,109828,2,0,L|200:394,1,50
318,275,110013,6,0,L|332:149,1,100
234,36,110298,2,0,L|253:148,1,100
319,41,110584,1,0,0:0:0:0:
162,165,110695,2,0,L|119:270,1,100
214,337,111013,2,0,P|274:339|323:388,1,100
398,210,111298,6,0,L|447:115,2,100
326,46,111727,2,0,P|255:65|195:38,1,100
80,147,112013,2,0,L|195:148,1,100
17,93,112298,1,0,0:0:0:0:
268,172,112441,1,0,0:0:0:0:
83,309,112584,6,0,L|126:205,1,100
115,62,112870,1,0,0:0:0:0:
326,46,113013,2,0,L|231:109,1,100
165,11,113298,1,0,0:0:0:0:
210,212,113441,1,0,0:0:0:0:
391,164,113584,6,0,L|461:243,2,100
238,57,114013,2,0,L|126:42,1,100
84,179,114298,2,0,L|149:170,2,50
339,159,114584,2,0,L|289:152,2,50
259,321,114870,6,0,L|225:203,1,100
350,375,115155,1,0,0:0:0:0:
350,375,115227,1,0,0:0:0:0:
350,375,115298,2,0,L|224:407,1,100
125,348,115584,2,0,L|4:382,1,100
52,164,115870,6,0,L|94:282,2,100
174,25,116298,2,0,L|153:140,1,100
256,258,116584,2,0,L|247:125,1,100
366,279,116870,2,0,P|397:325|356:341,1,100
352,352,117084,1,0,0:0:0:0:
332,354,117155,6,0,P|216:342|360:50,1,600
479,180,118298,2,0,L|347:211,1,100
237,235,118584,5,0,0:0:0:0:
212,235,118653,1,0,0:0:0:0:
187,229,118722,1,0,0:0:0:0:
167,220,118791,5,0,0:0:0:0:
135,195,118860,1,0,0:0:0:0:
115,160,118929,1,0,0:0:0:0:
110,121,118998,5,0,0:0:0:0:
108,96,119067,1,0,0:0:0:0:
99,76,119136,6,0,L|60:-1,3,50
49,222,119441,2,0,L|60:333,1,100
193,360,119747,5,0,0:0:0:0:
204,326,119809,1,0,0:0:0:0:
224,298,119872,1,0,0:0:0:0:
251,276,119935,1,0,0:0:0:0:
283,263,119998,2,0,P|310:249|345:251,1,50
397,224,120171,5,0,0:0:0:0:
393,220,120237,1,0,0:0:0:0:
390,216,120304,1,0,0:0:0:0:
387,212,120371,1,0,0:0:0:0:
384,208,120437,1,0,0:0:0:0:
380,204,120504,1,0,0:0:0:0:
377,201,120571,1,0,0:0:0:0:
357,177,120672,5,0,0:0:0:0:
342,156,120738,1,0,0:0:0:0:
330,133,120805,1,0,0:0:0:0:
323,109,120872,1,0,0:0:0:0:
318,71,120938,2,0,L|277:-1,1,50
256,19,121092,1,0,0:0:0:0:
230,40,121158,6,0,L|206:104,2,50
266,152,121397,1,0,0:0:0:0:
266,152,121460,1,0,0:0:0:0:
266,152,121523,1,0,0:0:0:0:
266,152,121586,1,0,0:0:0:0:
176,152,121682,6,0,L|87:140,1,50
130,213,121832,1,0,0:0:0:0:
124,242,121895,1,0,0:0:0:0:
110,268,121958,1,0,0:0:0:0:
87,288,122021,1,0,0:0:0:0:
62,304,122097,1,0,0:0:0:0:
67,312,122160,1,0,0:0:0:0:
72,321,122223,1,0,0:0:0:0:
79,332,122309,6,0,L|120:392,1,50
186,354,122430,1,0,0:0:0:0:
288,324,122539,5,0,0:0:0:0:
313,308,122594,1,0,0:0:0:0:
339,292,122650,1,0,0:0:0:0:
364,277,122723,5,0,0:0:0:0:
352,255,122778,1,0,0:0:0:0:
341,232,122834,1,0,0:0:0:0:
329,210,122889,1,0,0:0:0:0:
315,187,122943,5,0,0:0:0:0:
328,139,122998,1,0,0:0:0:0:
346,94,123079,5,0,0:0:0:0:
328,76,123154,1,0,0:0:0:0:
307,62,123229,1,0,0:0:0:0:
285,51,123305,1,0,0:0:0:0:
261,44,123380,1,0,0:0:0:0:
236,41,123455,1,0,0:0:0:0:
211,43,123531,1,0,0:0:0:0:
187,48,123606,1,0,0:0:0:0:
164,58,123682,1,0,0:0:0:0:
142,71,123757,1,0,0:0:0:0:
127,90,123850,6,0,L|87:150,1,50
58,213,124031,1,0,0:0:0:0:
20,90,124173,1,0,0:0:0:0:
12,273,124316,1,0,0:0:0:0:
12,273,124388,1,0,0:0:0:0:
12,273,124459,1,0,0:0:0:0:
181,262,124602,5,0,0:0:0:0:
53,341,124738,1,0,0:0:0:0:
235,332,124874,1,0,0:0:0:0:
235,332,124942,1,0,0:0:0:0:
235,332,125011,1,0,0:0:0:0:
288,174,125165,6,0,L|337:36,1,100
368,249,125445,1,0,0:0:0:0:
368,249,125515,1,0,0:0:0:0:
368,249,125585,1,0,0:0:0:0:
182,244,125725,1,0,0:0:0:0:
251,347,125865,5,0,0:0:0:0:
251,347,125936,1,0,0:0:0:0:
251,347,126006,1,0,0:0:0:0:
251,347,126076,1,0,0:0:0:0:
251,347,126146,1,0,0:0:0:0:
21,327,126286,6,0,L|146:296,1,100
75,128,126566,2,0,L|38:231,1,100
331,172,126847,2,0,P|194:181|137:241,1,200
245,67,127267,1,0,0:0:0:0:
267,269,127407,6,0,P|325:312|480:227,1,250
455,127,128029,1,0,0:0:0:0:
451,112,128099,1,0,0:0:0:0:
447,98,128169,1,0,0:0:0:0:
