osu file format v14

[General]
AudioFilename: audio.mp3
AudioLeadIn: 0
PreviewTime: 136218
Countdown: 1
SampleSet: Normal
StackLeniency: 0.7
Mode: 1
LetterboxInBreaks: 0
WidescreenStoryboard: 0

[Editor]
DistanceSpacing: 0.4
BeatDivisor: 4
GridSize: 32
TimelineZoom: 3.900003

[Metadata]
Title:Fushoku Rusanchiman
TitleUnicode:腐蝕ルサンチマン、不死欲の猿楽座
Artist:Imperial Circus Dead Decadence
ArtistUnicode:Imperial Circus Dead Decadence
Creator:TimmyAkmed
Version:Hakurian Oni
Source:
Tags:uhki power metal streams
BeatmapID:1269863
BeatmapSetID:601054

[Difficulty]
HPDrainRate:4
CircleSize:5
OverallDifficulty:7
ApproachRate:5
SliderMultiplier:1.4
SliderTickRate:1

[Events]
//Background and Video events
0,0,"DrkWrrirBG.jpg",0,100
//Break Periods
//Storyboard Layer 0 (Background)
//Storyboard Layer 1 (Fail)
//Storyboard Layer 2 (Pass)
//Storyboard Layer 3 (Foreground)
//Storyboard Sound Samples

[TimingPoints]
792,285.714285714286,3,1,0,70,1,0
29077,285.714285714286,4,1,0,70,1,8
40934,-111.111111111111,4,1,0,70,0,0
41505,-105.263157894737,4,1,0,70,0,0
41648,-100,4,1,0,70,0,0
87362,285.714285714286,3,1,0,70,1,0
87362,-125,4,1,0,70,0,0
93933,-117.647058823529,4,1,0,70,0,0
94004,-112.359550561798,4,1,0,70,0,0
94076,-107.52688172043,4,1,0,70,0,0
94147,-104.166666666667,4,1,0,70,0,0
94219,-100,4,1,0,70,0,0
101076,285.714285714286,4,1,0,70,1,0
119361,-100,4,1,0,70,0,1
128504,-100,4,1,0,70,0,0
137647,-100,4,1,0,70,0,1
153647,-105.263157894737,4,1,0,70,0,0
162218,-100,4,1,0,70,0,0
189361,-111.111111111111,4,1,0,70,0,0
189647,-109.89010989011,4,1,0,70,0,0
189718,-108.695652173913,4,1,0,70,0,0
189790,-107.52688172043,4,1,0,70,0,0
189861,-106.382978723404,4,1,0,70,0,0
189933,-105.263157894737,4,1,0,70,0,0
190004,-104.166666666667,4,1,0,70,0,0
190076,-103.092783505155,4,1,0,70,0,0
190147,-102.040816326531,4,1,0,70,0,0
190218,-100,4,1,0,70,0,0
224504,285.714285714286,4,1,0,70,1,0
224504,-111.111111111111,4,1,0,70,0,0
228789,-133.333333333333,4,1,0,70,0,0
229075,-142.857142857143,4,1,0,70,0,0
241646,285.714285714286,4,1,0,70,1,0
241646,-100,4,1,0,70,0,0
253646,285.714285714286,3,1,0,70,1,0
269074,200,4,1,0,70,1,0
270674,200,4,1,0,70,1,0
283474,200,3,1,0,70,1,0
285874,200,4,1,0,70,1,0
289874,400,4,1,0,70,1,0
290070,-25,4,1,0,70,0,0
290074,-100,4,1,0,70,0,0
290897,200,4,1,0,70,1,1
310097,571.428571428571,4,1,0,70,1,0
310097,-33.3333333333333,4,1,0,70,0,0
310382,-100,4,1,0,70,0,0
336097,-83.3333333333333,4,1,0,70,0,0
336668,-71.4285714285714,4,1,0,70,0,0
336811,-66.6666666666667,4,1,0,70,0,0
336954,-62.5,4,1,0,70,0,0
337525,285.714285714286,4,1,0,70,1,0
339800,285.714285714286,4,1,0,70,1,0
346640,285.714285714286,4,1,0,70,1,0
346640,-100,4,1,0,70,0,0
355782,-100,4,1,0,70,0,1
364925,-100,4,1,0,70,0,0
374068,-125,4,1,0,70,0,0
377782,-117.647058823529,4,1,0,70,0,0
377925,-111.111111111111,4,1,0,70,0,0
378354,-105.263157894737,4,1,0,70,0,0
378497,-103.092783505155,4,1,0,70,0,0
378568,-101.522842639594,4,1,0,70,0,0
378640,-100,4,1,0,70,0,0
378925,-95.2380952380952,4,1,0,70,0,0
383211,-100,4,1,0,70,0,0
392354,-100,4,1,0,70,0,0
410640,-111.111111111111,4,1,0,70,0,0
411497,-100,4,1,0,70,0,0
412925,-111.111111111111,4,1,0,70,0,0
413782,-100,4,1,0,70,0,0
419782,-66.6666666666667,4,1,0,70,0,0

[HitObjects]
128,192,792,5,4,0:0:0:0:
288,224,1649,1,8,0:0:0:0:
288,224,1792,1,8,0:0:0:0:
288,224,1934,1,0,0:0:0:0:
288,224,2077,1,0,0:0:0:0:
288,224,2220,1,0,0:0:0:0:
288,224,2292,1,0,0:0:0:0:
288,224,2363,1,0,0:0:0:0:
288,224,2434,1,0,0:0:0:0:
288,224,2506,1,8,0:0:0:0:
384,288,2649,1,0,0:0:0:0:
384,288,2792,1,0,0:0:0:0:
384,288,2863,1,0,0:0:0:0:
384,288,2934,1,0,0:0:0:0:
384,288,3006,1,0,0:0:0:0:
384,288,3077,1,0,0:0:0:0:
384,288,3149,1,0,0:0:0:0:
384,288,3220,1,0,0:0:0:0:
384,288,3292,1,0,0:0:0:0:
384,288,3363,1,8,0:0:0:0:
448,288,3934,1,8,0:0:0:0:
448,288,4220,1,4,0:0:0:0:
416,288,4506,1,8,0:0:0:0:
416,288,4649,1,0,0:0:0:0:
416,288,4720,1,0,0:0:0:0:
416,288,4792,1,8,0:0:0:0:
416,288,4863,1,0,0:0:0:0:
416,288,4934,1,8,0:0:0:0:
416,288,5006,1,8,0:0:0:0:
416,288,5077,1,0,0:0:0:0:
416,288,5149,1,8,0:0:0:0:
416,288,5220,1,0,0:0:0:0:
416,288,5292,1,0,0:0:0:0:
416,288,5363,1,8,0:0:0:0:
416,288,5434,1,8,0:0:0:0:
416,288,5506,1,0,0:0:0:0:
416,288,5577,1,0,0:0:0:0:
416,288,5649,1,8,0:0:0:0:
416,288,5720,1,0,0:0:0:0:
416,288,5792,1,8,0:0:0:0:
416,288,5863,1,8,0:0:0:0:
416,288,5934,1,0,0:0:0:0:
160,160,6006,1,0,0:0:0:0:
160,160,6077,1,8,0:0:0:0:
160,160,6149,1,0,0:0:0:0:
160,160,6220,1,8,0:0:0:0:
160,160,6292,1,8,0:0:0:0:
160,160,6363,1,0,0:0:0:0:
160,160,6434,1,0,0:0:0:0:
160,160,6506,1,8,0:0:0:0:
288,192,6577,1,8,0:0:0:0:
288,192,6649,1,0,0:0:0:0:
288,128,6720,1,0,0:0:0:0:
288,128,6792,1,8,0:0:0:0:
288,128,6863,1,0,0:0:0:0:
288,128,6934,1,8,0:0:0:0:
288,128,7006,1,8,0:0:0:0:
288,128,7077,1,0,0:0:0:0:
288,128,7149,1,8,0:0:0:0:
288,128,7220,1,0,0:0:0:0:
288,128,7292,1,0,0:0:0:0:
288,128,7363,1,8,0:0:0:0:
288,128,7434,1,8,0:0:0:0:
288,128,7506,1,8,0:0:0:0:
288,128,7577,1,8,0:0:0:0:
288,128,7649,1,0,0:0:0:0:
64,192,7720,1,0,0:0:0:0:
192,192,7792,1,0,0:0:0:0:
192,192,7863,1,0,0:0:0:0:
192,192,7934,1,0,0:0:0:0:
192,192,8006,1,0,0:0:0:0:
192,192,8077,1,0,0:0:0:0:
192,192,8149,1,0,0:0:0:0:
192,192,8220,1,0,0:0:0:0:
192,192,8292,1,0,0:0:0:0:
192,192,8363,1,0,0:0:0:0:
192,192,8434,1,0,0:0:0:0:
192,192,8506,1,8,0:0:0:0:
192,192,8577,1,0,0:0:0:0:
192,192,8649,1,0,0:0:0:0:
192,192,8720,1,0,0:0:0:0:
192,192,8792,1,0,0:0:0:0:
192,192,8863,1,0,0:0:0:0:
192,192,8934,1,0,0:0:0:0:
192,192,9006,1,0,0:0:0:0:
192,192,9077,1,8,0:0:0:0:
192,192,9149,1,0,0:0:0:0:
192,192,9220,1,0,0:0:0:0:
192,192,9292,1,0,0:0:0:0:
160,128,9363,1,0,0:0:0:0:
192,128,9434,1,0,0:0:0:0:
192,128,9506,1,0,0:0:0:0:
192,128,9577,1,0,0:0:0:0:
192,128,9649,1,0,0:0:0:0:
192,128,9720,1,0,0:0:0:0:
192,128,9792,1,0,0:0:0:0:
192,128,9863,1,0,0:0:0:0:
192,128,9934,1,0,0:0:0:0:
192,128,10006,1,0,0:0:0:0:
192,128,10077,1,0,0:0:0:0:
192,128,10149,1,0,0:0:0:0:
192,128,10220,1,8,0:0:0:0:
192,128,10292,1,0,0:0:0:0:
192,128,10363,1,0,0:0:0:0:
192,128,10434,1,0,0:0:0:0:
192,128,10506,1,8,0:0:0:0:
192,128,10577,1,0,0:0:0:0:
96,160,10649,1,0,0:0:0:0:
160,128,10720,1,0,0:0:0:0:
160,128,10792,1,8,0:0:0:0:
160,128,10863,1,8,0:0:0:0:
128,128,10934,1,0,0:0:0:0:
128,128,11006,1,0,0:0:0:0:
128,128,11077,1,8,0:0:0:0:
384,288,11149,1,8,0:0:0:0:
384,288,11220,1,8,0:0:0:0:
384,288,11292,1,8,0:0:0:0:
128,160,11363,1,0,0:0:0:0:
128,256,11434,1,8,0:0:0:0:
128,160,11506,1,0,0:0:0:0:
128,160,11577,1,8,0:0:0:0:
128,160,11649,1,0,0:0:0:0:
128,160,11720,1,8,0:0:0:0:
128,160,11792,1,0,0:0:0:0:
160,256,11863,1,8,0:0:0:0:
128,160,11934,1,0,0:0:0:0:
160,256,12006,1,8,0:0:0:0:
128,160,12077,1,0,0:0:0:0:
160,256,12149,1,8,0:0:0:0:
128,160,12220,1,0,0:0:0:0:
128,160,12292,1,8,0:0:0:0:
128,160,12363,1,0,0:0:0:0:
160,256,12434,1,8,0:0:0:0:
128,160,12506,1,0,0:0:0:0:
160,256,12577,1,8,0:0:0:0:
128,160,12649,1,0,0:0:0:0:
160,256,12720,1,8,0:0:0:0:
416,320,12792,1,0,0:0:0:0:
160,256,12863,1,8,0:0:0:0:
416,320,12934,1,0,0:0:0:0:
160,256,13006,1,8,0:0:0:0:
416,320,13077,1,0,0:0:0:0:
192,160,13149,1,8,0:0:0:0:
192,160,13220,1,0,0:0:0:0:
192,160,13292,1,8,0:0:0:0:
192,160,13363,1,0,0:0:0:0:
192,160,13506,1,0,0:0:0:0:
128,192,13649,1,4,0:0:0:0:
160,128,13792,1,8,0:0:0:0:
160,160,13934,1,0,0:0:0:0:
160,128,14077,1,8,0:0:0:0:
160,128,14149,1,8,0:0:0:0:
160,128,14220,1,0,0:0:0:0:
128,128,14292,1,0,0:0:0:0:
128,128,14363,1,8,0:0:0:0:
128,128,14434,1,8,0:0:0:0:
128,128,14506,1,0,0:0:0:0:
128,160,14649,1,8,0:0:0:0:
128,160,14792,1,0,0:0:0:0:
128,160,14863,1,0,0:0:0:0:
128,160,14934,1,8,0:0:0:0:
128,160,15077,1,0,0:0:0:0:
128,160,15220,1,8,0:0:0:0:
128,160,15363,1,0,0:0:0:0:
128,160,15506,1,8,0:0:0:0:
128,160,15577,1,8,0:0:0:0:
128,160,15649,1,0,0:0:0:0:
128,160,15720,1,0,0:0:0:0:
128,160,15792,1,8,0:0:0:0:
128,160,15934,1,0,0:0:0:0:
128,160,16077,1,8,0:0:0:0:
128,160,16220,1,0,0:0:0:0:
256,160,16292,1,0,0:0:0:0:
128,160,16363,1,8,0:0:0:0:
128,160,16506,1,0,0:0:0:0:
128,160,16577,1,0,0:0:0:0:
128,160,16649,1,8,0:0:0:0:
32,160,16720,1,8,0:0:0:0:
128,160,16792,1,0,0:0:0:0:
128,160,16934,1,8,0:0:0:0:
128,160,17077,1,0,0:0:0:0:
128,160,17220,1,8,0:0:0:0:
128,160,17363,1,0,0:0:0:0:
128,160,17434,1,8,0:0:0:0:
128,160,17506,1,8,0:0:0:0:
128,160,17649,1,0,0:0:0:0:
256,192,17720,1,0,0:0:0:0:
128,160,17792,1,8,0:0:0:0:
320,96,17934,1,0,0:0:0:0:
288,96,18006,1,0,0:0:0:0:
128,160,18077,1,8,0:0:0:0:
320,96,18149,1,8,0:0:0:0:
128,160,18220,1,0,0:0:0:0:
128,160,18292,1,0,0:0:0:0:
128,160,18363,1,8,0:0:0:0:
128,160,18506,1,0,0:0:0:0:
32,160,18649,1,8,0:0:0:0:
128,192,18720,1,8,0:0:0:0:
128,160,18792,1,0,0:0:0:0:
128,160,18934,1,8,0:0:0:0:
128,160,19077,1,0,0:0:0:0:
128,160,19149,1,0,0:0:0:0:
128,160,19220,1,8,0:0:0:0:
128,160,19363,1,0,0:0:0:0:
160,192,19434,1,0,0:0:0:0:
128,160,19506,1,8,0:0:0:0:
96,160,19577,1,0,0:0:0:0:
128,160,19649,1,8,0:0:0:0:
128,160,19792,1,8,0:0:0:0:
128,160,19934,1,0,0:0:0:0:
128,160,20006,1,0,0:0:0:0:
128,160,20077,1,8,0:0:0:0:
128,160,20220,1,0,0:0:0:0:
128,160,20363,1,8,0:0:0:0:
128,160,20434,1,8,0:0:0:0:
128,160,20506,1,0,0:0:0:0:
128,160,20577,1,0,0:0:0:0:
128,160,20649,1,8,0:0:0:0:
128,160,20792,1,0,0:0:0:0:
128,160,20934,1,8,0:0:0:0:
128,160,21077,1,8,0:0:0:0:
128,160,21149,1,8,0:0:0:0:
128,160,21220,1,8,0:0:0:0:
128,160,21292,1,8,0:0:0:0:
128,160,21363,1,0,0:0:0:0:
384,224,21649,1,0,0:0:0:0:
384,224,21792,1,0,0:0:0:0:
384,224,21934,1,0,0:0:0:0:
384,192,22006,1,0,0:0:0:0:
384,192,22077,1,0,0:0:0:0:
384,192,22149,1,0,0:0:0:0:
384,192,22220,1,8,0:0:0:0:
384,192,22506,1,8,0:0:0:0:
64,160,22792,1,0,0:0:0:0:
64,160,23077,1,0,0:0:0:0:
64,160,23220,1,8,0:0:0:0:
64,160,23292,1,8,0:0:0:0:
64,160,23363,1,0,0:0:0:0:
128,224,23434,1,0,0:0:0:0:
64,160,23506,1,0,0:0:0:0:
64,160,23577,1,0,0:0:0:0:
64,160,23649,1,8,0:0:0:0:
64,160,23720,1,8,0:0:0:0:
64,160,23792,1,0,0:0:0:0:
64,160,23863,1,0,0:0:0:0:
64,160,23934,1,8,0:0:0:0:
64,160,24006,1,8,0:0:0:0:
64,160,24077,1,8,0:0:0:0:
64,160,24149,1,8,0:0:0:0:
64,160,24220,1,0,0:0:0:0:
64,160,24292,1,0,0:0:0:0:
64,160,24363,1,0,0:0:0:0:
64,160,24434,1,0,0:0:0:0:
64,160,24506,1,8,0:0:0:0:
160,224,24792,1,12,0:0:0:0:
160,224,25077,1,0,0:0:0:0:
160,224,25220,1,0,0:0:0:0:
160,224,25363,1,0,0:0:0:0:
32,160,25506,1,0,0:0:0:0:
32,160,25649,1,8,0:0:0:0:
32,160,25792,1,0,0:0:0:0:
32,160,25934,1,8,0:0:0:0:
160,192,26006,1,8,0:0:0:0:
64,128,26077,1,8,0:0:0:0:
64,128,26220,1,0,0:0:0:0:
64,128,26363,1,0,0:0:0:0:
64,128,26434,1,0,0:0:0:0:
64,128,26506,1,8,0:0:0:0:
64,128,26649,1,0,0:0:0:0:
64,96,26792,1,0,0:0:0:0:
64,96,26934,1,0,0:0:0:0:
64,96,27006,1,0,0:0:0:0:
64,96,27077,1,8,0:0:0:0:
64,96,27220,1,8,0:0:0:0:
64,96,27363,1,0,0:0:0:0:
64,96,27506,1,0,0:0:0:0:
64,96,27577,1,0,0:0:0:0:
64,96,27649,1,0,0:0:0:0:
64,96,27792,1,0,0:0:0:0:
64,96,27934,1,0,0:0:0:0:
64,96,28077,1,0,0:0:0:0:
64,96,28220,1,12,0:0:0:0:
96,224,28363,1,8,0:0:0:0:
96,224,28506,1,8,0:0:0:0:
96,224,28649,1,0,0:0:0:0:
96,224,28720,1,0,0:0:0:0:
256,320,28792,1,0,0:0:0:0:
96,224,28934,1,0,0:0:0:0:
96,224,29006,1,0,0:0:0:0:
96,224,29077,1,8,0:0:0:0:
448,320,32505,1,4,0:0:0:0:
448,320,32648,1,4,0:0:0:0:
288,224,33648,1,0,0:0:0:0:
288,224,33719,1,0,0:0:0:0:
288,224,33791,1,8,0:0:0:0:
288,224,33862,1,8,0:0:0:0:
288,224,33934,1,8,0:0:0:0:
288,224,34005,1,8,0:0:0:0:
288,224,34077,1,0,0:0:0:0:
288,224,34148,1,0,0:0:0:0:
288,224,34219,1,0,0:0:0:0:
288,224,34291,1,0,0:0:0:0:
288,224,34362,1,8,0:0:0:0:
288,224,34434,1,8,0:0:0:0:
288,224,34505,1,0,0:0:0:0:
288,224,34577,1,0,0:0:0:0:
288,224,34648,1,0,0:0:0:0:
288,224,34791,1,12,0:0:0:0:
96,160,34934,1,12,0:0:0:0:
128,192,35934,1,0,0:0:0:0:
128,192,36005,1,0,0:0:0:0:
128,192,36077,1,0,0:0:0:0:
128,192,36148,1,0,0:0:0:0:
128,192,36219,1,0,0:0:0:0:
128,192,36291,1,0,0:0:0:0:
128,192,36362,1,0,0:0:0:0:
128,192,36434,1,0,0:0:0:0:
128,192,36505,1,8,0:0:0:0:
128,192,36577,1,8,0:0:0:0:
128,192,36648,1,8,0:0:0:0:
128,192,36719,1,8,0:0:0:0:
128,192,36791,1,0,0:0:0:0:
128,192,36862,1,0,0:0:0:0:
128,192,36934,1,0,0:0:0:0:
128,192,37005,1,0,0:0:0:0:
128,192,37077,1,8,0:0:0:0:
384,288,37362,1,0,0:0:0:0:
384,288,37648,1,0,0:0:0:0:
384,288,37934,1,0,0:0:0:0:
384,288,38219,1,0,0:0:0:0:
384,288,38505,1,0,0:0:0:0:
384,288,38791,1,0,0:0:0:0:
384,288,39077,1,0,0:0:0:0:
384,288,39362,1,0,0:0:0:0:
160,128,39434,1,8,0:0:0:0:
160,128,39505,1,8,0:0:0:0:
160,128,39577,1,0,0:0:0:0:
160,128,39648,1,8,0:0:0:0:
160,128,39719,1,8,0:0:0:0:
160,128,39791,1,0,0:0:0:0:
160,128,39862,1,0,0:0:0:0:
160,128,39934,1,8,0:0:0:0:
160,128,40005,1,8,0:0:0:0:
160,128,40077,1,0,0:0:0:0:
160,128,40219,1,0,0:0:0:0:
160,128,40362,1,0,0:0:0:0:
160,128,40505,1,8,0:0:0:0:
320,224,40934,1,0,0:0:0:0:
320,224,41005,1,0,0:0:0:0:
320,224,41077,1,8,0:0:0:0:
320,224,41291,1,8,0:0:0:0:
320,224,41505,1,8,0:0:0:0:
320,224,41648,1,4,0:0:0:0:
32,192,41791,1,8,0:0:0:0:
128,192,41934,1,0,0:0:0:0:
128,192,42005,1,0,0:0:0:0:
128,192,42077,1,8,0:0:0:0:
128,192,42219,1,0,0:0:0:0:
128,192,42362,1,8,0:0:0:0:
128,192,42505,1,0,0:0:0:0:
128,192,42648,1,8,0:0:0:0:
128,160,42719,1,8,0:0:0:0:
128,192,42791,1,0,0:0:0:0:
288,256,42862,1,0,0:0:0:0:
128,192,42934,1,8,0:0:0:0:
128,192,43077,1,0,0:0:0:0:
320,256,43148,1,0,0:0:0:0:
128,192,43219,1,8,0:0:0:0:
128,192,43362,1,0,0:0:0:0:
128,192,43505,1,8,0:0:0:0:
128,192,43648,1,0,0:0:0:0:
128,192,43719,1,0,0:0:0:0:
128,192,43791,1,8,0:0:0:0:
320,256,43862,1,8,0:0:0:0:
128,192,43934,1,0,0:0:0:0:
128,192,44077,1,8,0:0:0:0:
416,288,44148,1,8,0:0:0:0:
128,192,44219,1,0,0:0:0:0:
416,288,44291,1,0,0:0:0:0:
128,192,44362,1,8,0:0:0:0:
128,192,44505,1,0,0:0:0:0:
416,288,44577,1,0,0:0:0:0:
128,192,44648,1,8,0:0:0:0:
128,192,44934,1,8,0:0:0:0:
96,160,45077,1,0,0:0:0:0:
96,160,45148,1,0,0:0:0:0:
96,160,45219,1,8,0:0:0:0:
96,160,45362,1,0,0:0:0:0:
96,160,45434,1,0,0:0:0:0:
96,160,45505,1,8,0:0:0:0:
96,160,45648,1,0,0:0:0:0:
64,192,45719,1,0,0:0:0:0:
96,128,45791,1,8,0:0:0:0:
64,192,45862,1,0,0:0:0:0:
128,160,45934,1,8,0:0:0:0:
32,160,46005,1,8,0:0:0:0:
192,192,46077,1,0,0:0:0:0:
160,160,46148,1,8,0:0:0:0:
224,192,46219,1,0,0:0:0:0:
224,192,46362,1,8,0:0:0:0:
224,192,46505,1,0,0:0:0:0:
384,288,46577,1,0,0:0:0:0:
224,192,46648,1,8,0:0:0:0:
224,192,46791,1,0,0:0:0:0:
224,192,46934,1,8,0:0:0:0:
384,256,47005,1,8,0:0:0:0:
224,192,47077,1,0,0:0:0:0:
224,192,47148,1,0,0:0:0:0:
224,192,47219,1,8,0:0:0:0:
224,192,47362,1,0,0:0:0:0:
224,192,47505,1,8,0:0:0:0:
448,288,47577,1,8,0:0:0:0:
224,192,47648,1,0,0:0:0:0:
224,192,47791,1,8,0:0:0:0:
320,192,47862,1,8,0:0:0:0:
320,192,47934,1,0,0:0:0:0:
320,192,48005,1,0,0:0:0:0:
224,192,48077,1,8,0:0:0:0:
224,192,48219,1,0,0:0:0:0:
224,192,48362,1,8,0:0:0:0:
288,224,48434,1,8,0:0:0:0:
224,224,48505,1,0,0:0:0:0:
288,224,48577,1,0,0:0:0:0:
224,224,48648,1,8,0:0:0:0:
224,224,48719,1,8,0:0:0:0:
224,224,48791,1,0,0:0:0:0:
224,224,48934,1,8,0:0:0:0:
224,224,49077,1,0,0:0:0:0:
224,224,49219,1,8,0:0:0:0:
224,224,49362,1,0,0:0:0:0:
224,224,49434,1,0,0:0:0:0:
224,224,49505,1,8,0:0:0:0:
224,224,49648,1,0,0:0:0:0:
480,320,49719,1,0,0:0:0:0:
224,224,49791,1,8,0:0:0:0:
480,320,49862,1,8,0:0:0:0:
224,224,49934,1,0,0:0:0:0:
416,288,50005,1,0,0:0:0:0:
192,192,50077,1,8,0:0:0:0:
192,192,50148,1,8,0:0:0:0:
192,192,50219,1,0,0:0:0:0:
192,192,50291,1,0,0:0:0:0:
192,192,50362,1,8,0:0:0:0:
160,192,50434,1,0,0:0:0:0:
160,192,50505,1,8,0:0:0:0:
160,192,50577,1,8,0:0:0:0:
160,192,50648,1,0,0:0:0:0:
160,192,50719,1,8,0:0:0:0:
160,192,50791,1,0,0:0:0:0:
160,192,50934,1,8,0:0:0:0:
160,192,51077,1,0,0:0:0:0:
192,192,51148,1,0,0:0:0:0:
160,192,51219,1,8,0:0:0:0:
160,192,51362,1,0,0:0:0:0:
224,192,51434,1,0,0:0:0:0:
160,192,51505,1,8,0:0:0:0:
256,192,51577,1,8,0:0:0:0:
160,192,51648,1,0,0:0:0:0:
160,192,51791,1,8,0:0:0:0:
160,192,51934,1,0,0:0:0:0:
160,192,52077,1,8,0:0:0:0:
256,160,52148,1,8,0:0:0:0:
160,192,52219,1,0,0:0:0:0:
192,192,52291,1,0,0:0:0:0:
160,192,52362,1,8,0:0:0:0:
160,192,52505,1,0,0:0:0:0:
160,192,52648,1,8,0:0:0:0:
256,160,52719,1,0,0:0:0:0:
160,192,52791,1,0,0:0:0:0:
160,192,52862,1,0,0:0:0:0:
160,192,52934,1,8,0:0:0:0:
160,192,53077,1,0,0:0:0:0:
320,288,53148,1,0,0:0:0:0:
160,192,53219,1,8,0:0:0:0:
160,192,53362,1,0,0:0:0:0:
160,192,53505,1,8,0:0:0:0:
160,192,53648,1,0,0:0:0:0:
160,192,53791,1,8,0:0:0:0:
256,224,53862,1,8,0:0:0:0:
160,192,53934,1,0,0:0:0:0:
128,160,54005,1,0,0:0:0:0:
128,160,54077,1,8,0:0:0:0:
160,160,54219,1,0,0:0:0:0:
192,192,54291,1,0,0:0:0:0:
160,160,54362,1,8,0:0:0:0:
160,160,54505,1,8,0:0:0:0:
128,160,54577,1,8,0:0:0:0:
160,160,54648,1,0,0:0:0:0:
160,160,54791,1,0,0:0:0:0:
256,160,54862,1,0,0:0:0:0:
160,160,54934,1,8,0:0:0:0:
128,160,55005,1,0,0:0:0:0:
160,160,55077,1,8,0:0:0:0:
448,320,55148,1,8,0:0:0:0:
160,160,55219,1,0,0:0:0:0:
448,320,55291,1,0,0:0:0:0:
160,160,55362,1,8,0:0:0:0:
160,160,55505,1,8,0:0:0:0:
160,160,55648,1,0,0:0:0:0:
160,160,55791,1,8,0:0:0:0:
352,256,55862,1,8,0:0:0:0:
160,160,55934,1,0,0:0:0:0:
160,160,56077,1,8,0:0:0:0:
448,320,56148,1,0,0:0:0:0:
160,160,56219,1,0,0:0:0:0:
160,160,56362,1,8,0:0:0:0:
160,160,56505,1,0,0:0:0:0:
160,160,56648,1,8,0:0:0:0:
160,160,56791,1,0,0:0:0:0:
160,160,56934,1,8,0:0:0:0:
416,320,57005,1,0,0:0:0:0:
480,352,57077,1,0,0:0:0:0:
416,320,57148,1,0,0:0:0:0:
160,160,57219,1,8,0:0:0:0:
160,160,57362,1,0,0:0:0:0:
160,160,57434,1,0,0:0:0:0:
160,160,57505,1,8,0:0:0:0:
160,160,57648,1,0,0:0:0:0:
160,160,57791,1,8,0:0:0:0:
128,128,57862,1,8,0:0:0:0:
160,160,57934,1,0,0:0:0:0:
32,160,58077,1,0,0:0:0:0:
128,160,58148,1,0,0:0:0:0:
160,160,58219,1,8,0:0:0:0:
416,320,58291,1,0,0:0:0:0:
96,160,58362,1,8,0:0:0:0:
160,160,58434,1,8,0:0:0:0:
96,160,58505,1,0,0:0:0:0:
128,160,58577,1,0,0:0:0:0:
128,160,58648,1,8,0:0:0:0:
128,160,58791,1,0,0:0:0:0:
320,288,58862,1,0,0:0:0:0:
320,288,58934,1,8,0:0:0:0:
320,288,59005,1,0,0:0:0:0:
320,288,59077,1,8,0:0:0:0:
320,288,59148,1,8,0:0:0:0:
320,288,59219,1,0,0:0:0:0:
320,288,59291,1,8,0:0:0:0:
320,288,59362,1,0,0:0:0:0:
320,288,59434,1,0,0:0:0:0:
320,288,59505,1,8,0:0:0:0:
320,288,59577,1,0,0:0:0:0:
320,288,59648,1,8,0:0:0:0:
320,288,59719,1,8,0:0:0:0:
320,288,59791,1,0,0:0:0:0:
320,288,59862,1,0,0:0:0:0:
320,288,59934,1,8,0:0:0:0:
320,256,60219,1,0,0:0:0:0:
320,256,60291,1,0,0:0:0:0:
320,256,60362,1,8,0:0:0:0:
320,256,60434,1,8,0:0:0:0:
320,256,60505,1,0,0:0:0:0:
320,256,60577,1,8,0:0:0:0:
320,256,60648,1,0,0:0:0:0:
320,256,60791,1,8,0:0:0:0:
96,160,60862,1,8,0:0:0:0:
96,192,60934,1,0,0:0:0:0:
96,192,61005,1,8,0:0:0:0:
96,192,61077,1,0,0:0:0:0:
96,192,61219,1,0,0:0:0:0:
128,160,61291,1,0,0:0:0:0:
128,160,61362,1,8,0:0:0:0:
128,160,61434,1,8,0:0:0:0:
128,160,61505,1,0,0:0:0:0:
128,160,61648,1,0,0:0:0:0:
128,160,61791,1,0,0:0:0:0:
128,160,61862,1,8,0:0:0:0:
128,160,61934,1,0,0:0:0:0:
128,160,62005,1,0,0:0:0:0:
128,160,62077,1,8,0:0:0:0:
128,160,62148,1,0,0:0:0:0:
128,160,62219,1,8,0:0:0:0:
128,160,62362,1,0,0:0:0:0:
128,160,62505,1,0,0:0:0:0:
128,160,62577,1,8,0:0:0:0:
128,160,62648,1,0,0:0:0:0:
128,160,62719,1,0,0:0:0:0:
128,160,62791,1,8,0:0:0:0:
128,160,62934,1,0,0:0:0:0:
128,160,63077,1,8,0:0:0:0:
128,160,63148,1,8,0:0:0:0:
128,160,63219,1,0,0:0:0:0:
128,160,63291,1,0,0:0:0:0:
128,160,63362,1,8,0:0:0:0:
128,160,63505,1,0,0:0:0:0:
128,160,63648,1,8,0:0:0:0:
128,160,63719,1,0,0:0:0:0:
128,160,63791,1,8,0:0:0:0:
128,160,63862,1,8,0:0:0:0:
128,160,63934,1,0,0:0:0:0:
128,160,64077,1,0,0:0:0:0:
128,160,64148,1,0,0:0:0:0:
128,160,64219,1,8,0:0:0:0:
128,160,64291,1,8,0:0:0:0:
128,160,64362,1,0,0:0:0:0:
128,160,64434,1,0,0:0:0:0:
128,160,64505,1,8,0:0:0:0:
128,192,64791,1,0,0:0:0:0:
128,192,64862,1,8,0:0:0:0:
128,192,64934,1,0,0:0:0:0:
128,192,65005,1,8,0:0:0:0:
128,192,65077,1,0,0:0:0:0:
128,192,65219,1,0,0:0:0:0:
128,192,65291,1,8,0:0:0:0:
128,192,65362,1,0,0:0:0:0:
128,192,65505,1,0,0:0:0:0:
128,192,65648,1,8,0:0:0:0:
128,192,65719,1,8,0:0:0:0:
128,192,65791,1,0,0:0:0:0:
128,192,65934,1,0,0:0:0:0:
128,192,66077,1,0,0:0:0:0:
128,192,66148,1,8,0:0:0:0:
128,192,66219,1,0,0:0:0:0:
128,192,66362,1,0,0:0:0:0:
128,192,66434,1,0,0:0:0:0:
128,192,66505,1,8,0:0:0:0:
128,192,66648,1,8,0:0:0:0:
128,192,66719,1,0,0:0:0:0:
128,192,66791,1,8,0:0:0:0:
128,192,66862,1,8,0:0:0:0:
128,192,66934,1,0,0:0:0:0:
128,192,67077,1,0,0:0:0:0:
192,160,67148,1,0,0:0:0:0:
192,128,67219,1,8,0:0:0:0:
192,128,67291,1,0,0:0:0:0:
192,128,67362,1,8,0:0:0:0:
192,128,67434,1,8,0:0:0:0:
192,128,67505,1,0,0:0:0:0:
192,128,67577,1,0,0:0:0:0:
192,128,67648,1,8,0:0:0:0:
192,128,67791,1,8,0:0:0:0:
480,288,67934,1,0,0:0:0:0:
480,288,68005,1,0,0:0:0:0:
480,288,68077,1,8,0:0:0:0:
480,288,68219,1,8,0:0:0:0:
480,288,68291,1,8,0:0:0:0:
480,288,68362,1,0,0:0:0:0:
160,160,68505,1,8,0:0:0:0:
160,160,68577,1,0,0:0:0:0:
160,160,68648,1,0,0:0:0:0:
160,160,68719,1,0,0:0:0:0:
160,160,68791,1,8,0:0:0:0:
160,160,68934,1,8,0:0:0:0:
160,160,69005,1,8,0:0:0:0:
160,160,69077,1,0,0:0:0:0:
320,160,69219,1,8,0:0:0:0:
320,160,69362,1,0,0:0:0:0:
320,160,69434,1,0,0:0:0:0:
320,160,69505,1,8,0:0:0:0:
320,160,69577,1,8,0:0:0:0:
320,160,69648,1,0,0:0:0:0:
320,160,69791,1,8,0:0:0:0:
320,160,69934,1,0,0:0:0:0:
320,160,70005,1,0,0:0:0:0:
320,160,70077,1,8,0:0:0:0:
320,160,70219,1,0,0:0:0:0:
320,160,70362,1,8,0:0:0:0:
320,160,70505,1,0,0:0:0:0:
320,160,70577,1,0,0:0:0:0:
320,160,70648,1,8,0:0:0:0:
320,160,70719,1,8,0:0:0:0:
320,160,70791,1,0,0:0:0:0:
320,160,70934,1,8,0:0:0:0:
320,160,71077,1,0,0:0:0:0:
320,160,71148,1,0,0:0:0:0:
320,160,71219,1,8,0:0:0:0:
320,160,71362,1,0,0:0:0:0:
320,160,71505,1,8,0:0:0:0:
320,160,71648,1,0,0:0:0:0:
320,160,71719,1,0,0:0:0:0:
320,160,71791,1,8,0:0:0:0:
320,160,71934,1,0,0:0:0:0:
320,160,72077,1,8,0:0:0:0:
96,160,72219,1,0,0:0:0:0:
96,160,72291,1,0,0:0:0:0:
96,160,72362,1,8,0:0:0:0:
96,128,72505,1,0,0:0:0:0:
96,128,72577,1,0,0:0:0:0:
96,128,72648,1,8,0:0:0:0:
128,128,72719,1,0,0:0:0:0:
96,128,72791,1,8,0:0:0:0:
96,128,72862,1,8,0:0:0:0:
96,128,72934,1,0,0:0:0:0:
384,288,73005,1,0,0:0:0:0:
384,288,73077,1,8,0:0:0:0:
384,288,73148,1,0,0:0:0:0:
384,288,73219,1,8,0:0:0:0:
96,288,73291,1,8,0:0:0:0:
384,288,73362,1,0,0:0:0:0:
384,224,73505,1,8,0:0:0:0:
384,160,73648,1,0,0:0:0:0:
384,160,73719,1,0,0:0:0:0:
384,160,73791,1,8,0:0:0:0:
384,160,73862,1,8,0:0:0:0:
384,160,73934,1,0,0:0:0:0:
384,160,74077,1,8,0:0:0:0:
384,160,74219,1,0,0:0:0:0:
384,160,74362,1,8,0:0:0:0:
384,256,74434,1,0,0:0:0:0:
384,160,74505,1,0,0:0:0:0:
384,160,74577,1,0,0:0:0:0:
384,160,74648,1,8,0:0:0:0:
384,160,74791,1,0,0:0:0:0:
384,160,74934,1,8,0:0:0:0:
384,160,75005,1,8,0:0:0:0:
384,160,75077,1,0,0:0:0:0:
384,160,75148,1,0,0:0:0:0:
384,160,75219,1,8,0:0:0:0:
384,160,75362,1,0,0:0:0:0:
384,160,75505,1,8,0:0:0:0:
352,224,75577,1,8,0:0:0:0:
384,160,75648,1,0,0:0:0:0:
384,160,75791,1,0,0:0:0:0:
384,160,75934,1,8,0:0:0:0:
160,160,76005,1,0,0:0:0:0:
352,224,76077,1,8,0:0:0:0:
160,160,76148,1,8,0:0:0:0:
352,224,76219,1,0,0:0:0:0:
352,224,76362,1,8,0:0:0:0:
352,224,76434,1,8,0:0:0:0:
352,224,76505,1,0,0:0:0:0:
352,224,76577,1,0,0:0:0:0:
352,224,76648,1,8,0:0:0:0:
352,224,76791,1,0,0:0:0:0:
352,224,76862,1,0,0:0:0:0:
352,224,76934,1,8,0:0:0:0:
352,224,77077,1,0,0:0:0:0:
224,96,77148,1,8,0:0:0:0:
448,352,77219,1,0,0:0:0:0:
96,160,77362,1,8,0:0:0:0:
96,160,77434,1,0,0:0:0:0:
128,160,77505,1,8,0:0:0:0:
160,160,77577,1,8,0:0:0:0:
160,160,77648,1,0,0:0:0:0:
160,160,77719,1,0,0:0:0:0:
160,160,77791,1,8,0:0:0:0:
160,160,77862,1,0,0:0:0:0:
160,160,77934,1,8,0:0:0:0:
160,160,78005,1,8,0:0:0:0:
160,160,78077,1,0,0:0:0:0:
160,160,78148,1,0,0:0:0:0:
160,160,78219,1,8,0:0:0:0:
352,288,78505,1,8,0:0:0:0:
352,288,78577,1,8,0:0:0:0:
352,288,78648,1,8,0:0:0:0:
352,288,78719,1,8,0:0:0:0:
352,288,78791,1,0,0:0:0:0:
352,288,78934,1,8,0:0:0:0:
128,160,79005,1,8,0:0:0:0:
352,288,79077,1,0,0:0:0:0:
352,288,79219,1,8,0:0:0:0:
352,288,79291,1,8,0:0:0:0:
352,288,79362,1,0,0:0:0:0:
192,160,79434,1,0,0:0:0:0:
352,288,79505,1,8,0:0:0:0:
352,288,79648,1,0,0:0:0:0:
352,288,79791,1,8,0:0:0:0:
352,288,79934,1,0,0:0:0:0:
352,288,80077,1,8,0:0:0:0:
352,288,80148,1,8,0:0:0:0:
352,288,80219,1,0,0:0:0:0:
352,288,80291,1,0,0:0:0:0:
352,288,80362,1,8,0:0:0:0:
192,160,80434,1,8,0:0:0:0:
352,288,80505,1,0,0:0:0:0:
352,288,80648,1,8,0:0:0:0:
352,288,80719,1,8,0:0:0:0:
352,288,80791,1,0,0:0:0:0:
352,288,80934,1,0,0:0:0:0:
352,288,81005,1,0,0:0:0:0:
352,288,81077,1,8,0:0:0:0:
352,288,81219,1,8,0:0:0:0:
352,288,81291,1,8,0:0:0:0:
352,288,81362,1,0,0:0:0:0:
352,288,81434,1,0,0:0:0:0:
352,288,81505,1,0,0:0:0:0:
352,288,81577,1,0,0:0:0:0:
352,288,81648,1,8,0:0:0:0:
352,288,81934,1,8,0:0:0:0:
352,288,82219,1,8,0:0:0:0:
416,288,82291,1,8,0:0:0:0:
352,288,82362,1,0,0:0:0:0:
384,288,82434,1,0,0:0:0:0:
352,288,82505,1,8,0:0:0:0:
384,288,82577,1,0,0:0:0:0:
352,288,82648,1,8,0:0:0:0:
352,288,82791,1,0,0:0:0:0:
416,256,82862,1,0,0:0:0:0:
448,320,82934,1,8,0:0:0:0:
256,224,83077,1,0,0:0:0:0:
256,224,83219,1,8,0:0:0:0:
256,224,83362,1,0,0:0:0:0:
256,224,83434,1,0,0:0:0:0:
256,224,83505,1,8,0:0:0:0:
256,224,83648,1,0,0:0:0:0:
256,224,83791,1,8,0:0:0:0:
416,256,83862,1,0,0:0:0:0:
256,224,83934,1,0,0:0:0:0:
416,256,84005,1,0,0:0:0:0:
256,224,84077,1,8,0:0:0:0:
256,224,84219,1,0,0:0:0:0:
256,224,84362,1,8,0:0:0:0:
416,288,84434,1,8,0:0:0:0:
256,224,84505,1,0,0:0:0:0:
416,288,84577,1,0,0:0:0:0:
416,288,84648,1,8,0:0:0:0:
256,224,84791,1,0,0:0:0:0:
256,224,84862,1,0,0:0:0:0:
256,224,84934,1,8,0:0:0:0:
256,224,85077,1,0,0:0:0:0:
256,224,85219,1,8,0:0:0:0:
96,160,85291,1,8,0:0:0:0:
256,224,85362,1,0,0:0:0:0:
96,160,85434,1,0,0:0:0:0:
96,160,85505,1,8,0:0:0:0:
256,224,85648,1,0,0:0:0:0:
256,224,85791,1,8,0:0:0:0:
64,160,85862,1,0,0:0:0:0:
256,224,85934,1,0,0:0:0:0:
192,96,86005,1,0,0:0:0:0:
192,96,86077,1,8,0:0:0:0:
192,96,86219,1,4,0:0:0:0:
192,96,86362,1,0,0:0:0:0:
192,96,86505,1,8,0:0:0:0:
192,96,86577,1,8,0:0:0:0:
192,96,86648,1,8,0:0:0:0:
192,96,86719,1,8,0:0:0:0:
192,96,86791,1,0,0:0:0:0:
192,96,86934,1,0,0:0:0:0:
192,96,87077,1,8,0:0:0:0:
192,96,87219,1,8,0:0:0:0:
192,96,87362,1,4,0:0:0:0:
160,160,87933,1,8,0:0:0:0:
160,160,88219,1,8,0:0:0:0:
160,160,88504,1,0,0:0:0:0:
160,160,88647,1,8,0:0:0:0:
160,160,88790,1,0,0:0:0:0:
160,160,89076,1,0,0:0:0:0:
160,160,89362,1,8,0:0:0:0:
160,160,89504,1,8,0:0:0:0:
160,160,89647,1,0,0:0:0:0:
160,160,89933,1,8,0:0:0:0:
160,160,90219,1,0,0:0:0:0:
160,160,90362,1,0,0:0:0:0:
160,160,90504,1,8,0:0:0:0:
224,192,90790,1,0,0:0:0:0:
192,192,91076,1,8,0:0:0:0:
192,192,91219,1,8,0:0:0:0:
192,192,91362,1,0,0:0:0:0:
192,192,91647,1,8,0:0:0:0:
64,192,91933,1,8,0:0:0:0:
64,192,92076,1,8,0:0:0:0:
96,192,92219,1,0,0:0:0:0:
192,192,92504,1,0,0:0:0:0:
192,192,92790,1,8,0:0:0:0:
192,192,92933,1,8,0:0:0:0:
192,192,93076,1,0,0:0:0:0:
192,192,93362,1,8,0:0:0:0:
128,192,93647,1,0,0:0:0:0:
128,192,93933,1,8,0:0:0:0:
128,192,94004,1,8,0:0:0:0:
128,192,94076,1,8,0:0:0:0:
128,192,94147,1,8,0:0:0:0:
128,192,94219,1,0,0:0:0:0:
128,192,94362,1,8,0:0:0:0:
128,192,94504,1,0,0:0:0:0:
128,192,94647,1,8,0:0:0:0:
128,192,94790,1,0,0:0:0:0:
128,192,94862,1,0,0:0:0:0:
128,192,94933,1,8,0:0:0:0:
224,192,95004,1,0,0:0:0:0:
128,192,95076,1,0,0:0:0:0:
160,192,95147,1,0,0:0:0:0:
128,192,95219,1,8,0:0:0:0:
128,192,95362,1,0,0:0:0:0:
128,192,95504,1,8,0:0:0:0:
256,256,95576,1,8,0:0:0:0:
128,192,95647,1,0,0:0:0:0:
128,192,95790,1,8,0:0:0:0:
128,192,95933,1,0,0:0:0:0:
320,288,96004,1,0,0:0:0:0:
320,288,96076,1,8,0:0:0:0:
128,192,96219,1,0,0:0:0:0:
128,192,96362,1,8,0:0:0:0:
128,192,96504,1,0,0:0:0:0:
384,320,96576,1,0,0:0:0:0:
128,192,96647,1,8,0:0:0:0:
0,160,96719,1,0,0:0:0:0:
128,192,96790,1,0,0:0:0:0:
0,160,96862,1,0,0:0:0:0:
128,192,96933,1,8,0:0:0:0:
128,192,97076,1,0,0:0:0:0:
128,192,97219,1,8,0:0:0:0:
128,192,97362,1,0,0:0:0:0:
128,192,97504,1,8,0:0:0:0:
384,320,97576,1,8,0:0:0:0:
128,192,97647,1,0,0:0:0:0:
128,192,97790,1,0,0:0:0:0:
384,320,97862,1,0,0:0:0:0:
128,192,97933,1,8,0:0:0:0:
352,320,98004,1,8,0:0:0:0:
192,160,98076,1,0,0:0:0:0:
192,160,98219,1,8,0:0:0:0:
352,320,98290,1,8,0:0:0:0:
64,128,98362,1,8,0:0:0:0:
192,160,98504,1,0,0:0:0:0:
352,320,98576,1,0,0:0:0:0:
128,128,98647,1,0,0:0:0:0:
128,128,98790,1,8,0:0:0:0:
128,128,98933,1,0,0:0:0:0:
128,128,99004,1,0,0:0:0:0:
128,128,99076,1,8,0:0:0:0:
128,128,99362,1,0,0:0:0:0:
96,160,99647,1,0,0:0:0:0:
128,160,99933,1,0,0:0:0:0:
128,160,100219,1,0,0:0:0:0:
128,160,100504,1,8,0:0:0:0:
64,192,100576,1,8,0:0:0:0:
64,192,100647,1,8,0:0:0:0:
64,192,100719,1,8,0:0:0:0:
64,192,100790,1,8,0:0:0:0:
64,192,100862,1,8,0:0:0:0:
64,192,100933,1,8,0:0:0:0:
64,192,101004,1,8,0:0:0:0:
64,192,101076,1,0,0:0:0:0:
384,256,101504,1,4,0:0:0:0:
384,256,101790,1,4,0:0:0:0:
384,256,102076,1,4,0:0:0:0:
320,256,102790,1,8,0:0:0:0:
320,256,102861,1,0,0:0:0:0:
320,256,102933,1,0,0:0:0:0:
320,256,103004,1,0,0:0:0:0:
320,256,103076,1,8,0:0:0:0:
320,256,103361,1,0,0:0:0:0:
320,256,103504,1,8,0:0:0:0:
128,128,103576,1,8,0:0:0:0:
128,128,103647,1,0,0:0:0:0:
128,128,103718,1,0,0:0:0:0:
320,256,103790,1,8,0:0:0:0:
320,256,103933,1,0,0:0:0:0:
320,256,104004,1,0,0:0:0:0:
320,256,104076,1,8,0:0:0:0:
320,256,104218,1,0,0:0:0:0:
320,256,104290,1,0,0:0:0:0:
320,256,104361,1,8,0:0:0:0:
320,256,104504,1,0,0:0:0:0:
320,256,104647,1,8,0:0:0:0:
0,224,104718,1,0,0:0:0:0:
320,256,104790,1,0,0:0:0:0:
64,224,104861,1,0,0:0:0:0:
320,256,104933,1,8,0:0:0:0:
320,256,105076,1,0,0:0:0:0:
320,256,105218,1,8,0:0:0:0:
384,288,105290,1,8,0:0:0:0:
320,256,105361,1,0,0:0:0:0:
320,256,105504,1,8,0:0:0:0:
320,256,105647,1,0,0:0:0:0:
448,352,105718,1,0,0:0:0:0:
480,352,105790,1,8,0:0:0:0:
320,256,105861,1,8,0:0:0:0:
320,256,105933,1,0,0:0:0:0:
320,256,106076,1,8,0:0:0:0:
320,256,106218,1,0,0:0:0:0:
320,256,106361,1,8,0:0:0:0:
320,256,106504,1,0,0:0:0:0:
320,256,106576,1,0,0:0:0:0:
320,256,106647,1,8,0:0:0:0:
320,256,106790,1,0,0:0:0:0:
448,352,106861,1,8,0:0:0:0:
320,256,106933,1,8,0:0:0:0:
320,256,107076,1,0,0:0:0:0:
320,256,107218,1,8,0:0:0:0:
480,352,107290,1,8,0:0:0:0:
256,64,107361,1,0,0:0:0:0:
320,256,107433,1,0,0:0:0:0:
224,96,107504,1,8,0:0:0:0:
256,96,107647,1,0,0:0:0:0:
256,96,107718,1,0,0:0:0:0:
256,96,107790,1,8,0:0:0:0:
256,96,107933,1,0,0:0:0:0:
256,96,108076,1,0,0:0:0:0:
256,64,108218,1,8,0:0:0:0:
256,96,108504,1,0,0:0:0:0:
256,96,108576,1,0,0:0:0:0:
256,96,108647,1,8,0:0:0:0:
256,96,108790,1,0,0:0:0:0:
256,96,108933,1,8,0:0:0:0:
256,96,109076,1,0,0:0:0:0:
256,96,109218,1,0,0:0:0:0:
96,128,109361,1,0,0:0:0:0:
96,128,109433,1,0,0:0:0:0:
96,128,109504,1,0,0:0:0:0:
256,224,109576,1,0,0:0:0:0:
256,224,109647,1,8,0:0:0:0:
256,224,109718,1,8,0:0:0:0:
256,224,109790,1,8,0:0:0:0:
256,224,109861,1,8,0:0:0:0:
256,224,109933,1,0,0:0:0:0:
256,224,110004,1,8,0:0:0:0:
256,224,110076,1,8,0:0:0:0:
256,224,110147,1,8,0:0:0:0:
256,224,110218,1,0,0:0:0:0:
224,224,110361,1,8,0:0:0:0:
224,224,110504,1,0,0:0:0:0:
224,224,110576,1,0,0:0:0:0:
224,224,110647,1,8,0:0:0:0:
416,288,110718,1,8,0:0:0:0:
224,224,110790,1,0,0:0:0:0:
224,224,110933,1,8,0:0:0:0:
224,224,111076,1,0,0:0:0:0:
224,224,111218,1,8,0:0:0:0:
128,160,111290,1,0,0:0:0:0:
128,160,111361,1,0,0:0:0:0:
128,160,111433,1,0,0:0:0:0:
224,224,111504,1,8,0:0:0:0:
224,224,111647,1,0,0:0:0:0:
224,224,111718,1,0,0:0:0:0:
224,224,111790,1,8,0:0:0:0:
224,192,111861,1,8,0:0:0:0:
224,224,111933,1,0,0:0:0:0:
224,224,112076,1,8,0:0:0:0:
224,224,112218,1,0,0:0:0:0:
192,160,112290,1,0,0:0:0:0:
224,224,112361,1,8,0:0:0:0:
224,224,112504,1,8,0:0:0:0:
0,160,112576,1,8,0:0:0:0:
224,224,112647,1,0,0:0:0:0:
224,224,112790,1,0,0:0:0:0:
224,224,112933,1,8,0:0:0:0:
64,192,113004,1,0,0:0:0:0:
32,192,113076,1,0,0:0:0:0:
64,192,113147,1,0,0:0:0:0:
224,224,113218,1,8,0:0:0:0:
224,224,113361,1,0,0:0:0:0:
224,224,113433,1,0,0:0:0:0:
224,224,113504,1,8,0:0:0:0:
224,224,113647,1,0,0:0:0:0:
224,224,113790,1,8,0:0:0:0:
224,192,113933,1,0,0:0:0:0:
224,192,114076,1,8,0:0:0:0:
224,192,114218,1,8,0:0:0:0:
224,192,114290,1,8,0:0:0:0:
224,192,114361,1,8,0:0:0:0:
224,192,114504,1,8,0:0:0:0:
224,192,114576,1,8,0:0:0:0:
224,192,114647,1,8,0:0:0:0:
224,192,114790,1,0,0:0:0:0:
224,192,114933,1,8,0:0:0:0:
96,256,115076,1,0,0:0:0:0:
96,256,115147,1,0,0:0:0:0:
96,256,115218,1,8,0:0:0:0:
128,256,115361,1,0,0:0:0:0:
128,256,115504,1,8,0:0:0:0:
128,256,115647,1,0,0:0:0:0:
128,256,115718,1,0,0:0:0:0:
128,256,115790,1,8,0:0:0:0:
128,256,115933,1,0,0:0:0:0:
128,256,116076,1,8,0:0:0:0:
160,160,116147,1,8,0:0:0:0:
128,256,116218,1,0,0:0:0:0:
128,256,116290,1,0,0:0:0:0:
128,256,116361,1,8,0:0:0:0:
128,256,116504,1,8,0:0:0:0:
128,256,116576,1,8,0:0:0:0:
128,256,116647,1,0,0:0:0:0:
128,256,116718,1,0,0:0:0:0:
128,256,116790,1,8,0:0:0:0:
128,256,116861,1,0,0:0:0:0:
128,256,116933,1,8,0:0:0:0:
128,256,117004,1,8,0:0:0:0:
128,256,117076,1,0,0:0:0:0:
320,288,117361,1,8,0:0:0:0:
320,288,117647,1,8,0:0:0:0:
320,288,117933,1,0,0:0:0:0:
320,288,118218,1,0,0:0:0:0:
384,192,118290,1,0,0:0:0:0:
384,192,118361,1,0,0:0:0:0:
384,192,118433,1,0,0:0:0:0:
384,192,118504,1,8,0:0:0:0:
384,192,118576,1,8,0:0:0:0:
384,192,118647,1,8,0:0:0:0:
384,192,118718,1,8,0:0:0:0:
384,192,118790,1,0,0:0:0:0:
384,192,118861,1,0,0:0:0:0:
384,192,118933,1,0,0:0:0:0:
384,192,119004,1,0,0:0:0:0:
384,192,119076,1,8,0:0:0:0:
384,192,119147,1,8,0:0:0:0:
384,192,119218,1,8,0:0:0:0:
384,192,119290,1,8,0:0:0:0:
384,192,119361,1,0,0:0:0:0:
352,192,119647,1,8,0:0:0:0:
160,192,119718,1,0,0:0:0:0:
352,192,119790,1,0,0:0:0:0:
352,192,119861,1,0,0:0:0:0:
352,192,119933,1,8,0:0:0:0:
352,192,120004,1,8,0:0:0:0:
352,192,120076,1,0,0:0:0:0:
352,192,120147,1,0,0:0:0:0:
352,192,120218,1,8,0:0:0:0:
160,160,120290,1,8,0:0:0:0:
352,192,120361,1,0,0:0:0:0:
160,160,120433,1,0,0:0:0:0:
352,192,120504,1,8,0:0:0:0:
352,192,120576,1,0,0:0:0:0:
352,192,120647,1,8,0:0:0:0:
352,192,120718,1,8,0:0:0:0:
352,192,120790,1,0,0:0:0:0:
352,192,120861,1,0,0:0:0:0:
352,192,120933,1,8,0:0:0:0:
64,128,121004,1,8,0:0:0:0:
64,128,121076,1,0,0:0:0:0:
416,192,121147,1,0,0:0:0:0:
64,128,121218,1,0,0:0:0:0:
64,128,121290,1,0,0:0:0:0:
64,128,121361,1,8,0:0:0:0:
96,128,121433,1,0,0:0:0:0:
96,128,121504,1,8,0:0:0:0:
96,128,121576,1,8,0:0:0:0:
96,128,121647,1,0,0:0:0:0:
128,64,121718,1,0,0:0:0:0:
96,128,121790,1,8,0:0:0:0:
96,128,121861,1,8,0:0:0:0:
96,128,121933,1,0,0:0:0:0:
128,128,122004,1,0,0:0:0:0:
128,128,122076,1,8,0:0:0:0:
128,128,122147,1,8,0:0:0:0:
128,128,122218,1,8,0:0:0:0:
128,128,122290,1,8,0:0:0:0:
128,128,122361,1,0,0:0:0:0:
128,128,122433,1,0,0:0:0:0:
128,128,122504,1,8,0:0:0:0:
128,128,122576,1,0,0:0:0:0:
128,128,122647,1,8,0:0:0:0:
128,128,122718,1,8,0:0:0:0:
128,128,122790,1,0,0:0:0:0:
128,128,122861,1,8,0:0:0:0:
128,128,122933,1,0,0:0:0:0:
128,128,123004,1,0,0:0:0:0:
128,128,123076,1,8,0:0:0:0:
128,128,123147,1,8,0:0:0:0:
128,128,123218,1,0,0:0:0:0:
128,128,123290,1,0,0:0:0:0:
128,128,123361,1,8,0:0:0:0:
128,128,123433,1,0,0:0:0:0:
128,128,123504,1,8,0:0:0:0:
128,128,123576,1,8,0:0:0:0:
128,128,123647,1,0,0:0:0:0:
128,128,123718,1,0,0:0:0:0:
128,128,123790,1,8,0:0:0:0:
128,128,123933,1,0,0:0:0:0:
160,192,124076,1,8,0:0:0:0:
160,224,124218,1,0,0:0:0:0:
192,224,124290,1,0,0:0:0:0:
192,224,124361,1,8,0:0:0:0:
192,224,124504,1,0,0:0:0:0:
192,224,124647,1,8,0:0:0:0:
192,192,124718,1,8,0:0:0:0:
192,192,124790,1,0,0:0:0:0:
192,192,124861,1,0,0:0:0:0:
192,192,124933,1,8,0:0:0:0:
192,192,125076,1,0,0:0:0:0:
192,192,125218,1,8,0:0:0:0:
192,192,125361,1,0,0:0:0:0:
192,192,125433,1,0,0:0:0:0:
192,192,125504,1,8,0:0:0:0:
192,192,125576,1,8,0:0:0:0:
192,192,125647,1,0,0:0:0:0:
192,192,125790,1,8,0:0:0:0:
192,192,125861,1,0,0:0:0:0:
192,192,125933,1,0,0:0:0:0:
192,192,126004,1,0,0:0:0:0:
192,192,126076,1,8,0:0:0:0:
192,224,126218,1,0,0:0:0:0:
192,224,126361,1,0,0:0:0:0:
192,224,126504,1,8,0:0:0:0:
192,224,126647,1,0,0:0:0:0:
192,224,126718,1,0,0:0:0:0:
192,224,126790,1,8,0:0:0:0:
192,224,126933,1,0,0:0:0:0:
192,224,127076,1,0,0:0:0:0:
192,224,127218,1,8,0:0:0:0:
192,224,127290,1,8,0:0:0:0:
192,224,127361,1,0,0:0:0:0:
480,352,127504,1,0,0:0:0:0:
64,192,127576,1,0,0:0:0:0:
160,224,127647,1,8,0:0:0:0:
192,128,127790,1,8,0:0:0:0:
192,128,127933,1,0,0:0:0:0:
192,128,128004,1,0,0:0:0:0:
192,128,128076,1,0,0:0:0:0:
192,128,128147,1,0,0:0:0:0:
192,128,128218,1,8,0:0:0:0:
192,128,128290,1,8,0:0:0:0:
192,128,128361,1,8,0:0:0:0:
192,128,128433,1,8,0:0:0:0:
192,128,128504,1,0,0:0:0:0:
128,160,128647,1,8,0:0:0:0:
128,160,128790,1,0,0:0:0:0:
128,160,128933,1,8,0:0:0:0:
320,224,129004,1,0,0:0:0:0:
128,160,129076,1,0,0:0:0:0:
320,224,129147,1,0,0:0:0:0:
128,160,129218,1,8,0:0:0:0:
128,160,129361,1,0,0:0:0:0:
160,160,129433,1,0,0:0:0:0:
160,160,129504,1,8,0:0:0:0:
160,160,129647,1,0,0:0:0:0:
160,160,129718,1,0,0:0:0:0:
160,160,129790,1,8,0:0:0:0:
192,160,129861,1,8,0:0:0:0:
160,160,129933,1,0,0:0:0:0:
160,160,130076,1,8,0:0:0:0:
448,288,130147,1,8,0:0:0:0:
160,160,130218,1,0,0:0:0:0:
160,160,130290,1,0,0:0:0:0:
160,160,130361,1,8,0:0:0:0:
160,160,130504,1,0,0:0:0:0:
160,160,130576,1,0,0:0:0:0:
160,160,130647,1,8,0:0:0:0:
160,160,130790,1,0,0:0:0:0:
128,160,130933,1,8,0:0:0:0:
128,160,131076,1,0,0:0:0:0:
128,160,131218,1,8,0:0:0:0:
64,192,131290,1,0,0:0:0:0:
128,160,131361,1,0,0:0:0:0:
64,192,131433,1,0,0:0:0:0:
128,160,131504,1,8,0:0:0:0:
128,160,131647,1,0,0:0:0:0:
128,160,131718,1,0,0:0:0:0:
128,160,131790,1,8,0:0:0:0:
288,192,131861,1,8,0:0:0:0:
128,160,131933,1,0,0:0:0:0:
128,160,132076,1,8,0:0:0:0:
32,224,132147,1,8,0:0:0:0:
128,160,132218,1,0,0:0:0:0:
32,192,132361,1,8,0:0:0:0:
64,192,132504,1,0,0:0:0:0:
320,224,132576,1,0,0:0:0:0:
96,192,132647,1,8,0:0:0:0:
96,192,132790,1,8,0:0:0:0:
96,192,132861,1,8,0:0:0:0:
96,192,132933,1,0,0:0:0:0:
96,224,133076,1,0,0:0:0:0:
96,224,133218,1,8,0:0:0:0:
96,224,133290,1,0,0:0:0:0:
96,224,133361,1,0,0:0:0:0:
96,224,133433,1,0,0:0:0:0:
96,224,133504,1,8,0:0:0:0:
96,224,133647,1,0,0:0:0:0:
96,224,133790,1,8,0:0:0:0:
96,224,133933,1,0,0:0:0:0:
96,224,134004,1,0,0:0:0:0:
96,224,134076,1,8,0:0:0:0:
352,128,134147,1,8,0:0:0:0:
96,224,134218,1,0,0:0:0:0:
96,224,134361,1,8,0:0:0:0:
96,224,134504,1,0,0:0:0:0:
96,224,134576,1,0,0:0:0:0:
96,224,134647,1,8,0:0:0:0:
96,224,134790,1,8,0:0:0:0:
352,128,134861,1,8,0:0:0:0:
96,224,134933,1,0,0:0:0:0:
96,224,135076,1,0,0:0:0:0:
96,224,135147,1,0,0:0:0:0:
96,224,135218,1,8,0:0:0:0:
96,224,135361,1,0,0:0:0:0:
96,224,135433,1,0,0:0:0:0:
96,224,135504,1,0,0:0:0:0:
96,224,135576,1,0,0:0:0:0:
96,224,135647,1,8,0:0:0:0:
96,224,135933,1,0,0:0:0:0:
96,224,136076,1,8,0:0:0:0:
96,224,136147,1,8,0:0:0:0:
96,224,136218,1,0,0:0:0:0:
128,224,136361,1,8,0:0:0:0:
128,224,136504,1,0,0:0:0:0:
96,224,136576,1,0,0:0:0:0:
96,224,136647,1,0,0:0:0:0:
96,224,136718,1,0,0:0:0:0:
416,256,136790,1,8,0:0:0:0:
416,256,136861,1,8,0:0:0:0:
416,256,136933,1,8,0:0:0:0:
416,256,137004,1,8,0:0:0:0:
416,256,137076,1,0,0:0:0:0:
416,256,137147,1,0,0:0:0:0:
416,256,137218,1,0,0:0:0:0:
416,256,137290,1,0,0:0:0:0:
416,256,137361,1,8,0:0:0:0:
416,256,137433,1,8,0:0:0:0:
416,256,137504,1,8,0:0:0:0:
416,256,137576,1,8,0:0:0:0:
416,256,137647,1,0,0:0:0:0:
64,192,137933,1,8,0:0:0:0:
64,192,138004,1,0,0:0:0:0:
64,192,138076,1,0,0:0:0:0:
64,192,138147,1,0,0:0:0:0:
64,192,138218,1,0,0:0:0:0:
64,192,138290,1,0,0:0:0:0:
64,192,138361,1,0,0:0:0:0:
64,192,138433,1,0,0:0:0:0:
64,192,138504,1,8,0:0:0:0:
64,192,138576,1,0,0:0:0:0:
64,192,138647,1,8,0:0:0:0:
64,192,138718,1,8,0:0:0:0:
64,192,138790,1,8,0:0:0:0:
64,192,138861,1,8,0:0:0:0:
64,192,138933,1,0,0:0:0:0:
64,192,139004,1,0,0:0:0:0:
64,192,139076,1,8,0:0:0:0:
64,192,139147,1,8,0:0:0:0:
64,192,139218,1,0,0:0:0:0:
64,192,139290,1,0,0:0:0:0:
64,192,139361,1,8,0:0:0:0:
64,192,139433,1,0,0:0:0:0:
64,192,139504,1,8,0:0:0:0:
64,192,139576,1,0,0:0:0:0:
64,192,139647,1,8,0:0:0:0:
64,192,139718,1,8,0:0:0:0:
64,192,139790,1,0,0:0:0:0:
64,192,139861,1,8,0:0:0:0:
64,192,139933,1,0,0:0:0:0:
64,192,140004,1,0,0:0:0:0:
64,192,140076,1,8,0:0:0:0:
64,192,140147,1,0,0:0:0:0:
64,192,140218,1,8,0:0:0:0:
64,192,140290,1,8,0:0:0:0:
64,192,140361,1,0,0:0:0:0:
64,192,140433,1,0,0:0:0:0:
64,192,140504,1,8,0:0:0:0:
64,192,140576,1,8,0:0:0:0:
64,192,140647,1,8,0:0:0:0:
64,192,140718,1,0,0:0:0:0:
64,192,140790,1,8,0:0:0:0:
32,192,140861,1,0,0:0:0:0:
32,192,140933,1,8,0:0:0:0:
32,192,141004,1,8,0:0:0:0:
32,192,141076,1,8,0:0:0:0:
32,192,141147,1,0,0:0:0:0:
32,192,141218,1,0,0:0:0:0:
32,192,141290,1,0,0:0:0:0:
32,192,141361,1,8,0:0:0:0:
32,192,141504,1,8,0:0:0:0:
128,160,141576,1,0,0:0:0:0:
32,128,141718,1,0,0:0:0:0:
32,128,141790,1,8,0:0:0:0:
32,128,141933,1,0,0:0:0:0:
32,160,142076,1,8,0:0:0:0:
32,160,142218,1,0,0:0:0:0:
352,256,142290,1,0,0:0:0:0:
32,160,142361,1,8,0:0:0:0:
32,160,142504,1,0,0:0:0:0:
96,160,142576,1,0,0:0:0:0:
32,160,142647,1,8,0:0:0:0:
320,224,142718,1,8,0:0:0:0:
128,96,142790,1,0,0:0:0:0:
128,96,142933,1,8,0:0:0:0:
128,96,143004,1,0,0:0:0:0:
128,96,143076,1,0,0:0:0:0:
128,96,143147,1,0,0:0:0:0:
128,96,143218,1,8,0:0:0:0:
128,96,143361,1,0,0:0:0:0:
384,288,143433,1,0,0:0:0:0:
128,96,143504,1,8,0:0:0:0:
128,96,143647,1,0,0:0:0:0:
128,96,143790,1,8,0:0:0:0:
160,192,143861,1,8,0:0:0:0:
128,96,143933,1,0,0:0:0:0:
128,96,144076,1,8,0:0:0:0:
128,96,144147,1,0,0:0:0:0:
128,96,144218,1,8,0:0:0:0:
128,96,144290,1,0,0:0:0:0:
128,96,144361,1,8,0:0:0:0:
128,96,144504,1,0,0:0:0:0:
128,96,144647,1,0,0:0:0:0:
128,96,144790,1,8,0:0:0:0:
128,96,144933,1,0,0:0:0:0:
128,96,145076,1,8,0:0:0:0:
128,96,145218,1,0,0:0:0:0:
128,96,145361,1,0,0:0:0:0:
192,192,145433,1,0,0:0:0:0:
128,96,145504,1,8,0:0:0:0:
128,96,145647,1,8,0:0:0:0:
192,192,145718,1,8,0:0:0:0:
96,160,145790,1,0,0:0:0:0:
128,96,145933,1,8,0:0:0:0:
192,224,146004,1,0,0:0:0:0:
96,160,146076,1,0,0:0:0:0:
96,160,146218,1,0,0:0:0:0:
32,192,146290,1,0,0:0:0:0:
192,224,146361,1,8,0:0:0:0:
160,160,146504,1,8,0:0:0:0:
160,160,146576,1,8,0:0:0:0:
160,160,146647,1,8,0:0:0:0:
160,160,146718,1,8,0:0:0:0:
160,160,146790,1,0,0:0:0:0:
320,256,146933,1,8,0:0:0:0:
320,256,147076,1,0,0:0:0:0:
320,256,147147,1,0,0:0:0:0:
320,256,147218,1,8,0:0:0:0:
320,256,147361,1,0,0:0:0:0:
320,256,147504,1,8,0:0:0:0:
320,256,147647,1,0,0:0:0:0:
320,256,147718,1,0,0:0:0:0:
320,256,147790,1,8,0:0:0:0:
320,256,147861,1,8,0:0:0:0:
320,256,147933,1,0,0:0:0:0:
320,256,148076,1,8,0:0:0:0:
64,224,148218,1,0,0:0:0:0:
320,256,148361,1,8,0:0:0:0:
64,224,148433,1,8,0:0:0:0:
128,256,148504,1,0,0:0:0:0:
32,192,148576,1,0,0:0:0:0:
128,256,148647,1,8,0:0:0:0:
128,256,148790,1,0,0:0:0:0:
128,192,148861,1,0,0:0:0:0:
128,288,148933,1,8,0:0:0:0:
128,288,149076,1,0,0:0:0:0:
128,288,149147,1,0,0:0:0:0:
128,288,149218,1,8,0:0:0:0:
128,192,149361,1,0,0:0:0:0:
128,288,149504,1,8,0:0:0:0:
224,224,149576,1,0,0:0:0:0:
128,288,149647,1,0,0:0:0:0:
128,288,149718,1,0,0:0:0:0:
128,288,149790,1,8,0:0:0:0:
128,288,149933,1,0,0:0:0:0:
96,160,150004,1,0,0:0:0:0:
128,288,150076,1,8,0:0:0:0:
128,160,150147,1,8,0:0:0:0:
128,288,150218,1,0,0:0:0:0:
128,288,150361,1,8,0:0:0:0:
128,288,150504,1,0,0:0:0:0:
160,192,150576,1,0,0:0:0:0:
160,192,150647,1,8,0:0:0:0:
160,224,150790,1,4,0:0:0:0:
160,224,150933,1,8,0:0:0:0:
160,224,151076,1,0,0:0:0:0:
160,224,151218,1,8,0:0:0:0:
160,224,151361,1,0,0:0:0:0:
128,192,151433,1,0,0:0:0:0:
160,224,151504,1,8,0:0:0:0:
160,224,151647,1,0,0:0:0:0:
160,224,151718,1,8,0:0:0:0:
160,224,151790,1,8,0:0:0:0:
160,224,151861,1,8,0:0:0:0:
160,224,151933,1,0,0:0:0:0:
160,224,152004,1,8,0:0:0:0:
160,224,152076,1,8,0:0:0:0:
160,224,152147,1,8,0:0:0:0:
160,224,152218,1,0,0:0:0:0:
160,224,152290,1,8,0:0:0:0:
160,224,152361,1,8,0:0:0:0:
160,224,152433,1,8,0:0:0:0:
160,224,152504,1,0,0:0:0:0:
160,224,152576,1,0,0:0:0:0:
160,224,152647,1,0,0:0:0:0:
160,224,152718,1,0,0:0:0:0:
160,224,152790,1,8,0:0:0:0:
384,288,152933,1,8,0:0:0:0:
160,224,153076,1,8,0:0:0:0:
320,224,153361,1,8,0:0:0:0:
128,160,153647,1,4,0:0:0:0:
96,96,153933,1,0,0:0:0:0:
96,96,154076,1,8,0:0:0:0:
96,96,154218,1,0,0:0:0:0:
224,192,154290,1,0,0:0:0:0:
96,96,154361,1,8,0:0:0:0:
416,256,154433,1,8,0:0:0:0:
128,96,154504,1,0,0:0:0:0:
128,96,154647,1,8,0:0:0:0:
416,256,154718,1,8,0:0:0:0:
128,96,154790,1,0,0:0:0:0:
128,96,154933,1,8,0:0:0:0:
128,96,155076,1,0,0:0:0:0:
128,96,155147,1,0,0:0:0:0:
128,96,155218,1,8,0:0:0:0:
128,96,155361,1,0,0:0:0:0:
128,96,155504,1,8,0:0:0:0:
128,96,155647,1,0,0:0:0:0:
128,96,155790,1,8,0:0:0:0:
128,96,155861,1,8,0:0:0:0:
128,96,155933,1,0,0:0:0:0:
128,96,156004,1,0,0:0:0:0:
128,96,156076,1,8,0:0:0:0:
128,96,156218,1,0,0:0:0:0:
128,96,156361,1,8,0:0:0:0:
128,96,156504,1,0,0:0:0:0:
256,160,156576,1,0,0:0:0:0:
128,96,156647,1,0,0:0:0:0:
128,96,156790,1,0,0:0:0:0:
128,96,156933,1,8,0:0:0:0:
288,160,157004,1,8,0:0:0:0:
128,96,157076,1,0,0:0:0:0:
288,160,157147,1,0,0:0:0:0:
128,96,157218,1,8,0:0:0:0:
128,96,157361,1,0,0:0:0:0:
96,96,157504,1,8,0:0:0:0:
416,256,157576,1,8,0:0:0:0:
96,96,157647,1,0,0:0:0:0:
96,96,157790,1,8,0:0:0:0:
96,96,157933,1,0,0:0:0:0:
352,256,158004,1,0,0:0:0:0:
96,96,158076,1,8,0:0:0:0:
352,256,158147,1,8,0:0:0:0:
96,96,158218,1,0,0:0:0:0:
96,96,158361,1,8,0:0:0:0:
96,96,158504,1,0,0:0:0:0:
96,96,158647,1,8,0:0:0:0:
448,320,158718,1,0,0:0:0:0:
96,96,158790,1,0,0:0:0:0:
480,352,158861,1,0,0:0:0:0:
96,96,158933,1,8,0:0:0:0:
96,96,159076,1,0,0:0:0:0:
96,96,159218,1,8,0:0:0:0:
416,320,159290,1,8,0:0:0:0:
96,96,159361,1,0,0:0:0:0:
96,96,159504,1,8,0:0:0:0:
96,96,159647,1,0,0:0:0:0:
416,320,159718,1,0,0:0:0:0:
416,320,159790,1,8,0:0:0:0:
416,320,159861,1,8,0:0:0:0:
96,96,159933,1,0,0:0:0:0:
96,96,160076,1,8,0:0:0:0:
32,160,160147,1,8,0:0:0:0:
96,96,160218,1,0,0:0:0:0:
96,96,160361,1,8,0:0:0:0:
96,96,160504,1,0,0:0:0:0:
224,192,160576,1,0,0:0:0:0:
96,96,160647,1,8,0:0:0:0:
96,96,160790,1,0,0:0:0:0:
96,96,160933,1,8,0:0:0:0:
96,96,161076,1,0,0:0:0:0:
96,96,161218,1,8,0:0:0:0:
96,96,161361,1,0,0:0:0:0:
96,96,161433,1,0,0:0:0:0:
96,96,161504,1,0,0:0:0:0:
96,96,161576,1,0,0:0:0:0:
96,96,161647,1,8,0:0:0:0:
96,96,162076,1,0,0:0:0:0:
96,96,162218,1,12,0:0:0:0:
160,160,162433,1,12,0:0:0:0:
160,160,162647,1,12,0:0:0:0:
160,160,162790,1,4,0:0:0:0:
352,224,163076,1,0,0:0:0:0:
352,192,163218,1,8,0:0:0:0:
352,192,163361,1,8,0:0:0:0:
352,192,163433,1,8,0:0:0:0:
352,192,163504,1,0,0:0:0:0:
352,224,163647,1,8,0:0:0:0:
352,224,163933,1,0,0:0:0:0:
160,160,164218,1,0,0:0:0:0:
160,160,164504,1,0,0:0:0:0:
160,160,164790,1,8,0:0:0:0:
160,160,164933,1,0,0:0:0:0:
160,160,165076,1,8,0:0:0:0:
160,160,165218,1,0,0:0:0:0:
160,160,165290,1,0,0:0:0:0:
160,160,165361,1,8,0:0:0:0:
160,160,165504,1,8,0:0:0:0:
192,160,165647,1,0,0:0:0:0:
160,160,165933,1,0,0:0:0:0:
96,128,166076,1,8,0:0:0:0:
96,128,166218,1,0,0:0:0:0:
96,128,166504,1,8,0:0:0:0:
96,128,166790,1,0,0:0:0:0:
96,128,167076,1,8,0:0:0:0:
96,128,167361,1,0,0:0:0:0:
160,192,167504,1,0,0:0:0:0:
160,192,167647,1,8,0:0:0:0:
160,192,167790,1,0,0:0:0:0:
160,192,167933,1,8,0:0:0:0:
160,192,168076,1,8,0:0:0:0:
160,192,168218,1,0,0:0:0:0:
160,192,168290,1,0,0:0:0:0:
160,192,168361,1,0,0:0:0:0:
160,192,168433,1,0,0:0:0:0:
160,192,168504,1,8,0:0:0:0:
160,192,168647,1,0,0:0:0:0:
160,192,168718,1,0,0:0:0:0:
160,192,168790,1,8,0:0:0:0:
480,288,168933,1,8,0:0:0:0:
480,288,169004,1,8,0:0:0:0:
480,288,169076,1,0,0:0:0:0:
480,288,169218,1,8,0:0:0:0:
480,288,169361,1,8,0:0:0:0:
480,288,169504,1,8,0:0:0:0:
480,288,169576,1,8,0:0:0:0:
480,288,169647,1,0,0:0:0:0:
224,192,169718,1,0,0:0:0:0:
224,192,169790,1,8,0:0:0:0:
224,192,169933,1,0,0:0:0:0:
352,224,170004,1,8,0:0:0:0:
224,192,170147,1,8,0:0:0:0:
224,192,170218,1,0,0:0:0:0:
224,192,170361,1,8,0:0:0:0:
224,192,170504,1,0,0:0:0:0:
160,128,170576,1,8,0:0:0:0:
224,192,170718,1,8,0:0:0:0:
224,192,170790,1,0,0:0:0:0:
224,192,170933,1,8,0:0:0:0:
224,192,171076,1,0,0:0:0:0:
160,160,171147,1,0,0:0:0:0:
224,192,171218,1,8,0:0:0:0:
224,192,171361,1,0,0:0:0:0:
160,160,171433,1,0,0:0:0:0:
224,192,171504,1,8,0:0:0:0:
160,160,171576,1,8,0:0:0:0:
224,192,171647,1,0,0:0:0:0:
224,192,171790,1,8,0:0:0:0:
224,192,171933,1,0,0:0:0:0:
224,192,172076,1,8,0:0:0:0:
160,128,172147,1,0,0:0:0:0:
224,192,172218,1,0,0:0:0:0:
160,128,172290,1,0,0:0:0:0:
224,192,172361,1,8,0:0:0:0:
224,192,172504,1,0,0:0:0:0:
224,192,172647,1,8,0:0:0:0:
384,256,172790,1,8,0:0:0:0:
320,224,172861,1,8,0:0:0:0:
320,224,172933,1,8,0:0:0:0:
224,192,173076,1,0,0:0:0:0:
224,192,173218,1,8,0:0:0:0:
224,192,173361,1,0,0:0:0:0:
224,192,173504,1,8,0:0:0:0:
192,192,173576,1,0,0:0:0:0:
224,192,173647,1,0,0:0:0:0:
192,192,173718,1,0,0:0:0:0:
192,192,173790,1,8,0:0:0:0:
192,192,173933,1,0,0:0:0:0:
192,192,174004,1,0,0:0:0:0:
192,192,174076,1,8,0:0:0:0:
192,192,174218,1,0,0:0:0:0:
160,192,174290,1,0,0:0:0:0:
192,192,174361,1,8,0:0:0:0:
160,224,174433,1,8,0:0:0:0:
192,192,174504,1,0,0:0:0:0:
192,192,174647,1,8,0:0:0:0:
192,192,174790,1,0,0:0:0:0:
192,192,174933,1,8,0:0:0:0:
192,192,175076,1,0,0:0:0:0:
448,320,175147,1,0,0:0:0:0:
192,192,175218,1,8,0:0:0:0:
448,320,175290,1,8,0:0:0:0:
192,192,175361,1,0,0:0:0:0:
192,192,175504,1,8,0:0:0:0:
448,320,175576,1,8,0:0:0:0:
192,192,175647,1,0,0:0:0:0:
192,192,175718,1,0,0:0:0:0:
192,192,175790,1,8,0:0:0:0:
192,192,175861,1,8,0:0:0:0:
192,192,175933,1,0,0:0:0:0:
192,192,176076,1,8,0:0:0:0:
192,192,176147,1,8,0:0:0:0:
192,192,176218,1,0,0:0:0:0:
96,160,176290,1,8,0:0:0:0:
192,192,176361,1,8,0:0:0:0:
192,192,176433,1,8,0:0:0:0:
192,192,176504,1,0,0:0:0:0:
96,224,176647,1,8,0:0:0:0:
96,224,176718,1,0,0:0:0:0:
192,192,176790,1,8,0:0:0:0:
192,192,176861,1,8,0:0:0:0:
192,192,176933,1,0,0:0:0:0:
192,192,177004,1,0,0:0:0:0:
192,192,177076,1,8,0:0:0:0:
128,160,177147,1,0,0:0:0:0:
128,160,177218,1,8,0:0:0:0:
128,160,177290,1,8,0:0:0:0:
128,160,177361,1,0,0:0:0:0:
128,160,177433,1,8,0:0:0:0:
128,160,177504,1,0,0:0:0:0:
128,160,177576,1,0,0:0:0:0:
128,160,177647,1,8,0:0:0:0:
128,160,177718,1,0,0:0:0:0:
128,160,177790,1,0,0:0:0:0:
128,160,177861,1,8,0:0:0:0:
128,160,177933,1,0,0:0:0:0:
128,160,178004,1,0,0:0:0:0:
128,160,178076,1,8,0:0:0:0:
128,160,178147,1,8,0:0:0:0:
128,160,178218,1,0,0:0:0:0:
128,160,178290,1,8,0:0:0:0:
128,160,178361,1,0,0:0:0:0:
128,160,178433,1,0,0:0:0:0:
128,160,178504,1,8,0:0:0:0:
128,160,178576,1,8,0:0:0:0:
128,160,178647,1,0,0:0:0:0:
128,160,178718,1,8,0:0:0:0:
128,160,178790,1,0,0:0:0:0:
128,160,178861,1,0,0:0:0:0:
128,160,178933,1,8,0:0:0:0:
128,160,179004,1,0,0:0:0:0:
128,160,179076,1,8,0:0:0:0:
128,160,179147,1,8,0:0:0:0:
128,160,179218,1,0,0:0:0:0:
128,160,179290,1,0,0:0:0:0:
128,160,179361,1,8,0:0:0:0:
128,160,179433,1,0,0:0:0:0:
128,160,179504,1,8,0:0:0:0:
128,160,179576,1,8,0:0:0:0:
128,160,179647,1,0,0:0:0:0:
128,160,179718,1,8,0:0:0:0:
128,160,179790,1,0,0:0:0:0:
128,160,179861,1,0,0:0:0:0:
128,160,179933,1,8,0:0:0:0:
128,160,180004,1,0,0:0:0:0:
128,160,180076,1,8,0:0:0:0:
128,160,180147,1,8,0:0:0:0:
128,160,180218,1,0,0:0:0:0:
128,160,180290,1,8,0:0:0:0:
128,160,180361,1,0,0:0:0:0:
128,160,180433,1,0,0:0:0:0:
128,160,180504,1,8,0:0:0:0:
320,224,180576,1,0,0:0:0:0:
320,224,180647,1,8,0:0:0:0:
320,224,180718,1,8,0:0:0:0:
320,224,180790,1,0,0:0:0:0:
320,224,180861,1,0,0:0:0:0:
320,224,180933,1,8,0:0:0:0:
320,224,181004,1,0,0:0:0:0:
320,224,181076,1,8,0:0:0:0:
320,224,181147,1,8,0:0:0:0:
320,224,181218,1,0,0:0:0:0:
320,224,181290,1,8,0:0:0:0:
320,224,181361,1,0,0:0:0:0:
320,224,181433,1,8,0:0:0:0:
320,224,181504,1,0,0:0:0:0:
320,224,181576,1,8,0:0:0:0:
320,224,181647,1,0,0:0:0:0:
320,224,181718,1,8,0:0:0:0:
320,224,181790,1,0,0:0:0:0:
320,224,181861,1,0,0:0:0:0:
320,224,181933,1,8,0:0:0:0:
320,224,182004,1,8,0:0:0:0:
320,224,182076,1,8,0:0:0:0:
320,224,182147,1,8,0:0:0:0:
192,32,182218,1,0,0:0:0:0:
192,32,182290,1,0,0:0:0:0:
192,32,182361,1,8,0:0:0:0:
96,160,182504,1,0,0:0:0:0:
96,160,183361,1,0,0:0:0:0:
32,224,183433,1,0,0:0:0:0:
160,192,183504,1,8,0:0:0:0:
32,224,183576,1,0,0:0:0:0:
32,224,183647,1,8,0:0:0:0:
32,224,183718,1,8,0:0:0:0:
32,224,183790,1,0,0:0:0:0:
160,192,183933,1,0,0:0:0:0:
64,224,184004,1,0,0:0:0:0:
160,192,184076,1,8,0:0:0:0:
160,192,184218,1,8,0:0:0:0:
192,160,184290,1,8,0:0:0:0:
192,160,184361,1,0,0:0:0:0:
192,160,184433,1,0,0:0:0:0:
160,192,184504,1,8,0:0:0:0:
160,192,184647,1,8,0:0:0:0:
160,192,184790,1,0,0:0:0:0:
160,192,184933,1,8,0:0:0:0:
128,160,185004,1,0,0:0:0:0:
160,192,185076,1,0,0:0:0:0:
160,192,185147,1,0,0:0:0:0:
160,192,185218,1,8,0:0:0:0:
160,192,185361,1,0,0:0:0:0:
160,192,185504,1,8,0:0:0:0:
160,224,185576,1,8,0:0:0:0:
192,224,185647,1,0,0:0:0:0:
352,256,185718,1,8,0:0:0:0:
192,256,185790,1,0,0:0:0:0:
160,192,185861,1,0,0:0:0:0:
160,192,185933,1,8,0:0:0:0:
160,192,186076,1,8,0:0:0:0:
160,192,186218,1,0,0:0:0:0:
160,192,186361,1,8,0:0:0:0:
160,192,186504,1,0,0:0:0:0:
160,192,186647,1,8,0:0:0:0:
160,192,186790,1,0,0:0:0:0:
96,192,186861,1,0,0:0:0:0:
160,192,186933,1,0,0:0:0:0:
160,192,187076,1,8,0:0:0:0:
160,192,187218,1,0,0:0:0:0:
160,192,187361,1,8,0:0:0:0:
160,192,187647,1,0,0:0:0:0:
160,160,187790,1,0,0:0:0:0:
160,160,187933,1,8,0:0:0:0:
160,160,188076,1,0,0:0:0:0:
160,160,188147,1,0,0:0:0:0:
160,160,188218,1,8,0:0:0:0:
224,256,188361,1,8,0:0:0:0:
224,256,188433,1,8,0:0:0:0:
160,160,188504,1,8,0:0:0:0:
160,160,188647,1,0,0:0:0:0:
160,160,188790,1,8,0:0:0:0:
64,192,188861,1,8,0:0:0:0:
160,128,188933,1,0,0:0:0:0:
64,192,189004,1,0,0:0:0:0:
160,128,189076,1,8,0:0:0:0:
160,128,189218,1,0,0:0:0:0:
160,128,189361,1,8,0:0:0:0:
160,128,189647,1,8,0:0:0:0:
64,160,189718,1,8,0:0:0:0:
32,160,189790,1,8,0:0:0:0:
64,160,189861,1,8,0:0:0:0:
64,160,189933,1,8,0:0:0:0:
64,160,190004,1,8,0:0:0:0:
64,160,190076,1,8,0:0:0:0:
64,160,190147,1,8,0:0:0:0:
64,160,190218,1,0,0:0:0:0:
320,256,190504,1,8,0:0:0:0:
320,256,190647,1,0,0:0:0:0:
64,160,190933,1,0,0:0:0:0:
96,128,191076,1,8,0:0:0:0:
96,128,191218,1,0,0:0:0:0:
96,128,191504,1,8,0:0:0:0:
32,128,191576,1,8,0:0:0:0:
32,128,191647,1,8,0:0:0:0:
32,128,191718,1,8,0:0:0:0:
32,128,191790,1,8,0:0:0:0:
32,128,191861,1,8,0:0:0:0:
32,128,191933,1,0,0:0:0:0:
32,128,192076,1,0,0:0:0:0:
32,128,192218,1,8,0:0:0:0:
32,128,192504,1,0,0:0:0:0:
416,320,192576,1,0,0:0:0:0:
32,128,192647,1,8,0:0:0:0:
32,128,192790,1,0,0:0:0:0:
32,128,192933,1,8,0:0:0:0:
96,160,193004,1,0,0:0:0:0:
32,128,193076,1,0,0:0:0:0:
128,160,193147,1,0,0:0:0:0:
32,128,193218,1,8,0:0:0:0:
32,128,193361,1,0,0:0:0:0:
32,128,193433,1,0,0:0:0:0:
32,128,193504,1,8,0:0:0:0:
32,128,193647,1,0,0:0:0:0:
384,256,193718,1,0,0:0:0:0:
32,128,193790,1,8,0:0:0:0:
384,256,193861,1,8,0:0:0:0:
32,128,193933,1,0,0:0:0:0:
32,128,194076,1,8,0:0:0:0:
32,128,194218,1,0,0:0:0:0:
256,128,194290,1,0,0:0:0:0:
32,128,194361,1,8,0:0:0:0:
288,160,194433,1,0,0:0:0:0:
32,128,194504,1,8,0:0:0:0:
32,128,194576,1,8,0:0:0:0:
32,128,194647,1,0,0:0:0:0:
32,128,194790,1,0,0:0:0:0:
32,128,194933,1,8,0:0:0:0:
32,128,195076,1,0,0:0:0:0:
192,160,195147,1,0,0:0:0:0:
32,128,195218,1,8,0:0:0:0:
32,128,195361,1,0,0:0:0:0:
32,128,195504,1,8,0:0:0:0:
32,128,195647,1,0,0:0:0:0:
32,128,195790,1,8,0:0:0:0:
96,160,195861,1,8,0:0:0:0:
32,128,195933,1,0,0:0:0:0:
32,128,196076,1,8,0:0:0:0:
32,128,196218,1,0,0:0:0:0:
32,128,196361,1,8,0:0:0:0:
32,128,196504,1,0,0:0:0:0:
32,128,196576,1,0,0:0:0:0:
32,128,196647,1,8,0:0:0:0:
32,96,196790,1,0,0:0:0:0:
32,96,196861,1,0,0:0:0:0:
32,96,196933,1,8,0:0:0:0:
32,96,197004,1,8,0:0:0:0:
32,96,197076,1,0,0:0:0:0:
32,96,197218,1,0,0:0:0:0:
32,96,197361,1,8,0:0:0:0:
32,96,197647,1,0,0:0:0:0:
32,96,197790,1,8,0:0:0:0:
32,96,197933,1,0,0:0:0:0:
32,96,198004,1,0,0:0:0:0:
32,96,198076,1,8,0:0:0:0:
32,96,198218,1,0,0:0:0:0:
32,96,198290,1,0,0:0:0:0:
32,96,198361,1,0,0:0:0:0:
32,96,198433,1,0,0:0:0:0:
32,96,198504,1,8,0:0:0:0:
320,288,198576,1,8,0:0:0:0:
320,288,198647,1,8,0:0:0:0:
320,288,198718,1,8,0:0:0:0:
320,288,198790,1,0,0:0:0:0:
320,288,198861,1,0,0:0:0:0:
320,288,198933,1,0,0:0:0:0:
320,288,199004,1,0,0:0:0:0:
320,288,199076,1,8,0:0:0:0:
320,288,199147,1,8,0:0:0:0:
320,288,199218,1,8,0:0:0:0:
320,288,199290,1,8,0:0:0:0:
320,288,199361,1,0,0:0:0:0:
288,224,199504,1,8,0:0:0:0:
256,224,199647,1,0,0:0:0:0:
32,192,199790,1,8,0:0:0:0:
160,192,199861,1,0,0:0:0:0:
256,224,199933,1,0,0:0:0:0:
160,192,200004,1,0,0:0:0:0:
256,224,200076,1,8,0:0:0:0:
256,224,200218,1,0,0:0:0:0:
160,192,200290,1,0,0:0:0:0:
256,224,200361,1,8,0:0:0:0:
256,224,200504,1,0,0:0:0:0:
128,192,200576,1,0,0:0:0:0:
256,224,200647,1,8,0:0:0:0:
128,192,200718,1,0,0:0:0:0:
256,224,200790,1,8,0:0:0:0:
96,192,200861,1,8,0:0:0:0:
256,224,200933,1,0,0:0:0:0:
96,160,201004,1,0,0:0:0:0:
256,224,201076,1,8,0:0:0:0:
256,224,201218,1,8,0:0:0:0:
96,160,201290,1,8,0:0:0:0:
256,224,201361,1,0,0:0:0:0:
256,224,201504,1,8,0:0:0:0:
256,224,201647,1,0,0:0:0:0:
128,128,201718,1,0,0:0:0:0:
256,224,201790,1,8,0:0:0:0:
128,128,201861,1,8,0:0:0:0:
256,224,201933,1,0,0:0:0:0:
256,224,202076,1,8,0:0:0:0:
256,224,202218,1,0,0:0:0:0:
128,128,202290,1,0,0:0:0:0:
256,224,202361,1,8,0:0:0:0:
256,224,202504,1,0,0:0:0:0:
160,160,202576,1,0,0:0:0:0:
256,224,202647,1,8,0:0:0:0:
256,224,202718,1,8,0:0:0:0:
256,224,202790,1,0,0:0:0:0:
256,224,202933,1,8,0:0:0:0:
384,256,203004,1,8,0:0:0:0:
256,224,203076,1,0,0:0:0:0:
256,224,203218,1,8,0:0:0:0:
256,224,203361,1,0,0:0:0:0:
352,256,203433,1,0,0:0:0:0:
256,224,203504,1,8,0:0:0:0:
352,256,203576,1,0,0:0:0:0:
256,224,203647,1,0,0:0:0:0:
352,256,203718,1,0,0:0:0:0:
256,224,203790,1,8,0:0:0:0:
256,224,203933,1,0,0:0:0:0:
256,224,204076,1,8,0:0:0:0:
256,224,204218,1,0,0:0:0:0:
352,256,204290,1,0,0:0:0:0:
256,224,204361,1,8,0:0:0:0:
352,256,204433,1,8,0:0:0:0:
256,224,204504,1,0,0:0:0:0:
256,224,204647,1,8,0:0:0:0:
256,224,204790,1,0,0:0:0:0:
256,224,204933,1,8,0:0:0:0:
352,256,205004,1,8,0:0:0:0:
256,224,205076,1,0,0:0:0:0:
256,224,205218,1,8,0:0:0:0:
256,224,205361,1,0,0:0:0:0:
256,224,205504,1,8,0:0:0:0:
352,256,205576,1,0,0:0:0:0:
256,224,205647,1,0,0:0:0:0:
352,256,205718,1,0,0:0:0:0:
256,224,205790,1,8,0:0:0:0:
256,224,205933,1,0,0:0:0:0:
256,224,206004,1,0,0:0:0:0:
256,224,206076,1,8,0:0:0:0:
256,224,206218,1,8,0:0:0:0:
256,224,206290,1,8,0:0:0:0:
256,224,206361,1,8,0:0:0:0:
256,224,206433,1,8,0:0:0:0:
256,224,206504,1,0,0:0:0:0:
256,224,206576,1,0,0:0:0:0:
256,224,206647,1,0,0:0:0:0:
256,224,206718,1,0,0:0:0:0:
256,224,206790,1,8,0:0:0:0:
256,224,206861,1,8,0:0:0:0:
256,224,206933,1,8,0:0:0:0:
256,224,207004,1,8,0:0:0:0:
256,224,207076,1,0,0:0:0:0:
256,224,207147,1,0,0:0:0:0:
256,224,207218,1,0,0:0:0:0:
256,224,207290,1,0,0:0:0:0:
256,224,207361,1,8,0:0:0:0:
416,320,207433,1,8,0:0:0:0:
416,320,207504,1,8,0:0:0:0:
416,320,207576,1,8,0:0:0:0:
416,320,207647,1,0,0:0:0:0:
416,320,207718,1,0,0:0:0:0:
416,320,207790,1,8,0:0:0:0:
416,320,207861,1,0,0:0:0:0:
416,320,207933,1,8,0:0:0:0:
416,320,208004,1,8,0:0:0:0:
416,320,208076,1,0,0:0:0:0:
416,288,208147,1,8,0:0:0:0:
416,288,208218,1,0,0:0:0:0:
416,288,208290,1,0,0:0:0:0:
416,288,208361,1,8,0:0:0:0:
416,288,208433,1,0,0:0:0:0:
416,288,208504,1,8,0:0:0:0:
352,256,208647,1,0,0:0:0:0:
352,256,208790,1,8,0:0:0:0:
352,256,208861,1,8,0:0:0:0:
352,256,208933,1,0,0:0:0:0:
352,256,209004,1,0,0:0:0:0:
352,256,209076,1,8,0:0:0:0:
352,256,209218,1,0,0:0:0:0:
352,256,209361,1,8,0:0:0:0:
352,256,209433,1,0,0:0:0:0:
352,256,209504,1,8,0:0:0:0:
352,256,209576,1,8,0:0:0:0:
352,256,209647,1,0,0:0:0:0:
352,256,209718,1,8,0:0:0:0:
352,256,209790,1,0,0:0:0:0:
352,256,209861,1,0,0:0:0:0:
352,256,209933,1,8,0:0:0:0:
352,256,210076,1,8,0:0:0:0:
352,256,210218,1,0,0:0:0:0:
352,256,210290,1,0,0:0:0:0:
352,256,210361,1,0,0:0:0:0:
352,256,210433,1,0,0:0:0:0:
352,256,210504,1,8,0:0:0:0:
352,256,210647,1,0,0:0:0:0:
352,256,210790,1,0,0:0:0:0:
352,256,210861,1,0,0:0:0:0:
352,256,210933,1,0,0:0:0:0:
352,256,211004,1,0,0:0:0:0:
352,256,211076,1,8,0:0:0:0:
352,256,211218,1,8,0:0:0:0:
352,256,211361,1,0,0:0:0:0:
352,256,211504,1,0,0:0:0:0:
352,256,211576,1,0,0:0:0:0:
352,256,211647,1,8,0:0:0:0:
352,256,211718,1,0,0:0:0:0:
352,256,211790,1,8,0:0:0:0:
352,256,211861,1,8,0:0:0:0:
352,256,211933,1,0,0:0:0:0:
352,256,212076,1,0,0:0:0:0:
352,256,212147,1,0,0:0:0:0:
352,256,212218,1,8,0:0:0:0:
352,256,212361,1,8,0:0:0:0:
352,256,212504,1,0,0:0:0:0:
352,256,212647,1,0,0:0:0:0:
352,256,212718,1,0,0:0:0:0:
352,256,212790,1,8,0:0:0:0:
352,256,212861,1,8,0:0:0:0:
352,256,212933,1,8,0:0:0:0:
352,256,213004,1,8,0:0:0:0:
352,256,213076,1,0,0:0:0:0:
352,256,213218,1,8,0:0:0:0:
352,256,213361,1,0,0:0:0:0:
352,256,213504,1,8,0:0:0:0:
352,256,213576,1,8,0:0:0:0:
352,256,213647,1,0,0:0:0:0:
352,256,213718,1,0,0:0:0:0:
352,256,213790,1,8,0:0:0:0:
352,256,213933,1,0,0:0:0:0:
352,256,214004,1,0,0:0:0:0:
352,256,214076,1,8,0:0:0:0:
352,256,214218,1,0,0:0:0:0:
352,256,214361,1,8,0:0:0:0:
0,192,214433,1,0,0:0:0:0:
352,256,214504,1,0,0:0:0:0:
0,192,214576,1,0,0:0:0:0:
352,256,214647,1,8,0:0:0:0:
352,256,214790,1,0,0:0:0:0:
96,192,214861,1,0,0:0:0:0:
352,256,214933,1,8,0:0:0:0:
128,160,215004,1,8,0:0:0:0:
352,256,215076,1,0,0:0:0:0:
352,256,215147,1,0,0:0:0:0:
352,256,215218,1,8,0:0:0:0:
352,256,215361,1,4,0:0:0:0:
32,224,215504,1,8,0:0:0:0:
64,192,215647,1,0,0:0:0:0:
64,192,215790,1,8,0:0:0:0:
64,192,215933,1,0,0:0:0:0:
128,160,216004,1,0,0:0:0:0:
64,224,216076,1,8,0:0:0:0:
32,224,216218,1,0,0:0:0:0:
128,160,216290,1,0,0:0:0:0:
32,224,216361,1,8,0:0:0:0:
128,160,216433,1,8,0:0:0:0:
64,224,216504,1,0,0:0:0:0:
96,160,216647,1,8,0:0:0:0:
416,224,216718,1,8,0:0:0:0:
96,160,216790,1,0,0:0:0:0:
96,160,216933,1,8,0:0:0:0:
96,160,217076,1,8,0:0:0:0:
96,160,217147,1,8,0:0:0:0:
96,160,217218,1,8,0:0:0:0:
32,128,217290,1,8,0:0:0:0:
64,128,217361,1,8,0:0:0:0:
64,128,217433,1,8,0:0:0:0:
64,128,217504,1,8,0:0:0:0:
64,128,217576,1,8,0:0:0:0:
64,128,217647,1,0,0:0:0:0:
160,192,217718,1,8,0:0:0:0:
32,128,217790,1,0,0:0:0:0:
32,128,217861,1,8,0:0:0:0:
32,128,217933,1,0,0:0:0:0:
288,224,218004,1,8,0:0:0:0:
288,224,218076,1,0,0:0:0:0:
288,224,218147,1,0,0:0:0:0:
288,224,218218,1,8,0:0:0:0:
288,224,218290,1,0,0:0:0:0:
288,224,218361,1,8,0:0:0:0:
288,224,218433,1,8,0:0:0:0:
288,224,218504,1,0,0:0:0:0:
288,224,218576,1,0,0:0:0:0:
288,224,218647,1,0,0:0:0:0:
288,224,218718,1,0,0:0:0:0:
288,224,218790,1,8,0:0:0:0:
288,224,218861,1,8,0:0:0:0:
288,224,218933,1,0,0:0:0:0:
288,224,219004,1,8,0:0:0:0:
288,224,219076,1,0,0:0:0:0:
288,224,219147,1,0,0:0:0:0:
288,224,219218,1,8,0:0:0:0:
288,224,219290,1,0,0:0:0:0:
288,224,219361,1,8,0:0:0:0:
288,224,219433,1,8,0:0:0:0:
288,224,219504,1,0,0:0:0:0:
288,224,219576,1,8,0:0:0:0:
288,224,219647,1,8,0:0:0:0:
288,224,219718,1,0,0:0:0:0:
288,224,219790,1,0,0:0:0:0:
288,224,219861,1,8,0:0:0:0:
288,224,219933,1,0,0:0:0:0:
288,224,220004,1,8,0:0:0:0:
288,224,220076,1,0,0:0:0:0:
288,224,220147,1,0,0:0:0:0:
288,224,220218,1,8,0:0:0:0:
288,224,220290,1,0,0:0:0:0:
288,224,220361,1,0,0:0:0:0:
288,224,220433,1,0,0:0:0:0:
288,224,220504,1,8,0:0:0:0:
288,224,220576,1,0,0:0:0:0:
288,224,220647,1,8,0:0:0:0:
288,224,220718,1,0,0:0:0:0:
288,224,220790,1,8,0:0:0:0:
288,224,220861,1,8,0:0:0:0:
288,224,220933,1,8,0:0:0:0:
288,224,221004,1,8,0:0:0:0:
288,224,221076,1,0,0:0:0:0:
288,224,221147,1,0,0:0:0:0:
288,224,221218,1,8,0:0:0:0:
288,224,221290,1,0,0:0:0:0:
288,224,221361,1,8,0:0:0:0:
288,224,221433,1,8,0:0:0:0:
288,224,221504,1,0,0:0:0:0:
288,224,221576,1,8,0:0:0:0:
288,224,221647,1,8,0:0:0:0:
288,224,221718,1,0,0:0:0:0:
288,224,221790,1,8,0:0:0:0:
288,224,221861,1,0,0:0:0:0:
288,224,221933,1,8,0:0:0:0:
288,224,222004,1,8,0:0:0:0:
288,224,222076,1,0,0:0:0:0:
288,224,222147,1,0,0:0:0:0:
288,224,222218,1,8,0:0:0:0:
288,224,222290,1,8,0:0:0:0:
288,224,222361,1,8,0:0:0:0:
288,224,222433,1,8,0:0:0:0:
288,224,222504,1,0,0:0:0:0:
288,224,222576,1,0,0:0:0:0:
288,224,222647,1,0,0:0:0:0:
288,224,222718,1,0,0:0:0:0:
288,224,222790,1,0,0:0:0:0:
288,224,222861,1,0,0:0:0:0:
288,224,222933,1,0,0:0:0:0:
288,224,223004,1,0,0:0:0:0:
288,224,223076,1,0,0:0:0:0:
288,224,223147,1,0,0:0:0:0:
288,224,223218,1,0,0:0:0:0:
288,224,223290,1,0,0:0:0:0:
288,224,223361,1,8,0:0:0:0:
288,224,223433,1,8,0:0:0:0:
288,224,223504,1,8,0:0:0:0:
288,224,223576,1,8,0:0:0:0:
288,224,223647,1,0,0:0:0:0:
288,224,223718,1,0,0:0:0:0:
288,224,223790,1,0,0:0:0:0:
288,224,223861,1,0,0:0:0:0:
288,224,223933,1,8,0:0:0:0:
288,224,224004,1,8,0:0:0:0:
288,224,224076,1,8,0:0:0:0:
288,224,224147,1,8,0:0:0:0:
288,224,224218,1,0,0:0:0:0:
288,224,224290,1,0,0:0:0:0:
288,224,224361,1,0,0:0:0:0:
288,224,224433,1,0,0:0:0:0:
288,224,224504,1,8,0:0:0:0:
352,256,228789,1,8,0:0:0:0:
352,256,229075,1,0,0:0:0:0:
352,256,229361,1,8,0:0:0:0:
352,256,229504,1,8,0:0:0:0:
352,256,229646,1,0,0:0:0:0:
320,192,229932,1,0,0:0:0:0:
416,320,230218,1,0,0:0:0:0:
192,128,230361,1,8,0:0:0:0:
160,128,230504,1,0,0:0:0:0:
160,128,230789,1,0,0:0:0:0:
128,192,231075,1,8,0:0:0:0:
352,288,231646,1,8,0:0:0:0:
352,288,231932,1,0,0:0:0:0:
352,288,232218,1,8,0:0:0:0:
352,288,232504,1,8,0:0:0:0:
352,288,232646,1,8,0:0:0:0:
352,288,232789,1,0,0:0:0:0:
128,256,233075,1,8,0:0:0:0:
160,256,233218,1,8,0:0:0:0:
160,256,233361,1,0,0:0:0:0:
128,256,233646,1,0,0:0:0:0:
128,256,233932,1,8,0:0:0:0:
128,256,234218,1,0,0:0:0:0:
128,224,234504,1,8,0:0:0:0:
128,224,234646,1,8,0:0:0:0:
128,224,234789,1,0,0:0:0:0:
128,224,235075,1,8,0:0:0:0:
128,224,235218,1,0,0:0:0:0:
128,224,235361,1,8,0:0:0:0:
128,224,235646,1,0,0:0:0:0:
128,224,235932,1,8,0:0:0:0:
160,224,236218,1,8,0:0:0:0:
160,224,236504,1,0,0:0:0:0:
160,224,236646,1,8,0:0:0:0:
160,224,236789,1,0,0:0:0:0:
160,224,237075,1,8,0:0:0:0:
64,192,237361,1,8,0:0:0:0:
64,160,237646,1,0,0:0:0:0:
64,160,237932,1,0,0:0:0:0:
64,160,238218,1,8,0:0:0:0:
64,160,238504,1,0,0:0:0:0:
64,160,238789,1,8,0:0:0:0:
64,160,239075,1,8,0:0:0:0:
64,160,239218,1,8,0:0:0:0:
64,160,239361,1,0,0:0:0:0:
64,160,239646,1,0,0:0:0:0:
64,160,239789,1,0,0:0:0:0:
64,160,239932,1,8,0:0:0:0:
64,160,240218,1,0,0:0:0:0:
64,160,240504,1,8,0:0:0:0:
64,160,240646,1,8,0:0:0:0:
64,160,240789,1,0,0:0:0:0:
256,192,241075,8,0,241504,0:0:0:0:
256,160,241646,5,4,0:0:0:0:
480,320,244788,1,4,0:0:0:0:
480,320,245074,1,4,0:0:0:0:
128,192,247360,1,0,0:0:0:0:
160,192,247646,1,0,0:0:0:0:
160,192,247931,1,8,0:0:0:0:
480,320,248217,1,4,0:0:0:0:
480,320,248503,1,4,0:0:0:0:
160,256,248788,1,0,0:0:0:0:
160,256,248931,1,8,0:0:0:0:
160,256,249074,1,0,0:0:0:0:
160,256,249360,1,0,0:0:0:0:
96,160,249503,1,0,0:0:0:0:
96,160,249574,1,0,0:0:0:0:
96,160,249646,1,0,0:0:0:0:
64,160,249788,1,8,0:0:0:0:
64,160,249931,1,0,0:0:0:0:
64,160,250074,1,8,0:0:0:0:
64,160,250146,1,0,0:0:0:0:
64,160,250217,1,0,0:0:0:0:
64,160,250360,1,0,0:0:0:0:
64,160,250503,1,8,0:0:0:0:
64,160,250646,1,0,0:0:0:0:
128,160,250788,1,0,0:0:0:0:
128,160,250931,1,0,0:0:0:0:
128,160,251074,1,0,0:0:0:0:
128,160,251217,1,0,0:0:0:0:
128,160,251288,1,8,0:0:0:0:
128,160,251360,1,0,0:0:0:0:
160,160,251503,1,8,0:0:0:0:
160,160,251646,1,0,0:0:0:0:
32,160,251788,1,0,0:0:0:0:
160,160,251931,1,8,0:0:0:0:
128,160,252074,1,0,0:0:0:0:
128,160,252217,1,0,0:0:0:0:
128,160,252503,1,0,0:0:0:0:
128,160,252646,1,0,0:0:0:0:
128,160,252788,1,0,0:0:0:0:
128,160,252931,1,8,0:0:0:0:
128,160,253074,1,0,0:0:0:0:
128,160,253360,1,0,0:0:0:0:
128,160,253503,1,0,0:0:0:0:
128,160,253646,1,12,0:0:0:0:
160,192,253931,1,0,0:0:0:0:
160,192,254217,1,12,0:0:0:0:
32,192,254503,1,0,0:0:0:0:
64,160,254788,1,0,0:0:0:0:
64,160,255074,1,0,0:0:0:0:
64,160,255360,1,12,0:0:0:0:
128,192,255646,1,0,0:0:0:0:
128,192,255788,1,0,0:0:0:0:
128,192,255931,1,8,0:0:0:0:
96,224,256217,1,8,0:0:0:0:
96,224,256503,1,0,0:0:0:0:
96,224,256788,1,8,0:0:0:0:
96,224,256931,1,8,0:0:0:0:
96,224,257074,1,4,0:0:0:0:
96,160,257360,1,0,0:0:0:0:
96,160,257646,1,0,0:0:0:0:
96,160,257788,1,0,0:0:0:0:
96,160,257931,1,12,0:0:0:0:
160,128,258217,1,8,0:0:0:0:
160,128,258503,1,0,0:0:0:0:
128,128,258788,1,0,0:0:0:0:
128,128,259074,1,0,0:0:0:0:
128,128,259217,1,0,0:0:0:0:
128,128,259360,1,8,0:0:0:0:
128,128,259503,1,8,0:0:0:0:
128,128,259646,1,4,0:0:0:0:
256,192,259931,1,8,0:0:0:0:
256,192,260217,1,0,0:0:0:0:
256,224,260503,1,0,0:0:0:0:
256,224,260646,1,0,0:0:0:0:
256,224,260788,1,8,0:0:0:0:
160,192,261074,1,0,0:0:0:0:
160,192,261360,1,8,0:0:0:0:
384,288,261431,1,8,0:0:0:0:
384,288,261503,1,8,0:0:0:0:
384,288,261574,1,8,0:0:0:0:
384,288,261646,1,0,0:0:0:0:
384,288,261788,1,0,0:0:0:0:
384,288,261931,1,0,0:0:0:0:
384,288,262074,1,0,0:0:0:0:
384,288,262217,1,12,0:0:0:0:
32,192,262503,1,8,0:0:0:0:
64,192,262788,1,8,0:0:0:0:
64,192,262931,1,8,0:0:0:0:
64,192,263074,1,0,0:0:0:0:
64,192,263217,1,0,0:0:0:0:
64,192,263360,1,8,0:0:0:0:
64,192,263503,1,0,0:0:0:0:
64,192,263574,1,0,0:0:0:0:
64,192,263646,1,8,0:0:0:0:
64,192,263931,1,0,0:0:0:0:
288,288,264074,1,0,0:0:0:0:
288,288,264217,1,8,0:0:0:0:
288,288,264360,1,0,0:0:0:0:
288,288,264503,1,8,0:0:0:0:
288,288,264646,1,8,0:0:0:0:
288,288,264788,1,0,0:0:0:0:
288,288,264931,1,0,0:0:0:0:
288,288,265074,1,8,0:0:0:0:
288,288,265217,1,0,0:0:0:0:
288,288,265360,1,8,0:0:0:0:
288,288,265646,1,0,0:0:0:0:
288,288,265788,1,0,0:0:0:0:
288,288,265931,1,8,0:0:0:0:
288,288,266217,1,8,0:0:0:0:
288,288,266360,1,8,0:0:0:0:
288,288,266503,1,0,0:0:0:0:
288,288,266646,1,0,0:0:0:0:
288,288,266788,1,8,0:0:0:0:
288,288,266931,1,0,0:0:0:0:
288,288,267074,1,8,0:0:0:0:
288,288,267217,1,8,0:0:0:0:
288,288,267360,1,0,0:0:0:0:
288,288,267503,1,0,0:0:0:0:
288,288,267646,1,8,0:0:0:0:
288,288,267788,1,0,0:0:0:0:
288,288,267931,1,8,0:0:0:0:
64,160,268074,1,8,0:0:0:0:
64,160,268146,1,8,0:0:0:0:
288,288,268217,1,0,0:0:0:0:
288,288,268360,1,0,0:0:0:0:
256,288,268503,1,8,0:0:0:0:
256,288,268646,1,0,0:0:0:0:
256,288,268788,1,8,0:0:0:0:
256,288,268931,1,0,0:0:0:0:
256,288,269003,1,0,0:0:0:0:
352,160,269074,1,4,0:0:0:0:
224,224,269274,1,8,0:0:0:0:
320,256,269374,1,0,0:0:0:0:
320,224,269474,1,0,0:0:0:0:
320,224,269574,1,8,0:0:0:0:
192,128,269674,1,0,0:0:0:0:
352,224,269774,1,0,0:0:0:0:
224,192,269874,1,8,0:0:0:0:
224,192,269974,1,0,0:0:0:0:
224,224,270074,1,0,0:0:0:0:
416,256,270174,1,0,0:0:0:0:
288,192,270274,1,8,0:0:0:0:
96,192,270374,1,8,0:0:0:0:
96,192,270474,1,8,0:0:0:0:
96,192,270574,1,8,0:0:0:0:
160,192,270674,1,4,0:0:0:0:
64,160,270874,1,8,0:0:0:0:
0,160,270924,1,8,0:0:0:0:
96,192,270974,1,0,0:0:0:0:
96,128,271074,1,0,0:0:0:0:
96,128,271174,1,8,0:0:0:0:
96,96,271274,1,0,0:0:0:0:
96,96,271374,1,8,0:0:0:0:
96,96,271474,1,0,0:0:0:0:
416,288,271524,1,0,0:0:0:0:
96,96,271574,1,8,0:0:0:0:
96,96,271674,1,0,0:0:0:0:
96,96,271774,1,8,0:0:0:0:
416,288,271824,1,8,0:0:0:0:
96,96,271874,1,0,0:0:0:0:
416,288,271924,1,0,0:0:0:0:
64,128,271974,1,8,0:0:0:0:
64,128,272074,1,8,0:0:0:0:
64,96,272124,1,8,0:0:0:0:
64,128,272174,1,8,0:0:0:0:
64,96,272224,1,8,0:0:0:0:
64,96,272274,1,0,0:0:0:0:
64,96,272374,1,8,0:0:0:0:
64,96,272474,1,0,0:0:0:0:
64,96,272574,1,0,0:0:0:0:
352,256,272624,1,0,0:0:0:0:
64,96,272674,1,0,0:0:0:0:
64,96,272774,1,8,0:0:0:0:
320,224,272824,1,8,0:0:0:0:
64,96,272874,1,0,0:0:0:0:
64,96,272974,1,8,0:0:0:0:
64,96,273074,1,0,0:0:0:0:
320,224,273124,1,0,0:0:0:0:
64,96,273174,1,8,0:0:0:0:
320,224,273224,1,8,0:0:0:0:
64,96,273274,1,0,0:0:0:0:
64,96,273374,1,8,0:0:0:0:
64,96,273474,1,0,0:0:0:0:
64,96,273574,1,8,0:0:0:0:
64,96,273674,1,0,0:0:0:0:
320,224,273724,1,0,0:0:0:0:
64,96,273774,1,8,0:0:0:0:
320,224,273824,1,8,0:0:0:0:
64,96,273874,1,0,0:0:0:0:
64,96,273924,1,0,0:0:0:0:
64,96,273974,1,8,0:0:0:0:
64,96,274074,1,0,0:0:0:0:
64,96,274124,1,0,0:0:0:0:
64,128,274174,1,8,0:0:0:0:
64,128,274274,1,0,0:0:0:0:
64,128,274374,1,8,0:0:0:0:
64,128,274474,1,8,0:0:0:0:
288,224,274524,1,8,0:0:0:0:
64,128,274574,1,0,0:0:0:0:
64,128,274674,1,8,0:0:0:0:
288,224,274724,1,8,0:0:0:0:
64,128,274774,1,8,0:0:0:0:
64,128,274874,1,0,0:0:0:0:
64,128,275074,1,8,0:0:0:0:
64,128,275174,1,8,0:0:0:0:
288,224,275224,1,8,0:0:0:0:
64,128,275274,1,0,0:0:0:0:
64,128,275474,1,0,0:0:0:0:
64,128,275574,1,0,0:0:0:0:
64,128,275674,1,8,0:0:0:0:
64,128,275774,1,8,0:0:0:0:
64,128,275874,1,0,0:0:0:0:
64,128,275974,1,0,0:0:0:0:
96,128,276074,1,8,0:0:0:0:
96,128,276174,1,8,0:0:0:0:
96,128,276274,1,0,0:0:0:0:
96,128,276374,1,0,0:0:0:0:
96,128,276474,1,0,0:0:0:0:
96,128,276574,1,0,0:0:0:0:
96,128,276674,1,8,0:0:0:0:
96,128,276774,1,0,0:0:0:0:
96,128,276874,1,8,0:0:0:0:
96,128,276974,1,0,0:0:0:0:
96,128,277074,1,0,0:0:0:0:
96,128,277274,1,8,0:0:0:0:
96,128,277474,1,0,0:0:0:0:
96,128,277574,1,0,0:0:0:0:
96,128,277674,1,8,0:0:0:0:
96,128,277874,1,0,0:0:0:0:
64,128,278074,1,8,0:0:0:0:
64,128,278274,1,0,0:0:0:0:
64,128,278474,1,8,0:0:0:0:
64,128,278674,1,0,0:0:0:0:
64,128,278774,1,0,0:0:0:0:
320,256,278824,1,0,0:0:0:0:
64,128,278874,1,8,0:0:0:0:
64,128,278974,1,8,0:0:0:0:
64,128,279074,1,0,0:0:0:0:
64,128,279274,1,8,0:0:0:0:
64,128,279474,1,0,0:0:0:0:
64,128,279674,1,8,0:0:0:0:
64,128,279874,1,0,0:0:0:0:
64,128,280074,1,8,0:0:0:0:
64,128,280274,1,0,0:0:0:0:
64,128,280374,1,0,0:0:0:0:
64,128,280574,1,0,0:0:0:0:
96,128,280674,1,8,0:0:0:0:
192,128,280774,1,0,0:0:0:0:
96,128,280874,1,0,0:0:0:0:
96,128,281074,1,0,0:0:0:0:
96,128,281174,1,0,0:0:0:0:
320,320,281224,1,0,0:0:0:0:
96,128,281274,1,8,0:0:0:0:
96,128,281474,1,0,0:0:0:0:
96,128,281574,1,0,0:0:0:0:
0,160,281624,1,0,0:0:0:0:
320,320,281674,1,8,0:0:0:0:
96,128,281874,1,0,0:0:0:0:
96,128,282074,1,0,0:0:0:0:
96,128,282174,1,0,0:0:0:0:
96,128,282274,1,0,0:0:0:0:
352,256,282324,1,0,0:0:0:0:
96,128,282374,1,8,0:0:0:0:
352,256,282424,1,8,0:0:0:0:
96,128,282474,1,0,0:0:0:0:
96,128,282574,1,0,0:0:0:0:
96,128,282674,1,8,0:0:0:0:
96,128,282874,1,0,0:0:0:0:
96,128,282974,1,0,0:0:0:0:
320,256,283024,1,0,0:0:0:0:
96,128,283074,1,8,0:0:0:0:
96,128,283174,1,8,0:0:0:0:
320,256,283224,1,8,0:0:0:0:
96,128,283274,1,0,0:0:0:0:
320,256,283324,1,0,0:0:0:0:
96,128,283374,1,0,0:0:0:0:
288,192,283474,1,12,0:0:0:0:
256,224,283674,1,8,0:0:0:0:
192,192,283724,1,8,0:0:0:0:
256,224,283774,1,0,0:0:0:0:
192,192,283824,1,0,0:0:0:0:
256,224,283874,1,8,0:0:0:0:
256,224,283974,1,0,0:0:0:0:
256,224,284074,1,8,0:0:0:0:
192,192,284124,1,8,0:0:0:0:
256,224,284174,1,0,0:0:0:0:
256,224,284274,1,8,0:0:0:0:
192,192,284324,1,8,0:0:0:0:
256,224,284374,1,0,0:0:0:0:
192,192,284424,1,0,0:0:0:0:
256,224,284474,1,8,0:0:0:0:
256,224,284574,1,0,0:0:0:0:
256,224,284674,1,8,0:0:0:0:
192,192,284724,1,0,0:0:0:0:
256,224,284774,1,0,0:0:0:0:
192,192,284824,1,0,0:0:0:0:
256,224,284874,1,8,0:0:0:0:
256,224,284974,1,0,0:0:0:0:
192,192,285024,1,0,0:0:0:0:
256,224,285074,1,8,0:0:0:0:
256,224,285174,1,0,0:0:0:0:
256,224,285274,1,8,0:0:0:0:
192,192,285324,1,8,0:0:0:0:
256,224,285374,1,0,0:0:0:0:
256,224,285474,1,8,0:0:0:0:
192,192,285524,1,8,0:0:0:0:
256,224,285574,1,0,0:0:0:0:
256,224,285674,1,8,0:0:0:0:
96,160,285724,1,0,0:0:0:0:
256,224,285774,1,0,0:0:0:0:
128,160,285824,1,0,0:0:0:0:
160,96,285874,1,8,0:0:0:0:
160,96,285974,1,0,0:0:0:0:
160,96,286074,1,8,0:0:0:0:
96,160,286124,1,8,0:0:0:0:
160,96,286174,1,0,0:0:0:0:
160,96,286274,1,8,0:0:0:0:
160,96,286374,1,0,0:0:0:0:
96,160,286424,1,0,0:0:0:0:
160,96,286474,1,8,0:0:0:0:
160,96,286674,1,0,0:0:0:0:
96,128,286874,1,0,0:0:0:0:
96,128,286974,1,8,0:0:0:0:
96,128,287074,1,0,0:0:0:0:
416,288,287124,1,0,0:0:0:0:
96,128,287174,1,8,0:0:0:0:
96,128,287274,1,0,0:0:0:0:
96,96,287374,1,8,0:0:0:0:
416,288,287424,1,0,0:0:0:0:
96,128,287474,1,0,0:0:0:0:
416,288,287524,1,0,0:0:0:0:
160,128,287574,1,8,0:0:0:0:
160,128,287674,1,0,0:0:0:0:
416,288,287724,1,0,0:0:0:0:
160,128,287774,1,8,0:0:0:0:
160,128,287874,1,0,0:0:0:0:
160,128,287974,1,8,0:0:0:0:
416,288,288024,1,8,0:0:0:0:
160,128,288074,1,0,0:0:0:0:
160,96,288174,1,8,0:0:0:0:
160,96,288224,1,8,0:0:0:0:
160,96,288274,1,0,0:0:0:0:
160,96,288324,1,0,0:0:0:0:
160,96,288374,1,8,0:0:0:0:
160,96,288474,1,0,0:0:0:0:
128,96,288574,1,8,0:0:0:0:
128,96,288674,1,0,0:0:0:0:
384,256,288724,1,0,0:0:0:0:
128,96,288774,1,8,0:0:0:0:
128,96,288874,1,0,0:0:0:0:
128,96,288924,1,0,0:0:0:0:
128,96,288974,1,8,0:0:0:0:
384,256,289024,1,8,0:0:0:0:
128,96,289074,1,0,0:0:0:0:
128,96,289174,1,8,0:0:0:0:
128,96,289274,1,0,0:0:0:0:
128,96,289374,1,8,0:0:0:0:
384,256,289424,1,8,0:0:0:0:
128,96,289474,1,0,0:0:0:0:
128,96,289574,1,8,0:0:0:0:
128,96,289674,1,0,0:0:0:0:
128,96,289774,1,8,0:0:0:0:
352,224,290074,1,0,0:0:0:0:
288,288,290174,1,0,0:0:0:0:
352,224,290274,1,8,0:0:0:0:
352,224,290374,1,0,0:0:0:0:
352,224,290474,1,0,0:0:0:0:
352,224,290574,1,8,0:0:0:0:
352,224,290674,1,0,0:0:0:0:
352,224,290774,1,8,0:0:0:0:
384,288,290897,1,8,0:0:0:0:
384,320,290947,1,0,0:0:0:0:
384,320,290997,1,8,0:0:0:0:
384,320,291047,1,8,0:0:0:0:
384,320,291097,1,0,0:0:0:0:
384,320,291147,1,8,0:0:0:0:
384,320,291197,1,0,0:0:0:0:
384,320,291247,1,0,0:0:0:0:
384,320,291297,1,8,0:0:0:0:
384,320,291347,1,8,0:0:0:0:
384,320,291397,1,0,0:0:0:0:
384,320,291447,1,0,0:0:0:0:
384,320,291497,1,8,0:0:0:0:
384,320,291547,1,0,0:0:0:0:
384,320,291597,1,8,0:0:0:0:
384,320,291647,1,8,0:0:0:0:
384,320,291697,1,0,0:0:0:0:
384,320,291747,1,0,0:0:0:0:
384,320,291797,1,0,0:0:0:0:
384,320,291847,1,0,0:0:0:0:
288,128,291897,1,8,0:0:0:0:
288,128,291947,1,8,0:0:0:0:
288,128,291997,1,0,0:0:0:0:
288,128,292047,1,0,0:0:0:0:
288,128,292097,1,8,0:0:0:0:
288,160,292147,1,0,0:0:0:0:
288,160,292197,1,8,0:0:0:0:
288,160,292247,1,8,0:0:0:0:
288,160,292297,1,0,0:0:0:0:
288,160,292347,1,0,0:0:0:0:
288,160,292397,1,0,0:0:0:0:
288,160,292447,1,8,0:0:0:0:
288,160,292497,1,0,0:0:0:0:
288,160,292547,1,0,0:0:0:0:
288,160,292597,1,8,0:0:0:0:
288,160,292647,1,8,0:0:0:0:
288,160,292697,1,0,0:0:0:0:
288,160,292747,1,0,0:0:0:0:
288,160,292797,1,8,0:0:0:0:
288,160,292847,1,0,0:0:0:0:
288,160,292897,1,8,0:0:0:0:
288,160,292947,1,8,0:0:0:0:
288,160,292997,1,0,0:0:0:0:
288,160,293047,1,0,0:0:0:0:
288,160,293097,1,8,0:0:0:0:
288,160,293147,1,8,0:0:0:0:
288,160,293197,1,0,0:0:0:0:
288,160,293297,1,12,0:0:0:0:
384,256,293597,1,4,0:0:0:0:
128,160,293897,1,12,0:0:0:0:
128,160,294197,1,4,0:0:0:0:
128,160,294497,1,12,0:0:0:0:
128,160,294597,1,0,0:0:0:0:
128,160,294697,1,0,0:0:0:0:
128,160,294797,1,12,0:0:0:0:
192,128,294897,1,0,0:0:0:0:
192,128,294997,1,0,0:0:0:0:
160,160,295097,1,12,0:0:0:0:
160,160,295197,1,0,0:0:0:0:
160,160,295297,1,4,0:0:0:0:
128,160,295397,1,0,0:0:0:0:
320,256,295497,1,8,0:0:0:0:
320,256,295547,1,0,0:0:0:0:
320,256,295597,1,8,0:0:0:0:
320,256,295647,1,8,0:0:0:0:
320,256,295697,1,0,0:0:0:0:
32,192,295747,1,0,0:0:0:0:
32,192,295797,1,8,0:0:0:0:
32,192,295847,1,8,0:0:0:0:
32,192,295897,1,0,0:0:0:0:
32,192,295947,1,0,0:0:0:0:
32,192,295997,1,8,0:0:0:0:
32,192,296047,1,8,0:0:0:0:
32,192,296097,1,0,0:0:0:0:
32,192,296147,1,0,0:0:0:0:
32,192,296197,1,8,0:0:0:0:
32,192,296247,1,8,0:0:0:0:
32,192,296297,1,0,0:0:0:0:
32,192,296347,1,0,0:0:0:0:
32,192,296397,1,8,0:0:0:0:
32,192,296447,1,8,0:0:0:0:
32,192,296497,1,0,0:0:0:0:
32,192,296547,1,0,0:0:0:0:
64,160,296597,1,8,0:0:0:0:
64,160,296647,1,0,0:0:0:0:
64,160,296697,1,8,0:0:0:0:
64,160,296747,1,8,0:0:0:0:
64,160,296797,1,0,0:0:0:0:
64,160,296847,1,8,0:0:0:0:
64,160,296897,1,0,0:0:0:0:
320,192,296947,1,0,0:0:0:0:
320,192,296997,1,8,0:0:0:0:
320,192,297047,1,0,0:0:0:0:
320,192,297097,1,8,0:0:0:0:
320,192,297147,1,8,0:0:0:0:
320,192,297197,1,8,0:0:0:0:
320,192,297247,1,8,0:0:0:0:
320,192,297297,1,0,0:0:0:0:
320,192,297347,1,8,0:0:0:0:
320,192,297397,1,0,0:0:0:0:
320,192,297447,1,0,0:0:0:0:
320,192,297497,1,8,0:0:0:0:
320,192,297547,1,0,0:0:0:0:
320,192,297597,1,8,0:0:0:0:
320,192,297647,1,8,0:0:0:0:
320,192,297697,1,0,0:0:0:0:
192,224,297797,1,8,0:0:0:0:
192,224,297897,1,0,0:0:0:0:
192,224,297997,1,0,0:0:0:0:
192,192,298097,1,12,0:0:0:0:
192,192,298197,1,0,0:0:0:0:
192,192,298297,1,0,0:0:0:0:
192,192,298397,1,12,0:0:0:0:
192,192,298497,1,0,0:0:0:0:
192,192,298597,1,8,0:0:0:0:
320,192,298697,1,8,0:0:0:0:
320,192,298747,1,0,0:0:0:0:
320,192,298797,1,8,0:0:0:0:
320,192,298847,1,8,0:0:0:0:
320,192,298897,1,0,0:0:0:0:
320,192,298947,1,8,0:0:0:0:
320,192,298997,1,0,0:0:0:0:
320,192,299047,1,0,0:0:0:0:
320,192,299097,1,8,0:0:0:0:
320,192,299147,1,8,0:0:0:0:
320,192,299197,1,0,0:0:0:0:
320,192,299247,1,0,0:0:0:0:
320,192,299297,1,8,0:0:0:0:
320,192,299347,1,0,0:0:0:0:
320,192,299397,1,0,0:0:0:0:
320,192,299447,1,0,0:0:0:0:
320,192,299497,1,8,0:0:0:0:
320,192,299547,1,0,0:0:0:0:
320,192,299597,1,0,0:0:0:0:
320,192,299647,1,0,0:0:0:0:
320,192,299697,1,8,0:0:0:0:
320,192,299747,1,8,0:0:0:0:
320,192,299797,1,0,0:0:0:0:
320,192,299847,1,0,0:0:0:0:
320,192,299897,1,0,0:0:0:0:
320,192,299947,1,0,0:0:0:0:
320,192,299997,1,0,0:0:0:0:
320,192,300047,1,0,0:0:0:0:
320,192,300097,1,8,0:0:0:0:
128,128,300147,1,8,0:0:0:0:
128,128,300197,1,0,0:0:0:0:
128,128,300247,1,0,0:0:0:0:
128,128,300297,1,8,0:0:0:0:
128,128,300347,1,8,0:0:0:0:
128,128,300397,1,0,0:0:0:0:
128,128,300447,1,0,0:0:0:0:
128,128,300497,1,8,0:0:0:0:
96,160,300697,1,8,0:0:0:0:
416,288,300747,1,0,0:0:0:0:
416,288,300797,1,8,0:0:0:0:
416,288,300847,1,0,0:0:0:0:
416,288,300897,1,8,0:0:0:0:
416,288,300947,1,0,0:0:0:0:
416,288,300997,1,8,0:0:0:0:
416,288,301047,1,0,0:0:0:0:
416,288,301097,1,8,0:0:0:0:
416,288,301147,1,0,0:0:0:0:
416,288,301197,1,8,0:0:0:0:
416,288,301247,1,0,0:0:0:0:
416,288,301297,1,8,0:0:0:0:
160,160,301347,1,8,0:0:0:0:
160,160,301397,1,0,0:0:0:0:
160,160,301447,1,0,0:0:0:0:
160,160,301497,1,8,0:0:0:0:
160,160,301547,1,8,0:0:0:0:
160,160,301597,1,0,0:0:0:0:
160,160,301647,1,0,0:0:0:0:
160,160,301697,1,8,0:0:0:0:
160,160,301747,1,8,0:0:0:0:
160,160,301797,1,0,0:0:0:0:
160,160,301847,1,0,0:0:0:0:
160,160,301897,1,8,0:0:0:0:
160,160,301947,1,8,0:0:0:0:
160,160,301997,1,0,0:0:0:0:
160,160,302047,1,8,0:0:0:0:
160,160,302097,1,0,0:0:0:0:
160,160,302147,1,0,0:0:0:0:
192,96,302197,1,8,0:0:0:0:
160,160,302247,1,0,0:0:0:0:
160,160,302297,1,8,0:0:0:0:
128,160,302347,1,8,0:0:0:0:
128,160,302397,1,0,0:0:0:0:
128,160,302447,1,0,0:0:0:0:
128,160,302497,1,8,0:0:0:0:
128,160,302547,1,8,0:0:0:0:
128,160,302597,1,8,0:0:0:0:
128,160,302647,1,8,0:0:0:0:
128,160,302697,1,0,0:0:0:0:
128,160,302747,1,0,0:0:0:0:
128,160,302797,1,8,0:0:0:0:
128,160,302847,1,0,0:0:0:0:
128,160,302897,1,8,0:0:0:0:
160,192,302997,1,0,0:0:0:0:
160,192,303097,1,8,0:0:0:0:
160,192,303197,1,0,0:0:0:0:
384,256,303297,1,8,0:0:0:0:
384,256,303347,1,8,0:0:0:0:
384,256,303397,1,8,0:0:0:0:
320,64,303447,1,0,0:0:0:0:
352,96,303497,1,0,0:0:0:0:
160,160,303547,1,0,0:0:0:0:
192,160,303597,1,8,0:0:0:0:
192,160,303647,1,0,0:0:0:0:
192,160,303697,1,8,0:0:0:0:
384,224,303747,1,8,0:0:0:0:
384,224,303797,1,0,0:0:0:0:
384,224,303847,1,8,0:0:0:0:
384,224,303897,1,0,0:0:0:0:
64,160,304097,1,0,0:0:0:0:
256,160,304147,1,0,0:0:0:0:
224,160,304197,1,8,0:0:0:0:
224,160,304247,1,8,0:0:0:0:
224,160,304297,1,0,0:0:0:0:
224,160,304397,1,0,0:0:0:0:
224,160,304497,1,8,0:0:0:0:
224,160,304597,1,8,0:0:0:0:
224,160,304647,1,8,0:0:0:0:
224,160,304697,1,0,0:0:0:0:
224,160,304747,1,8,0:0:0:0:
224,160,304797,1,0,0:0:0:0:
224,160,304847,1,0,0:0:0:0:
224,160,304897,1,8,0:0:0:0:
224,160,304997,1,8,0:0:0:0:
128,192,305047,1,0,0:0:0:0:
224,160,305097,1,0,0:0:0:0:
128,192,305147,1,0,0:0:0:0:
224,160,305197,1,8,0:0:0:0:
224,160,305297,1,4,0:0:0:0:
192,128,305497,1,0,0:0:0:0:
320,224,305547,1,0,0:0:0:0:
320,224,305597,1,8,0:0:0:0:
320,224,305647,1,8,0:0:0:0:
320,224,305697,1,0,0:0:0:0:
320,224,305747,1,0,0:0:0:0:
320,224,305797,1,8,0:0:0:0:
320,224,305847,1,8,0:0:0:0:
320,224,305897,1,0,0:0:0:0:
320,224,305947,1,0,0:0:0:0:
320,224,305997,1,8,0:0:0:0:
320,224,306047,1,8,0:0:0:0:
320,224,306097,1,0,0:0:0:0:
320,224,306147,1,0,0:0:0:0:
320,224,306197,1,8,0:0:0:0:
320,224,306247,1,8,0:0:0:0:
320,224,306297,1,0,0:0:0:0:
320,224,306347,1,0,0:0:0:0:
320,224,306397,1,8,0:0:0:0:
320,224,306447,1,8,0:0:0:0:
320,224,306497,1,0,0:0:0:0:
320,224,306547,1,0,0:0:0:0:
320,224,306597,1,8,0:0:0:0:
320,224,306647,1,8,0:0:0:0:
320,224,306697,1,0,0:0:0:0:
320,224,306747,1,0,0:0:0:0:
320,224,306797,1,8,0:0:0:0:
416,384,306847,1,8,0:0:0:0:
320,288,306897,1,0,0:0:0:0:
320,288,306947,1,0,0:0:0:0:
320,320,306997,1,8,0:0:0:0:
320,320,307047,1,0,0:0:0:0:
320,320,307097,1,8,0:0:0:0:
256,256,307197,1,0,0:0:0:0:
256,256,307297,1,8,0:0:0:0:
256,256,307397,1,0,0:0:0:0:
256,256,307497,1,8,0:0:0:0:
256,256,307597,1,0,0:0:0:0:
320,192,307697,1,8,0:0:0:0:
384,256,307747,1,0,0:0:0:0:
352,256,307797,1,8,0:0:0:0:
352,256,307847,1,8,0:0:0:0:
320,192,307897,1,0,0:0:0:0:
320,224,307947,1,0,0:0:0:0:
320,192,307997,1,8,0:0:0:0:
320,224,308047,1,8,0:0:0:0:
320,192,308097,1,0,0:0:0:0:
320,224,308147,1,0,0:0:0:0:
320,224,308197,1,8,0:0:0:0:
320,224,308247,1,8,0:0:0:0:
320,224,308297,1,0,0:0:0:0:
320,224,308347,1,0,0:0:0:0:
320,224,308397,1,8,0:0:0:0:
320,224,308447,1,8,0:0:0:0:
320,224,308497,1,0,0:0:0:0:
320,224,308547,1,0,0:0:0:0:
320,224,308597,1,8,0:0:0:0:
320,224,308647,1,8,0:0:0:0:
320,224,308697,1,0,0:0:0:0:
320,224,308747,1,0,0:0:0:0:
320,224,308797,1,8,0:0:0:0:
320,224,308847,1,8,0:0:0:0:
320,224,308897,1,0,0:0:0:0:
320,224,308947,1,0,0:0:0:0:
320,224,308997,1,0,0:0:0:0:
320,224,309047,1,0,0:0:0:0:
320,224,309097,1,8,0:0:0:0:
320,224,309147,1,8,0:0:0:0:
320,224,309197,1,8,0:0:0:0:
320,224,309247,1,8,0:0:0:0:
320,224,309297,1,8,0:0:0:0:
320,224,309347,1,8,0:0:0:0:
320,224,309397,1,8,0:0:0:0:
320,224,309447,1,8,0:0:0:0:
320,224,309497,1,8,0:0:0:0:
320,224,309547,1,8,0:0:0:0:
320,224,309597,1,0,0:0:0:0:
320,224,309647,1,0,0:0:0:0:
320,224,309697,1,8,0:0:0:0:
320,224,309747,1,0,0:0:0:0:
320,224,309797,1,8,0:0:0:0:
320,224,309847,1,8,0:0:0:0:
320,224,309897,1,0,0:0:0:0:
128,128,309947,1,8,0:0:0:0:
128,128,309997,1,0,0:0:0:0:
128,128,310047,1,0,0:0:0:0:
256,128,310097,1,8,0:0:0:0:
288,224,314097,1,0,0:0:0:0:
352,256,314668,1,8,0:0:0:0:
320,256,318097,1,8,0:0:0:0:
320,256,318668,1,8,0:0:0:0:
320,256,319239,1,0,0:0:0:0:
320,256,320382,1,0,0:0:0:0:
320,256,320954,1,8,0:0:0:0:
320,256,321525,1,0,0:0:0:0:
320,256,322668,1,0,0:0:0:0:
320,256,323811,1,8,0:0:0:0:
320,256,325525,1,0,0:0:0:0:
320,288,327239,1,0,0:0:0:0:
320,288,328382,1,8,0:0:0:0:
352,288,329525,1,0,0:0:0:0:
352,288,330097,1,8,0:0:0:0:
96,160,331811,1,8,0:0:0:0:
96,160,332382,1,0,0:0:0:0:
96,160,332954,1,8,0:0:0:0:
96,160,334668,1,8,0:0:0:0:
96,160,335811,1,0,0:0:0:0:
192,96,336097,1,0,0:0:0:0:
192,96,336382,1,8,0:0:0:0:
192,96,336668,1,8,0:0:0:0:
192,96,336811,1,8,0:0:0:0:
192,96,336954,1,0,0:0:0:0:
192,96,337239,1,8,0:0:0:0:
192,96,337525,1,4,0:0:0:0:
192,192,338096,1,8,0:0:0:0:
32,192,338382,1,8,0:0:0:0:
96,160,338667,1,4,0:0:0:0:
192,192,339239,1,8,0:0:0:0:
448,320,339525,1,8,0:0:0:0:
448,320,339596,1,8,0:0:0:0:
448,320,339667,1,8,0:0:0:0:
192,160,339800,1,0,0:0:0:0:
192,160,339943,1,0,0:0:0:0:
0,160,340086,1,0,0:0:0:0:
160,160,340229,1,8,0:0:0:0:
160,160,340372,1,0,0:0:0:0:
160,160,340515,1,8,0:0:0:0:
160,160,340799,1,0,0:0:0:0:
160,160,340942,1,0,0:0:0:0:
160,160,341014,1,0,0:0:0:0:
160,160,341085,1,0,0:0:0:0:
160,160,341156,1,0,0:0:0:0:
160,160,341228,1,8,0:0:0:0:
160,160,341371,1,0,0:0:0:0:
160,160,341442,1,0,0:0:0:0:
160,160,341514,1,0,0:0:0:0:
160,160,341585,1,0,0:0:0:0:
160,160,341656,1,0,0:0:0:0:
160,160,341728,1,0,0:0:0:0:
160,160,341799,1,8,0:0:0:0:
160,160,341942,1,0,0:0:0:0:
160,160,342085,1,8,0:0:0:0:
160,160,342371,1,0,0:0:0:0:
160,160,342656,1,0,0:0:0:0:
160,160,342942,1,0,0:0:0:0:
160,160,343228,1,8,0:0:0:0:
320,256,343371,1,8,0:0:0:0:
192,128,343514,1,0,0:0:0:0:
320,256,343657,1,8,0:0:0:0:
192,128,343942,1,8,0:0:0:0:
192,128,344014,1,8,0:0:0:0:
192,128,344085,1,0,0:0:0:0:
256,192,344371,1,8,0:0:0:0:
352,320,344442,1,8,0:0:0:0:
320,224,344514,1,8,0:0:0:0:
320,224,344585,1,8,0:0:0:0:
320,224,344657,1,8,0:0:0:0:
320,224,344728,1,8,0:0:0:0:
320,224,344800,1,8,0:0:0:0:
320,224,344871,1,8,0:0:0:0:
320,224,344942,1,8,0:0:0:0:
320,224,345014,1,8,0:0:0:0:
320,224,345085,1,8,0:0:0:0:
320,224,345157,1,8,0:0:0:0:
320,224,345228,1,0,0:0:0:0:
320,224,345300,1,0,0:0:0:0:
320,224,345371,1,0,0:0:0:0:
320,224,345442,1,0,0:0:0:0:
160,160,345514,1,8,0:0:0:0:
64,224,345585,1,0,0:0:0:0:
64,224,345657,1,0,0:0:0:0:
64,224,345728,1,0,0:0:0:0:
64,224,345800,1,8,0:0:0:0:
64,224,345871,1,0,0:0:0:0:
64,224,345942,1,0,0:0:0:0:
64,224,346014,1,0,0:0:0:0:
64,224,346085,1,8,0:0:0:0:
352,256,346640,1,8,0:0:0:0:
0,160,346711,1,8,0:0:0:0:
352,256,346782,1,0,0:0:0:0:
160,160,346854,1,0,0:0:0:0:
224,192,346925,1,8,0:0:0:0:
96,192,347068,1,0,0:0:0:0:
96,192,347211,1,8,0:0:0:0:
160,160,347282,1,0,0:0:0:0:
128,160,347354,1,0,0:0:0:0:
160,160,347425,1,0,0:0:0:0:
128,160,347497,1,8,0:0:0:0:
128,160,347640,1,0,0:0:0:0:
128,160,347711,1,0,0:0:0:0:
128,160,347782,1,8,0:0:0:0:
384,288,347854,1,8,0:0:0:0:
128,160,347925,1,0,0:0:0:0:
128,160,348068,1,8,0:0:0:0:
128,160,348211,1,0,0:0:0:0:
480,320,348282,1,0,0:0:0:0:
128,160,348354,1,8,0:0:0:0:
128,160,348497,1,0,0:0:0:0:
128,160,348640,1,8,0:0:0:0:
480,320,348711,1,8,0:0:0:0:
480,320,348782,1,0,0:0:0:0:
128,160,348854,1,0,0:0:0:0:
128,160,348925,1,8,0:0:0:0:
128,160,349068,1,0,0:0:0:0:
128,160,349211,1,8,0:0:0:0:
128,160,349354,1,0,0:0:0:0:
480,320,349425,1,0,0:0:0:0:
128,160,349497,1,8,0:0:0:0:
128,160,349640,1,0,0:0:0:0:
128,160,349782,1,8,0:0:0:0:
480,320,349854,1,0,0:0:0:0:
128,160,349925,1,0,0:0:0:0:
128,160,349997,1,0,0:0:0:0:
128,160,350068,1,8,0:0:0:0:
128,160,350211,1,0,0:0:0:0:
128,160,350354,1,8,0:0:0:0:
128,160,350497,1,0,0:0:0:0:
128,160,350640,1,8,0:0:0:0:
128,160,350782,1,8,0:0:0:0:
128,160,350925,1,8,0:0:0:0:
128,160,350997,1,8,0:0:0:0:
128,160,351068,1,8,0:0:0:0:
128,160,351140,1,8,0:0:0:0:
128,160,351211,1,0,0:0:0:0:
128,160,351354,1,8,0:0:0:0:
128,160,351497,1,0,0:0:0:0:
128,160,351568,1,0,0:0:0:0:
128,160,351640,1,8,0:0:0:0:
128,160,351782,1,0,0:0:0:0:
128,160,351925,1,8,0:0:0:0:
128,160,352068,1,0,0:0:0:0:
128,160,352140,1,0,0:0:0:0:
128,160,352211,1,8,0:0:0:0:
448,320,352282,1,8,0:0:0:0:
128,160,352354,1,0,0:0:0:0:
160,128,352497,1,8,0:0:0:0:
128,128,352640,1,0,0:0:0:0:
128,128,352711,1,0,0:0:0:0:
128,128,352782,1,8,0:0:0:0:
128,128,352925,1,0,0:0:0:0:
64,128,352997,1,0,0:0:0:0:
64,128,353068,1,8,0:0:0:0:
64,128,353140,1,0,0:0:0:0:
64,128,353211,1,8,0:0:0:0:
64,128,353282,1,8,0:0:0:0:
64,160,353354,1,0,0:0:0:0:
160,128,353497,1,0,0:0:0:0:
128,128,353568,1,8,0:0:0:0:
160,128,353640,1,8,0:0:0:0:
128,128,353711,1,8,0:0:0:0:
128,128,353782,1,8,0:0:0:0:
128,128,353854,1,8,0:0:0:0:
128,128,353925,1,0,0:0:0:0:
128,128,353997,1,8,0:0:0:0:
128,128,354068,1,8,0:0:0:0:
128,128,354140,1,8,0:0:0:0:
128,128,354211,1,8,0:0:0:0:
128,128,354282,1,8,0:0:0:0:
128,128,354354,1,0,0:0:0:0:
128,128,354425,1,0,0:0:0:0:
128,128,354497,1,8,0:0:0:0:
128,128,354568,1,0,0:0:0:0:
128,128,354640,1,8,0:0:0:0:
384,288,354711,1,8,0:0:0:0:
384,288,354782,1,0,0:0:0:0:
384,288,354854,1,8,0:0:0:0:
384,288,354925,1,0,0:0:0:0:
384,288,354997,1,0,0:0:0:0:
384,288,355068,1,0,0:0:0:0:
384,288,355140,1,0,0:0:0:0:
384,288,355211,1,8,0:0:0:0:
384,288,355282,1,8,0:0:0:0:
384,288,355354,1,0,0:0:0:0:
384,288,355425,1,0,0:0:0:0:
384,288,355497,1,8,0:0:0:0:
384,288,355568,1,8,0:0:0:0:
384,288,355640,1,0,0:0:0:0:
384,288,355711,1,0,0:0:0:0:
384,288,355782,1,8,0:0:0:0:
128,192,356068,1,8,0:0:0:0:
96,224,356140,1,0,0:0:0:0:
160,160,356211,1,8,0:0:0:0:
160,160,356282,1,0,0:0:0:0:
160,160,356354,1,8,0:0:0:0:
160,160,356425,1,0,0:0:0:0:
160,160,356497,1,8,0:0:0:0:
160,160,356568,1,0,0:0:0:0:
160,160,356640,1,8,0:0:0:0:
160,160,356711,1,0,0:0:0:0:
160,160,356782,1,8,0:0:0:0:
160,160,356854,1,0,0:0:0:0:
160,160,356925,1,8,0:0:0:0:
160,160,356997,1,8,0:0:0:0:
160,160,357068,1,0,0:0:0:0:
160,160,357140,1,0,0:0:0:0:
160,160,357211,1,8,0:0:0:0:
160,160,357282,1,8,0:0:0:0:
160,160,357354,1,8,0:0:0:0:
160,160,357425,1,8,0:0:0:0:
160,160,357497,1,0,0:0:0:0:
160,160,357568,1,0,0:0:0:0:
160,160,357640,1,8,0:0:0:0:
160,160,357711,1,0,0:0:0:0:
160,160,357782,1,8,0:0:0:0:
160,160,357854,1,8,0:0:0:0:
160,160,357925,1,0,0:0:0:0:
160,160,357997,1,8,0:0:0:0:
128,160,358068,1,0,0:0:0:0:
128,160,358140,1,0,0:0:0:0:
128,160,358211,1,8,0:0:0:0:
128,160,358282,1,0,0:0:0:0:
128,160,358354,1,8,0:0:0:0:
160,160,358425,1,8,0:0:0:0:
160,160,358497,1,0,0:0:0:0:
160,160,358568,1,8,0:0:0:0:
160,160,358640,1,0,0:0:0:0:
160,160,358711,1,0,0:0:0:0:
160,160,358782,1,8,0:0:0:0:
160,160,358854,1,8,0:0:0:0:
160,160,358925,1,0,0:0:0:0:
160,160,358997,1,0,0:0:0:0:
160,160,359068,1,8,0:0:0:0:
160,160,359140,1,8,0:0:0:0:
160,160,359211,1,8,0:0:0:0:
224,192,359282,1,0,0:0:0:0:
224,192,359354,1,0,0:0:0:0:
224,192,359425,1,0,0:0:0:0:
224,192,359497,1,8,0:0:0:0:
224,192,359568,1,0,0:0:0:0:
224,192,359640,1,8,0:0:0:0:
224,192,359711,1,8,0:0:0:0:
224,192,359782,1,0,0:0:0:0:
224,192,359854,1,0,0:0:0:0:
224,192,359925,1,8,0:0:0:0:
224,192,359997,1,0,0:0:0:0:
224,192,360068,1,8,0:0:0:0:
224,192,360140,1,8,0:0:0:0:
224,192,360211,1,0,0:0:0:0:
224,192,360282,1,8,0:0:0:0:
224,192,360354,1,0,0:0:0:0:
224,192,360497,1,8,0:0:0:0:
224,192,360640,1,0,0:0:0:0:
224,192,360711,1,0,0:0:0:0:
224,192,360782,1,8,0:0:0:0:
224,192,360925,1,0,0:0:0:0:
224,192,361068,1,8,0:0:0:0:
224,192,361140,1,0,0:0:0:0:
224,192,361211,1,0,0:0:0:0:
224,192,361282,1,0,0:0:0:0:
224,192,361354,1,8,0:0:0:0:
224,192,361497,1,0,0:0:0:0:
224,192,361640,1,8,0:0:0:0:
224,192,361782,1,0,0:0:0:0:
224,224,361854,1,0,0:0:0:0:
224,224,361925,1,8,0:0:0:0:
224,224,362068,1,0,0:0:0:0:
192,224,362211,1,8,0:0:0:0:
160,128,362282,1,0,0:0:0:0:
160,128,362354,1,0,0:0:0:0:
160,128,362425,1,0,0:0:0:0:
160,128,362497,1,8,0:0:0:0:
160,128,362640,1,0,0:0:0:0:
384,288,362711,1,0,0:0:0:0:
160,128,362782,1,8,0:0:0:0:
384,288,362854,1,8,0:0:0:0:
160,128,362925,1,0,0:0:0:0:
160,128,363068,1,8,0:0:0:0:
160,128,363211,1,0,0:0:0:0:
160,128,363354,1,8,0:0:0:0:
160,128,363425,1,8,0:0:0:0:
160,128,363497,1,0,0:0:0:0:
160,128,363568,1,0,0:0:0:0:
160,128,363640,1,8,0:0:0:0:
160,128,363782,1,0,0:0:0:0:
160,128,363854,1,0,0:0:0:0:
160,128,363925,1,8,0:0:0:0:
160,128,363997,1,8,0:0:0:0:
160,128,364068,1,0,0:0:0:0:
160,128,364163,1,0,0:0:0:0:
160,128,364259,1,0,0:0:0:0:
64,160,364354,1,0,0:0:0:0:
128,160,364449,1,0,0:0:0:0:
128,160,364544,1,0,0:0:0:0:
128,160,364640,1,0,0:0:0:0:
128,160,364735,1,0,0:0:0:0:
128,160,364830,1,0,0:0:0:0:
128,160,364925,1,12,0:0:0:0:
32,192,365497,1,0,0:0:0:0:
0,192,365782,1,0,0:0:0:0:
64,160,366068,1,8,0:0:0:0:
64,160,366354,1,0,0:0:0:0:
64,160,366640,1,8,0:0:0:0:
64,160,366782,1,0,0:0:0:0:
64,160,366925,1,4,0:0:0:0:
96,160,367211,1,0,0:0:0:0:
96,160,367497,1,0,0:0:0:0:
96,160,367782,1,8,0:0:0:0:
192,160,367925,1,8,0:0:0:0:
128,128,368068,1,0,0:0:0:0:
96,128,368354,1,8,0:0:0:0:
96,128,368640,1,0,0:0:0:0:
96,128,368711,1,0,0:0:0:0:
96,128,368782,1,0,0:0:0:0:
96,128,368854,1,0,0:0:0:0:
96,128,368925,1,8,0:0:0:0:
96,128,369068,1,0,0:0:0:0:
96,128,369211,1,0,0:0:0:0:
96,128,369354,1,0,0:0:0:0:
96,128,369425,1,0,0:0:0:0:
96,128,369497,1,8,0:0:0:0:
96,128,369568,1,8,0:0:0:0:
96,128,369640,1,8,0:0:0:0:
96,128,369711,1,8,0:0:0:0:
96,128,369782,1,8,0:0:0:0:
96,128,369854,1,8,0:0:0:0:
96,128,369925,1,8,0:0:0:0:
96,128,369997,1,8,0:0:0:0:
96,128,370068,1,8,0:0:0:0:
96,128,370140,1,8,0:0:0:0:
96,128,370211,1,8,0:0:0:0:
96,128,370282,1,8,0:0:0:0:
96,128,370354,1,8,0:0:0:0:
96,128,370425,1,8,0:0:0:0:
96,128,370497,1,8,0:0:0:0:
96,128,370568,1,8,0:0:0:0:
96,128,370640,1,0,0:0:0:0:
96,128,370711,1,0,0:0:0:0:
96,128,370782,1,0,0:0:0:0:
96,128,370854,1,0,0:0:0:0:
96,128,370925,1,8,0:0:0:0:
96,128,370997,1,8,0:0:0:0:
96,128,371068,1,0,0:0:0:0:
96,128,371140,1,8,0:0:0:0:
96,128,371211,1,0,0:0:0:0:
96,128,371282,1,0,0:0:0:0:
96,128,371354,1,0,0:0:0:0:
96,128,371425,1,0,0:0:0:0:
96,128,371497,1,8,0:0:0:0:
96,128,371568,1,8,0:0:0:0:
96,128,371640,1,8,0:0:0:0:
96,128,371711,1,8,0:0:0:0:
96,128,371782,1,0,0:0:0:0:
96,128,371925,1,0,0:0:0:0:
96,160,372068,1,0,0:0:0:0:
96,160,372211,1,8,0:0:0:0:
128,160,372354,1,0,0:0:0:0:
128,160,372497,1,0,0:0:0:0:
128,160,372640,1,8,0:0:0:0:
128,160,372782,1,0,0:0:0:0:
32,224,372925,1,8,0:0:0:0:
64,192,373211,1,0,0:0:0:0:
192,192,373497,1,0,0:0:0:0:
192,192,373782,1,0,0:0:0:0:
192,192,374068,1,8,0:0:0:0:
352,256,375497,1,0,0:0:0:0:
320,256,375782,1,0,0:0:0:0:
320,256,376068,1,0,0:0:0:0:
320,256,376354,1,12,0:0:0:0:
320,288,377211,1,0,0:0:0:0:
320,288,377497,1,12,0:0:0:0:
320,288,377782,1,0,0:0:0:0:
320,288,377925,1,8,0:0:0:0:
320,288,378211,1,0,0:0:0:0:
320,288,378354,1,8,0:0:0:0:
320,288,378497,1,8,0:0:0:0:
320,288,378568,1,8,0:0:0:0:
320,288,378640,1,0,0:0:0:0:
320,288,378925,1,0,0:0:0:0:
320,288,378997,1,0,0:0:0:0:
320,288,379068,1,8,0:0:0:0:
320,288,379140,1,0,0:0:0:0:
320,288,379211,1,8,0:0:0:0:
352,320,379282,1,8,0:0:0:0:
352,320,379354,1,0,0:0:0:0:
352,320,379425,1,8,0:0:0:0:
352,320,379497,1,0,0:0:0:0:
352,320,379568,1,0,0:0:0:0:
352,320,379640,1,8,0:0:0:0:
352,320,379711,1,8,0:0:0:0:
352,320,379782,1,0,0:0:0:0:
352,320,379854,1,8,0:0:0:0:
352,320,379925,1,0,0:0:0:0:
352,320,379997,1,0,0:0:0:0:
352,320,380068,1,8,0:0:0:0:
352,320,380140,1,8,0:0:0:0:
352,320,380211,1,0,0:0:0:0:
352,320,380282,1,0,0:0:0:0:
352,320,380354,1,0,0:0:0:0:
352,320,380425,1,8,0:0:0:0:
352,320,380497,1,8,0:0:0:0:
352,320,380568,1,8,0:0:0:0:
352,320,380640,1,0,0:0:0:0:
352,320,380711,1,8,0:0:0:0:
352,320,380782,1,0,0:0:0:0:
352,320,380854,1,0,0:0:0:0:
352,320,380925,1,8,0:0:0:0:
288,288,380997,1,8,0:0:0:0:
288,288,381068,1,0,0:0:0:0:
288,288,381140,1,8,0:0:0:0:
288,288,381211,1,0,0:0:0:0:
288,288,381282,1,0,0:0:0:0:
288,288,381354,1,8,0:0:0:0:
288,288,381425,1,8,0:0:0:0:
288,288,381497,1,0,0:0:0:0:
288,288,381568,1,8,0:0:0:0:
288,288,381640,1,8,0:0:0:0:
288,288,381711,1,0,0:0:0:0:
288,288,381782,1,8,0:0:0:0:
288,288,381854,1,0,0:0:0:0:
288,288,381925,1,8,0:0:0:0:
288,288,381997,1,8,0:0:0:0:
288,288,382068,1,0,0:0:0:0:
288,288,382140,1,0,0:0:0:0:
288,288,382211,1,8,0:0:0:0:
288,288,382282,1,8,0:0:0:0:
288,288,382354,1,0,0:0:0:0:
64,128,382497,1,0,0:0:0:0:
64,128,382568,1,0,0:0:0:0:
96,128,382640,1,8,0:0:0:0:
128,128,383211,1,0,0:0:0:0:
96,128,383354,1,8,0:0:0:0:
160,160,383497,1,0,0:0:0:0:
160,160,383568,1,0,0:0:0:0:
160,160,383640,1,8,0:0:0:0:
160,160,383782,1,0,0:0:0:0:
160,160,383925,1,8,0:0:0:0:
128,192,383997,1,0,0:0:0:0:
160,160,384068,1,0,0:0:0:0:
192,160,384140,1,0,0:0:0:0:
192,160,384211,1,8,0:0:0:0:
192,160,384354,1,0,0:0:0:0:
288,256,384425,1,0,0:0:0:0:
192,160,384497,1,8,0:0:0:0:
192,160,384640,1,0,0:0:0:0:
192,160,384711,1,0,0:0:0:0:
192,160,384782,1,8,0:0:0:0:
288,256,384854,1,8,0:0:0:0:
192,160,384925,1,0,0:0:0:0:
192,160,385068,1,8,0:0:0:0:
192,160,385211,1,0,0:0:0:0:
192,160,385282,1,0,0:0:0:0:
192,160,385354,1,8,0:0:0:0:
192,160,385497,1,0,0:0:0:0:
288,256,385568,1,0,0:0:0:0:
192,160,385640,1,8,0:0:0:0:
288,256,385711,1,8,0:0:0:0:
192,160,385782,1,0,0:0:0:0:
192,160,385925,1,8,0:0:0:0:
288,256,385997,1,8,0:0:0:0:
192,160,386068,1,0,0:0:0:0:
288,256,386140,1,0,0:0:0:0:
160,160,386211,1,8,0:0:0:0:
160,160,386354,1,0,0:0:0:0:
192,160,386425,1,0,0:0:0:0:
192,160,386497,1,8,0:0:0:0:
192,160,386640,1,0,0:0:0:0:
288,256,386711,1,0,0:0:0:0:
192,160,386782,1,8,0:0:0:0:
288,224,386854,1,8,0:0:0:0:
192,160,386925,1,0,0:0:0:0:
192,160,387068,1,8,0:0:0:0:
192,160,387211,1,0,0:0:0:0:
192,160,387354,1,8,0:0:0:0:
192,160,387425,1,8,0:0:0:0:
192,160,387497,1,0,0:0:0:0:
192,160,387568,1,0,0:0:0:0:
192,160,387640,1,8,0:0:0:0:
192,160,387782,1,0,0:0:0:0:
160,160,387854,1,0,0:0:0:0:
192,160,387925,1,8,0:0:0:0:
160,160,387997,1,8,0:0:0:0:
160,160,388068,1,0,0:0:0:0:
192,160,388211,1,8,0:0:0:0:
192,160,388282,1,0,0:0:0:0:
192,160,388354,1,0,0:0:0:0:
192,160,388425,1,0,0:0:0:0:
192,160,388497,1,8,0:0:0:0:
192,160,388568,1,0,0:0:0:0:
192,160,388640,1,0,0:0:0:0:
192,160,388711,1,0,0:0:0:0:
192,160,388782,1,8,0:0:0:0:
192,160,388854,1,0,0:0:0:0:
192,160,388925,1,0,0:0:0:0:
192,160,388997,1,0,0:0:0:0:
192,160,389068,1,8,0:0:0:0:
192,160,389140,1,8,0:0:0:0:
192,160,389211,1,0,0:0:0:0:
192,160,389282,1,8,0:0:0:0:
192,160,389354,1,0,0:0:0:0:
192,160,389425,1,0,0:0:0:0:
192,160,389497,1,8,0:0:0:0:
192,160,389568,1,8,0:0:0:0:
192,160,389640,1,0,0:0:0:0:
192,160,389711,1,0,0:0:0:0:
192,160,389782,1,8,0:0:0:0:
416,320,389854,1,0,0:0:0:0:
416,320,389925,1,8,0:0:0:0:
416,320,389997,1,0,0:0:0:0:
416,320,390068,1,8,0:0:0:0:
416,320,390211,1,0,0:0:0:0:
416,320,390282,1,0,0:0:0:0:
416,320,390425,1,0,0:0:0:0:
416,320,390497,1,8,0:0:0:0:
416,320,390640,1,0,0:0:0:0:
416,320,390711,1,0,0:0:0:0:
416,320,390782,1,8,0:0:0:0:
416,320,390854,1,0,0:0:0:0:
416,320,390925,1,8,0:0:0:0:
416,320,390997,1,8,0:0:0:0:
416,320,391068,1,0,0:0:0:0:
416,320,391140,1,0,0:0:0:0:
416,320,391211,1,8,0:0:0:0:
416,320,391354,1,0,0:0:0:0:
416,320,391497,1,8,0:0:0:0:
416,320,391640,1,0,0:0:0:0:
416,320,391782,1,8,0:0:0:0:
416,320,391925,1,8,0:0:0:0:
416,320,392068,1,8,0:0:0:0:
416,320,392140,1,8,0:0:0:0:
416,320,392211,1,8,0:0:0:0:
416,320,392282,1,8,0:0:0:0:
416,320,392354,1,0,0:0:0:0:
96,192,392497,1,8,0:0:0:0:
192,192,392640,1,0,0:0:0:0:
192,192,392782,1,8,0:0:0:0:
288,224,392854,1,8,0:0:0:0:
192,192,392925,1,0,0:0:0:0:
192,192,393068,1,8,0:0:0:0:
192,192,393211,1,0,0:0:0:0:
256,192,393282,1,0,0:0:0:0:
192,192,393354,1,8,0:0:0:0:
192,192,393497,1,0,0:0:0:0:
192,192,393640,1,8,0:0:0:0:
224,160,393711,1,8,0:0:0:0:
192,192,393782,1,0,0:0:0:0:
192,192,393925,1,8,0:0:0:0:
224,160,393997,1,0,0:0:0:0:
192,192,394068,1,0,0:0:0:0:
192,192,394211,1,8,0:0:0:0:
192,160,394282,1,0,0:0:0:0:
192,192,394354,1,0,0:0:0:0:
192,192,394425,1,0,0:0:0:0:
192,192,394497,1,8,0:0:0:0:
192,192,394640,1,0,0:0:0:0:
192,192,394782,1,8,0:0:0:0:
192,192,394925,1,0,0:0:0:0:
320,192,394997,1,0,0:0:0:0:
192,192,395068,1,8,0:0:0:0:
192,192,395211,1,0,0:0:0:0:
192,192,395354,1,8,0:0:0:0:
192,192,395425,1,8,0:0:0:0:
192,192,395497,1,0,0:0:0:0:
192,192,395568,1,0,0:0:0:0:
192,192,395640,1,8,0:0:0:0:
192,192,395782,1,0,0:0:0:0:
192,192,395925,1,8,0:0:0:0:
192,192,396068,1,0,0:0:0:0:
416,256,396140,1,0,0:0:0:0:
160,192,396211,1,8,0:0:0:0:
416,256,396282,1,0,0:0:0:0:
416,256,396354,1,8,0:0:0:0:
416,256,396425,1,8,0:0:0:0:
416,256,396497,1,0,0:0:0:0:
416,256,396568,1,0,0:0:0:0:
160,192,396640,1,0,0:0:0:0:
416,256,396711,1,8,0:0:0:0:
160,192,396782,1,8,0:0:0:0:
416,256,396854,1,8,0:0:0:0:
160,192,396925,1,0,0:0:0:0:
160,192,397068,1,8,0:0:0:0:
160,192,397211,1,0,0:0:0:0:
160,192,397354,1,8,0:0:0:0:
160,192,397497,1,0,0:0:0:0:
160,192,397640,1,8,0:0:0:0:
160,192,397782,1,0,0:0:0:0:
160,192,397925,1,8,0:0:0:0:
160,192,397997,1,8,0:0:0:0:
160,192,398068,1,0,0:0:0:0:
160,192,398140,1,0,0:0:0:0:
160,192,398211,1,8,0:0:0:0:
160,192,398354,1,0,0:0:0:0:
160,192,398497,1,8,0:0:0:0:
0,160,398568,1,8,0:0:0:0:
160,192,398640,1,0,0:0:0:0:
160,128,398711,1,0,0:0:0:0:
160,192,398782,1,8,0:0:0:0:
160,192,398925,1,0,0:0:0:0:
160,192,399068,1,8,0:0:0:0:
288,256,399140,1,8,0:0:0:0:
160,192,399211,1,0,0:0:0:0:
160,192,399354,1,8,0:0:0:0:
160,64,399425,1,0,0:0:0:0:
160,192,399497,1,0,0:0:0:0:
160,64,399568,1,0,0:0:0:0:
128,64,399640,1,8,0:0:0:0:
160,192,399782,1,0,0:0:0:0:
160,192,399925,1,8,0:0:0:0:
128,64,399997,1,8,0:0:0:0:
160,192,400068,1,0,0:0:0:0:
160,192,400140,1,0,0:0:0:0:
160,192,400211,1,8,0:0:0:0:
160,192,400354,1,0,0:0:0:0:
160,192,400497,1,8,0:0:0:0:
128,64,400568,1,8,0:0:0:0:
192,192,400640,1,0,0:0:0:0:
128,96,400711,1,0,0:0:0:0:
192,192,400782,1,8,0:0:0:0:
128,96,400854,1,8,0:0:0:0:
192,192,400925,1,8,0:0:0:0:
192,96,400997,1,8,0:0:0:0:
192,192,401068,1,0,0:0:0:0:
192,32,401140,1,0,0:0:0:0:
192,192,401211,1,8,0:0:0:0:
192,192,401282,1,8,0:0:0:0:
192,192,401354,1,8,0:0:0:0:
192,192,401425,1,8,0:0:0:0:
192,192,401497,1,0,0:0:0:0:
192,192,401640,1,8,0:0:0:0:
128,128,401782,1,0,0:0:0:0:
128,128,401925,1,8,0:0:0:0:
160,160,401997,1,0,0:0:0:0:
128,160,402068,1,0,0:0:0:0:
128,128,402140,1,0,0:0:0:0:
128,128,402211,1,8,0:0:0:0:
128,128,402354,1,0,0:0:0:0:
128,128,402497,1,8,0:0:0:0:
128,128,402640,1,0,0:0:0:0:
128,128,402782,1,8,0:0:0:0:
64,160,402854,1,8,0:0:0:0:
128,128,402925,1,0,0:0:0:0:
128,128,403068,1,0,0:0:0:0:
32,128,403140,1,0,0:0:0:0:
64,128,403211,1,0,0:0:0:0:
64,128,403282,1,0,0:0:0:0:
64,128,403354,1,8,0:0:0:0:
64,128,403425,1,8,0:0:0:0:
64,128,403497,1,8,0:0:0:0:
64,128,403568,1,8,0:0:0:0:
64,128,403640,1,0,0:0:0:0:
64,128,403711,1,0,0:0:0:0:
64,128,403782,1,8,0:0:0:0:
64,128,403925,1,8,0:0:0:0:
64,128,404068,1,0,0:0:0:0:
64,128,404211,1,8,0:0:0:0:
64,128,404282,1,8,0:0:0:0:
64,128,404354,1,0,0:0:0:0:
32,160,404425,1,8,0:0:0:0:
64,128,404497,1,0,0:0:0:0:
64,128,404568,1,0,0:0:0:0:
64,128,404640,1,8,0:0:0:0:
64,128,404782,1,0,0:0:0:0:
64,128,404854,1,0,0:0:0:0:
64,128,404925,1,8,0:0:0:0:
64,128,404997,1,8,0:0:0:0:
64,128,405068,1,0,0:0:0:0:
64,128,405211,1,8,0:0:0:0:
64,128,405282,1,8,0:0:0:0:
64,128,405354,1,0,0:0:0:0:
64,128,405497,1,12,0:0:0:0:
96,160,405782,1,8,0:0:0:0:
96,160,406068,1,4,0:0:0:0:
160,128,406211,1,8,0:0:0:0:
160,128,406354,1,0,0:0:0:0:
128,128,406425,1,0,0:0:0:0:
128,128,406497,1,8,0:0:0:0:
128,128,406640,1,0,0:0:0:0:
128,128,406782,1,8,0:0:0:0:
128,128,406925,1,0,0:0:0:0:
128,128,406997,1,0,0:0:0:0:
128,128,407068,1,8,0:0:0:0:
128,128,407140,1,8,0:0:0:0:
128,128,407211,1,0,0:0:0:0:
128,128,407354,1,8,0:0:0:0:
128,128,407497,1,0,0:0:0:0:
128,128,407568,1,0,0:0:0:0:
128,128,407640,1,8,0:0:0:0:
128,128,407782,1,0,0:0:0:0:
128,128,407925,1,8,0:0:0:0:
128,128,407997,1,0,0:0:0:0:
128,128,408068,1,0,0:0:0:0:
128,128,408140,1,0,0:0:0:0:
128,128,408211,1,8,0:0:0:0:
128,128,408354,1,0,0:0:0:0:
128,128,408425,1,0,0:0:0:0:
128,128,408497,1,8,0:0:0:0:
128,128,408640,1,0,0:0:0:0:
128,128,408782,1,0,0:0:0:0:
128,128,408925,1,8,0:0:0:0:
128,128,409068,1,0,0:0:0:0:
128,128,409140,1,0,0:0:0:0:
128,128,409211,1,8,0:0:0:0:
128,128,409282,1,8,0:0:0:0:
128,128,409354,1,0,0:0:0:0:
128,128,409425,1,0,0:0:0:0:
128,128,409497,1,0,0:0:0:0:
128,128,409568,1,0,0:0:0:0:
128,128,409640,1,8,0:0:0:0:
128,128,409711,1,8,0:0:0:0:
128,128,409782,1,0,0:0:0:0:
128,128,409854,1,0,0:0:0:0:
128,128,409925,1,8,0:0:0:0:
128,128,409997,1,8,0:0:0:0:
128,128,410068,1,0,0:0:0:0:
128,128,410140,1,0,0:0:0:0:
128,128,410211,1,0,0:0:0:0:
128,128,410282,1,0,0:0:0:0:
128,128,410354,1,8,0:0:0:0:
128,128,410425,1,8,0:0:0:0:
128,128,410497,1,8,0:0:0:0:
128,128,410568,1,8,0:0:0:0:
128,128,410640,1,0,0:0:0:0:
160,160,410925,1,0,0:0:0:0:
320,288,411211,1,0,0:0:0:0:
320,288,411497,1,0,0:0:0:0:
320,288,411640,1,0,0:0:0:0:
320,288,411782,1,8,0:0:0:0:
64,160,411925,1,8,0:0:0:0:
64,160,412068,1,0,0:0:0:0:
32,160,412211,1,0,0:0:0:0:
32,160,412282,1,0,0:0:0:0:
64,160,412354,1,8,0:0:0:0:
32,160,412497,1,0,0:0:0:0:
32,160,412640,1,0,0:0:0:0:
32,160,412782,1,8,0:0:0:0:
32,160,412925,1,4,0:0:0:0:
224,160,413211,1,0,0:0:0:0:
224,160,413497,1,0,0:0:0:0:
224,160,413782,1,0,0:0:0:0:
224,160,413925,1,0,0:0:0:0:
224,160,414068,1,0,0:0:0:0:
224,160,414140,1,8,0:0:0:0:
192,160,414211,1,8,0:0:0:0:
192,160,414282,1,8,0:0:0:0:
192,160,414354,1,8,0:0:0:0:
192,160,414425,1,8,0:0:0:0:
192,160,414497,1,0,0:0:0:0:
160,128,414568,1,0,0:0:0:0:
192,160,414640,1,12,0:0:0:0:
224,160,414854,1,4,0:0:0:0:
224,160,415068,1,4,0:0:0:0:
224,160,415211,1,12,0:0:0:0:
224,160,415497,1,0,0:0:0:0:
128,192,415568,1,0,0:0:0:0:
128,192,415640,1,8,0:0:0:0:
160,192,415711,1,0,0:0:0:0:
160,192,415782,1,8,0:0:0:0:
160,192,415854,1,8,0:0:0:0:
160,192,415925,1,0,0:0:0:0:
160,192,415997,1,8,0:0:0:0:
160,192,416068,1,0,0:0:0:0:
160,192,416140,1,0,0:0:0:0:
160,192,416211,1,8,0:0:0:0:
160,192,416282,1,0,0:0:0:0:
160,192,416354,1,8,0:0:0:0:
160,192,416425,1,8,0:0:0:0:
160,192,416497,1,0,0:0:0:0:
160,192,416568,1,8,0:0:0:0:
160,192,416640,1,8,0:0:0:0:
160,192,416711,1,0,0:0:0:0:
160,192,416782,1,0,0:0:0:0:
160,192,416854,1,8,0:0:0:0:
160,192,416925,1,0,0:0:0:0:
160,192,416997,1,8,0:0:0:0:
160,192,417068,1,8,0:0:0:0:
160,192,417140,1,0,0:0:0:0:
160,192,417211,1,8,0:0:0:0:
160,192,417282,1,0,0:0:0:0:
160,192,417354,1,0,0:0:0:0:
160,192,417425,1,8,0:0:0:0:
160,192,417497,1,0,0:0:0:0:
160,192,417568,1,0,0:0:0:0:
160,192,417640,1,8,0:0:0:0:
160,192,417711,1,0,0:0:0:0:
160,192,417782,1,8,0:0:0:0:
160,192,417854,1,8,0:0:0:0:
160,192,417925,1,0,0:0:0:0:
160,192,417997,1,8,0:0:0:0:
160,192,418068,1,0,0:0:0:0:
160,192,418140,1,0,0:0:0:0:
160,192,418211,1,8,0:0:0:0:
160,192,418282,1,0,0:0:0:0:
160,192,418354,1,8,0:0:0:0:
160,192,418425,1,8,0:0:0:0:
160,192,418497,1,0,0:0:0:0:
160,192,418568,1,0,0:0:0:0:
160,192,418640,1,8,0:0:0:0:
256,192,419782,12,8,425497,0:0:0:0:
