osu file format v14

[General]
AudioFilename: audio.mp3
AudioLeadIn: 0
PreviewTime: 117618
Countdown: 1
SampleSet: Normal
StackLeniency: 0.7
Mode: 0
LetterboxInBreaks: 0
WidescreenStoryboard: 0

[Editor]
Bookmarks: 145904,309845
DistanceSpacing: 1
BeatDivisor: 2
GridSize: 4
TimelineZoom: 1

[Metadata]
Title:Fushoku Ressentiment, Fushi Yoku no Sarugakuza
TitleUnicode:腐蝕ルサンチマン、不死欲の猿楽座。
Artist:Imperial Circus Dead Decadence
ArtistUnicode:Imperial Circus Dead Decadence
Creator:Broly
Version:ok
Source:
Tags:jmetal icdd melodical death stream
BeatmapID:1346194
BeatmapSetID:633905

[Difficulty]
HPDrainRate:5
CircleSize:4
OverallDifficulty:9.6
ApproachRate:9.8
SliderMultiplier:1.8
SliderTickRate:1

[Events]
//Background and Video events
0,0,"91359e3e6bdc5dd90218a67e764055a6.jpg",0,0
//Break Periods
2,228959,241046
2,314816,336903
//Storyboard Layer 0 (Background)
//Storyboard Layer 1 (Fail)
//Storyboard Layer 2 (Pass)
//Storyboard Layer 3 (Foreground)
//Storyboard Sound Samples

[TimingPoints]
763,285.714285714286,3,1,0,60,1,0
4191,-133.333333333333,3,1,0,60,0,0
4477,-100,3,1,0,60,0,0
11048,-200,3,1,0,60,0,0
11334,-100,3,1,0,60,0,0
24477,-200,3,1,0,60,0,0
24763,-100,3,1,0,60,0,0
26191,-200,3,1,0,60,0,0
26477,-100,3,1,0,60,0,0
29048,285.714285714286,4,1,0,60,1,0
41619,285.714285714286,4,1,0,60,1,0
68761,-200,4,1,0,60,0,0
69047,-100,4,1,0,60,0,0
78190,-200,4,1,0,60,0,0
78476,-100,4,1,0,60,0,0
87333,285.714285714286,3,1,0,60,1,0
87333,-200,3,1,0,60,0,0
94190,-100,3,1,0,60,0,0
101047,285.714285714286,4,1,0,60,1,0
117047,-400,4,1,0,60,0,0
117904,-100,4,1,0,80,0,1
118475,-100,4,1,0,80,0,0
118761,-100,4,1,0,80,0,1
119047,-100,4,1,0,60,0,0
119332,-71.4285714285714,4,1,0,80,0,1
123904,-80,4,1,0,60,0,0
136189,-133.333333333333,4,1,0,80,0,1
137332,-133.333333333333,4,1,0,60,0,0
137618,-80,4,1,0,80,0,1
153047,-100,4,1,0,60,0,0
162761,285.714285714286,3,1,0,60,1,0
176475,-71.4285714285714,3,1,0,60,0,0
181618,-100,3,1,0,60,0,0
182475,-200,3,1,0,60,0,0
183332,-100,3,1,0,60,0,0
184189,-100,3,1,0,60,0,0
189332,-200,3,1,0,60,0,0
190189,285.714285714286,4,1,0,60,1,0
208474,-133.333333333333,4,1,0,80,0,1
213046,-80,4,1,0,80,0,1
224474,285.714285714286,3,1,0,60,1,0
241045,-100,3,1,0,60,0,0
249045,-133.333333333333,3,1,0,60,0,0
255331,-200,3,1,0,60,0,0
257045,-133.333333333333,3,1,0,60,0,0
262188,-100,3,1,0,60,0,0
269045,200,4,1,0,60,1,0
290845,200,4,1,0,60,1,0
290845,-100,4,1,0,80,0,1
310045,285.714285714286,4,1,0,60,1,0
336045,-133.333333333333,4,1,0,60,0,0
337473,-200,4,1,0,60,0,1
338330,-200,4,1,0,60,0,0
338616,-200,4,1,0,60,0,1
339473,-200,4,1,0,60,0,0
339759,-100,4,1,0,60,0,1
340045,-100,4,1,0,60,0,0
340187,-100,4,1,0,60,0,1
340330,-100,4,1,0,60,0,0
340473,-100,4,1,0,60,0,1
340616,-100,4,1,0,60,0,0
340759,-100,4,1,0,60,0,1
341473,-100,4,1,0,60,0,0
345473,-100,4,1,0,60,0,0
346330,-133.333333333333,4,1,0,60,0,0
347330,-100,4,1,0,60,0,0
354616,-100,4,1,0,80,0,1
354902,-100,4,1,0,80,0,0
355187,-100,4,1,0,80,0,1
355473,-100,4,1,0,60,0,0
355759,-80,4,1,0,80,0,1
364902,-200,4,1,0,60,0,0
369473,-80,4,1,0,80,0,1
372902,-80,4,1,0,60,0,0
373473,-200,4,1,0,60,0,0
377759,-100,4,1,0,60,0,0
378616,-80,4,1,0,80,0,1
382616,-100,4,1,0,60,0,0
383187,-80,4,1,0,80,0,1
392330,-100,4,1,0,60,0,0

[HitObjects]
256,192,763,5,0,0:0:0:0:
112,256,1620,6,0,L|8:324,1,90
192,72,1905,1,0,0:0:0:0:
201,115,1977,1,0,0:0:0:0:
211,159,2048,1,0,0:0:0:0:
220,203,2120,1,0,0:0:0:0:
248,212,2191,1,0,0:0:0:0:
242,233,2263,1,0,0:0:0:0:
237,255,2334,1,0,0:0:0:0:
231,277,2405,1,0,0:0:0:0:
226,299,2477,6,0,L|320:264,1,90
424,220,2763,1,0,0:0:0:0:
427,192,2834,1,0,0:0:0:0:
416,167,2905,1,0,0:0:0:0:
392,152,2977,1,0,0:0:0:0:
365,152,3048,1,0,0:0:0:0:
341,166,3120,1,0,0:0:0:0:
329,192,3191,1,0,0:0:0:0:
333,219,3263,1,0,0:0:0:0:
350,240,3334,5,0,0:0:0:0:
480,164,3905,1,0,0:0:0:0:
480,164,4191,6,0,L|360:164,1,101.250003862381
348,164,4477,5,0,0:0:0:0:
304,164,4548,1,0,0:0:0:0:
265,178,4620,1,0,0:0:0:0:
247,219,4691,1,0,0:0:0:0:
256,262,4763,1,0,0:0:0:0:
290,291,4834,1,0,0:0:0:0:
334,293,4905,1,0,0:0:0:0:
371,269,4977,1,0,0:0:0:0:
386,227,5048,5,0,0:0:0:0:
351,200,5120,1,0,0:0:0:0:
337,158,5191,1,0,0:0:0:0:
350,115,5263,1,0,0:0:0:0:
385,88,5334,1,0,0:0:0:0:
429,84,5405,1,0,0:0:0:0:
467,107,5477,1,0,0:0:0:0:
486,147,5548,1,0,0:0:0:0:
479,191,5620,5,0,0:0:0:0:
434,191,5691,1,0,0:0:0:0:
389,191,5763,1,0,0:0:0:0:
344,191,5834,1,0,0:0:0:0:
299,191,5905,5,0,0:0:0:0:
266,173,5977,1,0,0:0:0:0:
245,143,6048,1,0,0:0:0:0:
239,106,6120,1,0,0:0:0:0:
249,71,6191,1,0,0:0:0:0:
275,43,6263,1,0,0:0:0:0:
309,30,6334,1,0,0:0:0:0:
346,33,6405,1,0,0:0:0:0:
378,51,6477,5,0,0:0:0:0:
353,88,6548,1,0,0:0:0:0:
328,126,6620,1,0,0:0:0:0:
302,163,6691,1,0,0:0:0:0:
277,200,6763,5,0,0:0:0:0:
237,179,6834,1,0,0:0:0:0:
197,158,6905,1,0,0:0:0:0:
157,138,6977,1,0,0:0:0:0:
117,117,7048,5,0,0:0:0:0:
117,162,7120,1,0,0:0:0:0:
116,207,7191,1,0,0:0:0:0:
116,252,7263,1,0,0:0:0:0:
116,297,7334,6,0,L|160:276,5,30
292,288,7620,5,0,0:0:0:0:
305,273,7691,1,0,0:0:0:0:
314,255,7763,1,0,0:0:0:0:
316,235,7834,1,0,0:0:0:0:
313,216,7905,1,0,0:0:0:0:
303,199,7977,1,0,0:0:0:0:
288,185,8048,1,0,0:0:0:0:
270,177,8120,1,0,0:0:0:0:
250,175,8191,1,0,0:0:0:0:
231,179,8263,1,0,0:0:0:0:
214,189,8334,1,0,0:0:0:0:
201,204,8405,1,0,0:0:0:0:
192,224,8477,5,0,0:0:0:0:
164,258,8548,1,0,0:0:0:0:
122,273,8620,1,0,0:0:0:0:
78,265,8691,1,0,0:0:0:0:
46,234,8763,1,0,0:0:0:0:
34,192,8834,1,0,0:0:0:0:
45,149,8905,1,0,0:0:0:0:
78,118,8977,1,0,0:0:0:0:
121,109,9048,1,0,0:0:0:0:
164,123,9120,1,0,0:0:0:0:
208,120,9191,1,0,0:0:0:0:
248,99,9263,1,0,0:0:0:0:
277,65,9334,5,0,0:0:0:0:
232,72,9405,1,0,0:0:0:0:
188,80,9477,1,0,0:0:0:0:
144,87,9548,1,0,0:0:0:0:
99,95,9620,5,0,0:0:0:0:
143,102,9691,1,0,0:0:0:0:
187,110,9763,1,0,0:0:0:0:
232,117,9834,1,0,0:0:0:0:
276,125,9905,5,0,0:0:0:0:
231,132,9977,1,0,0:0:0:0:
187,140,10048,1,0,0:0:0:0:
142,147,10120,1,0,0:0:0:0:
98,155,10191,5,0,0:0:0:0:
98,155,10263,1,0,0:0:0:0:
98,155,10334,2,0,L|80:76,1,45
152,284,10477,1,0,0:0:0:0:
152,284,10548,1,0,0:0:0:0:
152,284,10620,2,0,L|170:363,1,45
292,212,10763,1,0,0:0:0:0:
292,212,10834,1,0,0:0:0:0:
292,212,10905,2,0,L|273:132,1,45
432,328,11048,6,0,L|432:240,1,67.5
432,224,11334,5,0,0:0:0:0:
427,190,11405,1,0,0:0:0:0:
411,160,11477,1,0,0:0:0:0:
387,137,11548,1,0,0:0:0:0:
356,124,11620,1,0,0:0:0:0:
322,121,11691,1,0,0:0:0:0:
290,129,11763,1,0,0:0:0:0:
262,148,11834,1,0,0:0:0:0:
242,175,11905,5,0,0:0:0:0:
227,216,11977,1,0,0:0:0:0:
187,234,12048,1,0,0:0:0:0:
146,219,12120,1,0,0:0:0:0:
120,184,12191,5,0,0:0:0:0:
84,175,12263,1,0,0:0:0:0:
46,198,12334,1,0,0:0:0:0:
30,239,12405,1,0,0:0:0:0:
40,282,12477,5,0,0:0:0:0:
76,254,12548,1,0,0:0:0:0:
111,227,12620,1,0,0:0:0:0:
147,199,12691,1,0,0:0:0:0:
182,171,12763,5,0,0:0:0:0:
190,128,12834,1,0,0:0:0:0:
174,86,12905,1,0,0:0:0:0:
139,59,12977,1,0,0:0:0:0:
95,55,13048,1,0,0:0:0:0:
55,75,13120,1,0,0:0:0:0:
32,113,13191,1,0,0:0:0:0:
32,157,13263,1,0,0:0:0:0:
55,195,13334,5,0,0:0:0:0:
100,195,13405,1,0,0:0:0:0:
145,195,13477,1,0,0:0:0:0:
190,195,13548,1,0,0:0:0:0:
240,200,13620,5,0,0:0:0:0:
240,200,13691,1,0,0:0:0:0:
240,200,13763,2,0,L|222:121,1,45
352,68,13905,1,0,0:0:0:0:
352,68,13977,1,0,0:0:0:0:
352,68,14048,2,0,L|370:147,1,45
116,264,14191,1,0,0:0:0:0:
116,264,14263,1,0,0:0:0:0:
116,264,14334,2,0,L|97:184,1,45
76,64,14477,5,0,0:0:0:0:
212,264,14620,1,0,0:0:0:0:
152,56,14763,5,0,0:0:0:0:
292,236,14905,1,0,0:0:0:0:
228,52,15048,5,0,0:0:0:0:
240,332,15191,1,0,0:0:0:0:
364,68,15334,6,0,L|364:180,1,90
360,328,15620,1,0,0:0:0:0:
432,108,15763,1,0,0:0:0:0:
276,292,15905,1,0,0:0:0:0:
472,188,16048,1,0,0:0:0:0:
252,112,16191,6,0,L|276:-4,1,90
372,212,16477,1,0,0:0:0:0:
168,204,16620,1,0,0:0:0:0:
328,100,16763,1,0,0:0:0:0:
320,328,16905,1,0,0:0:0:0:
120,128,17048,6,0,L|248:148,1,90
360,168,17334,1,0,0:0:0:0:
168,260,17477,1,0,0:0:0:0:
204,44,17620,1,0,0:0:0:0:
56,176,17763,1,0,0:0:0:0:
296,280,17905,6,0,L|400:228,1,90
172,140,18191,1,0,0:0:0:0:
172,140,18263,1,0,0:0:0:0:
172,140,18334,1,0,0:0:0:0:
340,176,18477,1,0,0:0:0:0:
180,272,18620,1,0,0:0:0:0:
240,16,18763,6,0,L|216:132,1,90
64,48,19048,1,0,0:0:0:0:
64,48,19120,1,0,0:0:0:0:
64,48,19191,1,0,0:0:0:0:
168,216,19334,1,0,0:0:0:0:
204,0,19477,1,0,0:0:0:0:
116,356,19620,6,0,L|232:296,1,90
120,136,19905,1,0,0:0:0:0:
120,136,19977,1,0,0:0:0:0:
120,136,20048,1,0,0:0:0:0:
48,336,20191,1,0,0:0:0:0:
0,132,20334,1,0,0:0:0:0:
300,312,20477,5,0,0:0:0:0:
196,136,20620,1,0,0:0:0:0:
140,308,20763,1,0,0:0:0:0:
316,144,20905,1,0,0:0:0:0:
416,352,21048,1,0,0:0:0:0:
416,307,21120,1,0,0:0:0:0:
416,262,21191,1,0,0:0:0:0:
416,217,21263,1,0,0:0:0:0:
416,172,21334,5,0,0:0:0:0:
405,147,21405,1,0,0:0:0:0:
387,129,21477,1,0,0:0:0:0:
363,118,21548,1,0,0:0:0:0:
337,116,21620,1,0,0:0:0:0:
313,124,21691,1,0,0:0:0:0:
292,140,21763,1,0,0:0:0:0:
279,163,21834,1,0,0:0:0:0:
275,188,21905,1,0,0:0:0:0:
280,214,21977,1,0,0:0:0:0:
294,236,22048,1,0,0:0:0:0:
315,251,22120,1,0,0:0:0:0:
341,258,22191,5,0,0:0:0:0:
280,64,22334,1,0,0:0:0:0:
168,252,22477,2,0,L|296:260,1,90
64,64,22763,1,0,0:0:0:0:
116,324,22905,1,0,0:0:0:0:
248,184,23048,5,0,0:0:0:0:
217,151,23120,1,0,0:0:0:0:
174,140,23191,1,0,0:0:0:0:
133,156,23263,1,0,0:0:0:0:
106,191,23334,1,0,0:0:0:0:
104,236,23405,1,0,0:0:0:0:
127,274,23477,1,0,0:0:0:0:
167,293,23548,1,0,0:0:0:0:
211,286,23620,1,0,0:0:0:0:
211,264,23691,1,0,0:0:0:0:
217,243,23763,1,0,0:0:0:0:
229,224,23834,1,0,0:0:0:0:
245,209,23905,5,0,0:0:0:0:
266,199,23977,1,0,0:0:0:0:
288,196,24048,1,0,0:0:0:0:
310,198,24120,1,0,0:0:0:0:
331,207,24191,1,0,0:0:0:0:
348,222,24263,1,0,0:0:0:0:
360,240,24334,1,0,0:0:0:0:
367,262,24405,1,0,0:0:0:0:
368,284,24477,2,0,L|368:360,1,67.5
208,144,24763,5,0,0:0:0:0:
436,176,25048,1,0,0:0:0:0:
436,176,25191,1,0,0:0:0:0:
148,140,25334,2,0,L|148:48,1,90
288,280,25620,5,0,0:0:0:0:
288,280,25763,1,0,0:0:0:0:
88,280,25905,2,0,L|88:180,1,90
196,204,26191,2,0,L|196:120,1,67.5
356,16,26477,5,0,0:0:0:0:
76,176,26763,1,0,0:0:0:0:
76,176,26905,1,0,0:0:0:0:
364,140,27048,2,0,L|364:48,1,90
224,280,27334,5,0,0:0:0:0:
224,280,27405,1,0,0:0:0:0:
224,280,27477,1,0,0:0:0:0:
424,280,27620,1,0,0:0:0:0:
248,108,27763,1,0,0:0:0:0:
316,270,27905,2,0,L|316:180,1,90
120,200,28191,5,0,0:0:0:0:
120,200,28263,1,0,0:0:0:0:
120,200,28334,1,0,0:0:0:0:
256,136,28477,1,0,0:0:0:0:
120,80,28620,1,0,0:0:0:0:
196,264,28763,1,0,0:0:0:0:
368,88,28905,1,0,0:0:0:0:
100,144,29048,5,0,0:0:0:0:
256,192,29119,12,0,32476,0:0:0:0:
80,308,32619,5,0,0:0:0:0:
80,72,33619,5,0,0:0:0:0:
114,44,33690,1,0,0:0:0:0:
158,39,33762,1,0,0:0:0:0:
197,60,33833,1,0,0:0:0:0:
219,98,33905,1,0,0:0:0:0:
216,143,33976,1,0,0:0:0:0:
189,178,34048,1,0,0:0:0:0:
147,192,34119,1,0,0:0:0:0:
116,176,34190,5,0,0:0:0:0:
111,143,34262,1,0,0:0:0:0:
127,113,34333,1,0,0:0:0:0:
157,99,34405,1,0,0:0:0:0:
189,106,34476,1,0,0:0:0:0:
212,130,34548,1,0,0:0:0:0:
216,163,34619,1,0,0:0:0:0:
200,192,34690,1,0,0:0:0:0:
169,205,34762,5,0,0:0:0:0:
436,72,34905,1,0,0:0:0:0:
343,205,35905,5,0,0:0:0:0:
312,192,35976,1,0,0:0:0:0:
296,163,36048,1,0,0:0:0:0:
300,130,36119,1,0,0:0:0:0:
323,106,36190,1,0,0:0:0:0:
355,99,36262,1,0,0:0:0:0:
385,113,36333,1,0,0:0:0:0:
401,143,36405,1,0,0:0:0:0:
396,176,36476,5,0,0:0:0:0:
364,192,36548,1,0,0:0:0:0:
322,178,36619,1,0,0:0:0:0:
295,143,36690,1,0,0:0:0:0:
292,98,36762,1,0,0:0:0:0:
314,60,36833,1,0,0:0:0:0:
353,39,36905,1,0,0:0:0:0:
397,44,36976,1,0,0:0:0:0:
432,72,37048,5,0,0:0:0:0:
256,184,37333,1,0,0:0:0:0:
256,192,37619,1,0,0:0:0:0:
256,200,37905,1,0,0:0:0:0:
80,104,38190,5,0,0:0:0:0:
256,208,38476,1,0,0:0:0:0:
256,216,38762,1,0,0:0:0:0:
256,224,39048,1,0,0:0:0:0:
80,140,39333,5,0,0:0:0:0:
80,151,39405,1,0,0:0:0:0:
80,162,39476,1,0,0:0:0:0:
80,173,39548,1,0,0:0:0:0:
80,184,39619,6,0,L|152:184,1,45
204,52,39762,1,0,0:0:0:0:
204,63,39833,1,0,0:0:0:0:
204,74,39905,1,0,0:0:0:0:
204,85,39976,1,0,0:0:0:0:
204,96,40048,6,0,L|164:136,1,45
280,180,40190,1,0,0:0:0:0:
280,191,40262,1,0,0:0:0:0:
280,203,40333,6,0,L|376:219,1,90
136,264,40905,1,0,0:0:0:0:
136,264,40976,1,0,0:0:0:0:
136,264,41048,2,0,B|136:168|136:168|184:120,2,135
360,232,41619,6,0,L|328:140,1,90
232,272,41904,1,0,0:0:0:0:
408,156,42047,2,0,L|376:64,1,90
280,300,42333,2,0,L|400:304,1,90
508,308,42619,1,0,0:0:0:0:
504,68,42761,6,0,L|504:176,1,90
336,124,43047,1,0,0:0:0:0:
432,144,43190,2,0,L|432:252,1,90
264,192,43476,1,0,0:0:0:0:
320,28,43619,1,0,0:0:0:0:
320,28,43690,1,0,0:0:0:0:
320,28,43761,6,0,P|312:88|320:160,1,90
72,228,44047,1,0,0:0:0:0:
144,356,44190,2,0,L|264:356,1,90
120,152,44476,1,0,0:0:0:0:
192,280,44619,2,0,L|312:280,1,90
282,280,44833,1,0,0:0:0:0:
282,280,44904,1,0,0:0:0:0:
360,80,45047,6,0,B|332:120|332:120|276:160,1,90
128,180,45333,2,0,B|156:140|156:140|212:100,1,90
468,48,45619,6,0,B|440:88|440:88|384:128,1,90
44,336,45904,2,0,B|72:296|72:296|128:256,1,90
424,200,46190,6,0,L|296:200,1,90
416,56,46476,1,0,0:0:0:0:
360,292,46619,2,0,L|239:248,1,90
128,160,46904,2,0,L|248:116,1,90
96,328,47190,1,0,0:0:0:0:
320,192,47333,6,0,P|304:152|260:88,1,90
196,272,47619,1,0,0:0:0:0:
372,40,47761,2,0,L|336:148,1,90
172,220,48047,2,0,L|285:221,1,90
262,221,48261,1,0,0:0:0:0:
262,221,48333,1,0,0:0:0:0:
452,320,48476,6,0,B|412:288|412:288|344:268,1,90
184,216,48761,1,0,0:0:0:0:
332,124,48904,1,0,0:0:0:0:
316,328,49047,2,0,L|272:216,1,90
196,56,49333,1,0,0:0:0:0:
196,56,49404,1,0,0:0:0:0:
196,56,49476,1,0,0:0:0:0:
40,320,49619,5,0,0:0:0:0:
144,116,49761,1,0,0:0:0:0:
156,320,49904,5,0,0:0:0:0:
52,116,50047,1,0,0:0:0:0:
132,304,50190,1,0,0:0:0:0:
114,279,50261,1,0,0:0:0:0:
113,250,50333,1,0,0:0:0:0:
128,224,50404,1,0,0:0:0:0:
154,211,50476,1,0,0:0:0:0:
183,214,50547,1,0,0:0:0:0:
206,233,50619,1,0,0:0:0:0:
215,261,50690,1,0,0:0:0:0:
208,290,50761,5,0,0:0:0:0:
324,128,50904,1,0,0:0:0:0:
84,184,51047,2,0,L|204:200,1,90
284,52,51333,2,0,L|164:68,1,90
338,188,51619,2,0,L|428:200,1,90
244,372,51904,6,0,B|272:324|272:324|284:260,1,90
108,344,52190,1,0,0:0:0:0:
228,120,52333,2,0,B|260:164|260:164|276:216,1,90
348,40,52619,1,0,0:0:0:0:
136,64,52761,1,0,0:0:0:0:
136,64,52833,1,0,0:0:0:0:
136,64,52904,1,0,0:0:0:0:
48,320,53047,6,0,L|72:228,1,90
116,40,53333,2,0,L|176:144,1,90
260,292,53619,1,0,0:0:0:0:
328,32,53761,1,0,0:0:0:0:
124,200,53904,1,0,0:0:0:0:
124,200,53976,1,0,0:0:0:0:
124,200,54047,1,0,0:0:0:0:
336,304,54190,5,0,0:0:0:0:
180,88,54333,1,0,0:0:0:0:
176,304,54476,5,0,0:0:0:0:
332,88,54619,1,0,0:0:0:0:
152,192,54761,2,0,P|112:228|40:252,1,90
360,264,55047,2,0,P|400:228|472:204,1,90
312,328,55333,5,0,0:0:0:0:
220,176,55476,2,0,L|220:72,1,90
80,192,55761,1,0,0:0:0:0:
328,192,55904,1,0,0:0:0:0:
132,104,56047,1,0,0:0:0:0:
224,272,56190,1,0,0:0:0:0:
300,104,56333,2,0,L|196:48,1,90
156,308,56619,5,0,0:0:0:0:
348,240,56761,1,0,0:0:0:0:
448,60,56904,2,0,L|328:56,1,90
122,266,57190,5,0,0:0:0:0:
326,268,57333,1,0,0:0:0:0:
481,133,57476,2,0,L|370:88,1,90
168,140,57761,2,0,L|252:52,1,90
276,204,58047,1,0,0:0:0:0:
72,100,58190,1,0,0:0:0:0:
168,248,58333,1,0,0:0:0:0:
144,44,58476,1,0,0:0:0:0:
64,264,58619,1,0,0:0:0:0:
276,84,58761,6,0,L|276:39,1,45
276,207,58904,2,0,L|276:252,1,45
188,101,59047,6,0,L|188:56,1,45
188,223,59190,2,0,L|188:268,1,45
100,121,59333,6,0,L|100:76,1,45
100,136,59476,1,0,0:0:0:0:
100,151,59547,1,0,0:0:0:0:
100,166,59619,1,0,0:0:0:0:
100,181,59690,1,0,0:0:0:0:
100,196,59761,1,0,0:0:0:0:
100,211,59833,1,0,0:0:0:0:
100,224,59904,5,0,0:0:0:0:
120,263,59976,1,0,0:0:0:0:
156,289,60047,1,0,0:0:0:0:
200,296,60119,1,0,0:0:0:0:
242,281,60190,1,0,0:0:0:0:
273,249,60261,1,0,0:0:0:0:
285,206,60333,1,0,0:0:0:0:
276,162,60404,1,0,0:0:0:0:
288,120,60476,1,0,0:0:0:0:
325,95,60547,1,0,0:0:0:0:
369,89,60619,1,0,0:0:0:0:
412,100,60690,1,0,0:0:0:0:
448,129,60761,1,0,0:0:0:0:
468,168,60833,1,0,0:0:0:0:
471,213,60904,1,0,0:0:0:0:
455,255,60976,1,0,0:0:0:0:
425,288,61047,5,0,0:0:0:0:
384,305,61119,1,0,0:0:0:0:
339,304,61190,1,0,0:0:0:0:
298,286,61261,1,0,0:0:0:0:
269,253,61333,1,0,0:0:0:0:
252,211,61404,1,0,0:0:0:0:
217,183,61476,1,0,0:0:0:0:
174,176,61547,1,0,0:0:0:0:
132,191,61619,1,0,0:0:0:0:
106,227,61690,1,0,0:0:0:0:
104,271,61761,1,0,0:0:0:0:
125,310,61833,1,0,0:0:0:0:
164,332,61904,1,0,0:0:0:0:
208,330,61976,1,0,0:0:0:0:
245,305,62047,1,0,0:0:0:0:
263,265,62119,1,0,0:0:0:0:
260,236,62190,5,0,0:0:0:0:
245,216,62261,1,0,0:0:0:0:
235,193,62333,1,0,0:0:0:0:
231,168,62404,1,0,0:0:0:0:
235,143,62476,1,0,0:0:0:0:
245,120,62547,1,0,0:0:0:0:
262,100,62619,1,0,0:0:0:0:
282,86,62690,1,0,0:0:0:0:
306,78,62761,1,0,0:0:0:0:
331,77,62833,1,0,0:0:0:0:
356,83,62904,1,0,0:0:0:0:
378,95,62976,1,0,0:0:0:0:
396,113,63047,1,0,0:0:0:0:
408,135,63119,1,0,0:0:0:0:
414,159,63190,1,0,0:0:0:0:
413,185,63261,1,0,0:0:0:0:
408,206,63333,5,0,0:0:0:0:
386,205,63404,1,0,0:0:0:0:
365,212,63476,1,0,0:0:0:0:
346,225,63547,1,0,0:0:0:0:
333,242,63619,1,0,0:0:0:0:
325,264,63690,1,0,0:0:0:0:
325,286,63761,1,0,0:0:0:0:
331,307,63833,1,0,0:0:0:0:
340,326,63904,5,0,0:0:0:0:
323,339,63976,1,0,0:0:0:0:
302,347,64047,1,0,0:0:0:0:
279,347,64119,1,0,0:0:0:0:
258,341,64190,1,0,0:0:0:0:
239,329,64261,1,0,0:0:0:0:
225,311,64333,1,0,0:0:0:0:
218,290,64404,1,0,0:0:0:0:
216,266,64476,6,0,L|216:122,1,135
216,110,64761,5,0,0:0:0:0:
235,97,64833,1,0,0:0:0:0:
257,91,64904,1,0,0:0:0:0:
279,93,64976,1,0,0:0:0:0:
300,102,65047,1,0,0:0:0:0:
316,116,65119,1,0,0:0:0:0:
327,136,65190,1,0,0:0:0:0:
331,158,65261,1,0,0:0:0:0:
328,180,65333,1,0,0:0:0:0:
318,200,65404,1,0,0:0:0:0:
301,215,65476,1,0,0:0:0:0:
281,225,65547,1,0,0:0:0:0:
256,230,65619,5,0,0:0:0:0:
246,249,65690,1,0,0:0:0:0:
241,271,65761,1,0,0:0:0:0:
242,294,65833,1,0,0:0:0:0:
249,315,65904,1,0,0:0:0:0:
262,334,65976,1,0,0:0:0:0:
279,348,66047,1,0,0:0:0:0:
299,358,66119,1,0,0:0:0:0:
320,358,66190,5,0,0:0:0:0:
332,339,66261,1,0,0:0:0:0:
340,318,66333,1,0,0:0:0:0:
341,296,66404,1,0,0:0:0:0:
337,273,66476,1,0,0:0:0:0:
326,253,66547,1,0,0:0:0:0:
311,237,66619,1,0,0:0:0:0:
292,225,66690,1,0,0:0:0:0:
272,218,66761,6,0,L|260:166,4,30
352,218,67047,2,0,L|364:166,4,30
312,46,67333,1,0,0:0:0:0:
312,57,67404,1,0,0:0:0:0:
312,68,67476,1,0,0:0:0:0:
312,79,67547,1,0,0:0:0:0:
312,91,67619,1,0,0:0:0:0:
312,102,67690,1,0,0:0:0:0:
312,113,67761,1,0,0:0:0:0:
312,124,67833,1,0,0:0:0:0:
312,136,67904,5,0,0:0:0:0:
508,266,68190,1,0,0:0:0:0:
224,264,68476,1,0,0:0:0:0:
224,241,68547,1,0,0:0:0:0:
224,219,68619,1,0,0:0:0:0:
224,196,68690,1,0,0:0:0:0:
224,176,68761,2,0,L|224:100,1,67.5
56,184,69047,5,0,0:0:0:0:
240,260,69190,1,0,0:0:0:0:
108,76,69333,1,0,0:0:0:0:
124,288,69476,2,0,L|220:244,1,90
297,298,69761,2,0,L|216:336,1,90
444,228,70047,1,0,0:0:0:0:
324,44,70190,6,0,L|324:160,1,90
324,268,70476,1,0,0:0:0:0:
112,224,70619,2,0,L|144:108,1,90
80,344,70904,1,0,0:0:0:0:
240,224,71047,1,0,0:0:0:0:
240,224,71119,1,0,0:0:0:0:
240,224,71190,1,0,0:0:0:0:
40,104,71333,6,0,P|92:128|136:164,1,90
264,136,71619,2,0,P|212:116|168:76,1,90
92,288,71904,1,0,0:0:0:0:
264,236,72047,1,0,0:0:0:0:
116,176,72190,1,0,0:0:0:0:
116,176,72261,1,0,0:0:0:0:
116,176,72333,1,0,0:0:0:0:
416,168,72476,6,0,L|424:56,1,90
304,296,72761,2,0,L|388:344,1,90
288,92,73047,5,0,0:0:0:0:
220,340,73190,1,0,0:0:0:0:
375,255,73333,5,0,0:0:0:0:
128,196,73476,1,0,0:0:0:0:
464,120,73619,6,0,B|412:120|412:120|344:136,1,90
272,188,73904,1,0,0:0:0:0:
144,64,74047,2,0,L|144:172,1,90
368,64,74333,2,0,L|368:172,1,90
368,284,74619,1,0,0:0:0:0:
368,284,74761,6,0,B|324:256|324:256|264:240,1,90
84,340,75047,1,0,0:0:0:0:
152,104,75190,1,0,0:0:0:0:
196,340,75333,1,0,0:0:0:0:
152,88,75476,1,0,0:0:0:0:
292,296,75619,2,0,L|372:244,1,90
96,224,75904,5,0,0:0:0:0:
288,92,76047,1,0,0:0:0:0:
228,300,76190,5,0,0:0:0:0:
124,40,76333,1,0,0:0:0:0:
352,180,76476,5,0,0:0:0:0:
48,168,76619,1,0,0:0:0:0:
296,64,76761,1,0,0:0:0:0:
296,64,76833,1,0,0:0:0:0:
296,64,76904,1,0,0:0:0:0:
188,308,77047,6,0,B|232:272|232:272|251:245,1,90
392,328,77333,2,0,B|436:292|436:292|455:265,1,90
320,88,77619,1,0,0:0:0:0:
277,102,77690,1,0,0:0:0:0:
244,132,77761,1,0,0:0:0:0:
230,174,77833,1,0,0:0:0:0:
227,219,77904,1,0,0:0:0:0:
225,264,77976,1,0,0:0:0:0:
208,305,78047,1,0,0:0:0:0:
170,327,78119,1,0,0:0:0:0:
120,332,78190,6,0,L|120:244,1,67.5
120,240,78476,5,0,0:0:0:0:
120,200,78547,1,0,0:0:0:0:
120,161,78619,1,0,0:0:0:0:
120,121,78690,1,0,0:0:0:0:
122,92,78761,5,0,0:0:0:0:
144,125,78833,1,0,0:0:0:0:
165,158,78904,1,0,0:0:0:0:
186,192,78976,1,0,0:0:0:0:
208,224,79047,5,0,0:0:0:0:
252,225,79119,1,0,0:0:0:0:
297,224,79190,1,0,0:0:0:0:
342,224,79261,1,0,0:0:0:0:
387,224,79333,5,0,0:0:0:0:
399,192,79404,1,0,0:0:0:0:
401,158,79476,1,0,0:0:0:0:
394,125,79547,1,0,0:0:0:0:
378,96,79619,1,0,0:0:0:0:
355,71,79690,1,0,0:0:0:0:
326,55,79761,1,0,0:0:0:0:
293,46,79833,1,0,0:0:0:0:
259,47,79904,1,0,0:0:0:0:
227,57,79976,1,0,0:0:0:0:
199,76,80047,1,0,0:0:0:0:
177,101,80119,1,0,0:0:0:0:
163,132,80190,1,0,0:0:0:0:
158,165,80261,1,0,0:0:0:0:
162,198,80333,1,0,0:0:0:0:
175,229,80404,1,0,0:0:0:0:
196,256,80476,6,0,L|272:232,1,45
460,184,80619,1,0,0:0:0:0:
460,184,80690,1,0,0:0:0:0:
460,184,80761,1,0,0:0:0:0:
460,184,80833,1,0,0:0:0:0:
460,184,80904,2,0,L|392:208,1,45
251,279,81047,6,0,L|274:240,1,45
407,54,81190,1,0,0:0:0:0:
407,54,81261,1,0,0:0:0:0:
407,54,81333,1,0,0:0:0:0:
407,54,81404,1,0,0:0:0:0:
407,54,81476,2,0,L|370:116,1,45
308,261,81619,5,0,0:0:0:0:
40,108,81904,1,0,0:0:0:0:
188,310,82190,2,0,B|220:278|220:278|260:256,1,90
208,80,82476,1,0,0:0:0:0:
92,212,82619,1,0,0:0:0:0:
380,212,82761,5,0,0:0:0:0:
368,40,82904,1,0,0:0:0:0:
228,232,83047,1,0,0:0:0:0:
440,184,83190,2,0,B|384:192|384:192|332:208,1,90
120,68,83476,5,0,0:0:0:0:
232,220,83619,1,0,0:0:0:0:
72,184,83761,2,0,B|128:192|128:192|180:208,1,90
264,56,84047,5,0,0:0:0:0:
192,288,84190,1,0,0:0:0:0:
428,264,84333,2,0,L|396:164,1,90
249,83,84619,5,0,0:0:0:0:
205,268,84761,1,0,0:0:0:0:
205,268,84833,1,0,0:0:0:0:
205,268,84904,2,0,P|152:264|104:240,1,90
272,20,85190,5,0,0:0:0:0:
304,220,85333,1,0,0:0:0:0:
208,84,85476,1,0,0:0:0:0:
432,32,85619,2,0,P|445:85|448:144,1,90
352,296,85904,1,0,0:0:0:0:
352,296,85976,1,0,0:0:0:0:
352,296,86047,1,0,0:0:0:0:
200,48,86190,5,0,0:0:0:0:
140,260,86333,1,0,0:0:0:0:
304,220,86404,1,0,0:0:0:0:
295,176,86476,1,0,0:0:0:0:
259,152,86547,1,0,0:0:0:0:
216,159,86619,1,0,0:0:0:0:
191,195,86690,1,0,0:0:0:0:
200,228,86761,5,0,0:0:0:0:
214,244,86833,1,0,0:0:0:0:
235,250,86904,1,0,0:0:0:0:
256,242,86976,1,0,0:0:0:0:
269,224,87047,1,0,0:0:0:0:
269,202,87119,1,0,0:0:0:0:
257,184,87190,1,0,0:0:0:0:
236,176,87261,1,0,0:0:0:0:
212,180,87333,6,0,B|160:152|168:88|168:88|88:96,1,180
84,272,88190,5,0,0:0:0:0:
248,104,88475,2,0,L|236:40,2,45
316,316,89047,6,0,L|316:224,1,90
316,226,89475,1,0,0:0:0:0:
316,226,89618,1,0,0:0:0:0:
464,76,89904,5,0,0:0:0:0:
196,184,90190,2,0,L|180:128,1,45
220,252,90475,1,0,0:0:0:0:
360,104,90761,6,0,P|432:160|392:240,1,180
204,256,91618,5,0,0:0:0:0:
360,176,91904,2,0,L|304:204,2,45
60,148,92475,6,0,L|140:216,1,90
128,206,92904,1,0,0:0:0:0:
128,206,93047,1,0,0:0:0:0:
328,288,93333,6,0,L|304:180,1,90
172,64,93904,2,0,L|172:100,2,22.5
152,280,94190,6,0,L|252:248,1,90
360,104,94475,2,0,L|260:136,1,90
396,240,94761,1,0,0:0:0:0:
392,28,94904,1,0,0:0:0:0:
328,284,95047,6,0,L|328:176,1,90
136,180,95333,2,0,L|228:252,1,90
292,60,95618,2,0,L|248:152,1,90
120,120,95904,5,0,0:0:0:0:
208,284,96047,1,0,0:0:0:0:
152,77,96190,5,0,0:0:0:0:
179,262,96333,1,0,0:0:0:0:
198,49,96475,5,0,0:0:0:0:
160,231,96618,1,0,0:0:0:0:
392,120,96761,5,0,0:0:0:0:
304,284,96904,1,0,0:0:0:0:
360,77,97047,5,0,0:0:0:0:
333,262,97190,1,0,0:0:0:0:
312,48,97333,5,0,0:0:0:0:
352,231,97475,1,0,0:0:0:0:
108,272,97618,5,0,0:0:0:0:
108,272,97761,1,0,0:0:0:0:
196,64,97904,2,0,L|276:116,1,90
284,224,98190,2,0,L|204:172,1,90
108,112,98475,5,0,0:0:0:0:
108,112,98618,1,0,0:0:0:0:
240,270,98761,2,0,P|279:289|315:319,1,90
315,319,98975,1,0,0:0:0:0:
315,319,99047,2,0,L|385:217,1,90
120,128,99333,5,0,0:0:0:0:
408,180,99618,1,0,0:0:0:0:
120,256,99904,1,0,0:0:0:0:
384,44,100190,5,0,0:0:0:0:
224,96,100475,1,0,0:0:0:0:
230,117,100547,1,0,0:0:0:0:
237,139,100618,1,0,0:0:0:0:
243,160,100690,1,0,0:0:0:0:
250,182,100761,5,0,0:0:0:0:
243,203,100833,1,0,0:0:0:0:
236,225,100904,1,0,0:0:0:0:
230,246,100975,1,0,0:0:0:0:
224,268,101047,6,0,P|296:228|400:264,1,180
460,304,101475,1,0,0:0:0:0:
152,284,101618,1,0,0:0:0:0:
316,324,101761,1,0,0:0:0:0:
132,128,101904,1,0,0:0:0:0:
296,168,102047,2,0,L|200:248,1,90
96,248,102761,5,0,0:0:0:0:
105,241,102832,1,0,0:0:0:0:
114,234,102904,1,0,0:0:0:0:
123,227,102975,1,0,0:0:0:0:
132,221,103047,1,0,0:0:0:0:
320,164,103332,5,0,0:0:0:0:
160,80,103475,1,0,0:0:0:0:
260,248,103618,1,0,0:0:0:0:
256,48,103761,1,0,0:0:0:0:
148,268,103904,2,0,L|248:280,1,90
400,296,104189,1,0,0:0:0:0:
400,296,104261,1,0,0:0:0:0:
400,296,104332,1,0,0:0:0:0:
224,172,104475,6,0,L|228:60,1,90
336,144,104761,1,0,0:0:0:0:
120,216,104904,1,0,0:0:0:0:
100,44,105047,2,0,L|112:148,1,90
132,308,105332,1,0,0:0:0:0:
220,140,105475,1,0,0:0:0:0:
340,308,105618,6,0,B|332:256|332:256|336:180,1,90
236,316,105904,1,0,0:0:0:0:
456,104,106047,2,0,L|344:56,1,90
260,20,106332,1,0,0:0:0:0:
256,244,106475,1,0,0:0:0:0:
96,52,106618,6,0,L|96:152,1,90
92,316,106904,1,0,0:0:0:0:
300,184,107047,2,0,L|240:80,1,90
256,308,107332,1,0,0:0:0:0:
256,308,107404,1,0,0:0:0:0:
256,308,107475,1,0,0:0:0:0:
420,176,107618,1,0,0:0:0:0:
420,176,107689,1,0,0:0:0:0:
420,176,107761,1,0,0:0:0:0:
160,172,107904,5,0,0:0:0:0:
160,172,107975,1,0,0:0:0:0:
160,172,108047,1,0,0:0:0:0:
160,172,108118,1,0,0:0:0:0:
160,172,108189,2,0,P|208:160|272:156,1,90
247,331,108475,5,0,0:0:0:0:
247,331,108547,1,0,0:0:0:0:
247,331,108618,2,0,P|202:330|135:315,1,90
158,323,108832,1,0,0:0:0:0:
158,323,108904,6,0,L|185:237,1,90
240,76,109189,1,0,0:0:0:0:
364,252,109332,1,0,0:0:0:0:
343,259,109404,1,0,0:0:0:0:
325,246,109475,1,0,0:0:0:0:
325,224,109547,1,0,0:0:0:0:
344,212,109618,5,0,0:0:0:0:
374,224,109689,1,0,0:0:0:0:
395,250,109761,1,0,0:0:0:0:
400,283,109832,1,0,0:0:0:0:
388,315,109904,1,0,0:0:0:0:
362,336,109975,1,0,0:0:0:0:
329,341,110047,1,0,0:0:0:0:
298,330,110118,1,0,0:0:0:0:
276,305,110189,5,0,0:0:0:0:
276,100,110332,1,0,0:0:0:0:
236,305,110475,5,0,0:0:0:0:
306,112,110618,1,0,0:0:0:0:
198,292,110761,2,0,L|200:168,1,90
200,60,111047,1,0,0:0:0:0:
108,244,111189,1,0,0:0:0:0:
336,236,111332,6,0,L|416:144,1,90
456,260,111618,1,0,0:0:0:0:
456,60,111761,2,0,L|340:40,1,90
456,184,112047,1,0,0:0:0:0:
248,108,112189,1,0,0:0:0:0:
248,108,112261,1,0,0:0:0:0:
248,108,112332,1,0,0:0:0:0:
168,284,112475,5,0,0:0:0:0:
336,100,112618,1,0,0:0:0:0:
288,344,112761,1,0,0:0:0:0:
204,128,112904,1,0,0:0:0:0:
376,288,113047,1,0,0:0:0:0:
184,344,113189,1,0,0:0:0:0:
288,64,113332,1,0,0:0:0:0:
288,64,113404,1,0,0:0:0:0:
288,64,113475,1,0,0:0:0:0:
88,232,113618,6,0,L|208:276,1,90
164,112,113904,1,0,0:0:0:0:
12,172,114047,1,0,0:0:0:0:
288,216,114189,1,0,0:0:0:0:
288,216,114261,1,0,0:0:0:0:
288,216,114332,1,0,0:0:0:0:
368,16,114475,1,0,0:0:0:0:
368,16,114547,1,0,0:0:0:0:
368,16,114618,1,0,0:0:0:0:
192,184,114761,6,0,P|236:216|272:268,1,90
352,376,115047,1,0,0:0:0:0:
352,376,115118,1,0,0:0:0:0:
352,376,115189,1,0,0:0:0:0:
348,104,115332,1,0,0:0:0:0:
164,280,115475,1,0,0:0:0:0:
408,220,115618,1,0,0:0:0:0:
408,220,115689,1,0,0:0:0:0:
408,220,115761,6,0,P|328:220|296:192,1,90
176,146,116047,1,0,0:0:0:0:
358,69,116189,5,0,0:0:0:0:
233,318,116332,1,0,0:0:0:0:
164,104,116475,1,0,0:0:0:0:
176,146,116547,1,0,0:0:0:0:
166,189,116618,1,0,0:0:0:0:
134,221,116689,1,0,0:0:0:0:
91,232,116761,1,0,0:0:0:0:
52,250,116832,1,0,0:0:0:0:
40,292,116904,1,0,0:0:0:0:
65,327,116975,1,0,0:0:0:0:
109,331,117047,6,0,P|168:284|212:292,1,123.75
232,304,117904,2,0,L|200:156,1,135
180,128,118189,5,0,0:0:0:0:
137,114,118261,1,0,0:0:0:0:
95,128,118332,1,0,0:0:0:0:
69,163,118404,1,0,0:0:0:0:
68,208,118475,1,0,0:0:0:0:
92,244,118547,1,0,0:0:0:0:
134,260,118618,1,0,0:0:0:0:
177,249,118689,5,0,0:0:0:0:
188,228,118761,1,0,0:0:0:0:
201,208,118832,1,0,0:0:0:0:
219,193,118904,1,0,0:0:0:0:
240,188,118975,1,0,0:0:0:0:
262,191,119047,1,0,0:0:0:0:
281,203,119118,1,0,0:0:0:0:
293,222,119189,1,0,0:0:0:0:
296,244,119261,1,0,0:0:0:0:
288,264,119332,6,0,B|220:236|220:236|160:172,1,125.999996154785
408,192,119618,1,0,0:0:0:0:
300,56,119761,1,0,0:0:0:0:
168,308,119904,1,0,0:0:0:0:
184,36,120047,1,0,0:0:0:0:
332,300,120189,1,0,0:0:0:0:
56,176,120332,1,0,0:0:0:0:
272,16,120475,5,0,0:0:0:0:
224,344,120618,1,0,0:0:0:0:
92,104,120761,1,0,0:0:0:0:
424,104,120904,1,0,0:0:0:0:
100,280,121047,1,0,0:0:0:0:
256,12,121189,1,0,0:0:0:0:
328,304,121332,1,0,0:0:0:0:
68,88,121475,1,0,0:0:0:0:
275,66,121618,6,0,B|332:64|332:64|400:80,1,125.999996154785
120,168,121904,1,0,0:0:0:0:
492,52,122047,2,0,B|495:121|495:121|483:176,1,125.999996154785
264,352,122332,2,0,B|260:282|260:282|272:227,1,125.999996154785
324,56,122618,5,0,0:0:0:0:
368,316,122761,1,0,0:0:0:0:
140,188,122904,1,0,0:0:0:0:
444,144,123047,1,0,0:0:0:0:
164,328,123189,1,0,0:0:0:0:
248,40,123332,1,0,0:0:0:0:
400,300,123475,1,0,0:0:0:0:
96,192,123618,1,0,0:0:0:0:
400,84,123761,1,0,0:0:0:0:
136,36,123904,6,0,P|144:100|144:172,1,112.5
152,324,124189,1,0,0:0:0:0:
152,324,124261,1,0,0:0:0:0:
152,324,124332,1,0,0:0:0:0:
280,176,124475,1,0,0:0:0:0:
64,212,124618,1,0,0:0:0:0:
64,212,124689,1,0,0:0:0:0:
64,212,124761,1,0,0:0:0:0:
64,212,124832,1,0,0:0:0:0:
64,212,124904,1,0,0:0:0:0:
332,312,125047,6,0,P|348:244|380:160,1,112.5
428,20,125332,1,0,0:0:0:0:
428,20,125404,1,0,0:0:0:0:
428,20,125475,1,0,0:0:0:0:
232,180,125618,1,0,0:0:0:0:
468,240,125761,1,0,0:0:0:0:
468,240,125832,1,0,0:0:0:0:
468,240,125904,1,0,0:0:0:0:
468,240,125975,1,0,0:0:0:0:
468,240,126047,1,0,0:0:0:0:
200,312,126189,6,0,L|232:172,1,112.5
32,340,126475,1,0,0:0:0:0:
296,304,126618,1,0,0:0:0:0:
296,304,126689,1,0,0:0:0:0:
296,304,126761,1,0,0:0:0:0:
104,96,126904,1,0,0:0:0:0:
216,360,127047,1,0,0:0:0:0:
216,360,127118,1,0,0:0:0:0:
216,360,127189,1,0,0:0:0:0:
280,88,127332,5,0,0:0:0:0:
333,98,127404,1,0,0:0:0:0:
355,148,127475,1,0,0:0:0:0:
329,195,127547,1,0,0:0:0:0:
300,208,127618,1,0,0:0:0:0:
267,234,127689,1,0,0:0:0:0:
254,273,127761,1,0,0:0:0:0:
263,313,127832,1,0,0:0:0:0:
293,342,127904,5,0,0:0:0:0:
334,351,127975,1,0,0:0:0:0:
373,336,128047,1,0,0:0:0:0:
398,302,128118,1,0,0:0:0:0:
401,261,128189,1,0,0:0:0:0:
407,208,128261,1,0,0:0:0:0:
458,192,128332,1,0,0:0:0:0:
492,233,128404,1,0,0:0:0:0:
469,280,128475,5,0,0:0:0:0:
204,164,128618,1,0,0:0:0:0:
204,164,128689,1,0,0:0:0:0:
204,164,128761,1,0,0:0:0:0:
448,27,128904,2,0,L|448:140,1,112.5
328,268,129189,1,0,0:0:0:0:
92,136,129332,2,0,L|164:49,1,112.5
228,328,129618,5,0,0:0:0:0:
316,60,129761,1,0,0:0:0:0:
316,60,129832,1,0,0:0:0:0:
316,60,129904,1,0,0:0:0:0:
144,316,130047,2,0,L|55:246,1,112.5
240,180,130332,1,0,0:0:0:0:
40,348,130475,1,0,0:0:0:0:
40,348,130547,1,0,0:0:0:0:
40,348,130618,1,0,0:0:0:0:
352,272,130761,5,0,0:0:0:0:
352,272,130832,1,0,0:0:0:0:
352,272,130904,1,0,0:0:0:0:
428,64,131047,1,0,0:0:0:0:
472,288,131189,1,0,0:0:0:0:
220,312,131332,1,0,0:0:0:0:
472,360,131475,1,0,0:0:0:0:
344,112,131618,1,0,0:0:0:0:
352,384,131761,1,0,0:0:0:0:
164,104,131904,5,0,0:0:0:0:
164,104,131975,1,0,0:0:0:0:
164,104,132047,1,0,0:0:0:0:
240,312,132189,1,0,0:0:0:0:
196,48,132332,1,0,0:0:0:0:
240,312,132475,1,0,0:0:0:0:
240,4,132618,1,0,0:0:0:0:
116,304,132761,1,0,0:0:0:0:
116,304,132832,1,0,0:0:0:0:
116,304,132904,1,0,0:0:0:0:
396,232,133047,6,0,B|384:176|384:176|352:120,1,112.5
132,64,133332,1,0,0:0:0:0:
132,64,133404,1,0,0:0:0:0:
132,64,133475,2,0,L|252:-4,1,112.5
100,248,133761,1,0,0:0:0:0:
20,8,133904,1,0,0:0:0:0:
20,8,133975,1,0,0:0:0:0:
20,8,134047,1,0,0:0:0:0:
280,272,134189,6,0,L|272:136,1,112.5
148,340,134475,1,0,0:0:0:0:
148,340,134547,1,0,0:0:0:0:
148,340,134618,1,0,0:0:0:0:
432,168,134761,2,0,L|428:52,1,112.5
436,344,135047,1,0,0:0:0:0:
436,344,135118,1,0,0:0:0:0:
436,344,135189,1,0,0:0:0:0:
200,84,135332,5,0,0:0:0:0:
200,98,135404,1,0,0:0:0:0:
200,112,135475,1,0,0:0:0:0:
200,126,135547,1,0,0:0:0:0:
200,140,135618,1,0,0:0:0:0:
464,180,135761,1,0,0:0:0:0:
320,300,135904,1,0,0:0:0:0:
432,84,136047,1,0,0:0:0:0:
432,84,136118,1,0,0:0:0:0:
432,84,136189,5,0,0:0:0:0:
430,67,136261,1,0,0:0:0:0:
415,48,136332,1,0,0:0:0:0:
390,45,136404,1,0,0:0:0:0:
372,60,136475,5,0,0:0:0:0:
372,93,136547,1,0,0:0:0:0:
373,127,136618,1,0,0:0:0:0:
374,161,136689,1,0,0:0:0:0:
375,194,136761,1,0,0:0:0:0:
364,217,136832,1,0,0:0:0:0:
346,235,136904,1,0,0:0:0:0:
324,247,136975,1,0,0:0:0:0:
299,251,137047,5,0,0:0:0:0:
274,248,137118,1,0,0:0:0:0:
251,237,137189,1,0,0:0:0:0:
233,219,137261,1,0,0:0:0:0:
220,196,137332,1,0,0:0:0:0:
180,166,137404,1,0,0:0:0:0:
130,165,137475,1,0,0:0:0:0:
90,194,137547,1,0,0:0:0:0:
76,240,137618,6,0,B|144:240|144:240|216:224,1,112.5
60,44,137904,5,0,0:0:0:0:
112,344,138047,1,0,0:0:0:0:
312,88,138189,1,0,0:0:0:0:
24,248,138332,1,0,0:0:0:0:
308,340,138475,1,0,0:0:0:0:
152,56,138618,1,0,0:0:0:0:
208,364,138761,5,0,0:0:0:0:
272,24,138904,1,0,0:0:0:0:
448,332,139047,1,0,0:0:0:0:
112,184,139189,1,0,0:0:0:0:
428,76,139332,1,0,0:0:0:0:
320,360,139475,1,0,0:0:0:0:
168,124,139618,2,0,B|176:68|176:68|172:8,1,112.5
404,228,139904,6,0,B|340:240|340:240|256:268,1,112.5
368,32,140189,1,0,0:0:0:0:
272,336,140332,2,0,B|216:320|216:320|120:268,1,112.5
280,32,140618,1,0,0:0:0:0:
400,208,140761,1,0,0:0:0:0:
76,144,140904,6,0,B|80:84|80:84|72:8,1,112.5
32,312,141189,1,0,0:0:0:0:
300,224,141332,1,0,0:0:0:0:
140,60,141475,1,0,0:0:0:0:
176,324,141618,1,0,0:0:0:0:
156,52,141761,1,0,0:0:0:0:
260,320,141904,2,0,L|208:188,1,112.5
424,48,142189,5,0,0:0:0:0:
356,268,142332,1,0,0:0:0:0:
224,64,142475,1,0,0:0:0:0:
224,64,142547,1,0,0:0:0:0:
224,64,142618,1,0,0:0:0:0:
488,160,142761,1,0,0:0:0:0:
232,272,142904,1,0,0:0:0:0:
232,272,142975,1,0,0:0:0:0:
232,272,143047,1,0,0:0:0:0:
232,272,143118,1,0,0:0:0:0:
232,272,143189,1,0,0:0:0:0:
56,144,143332,6,0,L|104:32,1,112.5
136,320,143618,1,0,0:0:0:0:
136,320,143689,1,0,0:0:0:0:
136,320,143761,1,0,0:0:0:0:
304,80,143904,1,0,0:0:0:0:
344,356,144047,1,0,0:0:0:0:
344,356,144118,1,0,0:0:0:0:
344,356,144189,1,0,0:0:0:0:
344,356,144261,1,0,0:0:0:0:
344,356,144332,1,0,0:0:0:0:
340,28,144475,6,0,L|340:184,1,112.5
220,256,144761,1,0,0:0:0:0:
456,248,144904,1,0,0:0:0:0:
184,32,145047,1,0,0:0:0:0:
228,292,145189,1,0,0:0:0:0:
228,292,145261,1,0,0:0:0:0:
228,292,145332,1,0,0:0:0:0:
284,0,145475,1,0,0:0:0:0:
368,248,145618,6,0,L|364:104,1,112.5
220,44,145904,2,0,L|223:156,1,112.5
80,64,146189,1,0,0:0:0:0:
152,256,146332,1,0,0:0:0:0:
268,56,146475,1,0,0:0:0:0:
256,48,146547,1,0,0:0:0:0:
242,43,146618,1,0,0:0:0:0:
229,43,146689,1,0,0:0:0:0:
215,46,146761,5,0,0:0:0:0:
316,244,146904,1,0,0:0:0:0:
380,76,147047,1,0,0:0:0:0:
180,152,147189,1,0,0:0:0:0:
432,208,147332,1,0,0:0:0:0:
256,308,147475,1,0,0:0:0:0:
312,20,147618,1,0,0:0:0:0:
312,20,147689,1,0,0:0:0:0:
312,20,147761,1,0,0:0:0:0:
252,264,147904,6,0,L|388:308,1,112.5
240,120,148189,1,0,0:0:0:0:
144,280,148332,1,0,0:0:0:0:
312,192,148475,1,0,0:0:0:0:
60,152,148618,1,0,0:0:0:0:
200,336,148761,1,0,0:0:0:0:
160,52,148904,1,0,0:0:0:0:
32,316,149047,5,0,0:0:0:0:
32,316,149118,1,0,0:0:0:0:
32,316,149189,1,0,0:0:0:0:
200,212,149332,1,0,0:0:0:0:
24,144,149475,1,0,0:0:0:0:
216,328,149618,1,0,0:0:0:0:
208,48,149761,1,0,0:0:0:0:
348,208,149904,1,0,0:0:0:0:
348,208,149975,1,0,0:0:0:0:
348,208,150047,1,0,0:0:0:0:
96,228,150189,5,0,0:0:0:0:
288,56,150332,1,0,0:0:0:0:
296,308,150475,1,0,0:0:0:0:
116,80,150618,1,0,0:0:0:0:
400,148,150761,1,0,0:0:0:0:
92,296,150904,1,0,0:0:0:0:
292,32,151047,1,0,0:0:0:0:
320,344,151189,1,0,0:0:0:0:
60,212,151332,6,0,L|120:92,1,112.5
204,288,151618,1,0,0:0:0:0:
158,315,151689,1,0,0:0:0:0:
114,286,151761,1,0,0:0:0:0:
123,233,151832,1,0,0:0:0:0:
174,219,151904,1,0,0:0:0:0:
191,258,151975,1,0,0:0:0:0:
185,299,152047,1,0,0:0:0:0:
158,331,152118,1,0,0:0:0:0:
119,343,152189,1,0,0:0:0:0:
78,333,152261,1,0,0:0:0:0:
50,303,152332,1,0,0:0:0:0:
41,262,152404,1,0,0:0:0:0:
48,224,152475,5,0,0:0:0:0:
68,243,152547,1,0,0:0:0:0:
96,248,152618,1,0,0:0:0:0:
122,239,152689,1,0,0:0:0:0:
140,217,152761,1,0,0:0:0:0:
144,190,152832,1,0,0:0:0:0:
135,164,152904,1,0,0:0:0:0:
113,147,152975,1,0,0:0:0:0:
85,143,153047,5,0,0:0:0:0:
96,160,153618,6,0,L|40:56,1,90
244,164,153904,2,0,L|176:272,1,90
160,44,154189,1,0,0:0:0:0:
88,256,154332,1,0,0:0:0:0:
100,0,154475,1,0,0:0:0:0:
88,256,154618,1,0,0:0:0:0:
312,252,154761,6,0,L|336:124,1,90
128,32,155047,1,0,0:0:0:0:
170,18,155118,1,0,0:0:0:0:
213,30,155189,1,0,0:0:0:0:
241,64,155261,1,0,0:0:0:0:
247,108,155332,1,0,0:0:0:0:
233,150,155404,1,0,0:0:0:0:
236,195,155475,1,0,0:0:0:0:
256,235,155547,1,0,0:0:0:0:
290,264,155618,1,0,0:0:0:0:
332,278,155689,1,0,0:0:0:0:
377,274,155761,1,0,0:0:0:0:
416,254,155832,1,0,0:0:0:0:
444,220,155904,5,0,0:0:0:0:
455,182,155975,1,0,0:0:0:0:
447,144,156047,1,0,0:0:0:0:
421,114,156118,1,0,0:0:0:0:
385,100,156189,1,0,0:0:0:0:
347,106,156261,1,0,0:0:0:0:
315,129,156332,1,0,0:0:0:0:
299,164,156404,1,0,0:0:0:0:
301,203,156475,5,0,0:0:0:0:
345,203,156547,1,0,0:0:0:0:
383,180,156618,1,0,0:0:0:0:
403,140,156689,1,0,0:0:0:0:
399,96,156761,1,0,0:0:0:0:
372,61,156832,1,0,0:0:0:0:
330,45,156904,1,0,0:0:0:0:
287,54,156975,1,0,0:0:0:0:
255,85,157047,5,0,0:0:0:0:
244,105,157118,1,0,0:0:0:0:
228,120,157189,1,0,0:0:0:0:
207,128,157261,1,0,0:0:0:0:
185,129,157332,1,0,0:0:0:0:
164,121,157404,1,0,0:0:0:0:
147,106,157475,1,0,0:0:0:0:
136,87,157547,1,0,0:0:0:0:
132,64,157618,6,0,L|108:188,1,90
300,312,157904,2,0,L|282:223,1,90
248,56,158189,5,0,0:0:0:0:
272,32,158261,1,0,0:0:0:0:
303,22,158332,1,0,0:0:0:0:
337,26,158404,1,0,0:0:0:0:
364,45,158475,1,0,0:0:0:0:
382,74,158547,1,0,0:0:0:0:
384,107,158618,1,0,0:0:0:0:
373,138,158689,1,0,0:0:0:0:
352,160,158761,5,0,0:0:0:0:
332,170,158832,1,0,0:0:0:0:
310,176,158904,1,0,0:0:0:0:
288,175,158975,1,0,0:0:0:0:
266,168,159047,1,0,0:0:0:0:
248,155,159118,1,0,0:0:0:0:
234,138,159189,1,0,0:0:0:0:
224,117,159261,1,0,0:0:0:0:
220,96,159332,5,0,0:0:0:0:
178,79,159404,1,0,0:0:0:0:
133,80,159475,1,0,0:0:0:0:
93,99,159547,1,0,0:0:0:0:
64,134,159618,1,0,0:0:0:0:
52,176,159689,1,0,0:0:0:0:
58,221,159761,1,0,0:0:0:0:
82,259,159832,1,0,0:0:0:0:
118,284,159904,5,0,0:0:0:0:
163,278,159975,1,0,0:0:0:0:
204,260,160047,1,0,0:0:0:0:
242,236,160118,1,0,0:0:0:0:
280,211,160189,1,0,0:0:0:0:
319,188,160261,1,0,0:0:0:0:
360,172,160332,1,0,0:0:0:0:
404,163,160404,1,0,0:0:0:0:
444,176,160475,5,0,0:0:0:0:
469,212,160547,1,0,0:0:0:0:
472,256,160618,1,0,0:0:0:0:
452,295,160689,1,0,0:0:0:0:
414,318,160761,1,0,0:0:0:0:
369,318,160832,1,0,0:0:0:0:
332,294,160904,1,0,0:0:0:0:
312,254,160975,1,0,0:0:0:0:
316,210,161047,5,0,0:0:0:0:
308,166,161118,1,0,0:0:0:0:
282,129,161189,1,0,0:0:0:0:
242,109,161261,1,0,0:0:0:0:
198,108,161332,1,0,0:0:0:0:
158,128,161404,1,0,0:0:0:0:
131,163,161475,1,0,0:0:0:0:
122,207,161547,1,0,0:0:0:0:
134,250,161618,5,0,0:0:0:0:
124,236,161689,1,0,0:0:0:0:
114,222,161761,1,0,0:0:0:0:
104,208,161832,1,0,0:0:0:0:
95,194,161904,1,0,0:0:0:0:
85,181,161975,1,0,0:0:0:0:
75,167,162047,1,0,0:0:0:0:
65,153,162118,1,0,0:0:0:0:
56,139,162189,5,0,0:0:0:0:
280,164,162404,1,0,0:0:0:0:
256,304,162547,1,0,0:0:0:0:
464,120,162761,6,0,L|384:60,1,90
376,248,163046,1,0,0:0:0:0:
184,44,163189,2,0,L|184:152,1,90
184,296,163475,1,0,0:0:0:0:
312,80,163618,5,0,0:0:0:0:
32,184,163903,1,0,0:0:0:0:
312,304,164189,1,0,0:0:0:0:
104,132,164475,6,0,L|104:16,1,90
24,276,164761,1,0,0:0:0:0:
276,180,164903,2,0,L|196:84,1,90
176,220,165189,1,0,0:0:0:0:
312,328,165332,5,0,0:0:0:0:
312,328,165475,1,0,0:0:0:0:
160,160,165618,2,0,L|160:264,1,90
88,72,165903,1,0,0:0:0:0:
312,128,166046,1,0,0:0:0:0:
112,304,166189,6,0,L|32:252,1,90
100,112,166475,1,0,0:0:0:0:
256,304,166618,2,0,L|176:252,1,90
244,112,166903,1,0,0:0:0:0:
472,32,167046,6,0,L|472:144,1,90
256,152,167332,2,0,L|360:164,1,90
260,252,167618,1,0,0:0:0:0:
264,48,167761,1,0,0:0:0:0:
140,232,167903,6,0,L|60:128,1,90
268,260,168189,1,0,0:0:0:0:
268,260,168261,1,0,0:0:0:0:
268,260,168332,1,0,0:0:0:0:
268,260,168403,1,0,0:0:0:0:
268,260,168475,1,0,0:0:0:0:
268,260,168546,1,0,0:0:0:0:
268,260,168618,1,0,0:0:0:0:
268,260,168689,1,0,0:0:0:0:
268,260,168761,6,0,P|216:228|192:192,1,90
432,224,169046,2,0,P|484:256|508:292,1,90
204,160,169332,1,0,0:0:0:0:
181,160,169403,1,0,0:0:0:0:
160,169,169475,1,0,0:0:0:0:
144,184,169546,1,0,0:0:0:0:
136,204,169618,6,0,L|92:100,1,90
52,16,169903,1,0,0:0:0:0:
188,304,170046,2,0,L|232:200,1,90
268,112,170332,1,0,0:0:0:0:
468,304,170475,5,0,0:0:0:0:
264,304,170618,1,0,0:0:0:0:
400,304,170761,5,0,0:0:0:0:
196,304,170903,1,0,0:0:0:0:
332,304,171046,5,0,0:0:0:0:
128,304,171189,1,0,0:0:0:0:
229,220,171332,6,0,L|277:336,1,90
264,116,171618,1,0,0:0:0:0:
120,220,171761,2,0,L|216:236,1,90
88,56,172046,1,0,0:0:0:0:
432,52,172189,6,0,L|368:132,1,90
280,232,172475,2,0,L|223:161,1,90
416,232,172761,2,0,L|416:322,1,90
96,272,173046,5,0,0:0:0:0:
96,272,173189,2,0,L|96:160,1,90
264,52,173475,2,0,L|196:128,1,90
236,236,173761,1,0,0:0:0:0:
404,176,173903,1,0,0:0:0:0:
404,176,174046,2,0,L|296:112,1,90
180,56,174332,1,0,0:0:0:0:
296,248,174475,1,0,0:0:0:0:
92,128,174618,1,0,0:0:0:0:
112,284,174761,6,0,P|184:313|194:236,1,180
244,56,175189,2,0,L|176:144,1,90
364,128,175475,1,0,0:0:0:0:
148,44,175618,5,0,0:0:0:0:
105,57,175689,1,0,0:0:0:0:
74,89,175761,1,0,0:0:0:0:
62,132,175832,1,0,0:0:0:0:
72,176,175903,1,0,0:0:0:0:
101,209,175975,1,0,0:0:0:0:
142,226,176046,1,0,0:0:0:0:
187,220,176118,1,0,0:0:0:0:
223,194,176189,2,0,L|244:112,1,45
152,136,176332,2,0,L|132:64,1,45
80,172,176475,5,0,0:0:0:0:
59,195,176546,1,0,0:0:0:0:
51,225,176618,1,0,0:0:0:0:
56,256,176689,1,0,0:0:0:0:
74,282,176761,1,0,0:0:0:0:
102,297,176832,1,0,0:0:0:0:
133,299,176903,1,0,0:0:0:0:
162,288,176975,1,0,0:0:0:0:
180,264,177046,1,0,0:0:0:0:
194,235,177118,1,0,0:0:0:0:
213,211,177189,1,0,0:0:0:0:
240,195,177261,1,0,0:0:0:0:
271,189,177332,5,0,0:0:0:0:
302,194,177403,1,0,0:0:0:0:
330,209,177475,1,0,0:0:0:0:
350,232,177546,1,0,0:0:0:0:
362,261,177618,1,0,0:0:0:0:
357,292,177689,1,0,0:0:0:0:
340,318,177761,1,0,0:0:0:0:
313,334,177832,1,0,0:0:0:0:
282,337,177903,1,0,0:0:0:0:
252,325,177975,1,0,0:0:0:0:
231,303,178046,1,0,0:0:0:0:
221,273,178118,1,0,0:0:0:0:
225,242,178189,5,0,0:0:0:0:
229,206,178261,1,0,0:0:0:0:
219,171,178332,1,0,0:0:0:0:
197,141,178403,1,0,0:0:0:0:
166,122,178475,1,0,0:0:0:0:
130,115,178546,1,0,0:0:0:0:
94,122,178618,1,0,0:0:0:0:
63,141,178689,1,0,0:0:0:0:
42,171,178761,1,0,0:0:0:0:
32,206,178832,1,0,0:0:0:0:
35,242,178903,1,0,0:0:0:0:
52,275,178975,1,0,0:0:0:0:
79,299,179046,5,0,0:0:0:0:
99,293,179118,1,0,0:0:0:0:
119,287,179189,1,0,0:0:0:0:
139,280,179261,1,0,0:0:0:0:
159,274,179332,1,0,0:0:0:0:
180,268,179403,1,0,0:0:0:0:
200,262,179475,1,0,0:0:0:0:
220,256,179546,1,0,0:0:0:0:
240,250,179618,1,0,0:0:0:0:
260,243,179689,1,0,0:0:0:0:
280,237,179761,1,0,0:0:0:0:
300,231,179832,1,0,0:0:0:0:
320,224,179903,6,0,L|300:144,3,62.9999980773926
88,124,180189,1,0,0:0:0:0:
88,124,180261,1,0,0:0:0:0:
88,124,180332,6,0,L|108:44,1,62.9999980773926
184,256,180475,1,0,0:0:0:0:
184,256,180546,1,0,0:0:0:0:
184,256,180618,6,0,L|164:336,1,62.9999980773926
252,104,180761,5,0,0:0:0:0:
270,78,180832,1,0,0:0:0:0:
298,64,180903,1,0,0:0:0:0:
329,66,180975,1,0,0:0:0:0:
356,81,181046,1,0,0:0:0:0:
372,108,181118,1,0,0:0:0:0:
374,139,181189,1,0,0:0:0:0:
362,167,181261,1,0,0:0:0:0:
337,186,181332,2,0,P|260:248|332:320,1,188.999994232178
320,320,181618,5,0,0:0:0:0:
351,275,181689,1,0,0:0:0:0:
359,220,181761,1,0,0:0:0:0:
341,168,181832,1,0,0:0:0:0:
301,131,181903,5,0,0:0:0:0:
248,116,181975,1,0,0:0:0:0:
194,127,182046,1,0,0:0:0:0:
151,161,182118,1,0,0:0:0:0:
96,164,182189,5,0,0:0:0:0:
51,113,182261,1,0,0:0:0:0:
56,48,182332,1,0,0:0:0:0:
107,8,182403,1,0,0:0:0:0:
173,15,182475,6,0,L|164:280,1,247.5
164,292,183332,5,0,0:0:0:0:
308,124,183475,1,0,0:0:0:0:
276,312,183618,1,0,0:0:0:0:
256,28,183761,1,0,0:0:0:0:
380,216,183903,1,0,0:0:0:0:
100,176,184046,1,0,0:0:0:0:
372,48,184189,5,0,0:0:0:0:
252,232,184332,1,0,0:0:0:0:
372,48,184475,5,0,0:0:0:0:
292,300,184618,1,0,0:0:0:0:
372,48,184761,5,0,0:0:0:0:
352,352,184903,1,0,0:0:0:0:
148,72,185046,5,0,0:0:0:0:
296,196,185189,1,0,0:0:0:0:
128,252,185332,1,0,0:0:0:0:
228,56,185475,1,0,0:0:0:0:
204,304,185618,1,0,0:0:0:0:
116,44,185761,1,0,0:0:0:0:
348,312,185903,6,0,L|240:248,1,90
164,72,186189,2,0,L|272:136,1,90
44,132,186475,1,0,0:0:0:0:
340,60,186618,1,0,0:0:0:0:
192,336,186761,5,0,0:0:0:0:
192,336,186903,1,0,0:0:0:0:
372,188,187046,2,0,L|328:96,1,90
140,196,187332,2,0,L|178:277,1,90
440,232,187618,5,0,0:0:0:0:
440,232,187761,1,0,0:0:0:0:
208,248,187903,1,0,0:0:0:0:
396,56,188046,2,0,L|428:112,2,45
148,116,188475,2,0,L|144:216,1,90
376,280,188761,2,0,L|328:180,1,90
128,336,189046,2,0,L|236:268,1,90
260,96,189332,5,0,0:0:0:0:
20,220,189618,2,0,L|56:200,4,22.5
188,356,190189,6,0,P|224:268|284:192,1,180
380,120,190617,1,0,0:0:0:0:
112,80,190760,2,0,L|136:200,1,90
136,316,191046,2,0,L|52:281,1,90
252,88,191331,5,0,0:0:0:0:
289,64,191403,1,0,0:0:0:0:
332,72,191474,1,0,0:0:0:0:
358,108,191546,1,0,0:0:0:0:
353,151,191617,1,0,0:0:0:0:
319,180,191689,1,0,0:0:0:0:
275,178,191760,5,0,0:0:0:0:
255,200,191831,1,0,0:0:0:0:
240,226,191903,1,0,0:0:0:0:
233,255,191974,1,0,0:0:0:0:
232,285,192046,1,0,0:0:0:0:
239,314,192117,1,0,0:0:0:0:
253,340,192189,2,0,L|376:216,1,135
372,220,192474,5,0,0:0:0:0:
192,184,192617,1,0,0:0:0:0:
384,136,192760,1,0,0:0:0:0:
240,268,192903,1,0,0:0:0:0:
224,32,193046,1,0,0:0:0:0:
288,216,193189,1,0,0:0:0:0:
96,284,193331,1,0,0:0:0:0:
96,284,193403,1,0,0:0:0:0:
96,284,193474,1,0,0:0:0:0:
320,104,193617,5,0,0:0:0:0:
84,128,193760,1,0,0:0:0:0:
388,136,193903,1,0,0:0:0:0:
84,128,194046,1,0,0:0:0:0:
420,48,194189,2,0,L|434:136,1,90
356,240,194474,1,0,0:0:0:0:
347,195,194546,1,0,0:0:0:0:
339,151,194617,1,0,0:0:0:0:
124,236,194760,6,0,L|244:272,1,90
124,88,195046,1,0,0:0:0:0:
44,340,195189,2,0,L|20:224,1,90
216,136,195474,1,0,0:0:0:0:
204,320,195617,1,0,0:0:0:0:
96,60,195760,2,0,L|184:36,1,90
296,292,196046,5,0,0:0:0:0:
360,124,196189,1,0,0:0:0:0:
188,184,196331,1,0,0:0:0:0:
380,272,196474,1,0,0:0:0:0:
380,272,196546,1,0,0:0:0:0:
380,272,196617,1,0,0:0:0:0:
248,92,196760,1,0,0:0:0:0:
248,92,196831,1,0,0:0:0:0:
248,92,196903,1,0,0:0:0:0:
184,320,197046,5,0,0:0:0:0:
184,320,197117,1,0,0:0:0:0:
184,320,197189,1,0,0:0:0:0:
128,76,197331,2,0,L|56:144,1,90
288,232,197617,1,0,0:0:0:0:
444,96,197760,2,0,L|376:12,1,90
320,264,198046,1,0,0:0:0:0:
312,120,198189,5,0,0:0:0:0:
312,125,198260,1,0,0:0:0:0:
312,131,198331,1,0,0:0:0:0:
312,136,198403,1,0,0:0:0:0:
310,141,198474,1,0,0:0:0:0:
307,146,198546,1,0,0:0:0:0:
304,151,198617,1,0,0:0:0:0:
299,154,198689,1,0,0:0:0:0:
296,156,198760,5,0,0:0:0:0:
251,159,198831,1,0,0:0:0:0:
214,136,198903,1,0,0:0:0:0:
199,95,198974,1,0,0:0:0:0:
212,52,199046,1,0,0:0:0:0:
248,27,199117,1,0,0:0:0:0:
292,28,199189,1,0,0:0:0:0:
326,56,199260,1,0,0:0:0:0:
336,99,199331,5,0,0:0:0:0:
160,264,199474,1,0,0:0:0:0:
336,96,199617,1,0,0:0:0:0:
300,324,199760,1,0,0:0:0:0:
192,72,199903,1,0,0:0:0:0:
444,192,200046,1,0,0:0:0:0:
188,68,200189,1,0,0:0:0:0:
444,192,200331,1,0,0:0:0:0:
216,328,200474,6,0,L|171:249,1,90
244,44,200760,1,0,0:0:0:0:
372,256,200903,2,0,L|248:256,1,90
84,64,201189,1,0,0:0:0:0:
204,8,201331,2,0,L|204:116,1,90
72,240,201617,6,0,L|168:160,1,90
316,36,201903,1,0,0:0:0:0:
276,220,202046,1,0,0:0:0:0:
68,112,202189,2,0,L|76:12,1,90
192,264,202474,1,0,0:0:0:0:
192,264,202546,1,0,0:0:0:0:
192,264,202617,1,0,0:0:0:0:
340,160,202760,6,0,L|308:76,1,90
448,204,203046,2,0,L|416:288,1,90
416,32,203331,1,0,0:0:0:0:
416,32,203403,1,0,0:0:0:0:
416,32,203474,1,0,0:0:0:0:
224,180,203617,1,0,0:0:0:0:
464,112,203760,1,0,0:0:0:0:
110,85,203903,6,0,L|135:181,1,90
177,313,204189,1,0,0:0:0:0:
312,143,204331,2,0,L|210:73,1,90
267,289,204617,2,0,L|367:248,1,90
219,172,204903,5,0,0:0:0:0:
457,99,205046,1,0,0:0:0:0:
467,306,205189,1,0,0:0:0:0:
268,66,205331,1,0,0:0:0:0:
477,218,205474,1,0,0:0:0:0:
170,253,205617,1,0,0:0:0:0:
364,157,205760,1,0,0:0:0:0:
295,316,205903,1,0,0:0:0:0:
295,316,205974,1,0,0:0:0:0:
295,316,206046,1,0,0:0:0:0:
160,73,206189,5,0,0:0:0:0:
199,54,206260,1,0,0:0:0:0:
241,66,206331,1,0,0:0:0:0:
264,104,206403,1,0,0:0:0:0:
260,138,206474,1,0,0:0:0:0:
242,151,206546,1,0,0:0:0:0:
220,153,206617,1,0,0:0:0:0:
200,143,206689,1,0,0:0:0:0:
189,122,206760,5,0,0:0:0:0:
235,93,206831,1,0,0:0:0:0:
285,113,206903,1,0,0:0:0:0:
300,166,206974,1,0,0:0:0:0:
288,194,207046,1,0,0:0:0:0:
280,214,207117,1,0,0:0:0:0:
283,236,207189,1,0,0:0:0:0:
297,254,207260,1,0,0:0:0:0:
317,261,207331,5,0,0:0:0:0:
354,237,207403,1,0,0:0:0:0:
372,196,207474,1,0,0:0:0:0:
365,153,207546,1,0,0:0:0:0:
334,121,207617,1,0,0:0:0:0:
291,111,207689,1,0,0:0:0:0:
249,127,207760,1,0,0:0:0:0:
224,163,207831,5,0,0:0:0:0:
224,176,207903,1,0,0:0:0:0:
224,187,207974,1,0,0:0:0:0:
224,198,208046,1,0,0:0:0:0:
224,209,208117,1,0,0:0:0:0:
224,220,208189,1,0,0:0:0:0:
224,232,208260,1,0,0:0:0:0:
224,243,208331,1,0,0:0:0:0:
224,254,208403,1,0,0:0:0:0:
224,265,208474,5,0,0:0:0:0:
224,116,208617,1,0,0:0:0:0:
60,100,208760,2,0,L|136:52,1,67.5000025749208
96,296,209046,1,0,0:0:0:0:
96,296,209189,1,0,0:0:0:0:
264,208,209331,2,0,L|305:261,1,67.5000025749208
224,108,209617,6,0,L|136:108,1,67.5000025749208
352,108,209903,1,0,0:0:0:0:
260,304,210189,2,0,L|212:224,1,67.5000025749208
340,96,210474,2,0,L|308:172,1,67.5000025749208
456,176,210760,5,0,0:0:0:0:
456,176,210903,1,0,0:0:0:0:
176,140,211046,1,0,0:0:0:0:
48,296,211331,2,0,L|72:208,1,67.5000025749208
180,176,211617,2,0,L|204:264,1,67.5000025749208
344,48,211903,5,0,0:0:0:0:
352,184,212046,1,0,0:0:0:0:
184,168,212189,2,0,P|172:88|144:36,1,135.000005149842
147,40,212617,1,0,0:0:0:0:
68,140,212760,1,0,0:0:0:0:
73,164,212831,1,0,0:0:0:0:
88,185,212903,1,0,0:0:0:0:
108,199,212974,1,0,0:0:0:0:
133,204,213046,5,0,0:0:0:0:
280,88,213189,1,0,0:0:0:0:
288,272,213331,1,0,0:0:0:0:
176,96,213474,1,0,0:0:0:0:
232,324,213617,2,0,L|352:352,1,112.5
464,212,213903,1,0,0:0:0:0:
464,212,213974,1,0,0:0:0:0:
464,212,214046,1,0,0:0:0:0:
328,68,214189,6,0,L|292:188,1,112.5
216,28,214474,1,0,0:0:0:0:
428,168,214617,1,0,0:0:0:0:
204,260,214760,2,0,L|168:152,1,112.5
84,312,215046,1,0,0:0:0:0:
84,312,215117,1,0,0:0:0:0:
84,312,215189,1,0,0:0:0:0:
104,104,215331,6,0,B|160:88|160:88|224:92,1,112.5
424,184,215617,2,0,B|368:200|368:200|304:196,1,112.5
88,24,215903,1,0,0:0:0:0:
176,184,216046,1,0,0:0:0:0:
368,56,216189,1,0,0:0:0:0:
368,56,216260,1,0,0:0:0:0:
368,56,216331,1,0,0:0:0:0:
288,276,216474,6,0,L|152:296,1,112.5
268,112,216760,1,0,0:0:0:0:
432,272,216903,1,0,0:0:0:0:
160,180,217046,1,0,0:0:0:0:
148,171,217117,1,0,0:0:0:0:
142,159,217189,1,0,0:0:0:0:
141,145,217260,1,0,0:0:0:0:
147,132,217331,1,0,0:0:0:0:
157,123,217403,1,0,0:0:0:0:
171,119,217474,1,0,0:0:0:0:
184,122,217546,1,0,0:0:0:0:
196,128,217617,5,0,0:0:0:0:
195,149,217689,1,0,0:0:0:0:
197,169,217760,1,0,0:0:0:0:
203,190,217831,1,0,0:0:0:0:
212,209,217903,1,0,0:0:0:0:
223,226,217974,1,0,0:0:0:0:
238,242,218046,1,0,0:0:0:0:
255,254,218117,1,0,0:0:0:0:
273,264,218189,1,0,0:0:0:0:
293,271,218260,1,0,0:0:0:0:
314,274,218331,1,0,0:0:0:0:
335,274,218403,1,0,0:0:0:0:
356,272,218474,5,0,0:0:0:0:
362,254,218546,1,0,0:0:0:0:
376,242,218617,1,0,0:0:0:0:
394,236,218689,1,0,0:0:0:0:
428,240,218760,5,0,0:0:0:0:
455,256,218831,1,0,0:0:0:0:
467,285,218903,1,0,0:0:0:0:
461,316,218974,1,0,0:0:0:0:
440,340,219046,5,0,0:0:0:0:
413,322,219117,1,0,0:0:0:0:
385,306,219189,1,0,0:0:0:0:
355,294,219260,1,0,0:0:0:0:
324,285,219331,1,0,0:0:0:0:
292,281,219403,1,0,0:0:0:0:
260,282,219474,1,0,0:0:0:0:
229,289,219546,1,0,0:0:0:0:
196,288,219617,5,0,0:0:0:0:
165,278,219689,1,0,0:0:0:0:
147,257,219760,1,0,0:0:0:0:
142,230,219831,1,0,0:0:0:0:
148,204,219903,5,0,0:0:0:0:
168,185,219974,1,0,0:0:0:0:
194,173,220046,1,0,0:0:0:0:
222,171,220117,1,0,0:0:0:0:
249,177,220189,5,0,0:0:0:0:
273,191,220260,1,0,0:0:0:0:
292,212,220331,1,0,0:0:0:0:
302,238,220403,1,0,0:0:0:0:
305,266,220474,5,0,0:0:0:0:
313,293,220546,1,0,0:0:0:0:
334,310,220617,1,0,0:0:0:0:
362,312,220689,1,0,0:0:0:0:
384,296,220760,5,0,0:0:0:0:
381,242,220831,1,0,0:0:0:0:
339,207,220903,1,0,0:0:0:0:
285,215,220974,1,0,0:0:0:0:
254,260,221046,5,0,0:0:0:0:
247,301,221117,1,0,0:0:0:0:
219,332,221189,1,0,0:0:0:0:
178,341,221260,1,0,0:0:0:0:
139,327,221331,1,0,0:0:0:0:
114,294,221403,1,0,0:0:0:0:
111,253,221474,1,0,0:0:0:0:
131,217,221546,1,0,0:0:0:0:
168,197,221617,5,0,0:0:0:0:
173,184,221689,1,0,0:0:0:0:
179,171,221760,1,0,0:0:0:0:
184,158,221831,1,0,0:0:0:0:
188,144,221903,1,0,0:0:0:0:
192,131,221974,1,0,0:0:0:0:
195,117,222046,1,0,0:0:0:0:
198,103,222117,1,0,0:0:0:0:
200,88,222189,5,0,0:0:0:0:
158,86,222260,1,0,0:0:0:0:
120,103,222331,1,0,0:0:0:0:
94,136,222403,1,0,0:0:0:0:
87,177,222474,1,0,0:0:0:0:
99,217,222546,1,0,0:0:0:0:
128,247,222617,5,0,0:0:0:0:
168,260,222689,1,0,0:0:0:0:
209,254,222760,1,0,0:0:0:0:
243,249,222831,1,0,0:0:0:0:
275,264,222903,1,0,0:0:0:0:
294,292,222974,1,0,0:0:0:0:
296,327,223046,5,0,0:0:0:0:
278,357,223117,1,0,0:0:0:0:
248,374,223189,1,0,0:0:0:0:
213,371,223260,1,0,0:0:0:0:
185,351,223331,5,0,0:0:0:0:
179,339,223403,1,0,0:0:0:0:
176,325,223474,1,0,0:0:0:0:
177,311,223546,1,0,0:0:0:0:
181,297,223617,1,0,0:0:0:0:
187,285,223689,1,0,0:0:0:0:
197,275,223760,1,0,0:0:0:0:
208,267,223831,1,0,0:0:0:0:
220,260,223903,5,0,0:0:0:0:
224,294,223974,1,0,0:0:0:0:
208,325,224046,1,0,0:0:0:0:
178,342,224117,1,0,0:0:0:0:
144,340,224189,1,0,0:0:0:0:
116,320,224260,1,0,0:0:0:0:
104,287,224331,1,0,0:0:0:0:
112,253,224403,1,0,0:0:0:0:
140,224,224474,5,0,0:0:0:0:
256,192,224545,12,0,228759,0:0:0:0:
256,192,241616,5,0,0:0:0:0:
256,192,241688,12,0,244474,0:0:0:0:
104,132,244759,5,0,0:0:0:0:
416,228,245045,1,0,0:0:0:0:
256,192,245116,12,0,248188,0:0:0:0:
456,48,248474,5,0,0:0:0:0:
184,176,248759,2,0,L|224:60,2,90
436,272,249331,6,0,L|360:276,1,67.5000025749208
176,256,249616,1,0,0:0:0:0:
288,164,249759,1,0,0:0:0:0:
280,316,249902,1,0,0:0:0:0:
196,104,250045,1,0,0:0:0:0:
196,104,250116,1,0,0:0:0:0:
196,104,250188,5,0,0:0:0:0:
156,316,250331,1,0,0:0:0:0:
196,104,250474,1,0,0:0:0:0:
64,292,250616,1,0,0:0:0:0:
92,80,250759,2,0,P|152:72|168:104,1,101.250003862381
168,120,251045,5,0,0:0:0:0:
163,153,251116,1,0,0:0:0:0:
172,185,251188,1,0,0:0:0:0:
193,211,251259,1,0,0:0:0:0:
222,228,251331,2,0,L|272:152,1,67.5000025749208
48,88,251616,2,0,L|97:164,1,67.5000025749208
248,104,251902,5,0,0:0:0:0:
248,104,252045,1,0,0:0:0:0:
216,320,252188,2,0,L|224:244,1,67.5000025749208
332,136,252474,2,0,L|324:212,1,67.5000025749208
180,48,252759,5,0,0:0:0:0:
180,48,252902,1,0,0:0:0:0:
280,152,253045,2,0,P|316:88|308:16,1,135.000005149842
312,28,253474,1,0,0:0:0:0:
224,68,253616,6,0,P|288:132|332:132,1,135.000005149842
164,200,254188,5,0,0:0:0:0:
396,224,254474,5,0,0:0:0:0:
216,308,254759,1,0,0:0:0:0:
236,100,255045,1,0,0:0:0:0:
356,324,255331,6,0,P|296:280|192:296,1,180
48,208,256188,5,0,0:0:0:0:
168,156,256474,1,0,0:0:0:0:
148,288,256759,1,0,0:0:0:0:
328,112,257045,5,0,0:0:0:0:
328,192,257331,1,0,0:0:0:0:
328,272,257616,1,0,0:0:0:0:
168,112,257902,5,0,0:0:0:0:
248,112,258188,1,0,0:0:0:0:
328,112,258474,1,0,0:0:0:0:
184,272,258759,6,0,P|124:232|84:160,1,135.000005149842
68,44,259331,1,0,0:0:0:0:
208,152,259616,5,0,0:0:0:0:
284,196,259902,1,0,0:0:0:0:
156,84,260188,1,0,0:0:0:0:
224,272,260474,6,0,P|288:240|352:232,1,135.000005149842
432,120,261045,1,0,0:0:0:0:
312,324,261331,6,0,L|284:232,1,67.5000025749208
200,60,261616,2,0,L|219:124,1,67.5000025749208
275,333,261902,6,0,L|272:237,1,67.5000025749208
236,50,262188,5,0,0:0:0:0:
80,128,262474,1,0,0:0:0:0:
80,128,262759,1,0,0:0:0:0:
296,196,263045,6,0,L|368:120,1,90
392,256,263331,2,0,L|396:352,1,90
272,312,263616,2,0,L|184:244,1,90
244,128,263902,5,0,0:0:0:0:
244,128,264045,1,0,0:0:0:0:
128,244,264188,2,0,P|220:224|240:228,1,90
280,332,264474,2,0,P|188:312|168:316,1,90
48,288,264759,5,0,0:0:0:0:
48,288,264902,1,0,0:0:0:0:
128,72,265045,2,0,L|128:168,1,90
292,188,265331,2,0,L|368:52,1,135
372,44,265616,6,0,L|276:88,1,90
392,204,265902,1,0,0:0:0:0:
248,296,266188,1,0,0:0:0:0:
404,304,266474,6,0,L|372:212,1,90
252,132,266759,2,0,L|236:232,1,90
188,40,267045,1,0,0:0:0:0:
260,292,267331,5,0,0:0:0:0:
260,292,267474,1,0,0:0:0:0:
112,152,267616,2,0,L|168:68,1,90
48,264,267902,1,0,0:0:0:0:
228,208,268188,5,0,0:0:0:0:
228,208,268331,1,0,0:0:0:0:
328,104,268474,1,0,0:0:0:0:
336,232,268616,1,0,0:0:0:0:
216,64,268759,1,0,0:0:0:0:
356,184,268902,1,0,0:0:0:0:
208,112,269045,6,0,P|220:172|244:200,1,90
332,224,269245,2,0,P|320:164|296:136,1,90
183,133,269445,6,0,P|215:185|247:203,1,90
338,196,269645,2,0,P|306:143|274:125,1,90
96,56,269845,6,0,L|172:152,1,90
96,56,270045,2,0,L|172:152,1,90
340,212,270245,6,0,L|264:116,1,90
340,212,270445,2,0,L|264:116,1,90
104,322,270645,6,0,L|104:232,1,90
104,132,270845,1,0,0:0:0:0:
176,200,270945,2,0,L|68:236,1,90
120,46,271145,2,0,L|124:136,2,90
284,136,271445,6,0,L|400:104,1,90
468,88,271645,1,0,0:0:0:0:
424,176,271745,2,0,L|332:116,1,90
264,76,271945,1,0,0:0:0:0:
176,124,272045,1,0,0:0:0:0:
176,224,272145,1,0,0:0:0:0:
246,285,272245,6,0,L|132:275,2,90
264,180,272545,2,0,L|212:92,1,90
200,208,272745,2,0,L|260:308,1,90
352,264,272945,1,0,0:0:0:0:
404,172,273045,6,0,L|300:168,1,90
384,84,273245,1,0,0:0:0:0:
384,84,273345,2,0,L|476:48,2,90
432,172,273645,2,0,L|336:136,1,90
192,120,273845,5,0,0:0:0:0:
251,104,273945,1,0,0:0:0:0:
309,122,274045,1,0,0:0:0:0:
351,167,274145,1,0,0:0:0:0:
363,227,274245,1,0,0:0:0:0:
342,284,274345,1,0,0:0:0:0:
295,323,274445,1,0,0:0:0:0:
235,332,274545,1,0,0:0:0:0:
178,309,274645,6,0,P|144:256|148:200,1,90
200,136,274845,2,0,P|234:189|230:245,1,90
180,272,275045,6,0,P|145:218|149:162,1,90
200,100,275245,2,0,P|234:153|230:209,1,90
272,280,275445,6,0,L|296:160,1,90
416,104,275645,1,0,0:0:0:0:
407,101,275745,1,0,0:0:0:0:
356,64,275845,5,0,0:0:0:0:
376,64,275945,1,0,0:0:0:0:
398,66,276045,1,0,0:0:0:0:
420,78,276145,1,0,0:0:0:0:
464,36,276245,5,0,0:0:0:0:
437,57,276345,1,0,0:0:0:0:
410,81,276445,1,0,0:0:0:0:
392,107,276545,1,0,0:0:0:0:
420,96,276645,5,0,0:0:0:0:
439,107,276745,1,0,0:0:0:0:
450,126,276845,1,0,0:0:0:0:
450,148,276945,1,0,0:0:0:0:
448,168,277045,6,0,B|408:196|408:196|264:196,1,180
184,88,277445,1,0,0:0:0:0:
116,192,277645,1,0,0:0:0:0:
116,192,277745,1,0,0:0:0:0:
116,192,277845,6,0,B|228:192|228:192|302:218,1,180
432,92,278245,1,0,0:0:0:0:
432,92,278345,1,0,0:0:0:0:
432,92,278445,6,0,B|320:92|320:92|245:118,1,180
172,240,278845,2,0,L|288:240,1,90
262,240,279045,6,0,B|157:199|157:199|97:148,1,180
260,40,279445,6,0,L|156:208,1,180
252,344,279845,2,0,L|232:224,1,90
336,120,280045,2,0,L|356:240,1,90
376,324,280245,6,0,L|288:288,1,90
196,144,280545,2,0,L|192:240,1,90
188,344,280745,1,0,0:0:0:0:
272,280,280845,1,0,0:0:0:0:
96,84,281045,5,0,0:0:0:0:
96,84,281145,1,0,0:0:0:0:
96,84,281245,2,0,L|160:196,1,90
236,108,281445,5,0,0:0:0:0:
236,108,281545,1,0,0:0:0:0:
236,108,281645,2,0,L|257:235,1,90
336,136,281845,5,0,0:0:0:0:
349,117,281945,1,0,0:0:0:0:
360,244,282045,5,0,0:0:0:0:
346,262,282145,1,0,0:0:0:0:
353,183,282245,5,0,0:0:0:0:
374,173,282345,1,0,0:0:0:0:
320,289,282445,5,0,0:0:0:0:
298,297,282545,1,0,0:0:0:0:
344,233,282645,5,0,0:0:0:0:
367,235,282745,1,0,0:0:0:0:
262,308,282845,5,0,0:0:0:0:
240,304,282945,1,0,0:0:0:0:
316,136,283045,6,0,L|232:136,3,45
196,136,283245,6,0,L|280:136,3,45
136,256,283445,6,0,L|104:132,1,90
88,64,283645,2,0,L|23:131,1,90
88,64,283845,2,0,L|23:131,1,90
165,293,284045,6,0,L|92:187,1,90
54,129,284245,2,0,L|17:214,1,90
54,129,284445,2,0,L|17:214,1,90
205,318,284645,6,0,L|100:243,1,90
45,201,284845,2,0,L|39:295,1,90
45,201,285045,2,0,L|39:295,1,90
251,327,285245,6,0,L|128:293,1,90
61,273,285445,2,0,L|87:363,1,90
61,273,285645,2,0,L|87:363,1,90
228,212,285845,6,0,L|272:96,1,90
100,168,286045,2,0,L|156:264,1,90
168,80,286245,2,0,L|76:68,1,90
168,80,286445,2,0,L|76:68,1,90
284,160,286645,6,0,L|300:264,1,90
384,256,286845,1,0,0:0:0:0:
444,194,286945,1,0,0:0:0:0:
427,109,287045,1,0,0:0:0:0:
347,76,287145,1,0,0:0:0:0:
275,124,287245,1,0,0:0:0:0:
274,210,287345,1,0,0:0:0:0:
316,284,287445,6,0,L|412:300,1,90
460,208,287645,2,0,L|312:224,1,90
280,160,287845,2,0,L|280:272,1,90
300,144,288045,2,0,L|300:234,1,90
152,204,288245,6,0,P|160:148|152:72,1,90
60,36,288445,2,0,P|52:92|60:168,1,90
155,221,288645,6,0,P|153:165|132:91,1,90
35,72,288845,2,0,P|37:128|58:202,1,90
108,307,289045,5,0,0:0:0:0:
182,273,289145,1,0,0:0:0:0:
256,240,289245,1,0,0:0:0:0:
329,207,289345,1,0,0:0:0:0:
403,174,289445,5,0,0:0:0:0:
316,140,289545,1,0,0:0:0:0:
232,107,289645,1,0,0:0:0:0:
148,75,289745,1,0,0:0:0:0:
64,42,289845,1,0,0:0:0:0:
40,120,290845,6,0,L|40:4,1,90
196,232,291045,2,0,L|136:148,1,90
316,152,291245,2,0,L|376:236,1,90
232,64,291445,1,0,0:0:0:0:
312,28,291545,1,0,0:0:0:0:
398,50,291645,6,0,L|364:168,1,90
138,136,291845,2,0,L|113:50,1,90
398,50,292045,2,0,L|364:168,1,90
340,220,292245,1,0,0:0:0:0:
260,264,292345,1,0,0:0:0:0:
172,288,292445,5,0,0:0:0:0:
172,288,292545,1,0,0:0:0:0:
172,288,292645,1,0,0:0:0:0:
172,288,292745,1,0,0:0:0:0:
172,288,292845,1,0,0:0:0:0:
172,288,292945,1,0,0:0:0:0:
172,288,293045,1,0,0:0:0:0:
172,288,293145,1,0,0:0:0:0:
172,288,293245,6,0,P|189:151|257:115,1,180
312,84,293545,2,0,P|295:221|227:257,1,180
260,0,293845,6,0,P|395:34|430:58,1,180
224,148,294145,2,0,P|88:113|53:89,1,180
68,232,294445,2,0,P|176:224|292:224,1,180
444,232,294745,2,0,P|336:224|220:224,1,180
328,144,295045,2,0,L|448:144,1,90
184,144,295245,2,0,L|64:144,1,90
328,144,295445,2,0,L|448:144,1,90
256,216,295645,6,0,L|256:126,1,90
300,48,295845,1,0,0:0:0:0:
386,32,295945,1,0,0:0:0:0:
463,76,296045,1,0,0:0:0:0:
493,159,296145,1,0,0:0:0:0:
463,242,296245,1,0,0:0:0:0:
386,285,296345,1,0,0:0:0:0:
300,270,296445,5,0,0:0:0:0:
245,200,296545,1,0,0:0:0:0:
159,180,296645,1,0,0:0:0:0:
80,220,296745,1,0,0:0:0:0:
56,308,296845,1,0,0:0:0:0:
112,376,296945,1,0,0:0:0:0:
200,372,297045,1,0,0:0:0:0:
248,296,297145,1,0,0:0:0:0:
228,208,297245,5,0,0:0:0:0:
292,168,297345,1,0,0:0:0:0:
352,204,297445,1,0,0:0:0:0:
315,250,297545,1,0,0:0:0:0:
264,264,297645,1,0,0:0:0:0:
228,248,297745,1,0,0:0:0:0:
214,226,297845,1,0,0:0:0:0:
212,200,297945,1,0,0:0:0:0:
224,165,298045,6,0,L|220:300,1,90
148,204,298245,1,0,0:0:0:0:
148,204,298345,1,0,0:0:0:0:
148,204,298445,1,0,0:0:0:0:
148,204,298545,1,0,0:0:0:0:
148,204,298645,2,0,L|252:88,1,90
240,72,298845,6,0,L|232:168,2,90
152,248,299145,1,0,0:0:0:0:
152,248,299245,2,0,L|176:340,1,90
360,136,299445,1,0,0:0:0:0:
360,136,299545,2,0,L|336:44,1,90
120,140,299745,5,0,0:0:0:0:
120,140,299845,2,0,L|27:164,1,90
392,244,300045,1,0,0:0:0:0:
392,244,300145,2,0,L|484:220,2,90
316,48,300445,5,0,0:0:0:0:
316,48,300645,6,0,L|448:48,1,90
196,48,300845,2,0,L|64:48,1,90
315,37,301045,6,0,L|444:14,1,90
196,58,301245,2,0,L|66:80,1,90
312,27,301445,6,0,L|436:-18,1,90
199,68,301645,2,0,L|74:113,1,90
307,17,301845,6,0,L|421:-48,1,90
196,48,302045,2,0,L|64:48,1,90
316,48,302245,6,0,L|448:48,1,90
197,37,302445,2,0,L|67:14,1,90
344,88,302645,6,0,L|473:110,1,90
432,103,302845,5,0,0:0:0:0:
432,103,302945,1,0,0:0:0:0:
432,103,303045,1,0,0:0:0:0:
432,103,303145,1,0,0:0:0:0:
432,103,303245,2,0,P|404:150|403:205,1,90
400,184,303445,1,0,0:0:0:0:
400,184,303545,1,0,0:0:0:0:
400,184,303645,6,0,L|497:197,2,90
256,252,304045,6,0,L|240:52,1,180
120,172,304345,1,0,0:0:0:0:
120,172,304445,1,0,0:0:0:0:
120,172,304545,2,0,L|228:164,1,90
220,284,304745,2,0,L|108:240,2,90
372,188,305145,1,0,0:0:0:0:
372,188,305245,6,0,P|344:128|316:96,1,90
264,172,305445,1,0,0:0:0:0:
281,258,305545,1,0,0:0:0:0:
352,309,305645,1,0,0:0:0:0:
439,299,305745,1,0,0:0:0:0:
488,224,305845,1,0,0:0:0:0:
418,167,305945,1,0,0:0:0:0:
331,146,306045,5,0,0:0:0:0:
244,166,306145,1,0,0:0:0:0:
173,220,306245,1,0,0:0:0:0:
88,243,306345,1,0,0:0:0:0:
12,200,306445,1,0,0:0:0:0:
0,115,306545,1,0,0:0:0:0:
37,40,306645,1,0,0:0:0:0:
123,21,306745,1,0,0:0:0:0:
196,70,306845,5,0,0:0:0:0:
262,131,306945,1,0,0:0:0:0:
328,192,307045,1,0,0:0:0:0:
415,195,307145,1,0,0:0:0:0:
476,131,307245,2,0,L|334:129,1,90
260,300,307445,2,0,L|388:332,1,90
56,226,307645,6,0,L|44:316,1,90
168,100,307845,2,0,L|148:248,1,90
468,316,308045,6,0,L|448:168,1,90
468,316,308245,2,0,L|448:168,1,90
44,68,308445,6,0,L|64:216,1,90
172,288,308645,2,0,L|185:199,1,90
255,14,308845,6,0,L|268:104,1,90
280,352,309045,2,0,L|292:262,1,90
304,172,309245,1,0,0:0:0:0:
233,122,309345,1,0,0:0:0:0:
152,152,309445,1,0,0:0:0:0:
131,236,309545,5,0,0:0:0:0:
220,212,309645,1,0,0:0:0:0:
143,170,309745,1,0,0:0:0:0:
57,187,309845,1,0,0:0:0:0:
1,255,309945,1,0,0:0:0:0:
2,344,310045,1,0,0:0:0:0:
256,192,310116,12,0,314616,0:0:0:0:
488,56,337473,5,0,0:0:0:0:
300,246,338045,2,0,L|328:332,1,90
4,104,338616,5,0,0:0:0:0:
220,60,339187,1,0,0:0:0:0:
260,220,339473,1,0,0:0:0:0:
332,120,339759,6,0,P|284:88|240:84,1,90
296,236,340045,1,0,0:0:0:0:
64,296,340187,6,0,L|64:192,1,90
160,40,340473,2,0,L|160:144,1,90
228,264,340759,5,0,0:0:0:0:
312,128,340902,1,0,0:0:0:0:
317,149,340973,1,0,0:0:0:0:
319,172,341045,1,0,0:0:0:0:
319,194,341116,1,0,0:0:0:0:
316,216,341187,5,0,0:0:0:0:
310,225,341259,1,0,0:0:0:0:
308,236,341330,1,0,0:0:0:0:
311,247,341402,1,0,0:0:0:0:
317,256,341473,1,0,0:0:0:0:
326,263,341545,1,0,0:0:0:0:
337,265,341616,1,0,0:0:0:0:
348,264,341687,1,0,0:0:0:0:
358,258,341759,1,0,0:0:0:0:
200,176,341902,1,0,0:0:0:0:
436,104,342045,6,0,L|424:204,1,90
276,56,342330,1,0,0:0:0:0:
448,136,342473,2,0,L|419:232,1,90
299,61,342759,1,0,0:0:0:0:
364,264,342902,2,0,L|460:260,1,90
216,164,343187,6,0,L|184:248,1,90
116,52,343473,1,0,0:0:0:0:
300,216,343616,2,0,L|264:124,1,90
112,212,343902,1,0,0:0:0:0:
236,304,344045,2,0,L|388:304,1,135
384,304,344330,5,0,0:0:0:0:
384,274,344402,1,0,0:0:0:0:
375,245,344473,1,0,0:0:0:0:
360,219,344545,1,0,0:0:0:0:
338,199,344616,1,0,0:0:0:0:
311,186,344687,1,0,0:0:0:0:
282,180,344759,1,0,0:0:0:0:
263,190,344830,1,0,0:0:0:0:
253,210,344902,5,0,0:0:0:0:
257,232,344973,1,0,0:0:0:0:
274,247,345045,1,0,0:0:0:0:
296,249,345116,1,0,0:0:0:0:
316,240,345187,5,0,0:0:0:0:
346,208,345259,1,0,0:0:0:0:
390,198,345330,1,0,0:0:0:0:
431,215,345402,1,0,0:0:0:0:
456,251,345473,5,0,0:0:0:0:
455,296,345545,1,0,0:0:0:0:
431,333,345616,1,0,0:0:0:0:
389,349,345687,1,0,0:0:0:0:
346,340,345759,1,0,0:0:0:0:
324,314,345830,1,0,0:0:0:0:
293,303,345902,1,0,0:1:0:0:
260,309,345973,1,0,0:0:0:0:
235,331,346045,5,0,0:0:0:0:
192,52,346616,5,0,0:0:0:0:
128,224,346759,1,0,0:0:0:0:
256,96,346902,1,0,0:0:0:0:
128,224,347045,1,0,0:0:0:0:
304,156,347187,1,0,0:0:0:0:
104,92,347330,1,0,0:0:0:0:
244,276,347473,1,0,0:0:0:0:
168,28,347616,1,0,0:0:0:0:
168,28,347687,1,0,0:0:0:0:
168,28,347759,5,0,0:0:0:0:
344,196,347902,1,0,0:0:0:0:
124,168,348045,1,0,0:0:0:0:
336,64,348187,1,0,0:0:0:0:
244,280,348330,1,0,0:0:0:0:
260,32,348473,1,0,0:0:0:0:
356,260,348616,1,0,0:0:0:0:
156,124,348759,1,0,0:0:0:0:
156,124,348830,1,0,0:0:0:0:
156,124,348902,6,0,L|156:244,1,90
268,80,349187,1,0,0:0:0:0:
76,224,349330,2,0,L|156:288,1,90
80,40,349616,1,0,0:0:0:0:
216,180,349759,1,0,0:0:0:0:
384,84,349902,1,0,0:0:0:0:
384,84,349973,1,0,0:0:0:0:
384,84,350045,5,0,0:0:0:0:
288,260,350187,1,0,0:0:0:0:
440,200,350330,1,0,0:0:0:0:
240,120,350473,1,0,0:0:0:0:
376,288,350616,1,0,0:0:0:0:
360,52,350759,1,0,0:0:0:0:
288,288,350902,1,0,0:0:0:0:
258,272,350973,1,0,0:0:0:0:
226,278,351045,1,0,0:0:0:0:
204,302,351116,1,0,0:0:0:0:
202,335,351187,5,0,0:0:0:0:
392,200,351330,1,0,0:0:0:0:
180,160,351473,1,0,0:0:0:0:
180,160,351545,1,0,0:0:0:0:
180,160,351616,1,0,0:0:0:0:
392,288,351759,1,0,0:0:0:0:
300,68,351902,1,0,0:0:0:0:
264,316,352045,1,0,0:0:0:0:
264,316,352116,1,0,0:0:0:0:
264,316,352187,1,0,0:0:0:0:
472,144,352330,5,0,0:0:0:0:
192,200,352473,1,0,0:0:0:0:
392,328,352616,1,0,0:0:0:0:
392,328,352687,1,0,0:0:0:0:
392,328,352759,1,0,0:0:0:0:
344,56,352902,1,0,0:0:0:0:
244,308,353045,1,0,0:0:0:0:
224,36,353187,1,0,0:0:0:0:
224,36,353259,1,0,0:0:0:0:
224,36,353330,1,0,0:0:0:0:
72,240,353473,5,0,0:0:0:0:
82,267,353545,1,0,0:0:0:0:
105,286,353616,1,0,0:0:0:0:
134,292,353687,1,0,0:0:0:0:
162,284,353759,1,0,0:0:0:0:
180,264,353830,1,0,0:0:0:0:
188,240,353902,5,0,0:0:0:0:
197,218,353973,1,0,0:0:0:0:
211,200,354045,1,0,0:0:0:0:
231,191,354116,1,0,0:0:0:0:
253,191,354187,1,0,0:0:0:0:
273,201,354259,1,0,0:0:0:0:
288,220,354330,5,0,0:0:0:0:
301,202,354402,1,0,0:0:0:0:
311,182,354473,1,0,0:0:0:0:
318,160,354545,1,0,0:0:0:0:
320,136,354616,5,0,0:0:0:0:
286,98,354687,1,0,0:0:0:0:
238,87,354759,1,0,0:0:0:0:
191,105,354830,1,0,0:0:0:0:
164,147,354902,1,0,0:0:0:0:
165,196,354973,1,0,0:0:0:0:
195,237,355045,1,0,0:0:0:0:
242,253,355116,1,0,0:0:0:0:
290,239,355187,5,0,0:0:0:0:
324,203,355259,1,0,0:0:0:0:
373,191,355330,1,0,0:0:0:0:
420,207,355402,1,0,0:0:0:0:
451,247,355473,1,0,0:0:0:0:
456,296,355545,1,0,0:0:0:0:
433,341,355616,1,0,0:0:0:0:
390,366,355687,1,0,0:0:0:0:
341,364,355759,6,0,B|288:344|288:344|188:344,1,112.5
204,48,356045,1,0,0:0:0:0:
360,232,356187,1,0,0:0:0:0:
104,268,356330,5,0,0:0:0:0:
360,60,356473,1,0,0:0:0:0:
252,336,356616,5,0,0:0:0:0:
96,56,356759,1,0,0:0:0:0:
408,176,356902,5,0,0:0:0:0:
20,232,357045,1,0,0:0:0:0:
344,24,357187,5,0,0:0:0:0:
232,352,357330,1,0,0:0:0:0:
172,12,357473,5,0,0:0:0:0:
408,332,357616,1,0,0:0:0:0:
84,300,357759,5,0,0:0:0:0:
268,40,357902,1,0,0:0:0:0:
381,218,358045,6,0,B|416:172|416:172|428:116,1,112.5
204,316,358330,1,0,0:0:0:0:
130,165,358473,2,0,B|96:212|96:212|84:268,1,112.5
306,152,358759,2,0,L|264:32,1,112.5
96,92,359045,1,0,0:0:0:0:
384,248,359187,6,0,B|400:184|400:184|400:108,1,112.5
176,248,359473,1,0,0:0:0:0:
472,232,359616,1,0,0:0:0:0:
184,104,359759,1,0,0:0:0:0:
336,320,359902,1,0,0:0:0:0:
312,60,360045,1,0,0:0:0:0:
312,88,360116,1,0,0:0:0:0:
312,116,360187,1,0,0:0:0:0:
312,144,360259,1,0,0:0:0:0:
312,172,360330,5,0,0:0:0:0:
76,176,360473,1,0,0:0:0:0:
232,36,360616,1,0,0:0:0:0:
232,36,360687,1,0,0:0:0:0:
232,36,360759,1,0,0:0:0:0:
192,288,360902,1,0,0:0:0:0:
80,56,361045,1,0,0:0:0:0:
80,56,361116,1,0,0:0:0:0:
80,56,361187,1,0,0:0:0:0:
80,56,361259,1,0,0:0:0:0:
80,56,361330,1,0,0:0:0:0:
100,288,361473,5,0,0:0:0:0:
344,180,361616,1,0,0:0:0:0:
124,136,361759,1,0,0:0:0:0:
124,136,361830,1,0,0:0:0:0:
124,136,361902,1,0,0:0:0:0:
236,332,362045,1,0,0:0:0:0:
248,84,362187,1,0,0:0:0:0:
248,84,362259,1,0,0:0:0:0:
248,84,362330,1,0,0:0:0:0:
248,84,362402,1,0,0:0:0:0:
248,84,362473,1,0,0:0:0:0:
420,260,362616,5,0,0:0:0:0:
408,64,362759,1,0,0:0:0:0:
336,300,362902,5,0,0:0:0:0:
324,104,363045,1,0,0:0:0:0:
252,256,363187,5,0,0:0:0:0:
240,60,363330,1,0,0:0:0:0:
168,296,363473,2,0,L|168:184,1,112.5
164,48,363759,5,0,0:0:0:0:
93,69,363854,1,0,0:0:0:0:
52,130,363949,1,0,0:0:0:0:
57,203,364045,1,0,0:0:0:0:
106,257,364140,1,0,0:0:0:0:
179,269,364235,1,0,0:0:0:0:
243,233,364330,5,0,0:0:0:0:
300,187,364425,1,0,0:0:0:0:
373,196,364521,1,0,0:0:0:0:
417,254,364616,1,0,0:0:0:0:
405,327,364711,1,0,0:0:0:0:
346,369,364806,1,0,0:0:0:0:
274,355,364902,6,0,P|220:296|244:204,1,180
244,208,365759,1,0,0:0:0:0:
36,120,366045,5,0,0:0:0:0:
172,160,366330,1,0,0:0:0:0:
116,48,366616,1,0,0:0:0:0:
88,208,366902,1,0,0:0:0:0:
268,92,367187,5,0,0:0:0:0:
232,236,367473,1,0,0:0:0:0:
408,172,367759,1,0,0:0:0:0:
232,236,368045,1,0,0:0:0:0:
444,292,368330,6,0,B|392:292|364:268,1,67.5
360,272,368616,1,0,0:0:0:0:
345,259,368687,1,0,0:0:0:0:
327,249,368759,1,0,0:0:0:0:
308,245,368830,1,0,0:0:0:0:
289,245,368902,5,0,0:0:0:0:
270,250,368973,1,0,0:0:0:0:
252,259,369045,1,0,0:0:0:0:
238,272,369116,1,0,0:0:0:0:
228,288,369187,1,0,0:0:0:0:
219,308,369259,1,0,0:0:0:0:
202,323,369330,1,0,0:0:0:0:
181,327,369402,1,0,0:0:0:0:
160,320,369473,5,0,0:0:0:0:
140,304,369545,1,0,0:0:0:0:
123,271,369616,1,0,0:0:0:0:
135,236,369687,1,0,0:0:0:0:
168,221,369759,5,0,0:0:0:0:
203,233,369830,1,0,0:0:0:0:
224,260,369902,1,0,0:0:0:0:
215,314,369973,1,0,0:0:0:0:
174,351,370045,1,0,0:0:0:0:
119,352,370116,1,0,0:0:0:0:
77,318,370187,1,0,0:0:0:0:
65,263,370259,1,0,0:0:0:0:
92,216,370330,5,0,0:0:0:0:
144,196,370402,1,0,0:0:0:0:
176,151,370473,1,0,0:0:0:0:
162,98,370545,1,0,0:0:0:0:
114,73,370616,5,0,0:0:0:0:
95,125,370687,1,0,0:0:0:0:
111,177,370759,1,0,0:0:0:0:
156,210,370830,1,0,0:0:0:0:
211,209,370902,1,0,0:0:0:0:
224,203,370973,1,0,0:0:0:0:
235,195,371045,1,0,0:0:0:0:
245,185,371116,1,0,0:0:0:0:
252,172,371187,5,0,0:0:0:0:
247,116,371259,1,0,0:0:0:0:
215,71,371330,1,0,0:0:0:0:
164,48,371402,1,0,0:0:0:0:
109,54,371473,1,0,0:0:0:0:
65,88,371545,1,0,0:0:0:0:
44,139,371616,1,0,0:0:0:0:
52,194,371687,1,0,0:0:0:0:
80,216,371759,5,0,0:0:0:0:
98,219,371830,1,0,0:0:0:0:
116,223,371902,1,0,0:0:0:0:
135,227,371973,1,0,0:0:0:0:
153,231,372045,1,0,0:0:0:0:
171,235,372116,1,0,0:0:0:0:
192,240,372187,6,0,L|200:148,1,56.25
164,61,372330,1,0,0:0:0:0:
145,57,372402,1,0,0:0:0:0:
127,53,372473,1,0,0:0:0:0:
109,49,372545,1,0,0:0:0:0:
88,44,372616,6,0,L|80:136,1,56.25
68,260,372759,1,0,0:0:0:0:
68,260,372830,1,0,0:0:0:0:
68,260,372902,6,0,P|152:264|284:200,1,225
460,64,373473,1,0,0:0:0:0:
460,76,374045,6,0,P|448:172|448:256,1,180
316,104,374902,1,0,0:0:0:0:
280,304,375473,5,0,0:0:0:0:
144,96,375759,1,0,0:0:0:0:
280,304,376045,1,0,0:0:0:0:
88,180,376330,6,0,P|200:120|256:232,1,270
112,28,377473,5,0,0:0:0:0:
172,204,377759,2,0,L|256:128,1,90
152,312,378187,2,0,L|88:260,1,45
96,264,378330,1,0,0:0:0:0:
63,234,378402,1,0,0:0:0:0:
66,191,378473,1,0,0:0:0:0:
101,166,378545,1,0,0:0:0:0:
144,168,378616,6,0,P|208:210|308:142,1,168.75
308,160,378902,5,0,0:0:0:0:
284,109,378973,1,0,0:0:0:0:
235,83,379045,1,0,0:0:0:0:
181,92,379116,1,0,0:0:0:0:
143,132,379187,1,0,0:0:0:0:
137,187,379259,1,0,0:0:0:0:
165,235,379330,1,0,0:0:0:0:
216,255,379402,1,0,0:0:0:0:
270,241,379473,1,0,0:0:0:0:
311,204,379545,6,0,P|288:152|264:128,1,56.25
152,88,379687,2,0,P|175:140|199:164,1,56.25
236,236,379830,5,0,0:0:0:0:
250,290,379902,1,0,0:0:0:0:
237,332,379973,1,0,0:0:0:0:
201,353,380045,1,0,0:0:0:0:
159,353,380116,1,0,0:0:0:0:
122,334,380187,5,0,0:0:0:0:
108,308,380259,1,0,0:0:0:0:
108,276,380330,1,0,0:0:0:0:
116,250,380402,1,0,0:0:0:0:
133,228,380473,1,0,0:0:0:0:
157,213,380545,1,0,0:0:0:0:
184,207,380616,5,0,0:0:0:0:
202,167,380687,1,0,0:0:0:0:
213,127,380759,1,0,0:0:0:0:
205,86,380830,1,0,0:0:0:0:
188,48,380902,5,0,0:0:0:0:
147,86,380973,1,0,0:0:0:0:
129,139,381045,1,0,0:0:0:0:
138,194,381116,1,0,0:0:0:0:
171,239,381187,1,0,0:0:0:0:
221,263,381259,1,0,0:0:0:0:
277,261,381330,1,0,0:0:0:0:
325,234,381402,1,0,0:0:0:0:
344,184,381473,1,0,0:0:0:0:
330,130,381545,1,0,0:0:0:0:
284,99,381616,1,0,0:0:0:0:
230,105,381687,1,0,0:0:0:0:
193,145,381759,6,0,P|192:184|212:228,1,56.25
304,316,381902,2,0,P|305:277|285:233,1,56.25
232,68,382045,5,0,0:0:0:0:
232,68,382116,1,0,0:0:0:0:
232,68,382187,2,0,P|240:116|232:172,1,56.25
120,288,382330,5,0,0:0:0:0:
120,288,382402,1,0,0:0:0:0:
120,288,382473,2,0,P|112:240|120:184,1,56.25
96,60,382616,5,0,0:0:0:0:
360,216,383187,5,0,0:0:0:0:
396,48,383330,1,0,0:0:0:0:
184,196,383473,1,0,0:0:0:0:
184,196,383545,1,0,0:0:0:0:
184,196,383616,1,0,0:0:0:0:
384,272,383759,1,0,0:0:0:0:
264,52,383902,1,0,0:0:0:0:
284,316,384045,1,0,0:0:0:0:
284,316,384116,1,0,0:0:0:0:
284,316,384187,1,0,0:0:0:0:
152,16,384330,5,0,0:0:0:0:
356,168,384473,1,0,0:0:0:0:
124,280,384616,1,0,0:0:0:0:
124,280,384687,1,0,0:0:0:0:
124,280,384759,1,0,0:0:0:0:
380,264,384902,1,0,0:0:0:0:
232,80,385045,1,0,0:0:0:0:
248,316,385187,1,0,0:0:0:0:
248,316,385259,1,0,0:0:0:0:
248,316,385330,1,0,0:0:0:0:
312,80,385473,5,0,0:0:0:0:
136,188,385616,1,0,0:0:0:0:
388,152,385759,1,0,0:0:0:0:
388,152,385830,1,0,0:0:0:0:
388,152,385902,1,0,0:0:0:0:
116,64,386045,2,0,L|92:184,1,112.5
272,20,386330,1,0,0:0:0:0:
272,20,386402,1,0,0:0:0:0:
272,20,386473,1,0,0:0:0:0:
424,208,386616,6,0,L|456:60,1,112.5
300,296,386902,1,0,0:0:0:0:
300,296,386973,1,0,0:0:0:0:
300,296,387045,1,0,0:0:0:0:
284,80,387187,1,0,0:0:0:0:
424,304,387330,1,0,0:0:0:0:
136,256,387473,1,0,0:0:0:0:
136,256,387545,1,0,0:0:0:0:
136,256,387616,1,0,0:0:0:0:
108,36,387759,5,0,0:0:0:0:
153,31,387830,1,0,0:0:0:0:
193,55,387902,1,0,0:0:0:0:
212,97,387973,1,0,0:0:0:0:
202,142,388045,1,0,0:0:0:0:
167,173,388116,1,0,0:0:0:0:
120,176,388187,6,0,P|96:128|100:96,1,56.25
200,100,388330,1,0,0:0:0:0:
245,95,388402,1,0,0:0:0:0:
285,119,388473,6,0,P|277:145|260:168,1,56.25
172,260,388616,1,0,0:0:0:0:
136,265,388687,1,0,0:0:0:0:
103,257,388759,6,0,P|110:230|127:207,1,56.25
268,40,388902,5,0,0:0:0:0:
268,40,388973,1,0,0:0:0:0:
268,40,389045,2,0,P|268:76|256:112,1,56.25
212,264,389187,5,0,0:0:0:0:
212,264,389258,1,0,0:0:0:0:
212,264,389330,2,0,P|212:228|224:192,1,56.25
412,116,389473,5,0,0:0:0:0:
412,116,389544,1,0,0:0:0:0:
412,116,389616,2,0,P|412:152|400:188,1,56.25
356,340,389758,5,0,0:0:0:0:
356,340,389829,1,0,0:0:0:0:
356,340,389901,2,0,P|356:304|368:268,1,56.25
160,76,390045,5,0,0:0:0:0:
160,76,390116,1,0,0:0:0:0:
160,76,390187,1,0,0:0:0:0:
160,76,390259,1,0,0:0:0:0:
160,76,390330,6,0,P|160:136|152:156,1,56.25
64,328,390473,1,0,0:0:0:0:
64,328,390545,1,0,0:0:0:0:
64,328,390616,1,0,0:0:0:0:
64,328,390687,1,0,0:0:0:0:
64,328,390759,6,0,P|64:268|72:248,1,56.25
232,152,390902,1,0,0:0:0:0:
232,152,390973,1,0,0:0:0:0:
232,152,391045,2,0,P|232:212|224:232,1,56.25
216,320,391187,5,0,0:0:0:0:
440,188,391330,1,0,0:0:0:0:
84,156,391473,5,0,0:0:0:0:
392,108,391616,1,0,0:0:0:0:
256,300,391759,2,0,L|188:192,1,112.5
364,160,392045,1,0,0:0:0:0:
367,187,392116,1,0,0:0:0:0:
359,214,392187,1,0,0:0:0:0:
341,235,392259,1,0,0:0:0:0:
316,248,392330,6,0,P|248:232|224:208,1,90
144,116,392616,1,0,0:0:0:0:
64,272,392759,2,0,L|152:300,1,90
224,128,393045,2,0,L|240:248,1,90
332,88,393330,1,0,0:0:0:0:
104,12,393473,5,0,0:0:0:0:
128,208,393616,1,0,0:0:0:0:
252,40,393759,1,0,0:0:0:0:
128,208,393902,1,0,0:0:0:0:
164,24,394045,1,0,0:0:0:0:
304,184,394187,1,0,0:0:0:0:
40,152,394330,1,0,0:0:0:0:
40,152,394402,1,0,0:0:0:0:
40,152,394473,1,0,0:0:0:0:
400,52,394616,6,0,L|400:156,1,90
164,120,394902,1,0,0:0:0:0:
328,264,395045,1,0,0:0:0:0:
308,56,395187,1,0,0:0:0:0:
184,248,395330,1,0,0:0:0:0:
428,192,395473,1,0,0:0:0:0:
428,192,395545,1,0,0:0:0:0:
428,192,395616,1,0,0:0:0:0:
84,88,395759,5,0,0:0:0:0:
156,256,395902,1,0,0:0:0:0:
180,24,396045,5,0,0:0:0:0:
272,256,396187,1,0,0:0:0:0:
428,88,396330,5,0,0:0:0:0:
356,256,396473,1,0,0:0:0:0:
332,24,396616,5,0,0:0:0:0:
240,256,396759,1,0,0:0:0:0:
124,280,396902,6,0,L|244:320,1,90
68,156,397187,1,0,0:0:0:0:
216,96,397330,2,0,L|172:220,1,90
280,264,397616,2,0,L|268:144,1,90
252,16,397902,1,0,0:0:0:0:
92,200,398045,5,0,0:0:0:0:
92,200,398116,1,0,0:0:0:0:
92,200,398187,5,0,0:0:0:0:
276,120,398330,1,0,0:0:0:0:
112,320,398473,2,0,L|76:232,1,90
264,240,398759,2,0,L|140:228,1,90
376,128,399045,1,0,0:0:0:0:
128,84,399187,6,0,L|180:192,1,90
264,340,399473,1,0,0:0:0:0:
296,116,399616,1,0,0:0:0:0:
104,240,399759,1,0,0:0:0:0:
316,252,399902,1,0,0:0:0:0:
104,96,400045,1,0,0:0:0:0:
104,96,400116,1,0,0:0:0:0:
104,96,400187,1,0,0:0:0:0:
188,312,400330,5,0,0:0:0:0:
188,80,400473,1,0,0:0:0:0:
324,312,400616,5,0,0:0:0:0:
324,80,400759,1,0,0:0:0:0:
136,124,400902,5,0,0:0:0:0:
368,128,401045,1,0,0:0:0:0:
136,260,401187,5,0,0:0:0:0:
368,260,401330,1,0,0:0:0:0:
80,184,401473,5,0,0:0:0:0:
79,145,401545,1,0,0:0:0:0:
102,113,401616,1,0,0:0:0:0:
138,100,401687,1,0,0:0:0:0:
175,110,401759,1,0,0:0:0:0:
200,140,401830,1,0,0:0:0:0:
203,178,401902,1,0,0:0:0:0:
184,212,401973,1,0,0:0:0:0:
148,228,402045,5,0,0:0:0:0:
126,189,402116,1,0,0:0:0:0:
124,144,402187,1,0,0:0:0:0:
142,103,402259,1,0,0:0:0:0:
177,75,402330,1,0,0:0:0:0:
220,65,402402,1,0,0:0:0:0:
263,76,402473,1,0,0:0:0:0:
297,104,402545,1,0,0:0:0:0:
315,145,402616,5,0,0:0:0:0:
310,190,402687,1,0,0:0:0:0:
301,234,402759,1,0,0:0:0:0:
294,279,402830,1,0,0:0:0:0:
295,323,402902,1,0,0:0:0:0:
320,340,402973,1,0,0:0:0:0:
349,347,403045,1,0,0:0:0:0:
378,343,403116,1,0,0:0:0:0:
405,329,403187,5,0,0:0:0:0:
424,306,403259,1,0,0:0:0:0:
434,278,403330,1,0,0:0:0:0:
433,248,403402,1,0,0:0:0:0:
422,221,403473,1,0,0:0:0:0:
401,199,403545,1,0,0:0:0:0:
374,186,403616,1,0,0:0:0:0:
344,184,403687,1,0,0:0:0:0:
316,193,403759,5,0,0:0:0:0:
273,204,403830,1,0,0:0:0:0:
228,197,403902,2,0,L|180:128,1,45
228,36,404045,1,0,0:0:0:0:
271,24,404116,1,0,0:0:0:0:
315,31,404187,2,0,L|363:100,1,45
452,208,404330,5,0,0:0:0:0:
454,218,404402,1,0,0:0:0:0:
454,230,404473,1,0,0:0:0:0:
452,241,404545,1,0,0:0:0:0:
447,251,404616,1,0,0:0:0:0:
441,260,404687,1,0,0:0:0:0:
432,267,404759,1,0,0:0:0:0:
423,273,404830,1,0,0:0:0:0:
412,276,404902,6,0,L|328:272,1,45
180,260,405045,1,0,0:0:0:0:
180,260,405116,1,0,0:0:0:0:
180,260,405187,2,0,L|176:188,1,45
288,92,405330,1,0,0:0:0:0:
288,92,405402,1,0,0:0:0:0:
288,92,405473,2,0,L|344:200,1,90
128,80,405759,1,0,0:0:0:0:
72,304,406045,5,0,0:0:0:0:
264,224,406187,1,0,0:0:0:0:
72,304,406330,1,0,0:0:0:0:
260,124,406473,1,0,0:0:0:0:
72,304,406616,1,0,0:0:0:0:
204,40,406759,1,0,0:0:0:0:
72,304,406902,1,0,0:0:0:0:
104,8,407045,1,0,0:0:0:0:
312,224,407187,6,0,B|256:200|256:200|216:168,1,90
136,284,407473,1,0,0:0:0:0:
328,80,407616,1,0,0:0:0:0:
320,356,407759,1,0,0:0:0:0:
128,148,407902,1,0,0:0:0:0:
396,228,408045,1,0,0:0:0:0:
396,228,408116,1,0,0:0:0:0:
396,228,408187,1,0,0:0:0:0:
120,248,408330,5,0,0:0:0:0:
304,36,408473,1,0,0:0:0:0:
320,296,408616,1,0,0:0:0:0:
104,68,408759,1,0,0:0:0:0:
368,220,408902,1,0,0:0:0:0:
44,128,409045,1,0,0:0:0:0:
55,171,409116,1,0,0:0:0:0:
86,203,409187,1,0,0:0:0:0:
128,215,409259,1,0,0:0:0:0:
160,216,409330,1,0,0:0:0:0:
182,212,409402,1,0,0:0:0:0:
204,218,409473,5,0,0:0:0:0:
221,232,409545,1,0,0:0:0:0:
232,252,409616,1,0,0:0:0:0:
240,272,409687,1,0,0:0:0:0:
235,293,409759,1,0,0:0:0:0:
219,308,409830,1,0,0:0:0:0:
197,311,409902,1,0,0:0:0:0:
178,300,409973,1,0,0:0:0:0:
168,280,410045,5,0,0:0:0:0:
172,235,410116,1,0,0:0:0:0:
152,196,410187,1,0,0:0:0:0:
114,173,410259,1,0,0:0:0:0:
69,175,410330,1,0,0:0:0:0:
33,201,410402,1,0,0:0:0:0:
17,242,410473,1,0,0:0:0:0:
26,286,410545,1,0,0:0:0:0:
57,318,410616,5,0,0:0:0:0:
300,116,410902,1,0,0:0:0:0:
300,132,411187,1,0,0:0:0:0:
300,148,411473,1,0,0:0:0:0:
128,148,411616,1,0,0:0:0:0:
304,288,411759,5,0,0:0:0:0:
314,284,411830,1,0,0:0:0:0:
324,279,411902,1,0,0:0:0:0:
334,273,411973,1,0,0:0:0:0:
344,264,412045,1,0,0:0:0:0:
348,220,412116,1,0,0:0:0:0:
323,183,412187,1,0,0:0:0:0:
281,172,412259,1,0,0:0:0:0:
241,191,412330,5,0,0:0:0:0:
190,212,412402,1,0,0:0:0:0:
139,193,412473,1,0,0:0:0:0:
115,143,412545,1,0,0:0:0:0:
128,104,412616,1,0,0:0:0:0:
161,103,412687,1,0,0:0:0:0:
191,118,412759,1,0,0:0:0:0:
210,146,412830,1,0,0:0:0:0:
213,179,412902,5,0,0:0:0:0:
40,28,413187,1,0,0:0:0:0:
40,44,413473,1,0,0:0:0:0:
40,60,413759,1,0,0:0:0:0:
176,56,413902,1,0,0:0:0:0:
192,232,414045,5,0,0:0:0:0:
169,248,414116,1,0,0:0:0:0:
142,250,414187,1,0,0:0:0:0:
117,237,414259,1,0,0:0:0:0:
104,212,414330,1,0,0:0:0:0:
107,185,414402,1,0,0:0:0:0:
124,163,414473,1,0,0:0:0:0:
150,154,414545,1,0,0:0:0:0:
177,160,414616,5,0,0:0:0:0:
56,304,414830,5,0,0:0:0:0:
112,72,415045,5,0,0:0:0:0:
256,280,415187,5,0,0:0:0:0:
296,299,415259,1,0,0:0:0:0:
340,294,415330,1,0,0:0:0:0:
375,267,415402,1,0,0:0:0:0:
391,226,415473,1,0,0:0:0:0:
383,182,415545,1,0,0:0:0:0:
353,149,415616,1,0,0:0:0:0:
311,136,415687,1,0,0:0:0:0:
280,136,415759,1,0,0:0:0:0:
257,139,415830,1,0,0:0:0:0:
235,139,415902,1,0,0:0:0:0:
212,134,415973,1,0,0:0:0:0:
191,125,416045,1,0,0:0:0:0:
173,112,416116,1,0,0:0:0:0:
158,96,416187,1,0,0:0:0:0:
147,76,416259,1,0,0:0:0:0:
140,56,416330,1,0,0:0:0:0:
162,39,416402,5,0,0:0:0:0:
188,28,416473,1,0,0:0:0:0:
216,26,416545,1,0,0:0:0:0:
243,31,416616,1,0,0:0:0:0:
268,44,416687,1,0,0:0:0:0:
289,63,416759,1,0,0:0:0:0:
303,87,416830,1,0,0:0:0:0:
310,114,416902,1,0,0:0:0:0:
309,142,416973,1,0,0:0:0:0:
301,169,417045,1,0,0:0:0:0:
285,192,417116,1,0,0:0:0:0:
264,210,417187,1,0,0:0:0:0:
238,222,417259,1,0,0:0:0:0:
210,225,417330,1,0,0:0:0:0:
183,221,417402,1,0,0:0:0:0:
157,210,417473,5,0,0:0:0:0:
168,182,417545,1,0,0:0:0:0:
192,167,417616,1,0,0:0:0:0:
218,159,417687,1,0,0:0:0:0:
246,154,417759,1,0,0:0:0:0:
274,151,417830,1,0,0:0:0:0:
300,144,417902,5,0,0:0:0:0:
289,110,417973,1,0,0:0:0:0:
264,84,418045,1,0,0:0:0:0:
230,72,418116,1,0,0:0:0:0:
195,76,418187,1,0,0:0:0:0:
165,96,418259,1,0,0:0:0:0:
147,126,418330,1,0,0:0:0:0:
145,162,418402,1,0,0:0:0:0:
158,195,418473,1,0,0:0:0:0:
185,218,418545,1,0,0:0:0:0:
220,227,418616,5,0,0:0:0:0:
320,120,418902,1,0,0:0:0:0:
128,216,419045,1,0,0:0:0:0:
352,72,419187,1,0,0:0:0:0:
260,256,419330,1,0,0:0:0:0:
264,12,419473,1,0,0:0:0:0:
408,204,419616,1,0,0:0:0:0:
48,80,419759,5,0,0:0:0:0:
256,192,419830,12,0,425473,0:0:0:0:
