osu file format v14

[General]
AudioFilename: audio.mp3
AudioLeadIn: 0
PreviewTime: -1
Countdown: 0
SampleSet: Normal
StackLeniency: 0.7
Mode: 0
LetterboxInBreaks: 0
WidescreenStoryboard: 0

[Editor]
DistanceSpacing: 1.4
BeatDivisor: 3
GridSize: 4
TimelineZoom: 4.499998

[Metadata]
Title:Fubuki
TitleUnicode:Fubuki
Artist:Imperial Circus Dead Decadence
ArtistUnicode:Imperial Circus Dead Decadence
Creator:Maruzai
Version:From Light to Death
Source:
Tags:imperial circus dead decadence uta yomi yori
BeatmapID:1185147
BeatmapSetID:560437

[Difficulty]
HPDrainRate:6.3
CircleSize:4
OverallDifficulty:8.6
ApproachRate:9.8
SliderMultiplier:1.49999990463257
SliderTickRate:2

[Events]
//Background and Video events
0,0,"dje1vjb.jpg",0,0
//Break Periods
//Storyboard Layer 0 (Background)
//Storyboard Layer 1 (Fail)
//Storyboard Layer 2 (Pass)
//Storyboard Layer 3 (Foreground)
//Storyboard Sound Samples

[TimingPoints]
1862,333.333333333333,4,1,0,100,1,0
13195,-133.333333333333,4,1,0,100,0,0
14528,307.692307692308,4,1,0,100,1,0
20451,-58.8235294117647,4,1,0,100,0,0
55297,-100,4,1,0,100,0,0
58758,-71.4285714285714,4,1,0,100,0,0

[Colours]
Combo1 : 253,255,255
Combo2 : 255,0,66
Combo3 : 141,123,196

[HitObjects]
88,208,1862,6,0,P|152:176|192:104,1,149.999990463257
296,216,2362,2,0,L|304:288,1,37.4999976158143
312,336,2528,1,0,0:0:0:0:
440,312,3195,6,0,P|392:240|400:160,1,149.999990463257
488,256,3695,1,0,0:0:0:0:
400,64,3862,1,0,0:0:0:0:
480,96,4528,6,0,P|432:144|344:128,1,149.999990463257
272,120,5028,2,0,L|240:176,1,37.4999976158143
200,224,5195,1,0,0:0:0:0:
148,108,5612,6,0,P|196:76|212:28,1,74.9999952316285
80,60,5945,2,0,P|32:84|0:124,1,74.9999952316285
72,144,6278,1,0,0:0:0:0:
0,172,6445,2,0,P|72:224|144:168,1,187.499988079071
212,200,7445,6,0,P|176:264|132:280,1,112.499992847443
72,328,7862,2,0,L|32:272,2,49.9999968210857
164,356,8195,2,0,L|224:332,2,49.9999968210857
340,324,8528,6,0,L|280:350,2,49.9999968210857
408,268,8862,2,0,L|462:303,2,49.9999968210857
284,228,9195,2,0,L|224:254,2,49.9999968210857
420,168,9528,6,0,L|484:212,1,74.9999952316285
492,132,9778,1,0,0:0:0:0:
424,84,9861,1,0,0:0:0:0:
284,48,10306,6,0,L|256:120,1,49.9999968210857
248,164,10528,1,0,0:0:0:0:
288,232,10639,2,0,L|304:280,2,49.9999968210857
208,232,10973,2,0,L|180:284,2,49.9999968210857
140,200,11306,1,0,0:0:0:0:
140,127,11417,1,0,0:0:0:0:
202,163,11528,1,0,0:0:0:0:
200,92,11639,2,0,L|184:36,2,49.9999968210857
116,56,12528,6,0,B|156:32|196:96|272:104,1,149.999990463257
368,108,13028,1,0,0:0:0:0:
448,196,13195,2,0,P|460:308|352:188,1,393.74998998642
412,176,14445,5,0,0:0:0:0:
400,148,14528,1,0,0:0:0:0:
381,115,14604,1,0,0:0:0:0:
356,87,14681,1,0,0:0:0:0:
326,64,14758,1,0,0:0:0:0:
293,48,14835,1,0,0:0:0:0:
256,39,14912,1,0,0:0:0:0:
219,37,14989,1,0,0:0:0:0:
182,42,15066,1,0,0:0:0:0:
147,55,15143,5,0,0:0:0:0:
111,87,15220,1,0,0:0:0:0:
96,133,15297,1,0,0:0:0:0:
106,180,15374,1,0,0:0:0:0:
144,210,15451,1,0,0:0:0:0:
163,254,15528,1,0,0:0:0:0:
158,302,15604,1,0,0:0:0:0:
131,342,15681,1,0,0:0:0:0:
240,332,16143,5,0,0:0:0:0:
436,216,16297,1,0,0:0:0:0:
256,244,16758,5,0,0:0:0:0:
372,48,16912,1,0,0:0:0:0:
292,168,17374,5,0,0:0:0:0:
160,36,17528,1,0,0:0:0:0:
72,36,17758,6,0,P|116:100|196:96,1,149.999990463257
276,72,18143,1,0,0:0:0:0:
252,156,18528,5,0,0:0:0:0:
464,32,18681,1,0,0:0:0:0:
396,0,19220,5,0,0:0:0:0:
340,172,19374,1,0,0:0:0:0:
456,96,19528,1,0,0:0:0:0:
304,256,19681,5,0,0:0:0:0:
376,92,19835,1,0,0:0:0:0:
500,256,19989,1,0,0:0:0:0:
276,320,20143,5,0,0:0:0:0:
372,272,20297,1,0,0:0:0:0:
360,260,20374,1,0,0:0:0:0:
348,248,20451,2,0,P|316:208|328:92,1,168.749995708466
380,40,20758,1,0,0:0:0:0:
248,92,21066,5,0,0:0:0:0:
176,268,21220,1,0,0:0:0:0:
49,143,21681,5,0,0:0:0:0:
49,41,21835,1,0,0:0:0:0:
144,96,21989,1,0,0:0:0:0:
152,220,22297,5,0,0:0:0:0:
10,301,22451,1,0,0:0:0:0:
151,383,22604,1,0,0:0:0:0:
294,303,22758,2,0,P|160:228|140:196,1,168.749995708466
80,248,23066,2,0,B|28:200|28:200|8:132,1,112.499997138977
56,84,23297,1,0,0:0:0:0:
56,84,23374,1,0,0:0:0:0:
172,256,23528,2,0,P|188:200|144:136,1,112.499997138977
222,61,23835,5,0,0:0:0:0:
334,193,23989,1,0,0:0:0:0:
166,152,24143,1,0,0:0:0:0:
326,87,24297,1,0,0:0:0:0:
236,240,24451,1,0,0:0:0:0:
236,240,24528,1,0,0:0:0:0:
236,240,24604,2,0,B|240:252|240:252|252:248|252:248|256:260|256:260|268:256|268:256|272:268|272:268|284:264|284:264|288:276|288:276|300:272|300:272|304:284|304:284|316:280|316:280|320:292|320:292|332:288|332:288|336:300|336:300|348:296|348:296|352:308|352:308|328:320|328:320|436:380|436:380|416:280,1,382.499982976914
424,208,25143,5,0,0:0:0:0:
459,177,25220,1,0,0:0:0:0:
477,134,25297,1,0,0:0:0:0:
476,87,25374,1,0,0:0:0:0:
455,45,25451,1,0,0:0:0:0:
418,16,25528,1,0,0:0:0:0:
373,6,25604,1,0,0:0:0:0:
332,20,25681,1,0,0:0:0:0:
222,34,25835,5,0,0:0:0:0:
156,252,25989,1,0,0:0:0:0:
144,264,26066,1,0,0:0:0:0:
132,276,26143,1,0,0:0:0:0:
337,115,26297,1,0,0:0:0:0:
110,119,26451,1,0,0:0:0:0:
320,288,26604,1,0,0:0:0:0:
312,276,26681,1,0,0:0:0:0:
304,264,26758,5,0,0:0:0:0:
378,220,26912,1,0,0:0:0:0:
408,303,27066,1,0,0:0:0:0:
232,160,27220,5,0,0:0:0:0:
234,367,27374,1,0,0:0:0:0:
351,148,27528,1,0,0:0:0:0:
103,157,27681,5,0,0:0:0:0:
85,136,27758,1,0,0:0:0:0:
68,115,27835,1,0,0:0:0:0:
234,367,27989,1,0,0:0:0:0:
234,194,28143,5,0,0:0:0:0:
128,12,28297,1,0,0:0:0:0:
339,12,28451,1,0,0:0:0:0:
234,194,28604,1,0,0:0:0:0:
376,156,28758,1,0,0:0:0:0:
397,138,28835,1,0,0:0:0:0:
418,121,28912,1,0,0:0:0:0:
285,109,29066,1,0,0:0:0:0:
186,280,29220,1,0,0:0:0:0:
383,280,29374,6,0,L|416:340,1,63.7499971628189
440,384,29528,1,0,0:0:0:0:
416,120,29681,5,0,0:0:0:0:
435,96,29758,1,0,0:0:0:0:
454,72,29835,1,0,0:0:0:0:
264,104,29989,5,0,0:0:0:0:
281,78,30066,1,0,0:0:0:0:
299,53,30143,1,0,0:0:0:0:
236,272,30297,5,0,0:0:0:0:
249,299,30374,1,0,0:0:0:0:
263,326,30451,1,0,0:0:0:0:
320,264,30604,5,0,0:0:0:0:
100,340,30758,1,0,0:0:0:0:
76,192,30912,2,0,B|108:132|108:132|180:120,1,127.499994325638
166,307,31220,1,0,0:0:0:0:
326,214,31374,1,0,0:0:0:0:
76,192,31528,1,0,0:0:0:0:
200,236,31681,2,0,P|207:152|279:100,1,127.499994325638
200,236,31989,5,0,0:0:0:0:
346,282,32143,1,0,0:0:0:0:
232,384,32297,1,0,0:0:0:0:
232,384,32451,2,0,B|224:376|224:376|144:372|144:372|116:304|116:304,1,127.499994325638
232,384,32758,1,0,0:0:0:0:
472,300,32912,1,0,0:0:0:0:
432,368,33066,2,0,P|392:296|416:240,1,127.499994325638
472,204,33374,6,0,P|500:132|440:64,1,127.499994325638
424,144,33681,1,0,0:0:0:0:
272,32,33835,1,0,0:0:0:0:
268,168,33989,6,0,P|224:108|204:100,1,63.7499971628189
156,192,34143,1,0,0:0:0:0:
156,192,34220,1,0,0:0:0:0:
156,192,34297,2,0,L|156:292,1,63.7499971628189
80,356,34451,1,0,0:0:0:0:
80,356,34528,1,0,0:0:0:0:
80,356,34604,2,0,L|80:284,1,63.7499971628189
76,204,34758,1,0,0:0:0:0:
76,204,34835,2,0,L|76:136,1,63.7499971628189
204,124,34989,6,0,P|232:156|232:200,1,63.7499971628189
180,44,35220,5,0,0:0:0:0:
256,296,35374,1,0,0:0:0:0:
224,216,35528,2,0,P|313:233|330:299,1,127.499994325638
376,364,35835,1,0,0:0:0:0:
496,192,35989,1,0,0:0:0:0:
464,360,36143,1,0,0:0:0:0:
420,124,36297,1,0,0:0:0:0:
504,116,36451,2,0,P|468:52|412:40,1,127.499994325638
344,248,36758,5,0,0:0:0:0:
216,136,36912,1,0,0:0:0:0:
200,288,37066,5,0,0:0:0:0:
344,116,37220,1,0,0:0:0:0:
80,120,37374,1,0,0:0:0:0:
112,296,37528,2,0,P|156:368|236:364,1,127.499994325638
304,352,37835,1,0,0:0:0:0:
304,188,37989,1,0,0:0:0:0:
392,236,38143,6,0,L|392:380,1,127.499994325638
452,168,38451,1,0,0:0:0:0:
228,52,38604,1,0,0:0:0:0:
416,80,38758,1,0,0:0:0:0:
160,108,38912,1,0,0:0:0:0:
208,196,39066,2,0,P|104:184|64:136,1,127.499994325638
68,248,39374,2,0,L|68:392,1,127.499994325638
144,280,39681,5,0,0:0:0:0:
312,364,39835,1,0,0:0:0:0:
236,372,39989,2,0,L|236:208,1,127.499994325638
312,188,40297,1,0,0:0:0:0:
510,73,40451,1,0,0:0:0:0:
510,302,40604,1,0,0:0:0:0:
320,112,40758,1,0,0:0:0:0:
432,328,40912,2,0,P|432:268|488:224,1,127.499994325638
412,176,41220,5,0,0:0:0:0:
244,296,41374,1,0,0:0:0:0:
356,236,41528,2,0,P|336:152|388:96,1,127.499994325638
232,96,41835,1,0,0:0:0:0:
412,176,41989,2,0,P|436:120|396:56,1,127.499994325638
361,235,42297,5,0,0:0:0:0:
88,130,42451,1,0,0:0:0:0:
248,328,42604,1,0,0:0:0:0:
202,38,42758,6,0,L|276:36,4,63.7499971628189
152,100,43220,6,0,L|80:100,5,63.7499971628189
192,112,43835,5,0,0:0:0:0:
239,126,43912,1,0,0:0:0:0:
282,155,43989,1,0,0:0:0:0:
317,192,44066,1,0,0:0:0:0:
348,232,44143,1,0,0:0:0:0:
383,268,44220,1,0,0:0:0:0:
429,291,44297,1,0,0:0:0:0:
478,301,44374,6,0,P|532:308|568:300,4,63.7499971628189
472,256,44758,5,0,0:0:0:0:
444,220,44835,1,0,0:0:0:0:
404,200,44912,1,0,0:0:0:0:
332,312,45066,2,0,P|276:272|228:216,1,127.499994325638
68,284,45374,5,0,0:0:0:0:
64,132,45528,1,0,0:0:0:0:
280,176,45681,1,0,0:0:0:0:
12,224,45835,1,0,0:0:0:0:
236,312,45989,1,0,0:0:0:0:
160,92,46143,5,0,0:0:0:0:
72,312,46297,1,0,0:0:0:0:
320,88,46451,1,0,0:0:0:0:
24,152,46604,1,0,0:0:0:0:
308,272,46758,1,0,0:0:0:0:
80,16,46912,5,0,0:0:0:0:
120,340,47066,1,0,0:0:0:0:
272,24,47220,1,0,0:0:0:0:
40,300,47374,1,0,0:0:0:0:
224,344,47528,2,0,P|220:276|260:200,1,127.499994325638
344,148,47835,5,0,0:0:0:0:
492,280,47989,1,0,0:0:0:0:
320,332,48143,1,0,0:0:0:0:
480,140,48297,1,0,0:0:0:0:
440,356,48451,5,0,0:0:0:0:
232,224,48604,1,0,0:0:0:0:
392,76,48758,1,0,0:0:0:0:
244,348,48912,1,0,0:0:0:0:
504,280,49066,5,0,0:0:0:0:
248,72,49220,1,0,0:0:0:0:
324,356,49374,1,0,0:0:0:0:
496,136,49528,1,0,0:0:0:0:
232,288,49681,5,0,0:0:0:0:
412,52,49835,1,0,0:0:0:0:
448,348,49989,1,0,0:0:0:0:
224,68,50143,2,0,P|232:36|232:-12,4,63.7499971628189
192,176,50528,2,0,P|204:148|216:108,4,63.7499971628189
168,212,50912,1,0,0:0:0:0:
140,244,50989,1,0,0:0:0:0:
103,264,51066,1,0,0:0:0:0:
64,272,51143,2,0,P|28:280|-44:268,3,63.7499971628189
56,228,51451,6,0,P|32:208|16:176,3,63.7499971628189
28,128,51758,1,0,0:0:0:0:
56,86,51835,1,0,0:0:0:0:
95,52,51912,1,0,0:0:0:0:
140,29,51989,1,0,0:0:0:0:
192,24,52066,2,0,P|256:24|324:56,1,127.499994325638
432,164,52297,5,0,0:0:0:0:
378,133,52374,1,0,0:0:0:0:
320,155,52451,1,0,0:0:0:0:
299,213,52528,1,0,0:0:0:0:
330,267,52604,1,0,0:0:0:0:
391,277,52681,1,0,0:0:0:0:
438,238,52758,5,0,0:0:0:0:
438,301,52835,1,0,0:0:0:0:
405,355,52912,1,0,0:0:0:0:
349,383,52989,1,0,0:0:0:0:
286,379,53066,1,0,0:0:0:0:
234,343,53143,1,0,0:0:0:0:
208,286,53220,5,0,0:0:0:0:
150,303,53297,1,0,0:0:0:0:
107,260,53374,1,0,0:0:0:0:
123,202,53451,1,0,0:0:0:0:
182,188,53528,1,0,0:0:0:0:
156,244,53604,5,0,0:0:0:0:
97,262,53681,1,0,0:0:0:0:
44,231,53758,1,0,0:0:0:0:
32,170,53835,1,0,0:0:0:0:
70,121,53912,1,0,0:0:0:0:
132,115,53989,5,0,0:0:0:0:
171,67,54066,1,0,0:0:0:0:
158,11,54143,5,0,0:0:0:0:
116,56,54220,1,0,0:0:0:0:
132,115,54297,1,0,0:0:0:0:
190,134,54374,1,0,0:0:0:0:
238,96,54451,5,0,0:0:0:0:
290,129,54528,1,0,0:0:0:0:
307,189,54604,1,0,0:0:0:0:
278,244,54681,1,0,0:0:0:0:
220,266,54758,1,0,0:0:0:0:
162,243,54835,1,0,0:0:0:0:
135,187,54912,1,0,0:0:0:0:
72,168,54989,2,0,P|64:200|72:240,1,63.7499971628189
104,296,55143,2,0,P|108:328|100:368,1,63.7499971628189
184,336,55528,6,0,P|280:348|364:292,1,187.499988079071
432,268,56066,2,0,P|484:260|524:276,2,74.9999952316285
384,200,56528,2,0,P|347:193|311:202,2,74.9999952316285
456,132,56989,1,0,0:0:0:0:
244,64,57297,5,0,0:0:0:0:
244,64,57374,1,0,0:0:0:0:
244,64,57451,2,0,P|176:60|220:148,1,187.499988079071
76,92,57989,2,0,P|60:120|0:48,1,149.999990463257
48,208,58451,2,0,P|88:224|148:200,1,74.9999952316285
280,236,58758,6,0,L|280:116,1,104.999990119935
324,64,59066,2,0,P|380:44|444:72,1,104.999990119935
460,228,59374,2,0,L|460:124,1,104.999990119935
412,304,59681,5,0,0:0:0:0:
412,304,59758,1,0,0:0:0:0:
412,304,59835,2,0,P|348:296|304:256,1,104.999990119935
248,344,60143,1,0,0:0:0:0:
240,116,60297,1,0,0:0:0:0:
320,232,60451,1,0,0:0:0:0:
204,188,60604,2,0,P|164:148|164:68,1,104.999990119935
64,320,60912,5,0,0:0:0:0:
136,96,61066,1,0,0:0:0:0:
228,320,61220,1,0,0:0:0:0:
0,204,61374,1,0,0:0:0:0:
252,144,61528,5,0,0:0:0:0:
116,364,61681,1,0,0:0:0:0:
144,28,61835,1,0,0:0:0:0:
336,296,61989,1,0,0:0:0:0:
8,88,62143,5,0,0:0:0:0:
312,176,62297,1,0,0:0:0:0:
16,192,62451,1,0,0:0:0:0:
92,232,62604,2,0,L|132:340,1,104.999990119935
236,232,62912,2,0,L|276:340,1,104.999990119935
448,96,63220,1,0,0:0:0:0:
268,156,63374,1,0,0:0:0:0:
416,264,63528,2,0,L|456:372,1,104.999990119935
364,340,63835,5,0,0:0:0:0:
140,164,63989,1,0,0:0:0:0:
72,200,64143,2,0,P|132:240|192:228,1,104.999990119935
36,128,64451,2,0,L|36:20,1,104.999990119935
4,192,64758,1,0,0:0:0:0:
148,48,64912,5,0,0:0:0:0:
224,224,65066,1,0,0:0:0:0:
232,72,65220,5,0,0:0:0:0:
308,292,65374,1,0,0:0:0:0:
312,96,65528,5,0,0:0:0:0:
388,352,65682,1,0,0:0:0:0:
476,100,65835,1,0,0:0:0:0:
256,148,65989,1,0,0:0:0:0:
508,280,66143,5,0,0:0:0:0:
300,344,66297,1,0,0:0:0:0:
152,224,66451,1,0,0:0:0:0:
24,80,66681,6,0,B|100:52|168:84|168:84|252:52,1,209.999980239869
304,116,67143,1,0,0:0:0:0:
212,168,67297,5,0,0:0:0:0:
155,160,67373,1,0,0:0:0:0:
109,192,67450,1,0,0:0:0:0:
94,246,67527,1,0,0:0:0:0:
119,297,67604,1,0,0:0:0:0:
172,318,67681,1,0,0:0:0:0:
225,299,67758,1,0,0:0:0:0:
253,250,67835,5,0,0:0:0:0:
202,225,67911,1,0,0:0:0:0:
149,242,67988,1,0,0:0:0:0:
122,291,68065,1,0,0:0:0:0:
137,345,68142,1,0,0:0:0:0:
185,374,68219,1,0,0:0:0:0:
240,360,68298,5,0,0:0:0:0:
218,308,68374,1,0,0:0:0:0:
240,257,68451,1,0,0:0:0:0:
293,236,68528,1,0,0:0:0:0:
344,259,68605,1,0,0:0:0:0:
363,312,68682,1,0,0:0:0:0:
339,363,68759,5,0,0:0:0:0:
292,333,68835,1,0,0:0:0:0:
275,279,68912,1,0,0:0:0:0:
297,227,68989,1,0,0:0:0:0:
348,202,69066,1,0,0:0:0:0:
403,215,69143,1,0,0:0:0:0:
436,261,69220,1,0,0:0:0:0:
431,318,69297,5,0,0:0:0:0:
384,287,69373,1,0,0:0:0:0:
379,231,69450,1,0,0:0:0:0:
418,192,69527,1,0,0:0:0:0:
474,198,69604,1,0,0:0:0:0:
504,245,69681,5,0,0:0:0:0:
448,253,69757,1,0,0:0:0:0:
398,227,69834,1,0,0:0:0:0:
374,175,69911,1,0,0:0:0:0:
386,120,69988,1,0,0:0:0:0:
429,82,70065,1,0,0:0:0:0:
485,78,70143,5,0,0:0:0:0:
440,113,70219,1,0,0:0:0:0:
384,128,70296,1,0,0:0:0:0:
327,131,70373,1,0,0:0:0:0:
269,126,70450,1,0,0:0:0:0:
212,119,70527,1,0,0:0:0:0:
154,117,70604,1,0,0:0:0:0:
97,124,70681,1,0,0:0:0:0:
43,143,70758,5,0,0:0:0:0:
28,198,70834,1,0,0:0:0:0:
53,248,70911,1,0,0:0:0:0:
106,269,70988,1,0,0:0:0:0:
159,250,71065,1,0,0:0:0:0:
186,201,71142,1,0,0:0:0:0:
174,146,71220,5,0,0:0:0:0:
127,177,71296,1,0,0:0:0:0:
106,230,71373,1,0,0:0:0:0:
120,286,71450,1,0,0:0:0:0:
162,323,71527,1,0,0:0:0:0:
219,329,71604,1,0,0:0:0:0:
269,302,71681,1,0,0:0:0:0:
294,251,71758,1,0,0:0:0:0:
285,195,71835,1,0,0:0:0:0:
364,160,71963,6,0,B|480:160|340:312|480:312,1,209.999980239869
488,232,72374,2,0,P|488:176|516:140,2,69.9999934132897
448,104,72681,2,0,P|404:80|332:76,2,69.9999934132897
280,80,72989,2,0,P|236:92|192:132,2,69.9999934132897
108,100,73297,2,0,P|152:52|200:40,2,69.9999934132897
48,168,73604,2,0,P|24:128|28:72,2,69.9999934132897
20,248,73912,2,0,P|48:300|76:320,2,69.9999934132897
