osu file format v14

[General]
AudioFilename: audio.mp3
AudioLeadIn: 0
PreviewTime: 67154
Countdown: 0
SampleSet: Drum
StackLeniency: 0.6
Mode: 0
LetterboxInBreaks: 0
WidescreenStoryboard: 1

[Editor]
Bookmarks: 47462,87154
DistanceSpacing: 1
BeatDivisor: 4
GridSize: 32
TimelineZoom: 2.3

[Metadata]
Title:FUBUKI (Cut Ver.)
TitleUnicode:吹雪 (Cut Ver.)
Artist:Imperial Circus Dead Decadence
ArtistUnicode:Imperial Circus Dead Decadence
Creator:BadGames
Version:Zisa's Extra
Source:艦隊これくしょん -艦これ-
Tags:icdd japanese cover symphonic melodic death metal karcher [Karcher] mx10001 zisa riana amamya hyperpigeon milr_ kaguya_sama [Arcadia]
BeatmapID:3967923
BeatmapSetID:1907725

[Difficulty]
HPDrainRate:5
CircleSize:4.4
OverallDifficulty:9.6
ApproachRate:9.6
SliderMultiplier:2.6
SliderTickRate:1

[Events]
//Background and Video events
0,0,"image.jpg",0,0
//Break Periods
2,55276,58337
//Storyboard Layer 0 (Background)
//Storyboard Layer 1 (Fail)
//Storyboard Layer 2 (Pass)
//Storyboard Layer 3 (Foreground)
//Storyboard Layer 4 (Overlay)
//Storyboard Sound Samples

[TimingPoints]
620,333.333333333333,4,3,1,50,1,0
1953,-200,4,3,1,50,0,0
2619,-117.647058823529,4,3,1,50,0,0
3286,-200,4,3,1,50,0,0
5286,-100,4,3,1,50,0,0
5953,-133.333333333333,4,3,1,50,0,0
6619,-166.666666666667,4,3,1,50,0,0
7619,-100,4,3,1,50,0,0
7842,-100,4,3,1,5,0,0
7953,-133.333333333333,4,3,1,50,0,0
9536,-133.333333333333,4,3,1,5,0,0
9619,-133.333333333333,4,3,1,50,0,0
11064,-100,4,3,1,50,0,0
11953,-100,4,3,1,50,0,0
12786,-100,4,3,1,45,0,0
12953,-100,4,3,1,40,0,0
13119,-133.333333333333,4,3,1,35,0,0
13286,-400,4,3,1,35,0,0
14539,307.692307692308,4,3,1,40,1,0
14539,-200,4,3,1,40,0,0
14846,-153.846153846154,4,3,1,50,0,0
15154,-100,4,3,1,60,0,0
15462,-86.9565217391304,4,3,1,70,0,0
16077,-86.9565217391304,4,2,1,70,0,0
17962,-86.9565217391304,4,2,1,70,0,0
18154,-86.9565217391304,4,2,1,70,0,0
20231,-86.9565217391304,4,3,1,70,0,0
20615,-86.9565217391304,4,3,1,70,0,0
20692,-86.9565217391304,4,3,1,70,0,0
21923,-133.333333333333,4,3,1,70,0,0
22462,-133.333333333333,4,3,1,5,0,0
22539,-133.333333333333,4,3,1,70,0,0
22692,-100,4,3,1,70,0,0
22846,-83.3333333333333,4,3,1,70,0,0
23077,-83.3333333333333,4,3,1,5,0,0
23154,-83.3333333333333,4,3,1,70,0,0
23769,-83.3333333333333,4,3,2,70,0,0
24077,-133.333333333333,4,3,3,70,0,0
24385,-133.333333333333,4,3,1,70,0,0
25154,-83.3333333333333,4,3,1,70,0,0
25615,-100,4,3,1,70,0,0
35077,-100,4,3,1,5,0,0
35154,-100,4,3,1,70,0,0
35385,-100,4,3,1,5,0,0
35462,-100,4,3,1,70,0,0
37539,-100,4,3,1,5,0,0
37616,-100,4,3,1,70,0,0
42692,-111.111111111111,4,3,1,70,0,0
42846,-83.3333333333333,4,3,1,70,0,0
44077,-66.6666666666667,4,3,1,70,0,0
45308,-83.3333333333333,4,3,1,70,0,0
45615,-83.3333333333333,4,3,1,70,0,0
47385,-83.3333333333333,4,3,1,5,0,0
47462,-83.3333333333333,4,3,1,70,0,0
47692,-83.3333333333333,4,3,1,5,0,0
47769,-83.3333333333333,4,3,1,70,0,0
50154,-83.3333333333333,4,3,1,70,0,0
50231,-133.333333333333,4,3,1,70,0,0
54539,-66.6666666666667,4,3,2,70,0,0
54846,-66.6666666666667,4,3,1,70,0,0
55154,-133.333333333333,4,3,1,60,0,0
58846,-100,4,3,1,70,0,0
59077,-100,4,3,1,5,0,0
59154,-100,4,3,1,70,0,0
59385,-100,4,3,1,5,0,0
59462,-100,4,3,2,65,0,0
59769,-100,4,3,1,65,0,0
61308,-83.3333333333333,4,3,1,65,0,0
61539,-83.3333333333333,4,3,1,5,0,0
61615,-83.3333333333333,4,3,1,65,0,0
61846,-83.3333333333333,4,3,1,5,0,0
61922,-83.3333333333333,4,3,1,65,0,0
63000,-83.3333333333333,4,3,2,65,0,0
63462,-83.3333333333333,4,3,1,65,0,0
64231,-83.3333333333333,4,3,2,65,0,0
64692,-83.3333333333333,4,3,1,65,0,0
66846,-200,4,3,1,65,0,0
67308,-100,4,3,1,65,0,0
67462,-66.6666666666667,4,3,1,75,0,1
67562,-100,4,3,1,75,0,1
72077,-80,4,3,1,75,0,1
73615,-100,4,3,1,75,0,1
76077,-100,4,3,1,75,0,1
76897,-100,4,3,2,75,0,1
77308,-100,4,3,1,75,0,1
81923,-333.333333333333,4,3,1,75,0,1
83154,-100,4,3,1,75,0,1
83359,-100,4,3,1,5,0,1
83462,-100,4,3,1,75,0,1
84615,-100,4,3,1,75,0,1
84692,-133.333333333333,4,3,1,75,0,1
85231,-133.333333333333,4,3,1,75,0,1
85308,-133.333333333333,4,3,1,75,0,1
85846,-133.333333333333,4,3,1,75,0,1
85923,-133.333333333333,4,3,1,75,0,1
86539,-133.333333333333,4,3,2,75,0,1
86846,-133.333333333333,4,3,1,75,0,1
87077,-133.333333333333,4,3,1,75,0,1
87154,-200,4,3,1,60,0,0
91615,-200,4,3,2,60,0,0
91769,-200,4,3,3,60,0,0
91923,-200,4,3,4,60,0,0
92077,-1066.66666666667,4,3,1,50,0,0
93923,-200,4,3,1,50,0,0
94846,-200,4,3,2,50,0,0
95308,-200,4,3,3,50,0,0
95462,-1066.66666666667,4,3,3,50,0,0
96539,-133.333333333333,4,3,2,50,0,0
96692,-133.333333333333,4,3,1,50,0,0

[Colours]
Combo1 : 83,83,83
Combo2 : 201,39,189
Combo3 : 155,62,210

[HitObjects]
97,182,1953,6,0,P|118:254|122:325,1,130
131,319,2453,1,8,0:0:0:0:
131,319,2536,1,8,0:0:0:0:
131,319,2619,2,0,B|239:333|239:333|242:327|242:327|359:342,1,221.000004215241,8|0,0:0|0:0,0:0:0:0:
364,204,3286,6,0,P|301:208|306:147,1,130
461,266,3786,1,0,0:0:0:0:
298,154,3953,6,0,P|361:150|356:211,1,130
110,176,4619,6,0,P|102:238|93:309,1,130
34,349,5119,1,8,0:0:0:0:
34,349,5203,1,8,0:0:0:0:
34,349,5286,2,0,B|128:336|128:336|136:345|136:345|265:321|265:321|278:303,1,260,8|0,0:0|0:0,0:0:0:0:
486,154,5786,5,0,0:0:0:0:
405,327,5953,2,0,B|364:352|364:352|397:189,1,195.00000743866
512,69,6453,1,0,0:0:0:0:
386,194,6619,2,0,P|329:162|336:244,1,155.999995239258
512,272,7619,6,0,L|486:101,1,173.333333333333
437,48,7953,5,8,0:0:0:0:
373,78,8064,1,0,0:0:0:0:
387,146,8175,1,0,0:0:0:0:
449,179,8286,5,0,0:0:0:0:
440,248,8397,1,0,0:0:0:0:
372,264,8508,1,0,0:0:0:0:
337,200,8619,5,0,0:0:0:0:
266,190,8731,1,0,0:0:0:0:
247,124,8842,1,0,0:0:0:0:
177,120,8953,5,0,0:0:0:0:
153,183,9064,1,0,0:0:0:0:
206,230,9175,1,0,0:0:0:0:
215,233,9286,6,0,P|287:227|385:219,1,146.250005578995
437,229,9619,2,0,B|443:199|443:199|421:163,1,65.0000024795533
416,163,9842,1,0,0:0:0:0:
465,106,9953,6,0,P|456:189|444:310,1,195.00000743866
273,125,10453,5,8,0:0:0:0:
273,125,10536,1,8,0:0:0:0:
273,125,10619,2,0,L|288:51,1,65.0000024795533,8|0,0:0|0:0,0:0:0:0:
104,133,10842,5,0,0:0:0:0:
95,146,10953,1,0,0:0:0:0:
86,157,11064,2,0,L|-39:172,1,86.6666666666667
130,220,11286,5,0,0:0:0:0:
121,234,11397,2,0,L|-4:249,1,86.6666666666667
175,299,11619,5,0,0:0:0:0:
164,310,11730,2,0,L|39:325,1,86.6666666666667
233,338,11953,6,0,B|316:296|352:350|351:354|354:365|399:409|483:355,1,260,8|0,0:0|0:0,0:0:0:0:
380,108,12619,5,8,0:0:0:0:
382,124,12702,1,8,0:0:0:0:
384,140,12785,1,8,0:0:0:0:
387,156,12869,1,8,0:0:0:0:
389,172,12952,1,8,0:0:0:0:
392,188,13035,1,8,0:0:0:0:
396,202,13119,2,0,L|382:275,1,48.750001859665,8|0,0:0|0:0,0:0:0:0:
472,271,13286,6,0,L|255:300,1,195
20,58,14539,5,8,0:0:0:0:
45,38,14615,1,8,0:0:0:0:
76,29,14692,1,8,0:0:0:0:
108,32,14769,1,8,0:0:0:0:
137,47,14846,1,8,0:0:0:0:
175,61,14922,1,8,0:0:0:0:
217,59,14999,1,8,0:0:0:0:
254,40,15076,1,8,0:0:0:0:
281,7,15154,5,8,0:0:0:0:
255,65,15230,1,8,0:0:0:0:
272,127,15307,1,8,0:0:0:0:
323,165,15384,1,8,0:0:0:0:
387,163,15461,1,8,0:0:0:0:
452,172,15538,1,8,0:0:0:0:
498,222,15615,1,8,0:0:0:0:
505,287,15692,1,8,0:0:0:0:
473,345,15769,1,12,0:0:0:0:
92,120,16231,5,2,0:2:0:0:
150,277,16385,1,2,0:2:0:0:
420,120,16846,5,2,0:2:0:0:
358,276,17000,1,2,0:2:0:0:
92,120,17462,5,2,0:2:0:0:
150,277,17616,1,2,0:2:0:0:
420,120,17769,5,2,0:2:0:0:
358,276,17923,2,0,L|348:330,6,37.3750007128716,2|0|0|0|0|0|0,0:0|0:0|0:0|0:0|0:0|0:0|0:0,0:0:0:0:
255,218,18231,1,2,0:0:0:0:
358,276,18692,5,2,0:0:0:0:
92,120,18846,1,2,0:0:0:0:
150,277,19308,5,2,0:0:0:0:
420,120,19462,1,2,0:0:0:0:
346,177,19615,5,2,0:0:0:0:
169,176,19769,1,2,0:0:0:0:
92,120,19923,5,2,0:0:0:0:
256,0,20077,5,2,0:0:0:0:
256,224,20231,1,0,0:0:0:0:
256,261,20308,1,0,0:0:0:0:
256,297,20385,1,12,0:1:0:0:
1,293,20692,6,0,P|56:287|166:274,1,149.500002851486,8|0,0:0|0:0,0:0:0:0:
130,135,21154,5,0,0:0:0:0:
116,91,21231,1,0,0:0:0:0:
104,47,21308,1,8,0:0:0:0:
382,135,21769,1,0,0:0:0:0:
396,91,21846,1,0,0:0:0:0:
408,47,21923,1,8,0:0:0:0:
511,293,22231,6,0,P|456:287|346:274,1,146.250005578995
95,156,22539,5,0,0:0:0:0:
95,156,22615,1,0,0:0:0:0:
95,156,22692,2,0,L|78:242,1,65
0,177,22846,6,0,B|46:195|46:195|85:224|68:293|68:293|87:338|87:338|122:300,1,233.999992858887,12|0,0:1|0:0,0:0:0:0:
273,347,23154,5,4,0:0:0:0:
315,357,23230,1,0,0:0:0:0:
352,338,23307,1,8,0:0:0:0:
369,299,23384,1,8,0:0:0:0:
369,258,23462,1,8,0:0:0:0:
357,221,23538,1,8,0:0:0:0:
331,192,23615,1,0,0:0:0:0:
296,175,23692,1,0,0:0:0:0:
257,175,23769,1,8,0:0:0:0:
218,174,23845,1,0,0:0:0:0:
184,156,23922,1,0,0:0:0:0:
162,124,23999,1,0,0:0:0:0:
157,85,24077,2,0,L|173:14,1,48.750001859665,8|0,0:0|0:0,0:0:0:0:
242,89,24231,5,0,0:0:0:0:
293,76,24308,1,0,0:0:0:0:
343,63,24385,2,0,L|430:38,1,48.750001859665
512,210,24539,5,8,0:0:0:0:
461,197,24616,1,8,0:0:0:0:
411,184,24693,2,0,L|324:159,1,48.750001859665
260,275,24846,5,0,0:0:0:0:
214,249,24922,1,0,0:0:0:0:
162,250,24999,1,4,0:1:0:0:
117,276,25076,1,0,0:0:0:0:
98,320,25154,5,8,0:0:0:0:
104,251,25230,1,8,0:0:0:0:
63,195,25307,1,8,0:0:0:0:
27,136,25384,1,8,0:0:0:0:
37,69,25461,1,8,0:0:0:0:
89,23,25538,1,8,0:0:0:0:
154,2,25615,5,4,0:0:0:0:
399,118,25769,1,8,0:0:0:0:
191,252,25923,1,0,0:0:0:0:
437,341,26077,1,8,0:0:0:0:
437,341,26154,1,0,0:0:0:0:
437,341,26231,1,0,0:0:0:0:
295,168,26385,1,8,0:0:0:0:
502,64,26539,1,0,0:0:0:0:
502,64,26615,1,0,0:0:0:0:
502,64,26692,1,8,0:0:0:0:
502,64,26769,1,0,0:0:0:0:
502,64,26846,1,0,0:0:0:0:
274,263,27000,5,8,0:0:0:0:
375,13,27154,1,0,0:0:0:0:
126,120,27308,1,8,0:0:0:0:
126,120,27385,1,0,0:0:0:0:
126,120,27462,2,0,L|99:272,1,130,0|8,0:0|0:0,0:0:0:0:
499,280,27769,5,0,0:0:0:0:
442,291,27845,1,0,0:0:0:0:
386,301,27922,1,8,0:0:0:0:
328,310,27999,1,0,0:0:0:0:
272,320,28076,1,0,0:0:0:0:
69,27,28231,1,8,0:0:0:0:
262,137,28385,1,0,0:0:0:0:
16,261,28538,1,8,0:0:0:0:
16,261,28615,1,0,0:0:0:0:
16,261,28692,1,0,0:0:0:0:
207,40,28846,5,8,0:0:0:0:
349,228,29000,1,0,0:0:0:0:
349,228,29076,1,0,0:0:0:0:
349,228,29154,2,0,L|363:152,1,65,8|0,0:0|0:0,0:0:0:0:
464,52,29308,5,0,0:0:0:0:
468,76,29384,1,0,0:0:0:0:
472,100,29461,1,8,0:0:0:0:
476,124,29538,1,0,0:0:0:0:
494,163,29615,5,0,0:0:0:0:
490,187,29691,1,0,0:0:0:0:
486,211,29768,1,8,0:0:0:0:
482,235,29845,1,0,0:0:0:0:
456,268,29923,5,0,0:0:0:0:
408,236,29999,1,0,0:0:0:0:
351,237,30076,1,8,0:0:0:0:
306,270,30153,1,0,0:0:0:0:
278,320,30230,1,0,0:0:0:0:
240,362,30307,1,0,0:0:0:0:
186,384,30384,1,8,0:0:0:0:
131,364,30461,1,0,0:0:0:0:
101,314,30539,1,4,0:1:0:0:
352,122,30692,5,8,0:0:0:0:
45,29,30846,1,0,0:0:0:0:
145,190,31000,1,8,0:0:0:0:
145,190,31077,1,0,0:0:0:0:
144,190,31154,1,0,0:0:0:0:
459,280,31308,5,8,0:0:0:0:
265,51,31462,1,0,0:0:0:0:
242,220,31615,1,8,0:0:0:0:
242,220,31692,1,0,0:0:0:0:
241,220,31769,1,0,0:0:0:0:
17,18,31923,5,8,0:0:0:0:
306,157,32077,1,0,0:0:0:0:
179,279,32231,1,8,0:0:0:0:
179,279,32308,1,0,0:0:0:0:
179,279,32385,2,0,L|47:262,1,130,0|8,0:0|0:0,0:0:0:0:
263,45,32692,5,0,0:0:0:0:
263,45,32768,1,0,0:0:0:0:
263,45,32845,1,8,0:0:0:0:
263,45,32922,1,0,0:0:0:0:
263,45,32999,1,4,0:1:0:0:
139,246,33154,5,8,0:0:0:0:
417,122,33308,1,0,0:0:0:0:
405,91,33384,1,0,0:0:0:0:
393,61,33461,1,8,0:0:0:0:
381,31,33538,1,0,0:0:0:0:
369,0,33615,1,0,0:0:0:0:
373,246,33769,5,8,0:0:0:0:
95,122,33923,1,0,0:0:0:0:
107,91,33999,1,0,0:0:0:0:
119,61,34076,1,4,0:0:0:0:
131,31,34153,1,0,0:0:0:0:
143,0,34230,1,0,0:0:0:0:
187,263,34384,5,8,0:0:0:0:
183,325,34461,1,0,0:0:0:0:
138,369,34539,1,8,0:0:0:0:
74,369,34615,1,0,0:0:0:0:
26,326,34692,1,8,0:0:0:0:
22,264,34769,1,0,0:0:0:0:
52,212,34846,6,0,B|132:196|132:196|147:172|147:172|276:146,1,195,4|0,0:0|0:0,0:0:0:0:
368,128,35154,6,0,B|288:112|288:112|273:88|273:88|144:62,1,195,4|0,0:2|0:0,0:0:0:0:
190,72,35462,5,4,0:0:0:0:
462,0,35615,1,10,0:0:0:0:
317,199,35769,2,0,B|306:225|306:225|335:330,1,130,0|10,0:0|0:0,0:0:0:0:
382,131,36077,2,0,B|395:113|395:113|365:-5,1,130,0|10,0:0|0:0,0:0:0:0:
299,72,36385,5,0,0:0:0:0:
38,0,36538,1,10,0:0:0:0:
185,223,36692,2,0,B|210:284|210:284|167:354,1,130,0|10,0:0|0:0,0:0:0:0:
296,267,37000,5,0,0:0:0:0:
52,326,37153,1,10,0:0:0:0:
198,101,37307,2,0,B|282:84|282:84|310:102|310:102|412:80,1,195
384,85,37615,1,0,0:0:0:0:
384,85,37692,1,0,0:0:0:0:
384,85,37769,1,10,0:0:0:0:
384,85,37846,1,0,0:0:0:0:
384,85,37923,1,0,0:0:0:0:
512,276,38077,1,10,0:0:0:0:
317,222,38231,6,0,B|368:181|368:181|427:204,1,130,0|10,0:0|0:0,0:0:0:0:
257,308,38539,2,0,B|206:349|206:349|146:325,1,130,0|10,0:0|0:0,0:0:0:0:
112,142,38846,1,0,0:0:0:0:
112,142,38923,1,0,0:0:0:0:
112,142,39000,1,10,0:0:0:0:
0,15,39154,5,0,0:0:0:0:
279,112,39308,1,10,0:0:0:0:
66,288,39462,1,0,0:0:0:0:
66,288,39539,1,0,0:0:0:0:
66,288,39615,1,10,0:0:0:0:
142,67,39769,5,0,0:0:0:0:
161,203,39923,1,10,0:0:0:0:
31,157,40077,1,0,0:0:0:0:
31,157,40154,1,0,0:0:0:0:
31,157,40230,1,10,0:0:0:0:
371,167,40385,6,0,B|420:127|420:127|384:48,1,130,4|10,0:0|0:0,0:0:0:0:
254,193,40692,1,0,0:0:0:0:
141,217,40846,1,10,0:0:0:0:
141,217,40923,1,0,0:0:0:0:
141,217,41000,2,0,B|92:257|92:257|128:336,1,130,0|10,0:0|0:0,0:0:0:0:
256,187,41308,5,0,0:0:0:0:
415,260,41462,1,10,0:0:0:0:
415,260,41539,1,0,0:0:0:0:
415,260,41615,2,0,B|474:282|474:282|524:211,1,130,0|10,0:0|0:0,0:0:0:0:
256,197,41923,5,0,0:0:0:0:
97,124,42077,1,10,0:0:0:0:
97,124,42154,1,0,0:0:0:0:
97,124,42230,2,0,B|37:101|37:101|-12:172,1,130,0|10,0:0|0:0,0:0:0:0:
324,111,42539,5,4,0:2:0:0:
324,111,42615,1,0,0:0:0:0:
324,111,42692,2,0,B|326:81|326:81|303:57,1,58.4999982147217,10|0,0:0|0:0,0:0:0:0:
350,0,42846,6,0,L|386:177,1,155.999995239258,4|10,0:1|0:0,0:0:0:0:
155,384,43154,5,0,0:0:0:0:
155,384,43230,1,0,0:0:0:0:
155,384,43307,1,10,0:0:0:0:
155,384,43384,1,0,0:0:0:0:
155,384,43462,2,0,L|137:213,1,155.999995239258,0|10,0:0|0:0,0:0:0:0:
346,29,43769,5,0,0:0:0:0:
346,29,43845,1,0,0:0:0:0:
346,29,43922,1,10,0:0:0:0:
346,29,43999,1,0,0:0:0:0:
346,29,44077,5,4,0:0:0:0:
432,260,44231,1,10,0:0:0:0:
93,94,44385,1,0,0:0:0:0:
177,351,44539,1,10,0:0:0:0:
256,169,44692,5,4,0:1:0:0:
260,193,44768,1,0,0:0:0:0:
264,217,44845,1,0,0:0:0:0:
268,241,44922,1,0,0:0:0:0:
273,262,45000,1,4,0:2:0:0:
277,286,45076,1,0,0:0:0:0:
281,310,45153,1,0,0:0:0:0:
285,334,45230,1,0,0:0:0:0:
351,374,45308,6,0,B|165:345,1,155.999995239258,4|10,0:0|0:0,0:0:0:0:
14,105,45615,5,0,0:0:0:0:
14,105,45769,1,10,0:0:0:0:
198,138,45923,2,0,B|250:80|250:80|175:33,1,155.999995239258,0|10,0:0|0:0,0:0:0:0:
503,256,46231,1,0,0:0:0:0:
503,256,46385,1,10,0:0:0:0:
319,223,46539,2,0,B|266:279|266:279|342:326,1,155.999995239258,0|10,0:0|0:0,0:0:0:0:
152,305,46846,5,0,0:0:0:0:
341,79,47000,1,10,0:0:0:0:
341,79,47077,1,0,0:0:0:0:
341,79,47154,2,0,B|366:32|366:32|399:170|399:170|346:145,1,233.999992858887
230,286,47462,2,0,B|255:333|255:333|288:195|288:195|235:220,1,233.999992858887
253,212,47769,5,0,0:0:0:0:
26,97,47923,1,10,0:0:0:0:
245,65,48077,2,0,P|368:46|453:32,1,155.999995239258,0|10,0:0|0:0,0:0:0:0:
288,195,48385,1,0,0:0:0:0:
452,371,48539,1,10,0:0:0:0:
230,286,48692,2,0,P|107:267|22:253,1,155.999995239258,0|10,0:0|0:0,0:0:0:0:
69,52,49000,6,0,B|41:62|41:62|123:105|123:105|220:83,1,155.999995239258,0|10,0:0|0:0,0:0:0:0:
398,179,49308,2,0,B|426:169|426:169|344:126|344:126|247:148,1,155.999995239258,0|10,0:0|0:0,0:0:0:0:
178,273,49615,6,0,B|190:296|190:296|209:126,1,155.999995239258,0|10,0:0|0:0,0:0:0:0:
285,30,49923,2,0,B|297:6|297:6|316:177,1,155.999995239258,4|0,0:1|0:0,0:0:0:0:
105,232,50231,5,4,0:0:0:0:
90,278,50308,1,0,0:0:0:0:
99,325,50385,1,8,0:0:0:0:
131,361,50462,1,0,0:0:0:0:
177,377,50539,1,8,0:0:0:0:
224,367,50616,1,0,0:0:0:0:
261,336,50693,1,8,0:0:0:0:
277,290,50770,1,0,0:0:0:0:
276,242,50846,5,12,0:1:0:0:
251,201,50923,1,0,0:0:0:0:
229,159,51000,1,8,0:0:0:0:
235,111,51077,1,0,0:0:0:0:
268,76,51154,1,8,0:0:0:0:
315,67,51231,1,0,0:0:0:0:
358,87,51308,1,8,0:0:0:0:
382,129,51385,1,0,0:0:0:0:
378,177,51462,5,8,0:0:0:0:
345,212,51539,1,0,0:0:0:0:
298,220,51616,1,8,0:0:0:0:
254,238,51692,1,0,0:0:0:0:
234,281,51769,1,8,0:0:0:0:
248,327,51846,1,0,0:0:0:0:
290,350,51923,1,8,0:0:0:0:
336,340,52000,1,0,0:0:0:0:
365,297,52077,5,8,0:0:0:0:
304,298,52154,1,0,0:0:0:0:
258,263,52231,1,8,0:0:0:0:
255,201,52308,1,0,0:0:0:0:
227,148,52385,1,12,0:1:0:0:
170,122,52462,1,0,0:0:0:0:
114,146,52539,1,0,0:0:0:0:
88,199,52616,1,0,0:0:0:0:
101,258,52692,1,12,0:0:0:0:
146,296,52769,1,0,0:0:0:0:
208,295,52846,1,8,0:0:0:0:
254,258,52923,1,0,0:0:0:0:
310,221,53000,1,8,0:0:0:0:
371,243,53077,1,0,0:0:0:0:
396,304,53154,1,8,0:0:0:0:
365,362,53231,1,0,0:0:0:0:
300,375,53308,5,12,0:1:0:0:
245,342,53384,1,0,0:0:0:0:
240,276,53462,1,8,0:0:0:0:
266,213,53538,1,0,0:0:0:0:
251,146,53615,1,8,0:0:0:0:
199,101,53692,1,0,0:0:0:0:
131,93,53769,1,8,0:0:0:0:
72,127,53846,1,0,0:0:0:0:
55,191,53923,5,12,0:2:0:0:
120,186,54000,1,0,0:0:0:0:
167,140,54077,1,8,0:0:0:0:
168,74,54154,1,0,0:0:0:0:
211,24,54231,1,8,0:0:0:0:
278,24,54308,1,0,0:0:0:0:
324,72,54385,1,8,0:0:0:0:
315,138,54462,1,0,0:0:0:0:
255,170,54539,5,8,0:0:0:0:
248,219,54615,1,0,0:0:0:0:
236,266,54692,1,8,0:0:0:0:
227,314,54769,1,0,0:0:0:0:
260,335,54846,5,12,0:1:0:0:
264,349,54922,1,0,0:0:0:0:
269,362,54999,1,0,0:0:0:0:
272,375,55076,1,0,0:0:0:0:
189,39,58846,6,0,L|236:235,1,195,4|0,0:0|0:0,0:0:0:0:
244,227,59154,2,0,L|198:37,1,195,4|0,0:2|0:0,0:0:0:0:
32,345,59462,6,0,L|65:207,1,130,8|0,0:0|0:0,0:0:0:0:
78,147,59692,1,0,0:0:0:0:
88,151,59770,2,0,L|42:340,1,195,8|0,0:0|0:0,0:0:0:0:
156,282,60077,6,0,B|242:247|273:304|272:308|274:319|315:367|403:320,1,260,4|8,0:0|0:0,0:0:0:0:
434,255,60539,1,0,0:0:0:0:
434,255,60615,1,0,0:0:0:0:
434,255,60692,2,0,B|483:295|483:295|461:380,1,130
310,174,61000,1,8,0:0:0:0:
310,174,61154,1,0,0:0:0:0:
196,235,61308,6,0,B|175:136|175:136|184:122|184:122|157:0,1,233.999992858887
159,5,61615,2,0,L|197:240,1,233.999992858887,8|0,0:0|0:0,0:0:0:0:
53,332,61923,2,0,L|83:164,1,155.999995239258
270,87,62231,1,8,0:0:0:0:
438,4,62385,1,0,0:0:0:0:
84,70,62539,5,12,0:1:0:0:
343,180,62692,1,0,0:0:0:0:
366,184,62846,1,0,0:0:0:0:
29,257,63000,5,8,0:0:0:0:
366,184,63154,1,0,0:0:0:0:
393,189,63308,1,0,0:0:0:0:
249,363,63462,5,8,0:0:0:0:
197,121,63615,1,0,0:0:0:0:
388,330,63769,5,12,0:1:0:0:
156,220,63923,1,0,0:0:0:0:
135,216,64077,1,0,0:0:0:0:
495,102,64231,5,8,0:0:0:0:
135,216,64385,1,0,0:0:0:0:
113,211,64539,1,0,0:0:0:0:
258,0,64692,5,12,0:1:0:0:
373,224,64846,1,0,0:0:0:0:
15,308,65000,5,4,0:0:0:0:
10,275,65076,1,0,0:0:0:0:
5,243,65153,1,0,0:0:0:0:
0,211,65230,1,0,0:0:0:0:
33,166,65308,5,12,0:1:0:0:
37,133,65384,1,0,0:0:0:0:
42,101,65461,1,0,0:0:0:0:
47,69,65538,1,0,0:0:0:0:
40,27,65615,6,0,B|80:20|80:20|118:53,1,77.999997619629,8|0,0:0|0:0,0:0:0:0:
310,197,65769,6,0,B|270:204|270:204|232:171,1,77.999997619629,8|0,0:0|0:0,0:0:0:0:
152,151,65923,1,8,0:0:0:0:
152,162,65999,1,8,0:0:0:0:
152,172,66076,1,0,0:0:0:0:
292,14,66231,5,8,0:0:0:0:
406,349,66385,1,8,0:0:0:0:
47,270,66539,1,8,0:0:0:0:
151,117,66846,6,0,L|285:92,1,130,2|0,0:1|0:0,0:0:0:0:
278,93,67308,2,0,L|295:181,1,65
378,34,67462,5,12,0:0:0:0:
424,11,67538,1,0,0:0:0:0:
474,22,67615,1,8,0:0:0:0:
507,62,67692,1,0,0:0:0:0:
509,113,67769,1,8,0:0:0:0:
482,158,67845,1,0,0:0:0:0:
434,175,67922,1,8,0:0:0:0:
384,160,67999,1,0,0:0:0:0:
353,114,68077,5,8,0:0:0:0:
372,169,68153,1,0,0:0:0:0:
351,226,68230,1,8,0:0:0:0:
299,259,68307,1,0,0:0:0:0:
240,254,68384,1,8,0:0:0:0:
201,206,68461,1,0,0:0:0:0:
205,144,68538,1,8,0:0:0:0:
250,99,68615,1,0,0:0:0:0:
308,104,68692,5,8,0:0:0:0:
290,144,68768,1,0,0:0:0:0:
254,167,68845,1,8,0:0:0:0:
210,172,68922,1,0,0:0:0:0:
169,157,68999,1,8,0:0:0:0:
129,142,69077,1,0,0:0:0:0:
85,147,69154,1,8,0:0:0:0:
49,170,69231,1,0,0:0:0:0:
34,212,69307,5,8,0:0:0:0:
90,218,69384,1,0,0:0:0:0:
140,185,69461,1,8,0:0:0:0:
160,129,69538,1,0,0:0:0:0:
195,79,69615,1,8,0:0:0:0:
256,70,69692,1,0,0:0:0:0:
306,105,69769,1,8,0:0:0:0:
311,165,69846,1,0,0:0:0:0:
279,215,69923,5,12,0:0:0:0:
247,168,69999,1,0,0:0:0:0:
265,113,70076,1,8,0:0:0:0:
318,82,70153,1,0,0:0:0:0:
375,99,70230,1,8,0:0:0:0:
401,153,70307,1,0,0:0:0:0:
380,208,70384,1,8,0:0:0:0:
330,238,70462,1,0,0:0:0:0:
278,222,70539,5,8,0:0:0:0:
326,268,70615,1,0,0:0:0:0:
394,278,70692,1,8,0:0:0:0:
454,246,70769,1,0,0:0:0:0:
482,184,70846,1,8,0:0:0:0:
469,117,70923,1,0,0:0:0:0:
418,72,71000,1,8,0:0:0:0:
351,65,71077,1,0,0:0:0:0:
296,104,71154,5,8,0:0:0:0:
291,136,71230,1,0,0:0:0:0:
287,168,71307,1,8,0:0:0:0:
283,200,71384,1,0,0:0:0:0:
278,232,71461,1,8,0:0:0:0:
274,265,71538,1,0,0:0:0:0:
270,297,71615,1,8,0:0:0:0:
266,329,71692,1,0,0:0:0:0:
261,361,71769,2,0,L|133:340,2,86.6666666666667
205,222,72077,6,0,B|225:211|225:211|386:276|386:276|462:220,1,216.666666666667,12|0,0:1|0:0,0:0:0:0:
477,105,72385,6,0,P|514:169|467:238,1,108.333333333333,4|0,0:0|0:0,0:0:0:0:
403,265,72590,1,0,0:0:0:0:
386,82,72692,6,0,P|404:32|452:8,1,108.333333333333,8|0,0:0|0:0,0:0:0:0:
499,212,72897,1,0,0:0:0:0:
321,156,73000,6,0,P|288:114|292:62,1,108.333333333333
305,250,73205,1,0,0:0:0:0:
213,231,73308,5,8,0:0:0:0:
118,213,73410,1,0,0:0:0:0:
147,295,73513,1,0,0:0:0:0:
180,141,73615,6,0,B|142:0|142:0|131:25,1,173.333333333333,4|0,0:0|0:0,0:0:0:0:
131,26,73923,2,0,L|162:156,1,86.6666666666667,8|0,0:0|0:0,0:0:0:0:
120,212,74128,1,0,0:0:0:0:
51,258,74231,6,0,B|11:271|11:271|157:301,1,173.333333333333,4|0,0:2|0:0,0:0:0:0:
226,279,74539,2,0,P|227:322|205:359,2,86.6666666666667,8|8|8,0:0|0:0|0:0,0:0:0:0:
256,152,74846,5,12,0:0:0:0:
362,192,74949,1,0,0:0:0:0:
347,80,75051,1,0,0:0:0:0:
260,131,75154,5,8,0:0:0:0:
345,204,75257,1,0,0:0:0:0:
369,94,75359,1,0,0:0:0:0:
269,107,75462,5,8,0:0:0:0:
324,205,75565,1,0,0:0:0:0:
384,110,75667,1,0,0:0:0:0:
225,187,75769,6,0,B|190:166|190:166|231:312,1,173.333333333333,8|0,0:0|0:0,0:0:0:0:
139,303,76077,2,0,B|391:335,1,173.333333333333,8|0,0:0|0:0,0:0:0:0:
454,255,76385,6,0,P|463:296|447:336,1,86.6666666666667,8|0,0:0|0:0,0:0:0:0:
441,343,76590,1,0,0:0:0:0:
310,323,76692,2,0,P|301:282|318:243,1,86.6666666666667,8|8,0:0|0:0,0:0:0:0:
512,187,76897,6,0,L|486:89,1,86.6666666666667,8|0,0:0|0:0,0:0:0:0:
349,99,77103,2,0,L|322:-17,1,86.6666666666667
429,39,77308,5,4,0:0:0:0:
274,311,77461,1,8,0:0:0:0:
151,195,77615,1,0,0:0:0:0:
95,188,77692,1,0,0:0:0:0:
40,180,77769,1,8,0:0:0:0:
270,102,77923,5,0,0:0:0:0:
91,352,78076,1,8,0:0:0:0:
379,273,78230,1,0,0:0:0:0:
433,264,78307,1,0,0:0:0:0:
489,258,78384,1,8,0:0:0:0:
155,107,78539,5,0,0:0:0:0:
371,4,78692,1,8,0:0:0:0:
261,248,78846,1,0,0:0:0:0:
268,292,78923,1,0,0:0:0:0:
273,337,79000,1,8,0:0:0:0:
10,204,79154,6,0,L|173:176,1,130,0|8,0:0|0:0,0:0:0:0:
254,63,79461,1,0,0:0:0:0:
247,107,79538,1,0,0:0:0:0:
242,152,79615,1,8,0:0:0:0:
262,380,79769,6,0,L|291:234,1,130,4|8,0:0|0:0,0:0:0:0:
452,26,80077,1,0,0:0:0:0:
390,24,80154,1,0,0:0:0:0:
343,66,80230,1,8,0:0:0:0:
340,129,80307,1,0,0:0:0:0:
378,178,80385,2,0,L|529:201,1,130,4|8,0:1|0:0,0:0:0:0:
142,321,80693,1,0,0:0:0:0:
161,261,80770,1,0,0:0:0:0:
115,220,80846,2,0,L|5:194,1,65,8|0,0:0|0:0,0:0:0:0:
269,149,80999,5,12,0:2:0:0:
331,174,81077,1,0,0:0:0:0:
350,241,81153,1,8,0:0:0:0:
326,306,81230,1,0,0:0:0:0:
266,340,81308,5,8,0:0:0:0:
257,272,81385,1,0,0:0:0:0:
302,220,81462,1,8,0:0:0:0:
371,217,81539,1,0,0:0:0:0:
434,251,81615,5,8,0:0:0:0:
379,293,81692,1,0,0:0:0:0:
311,279,81769,1,0,0:0:0:0:
273,221,81846,1,0,0:0:0:0:
294,157,81923,2,0,L|298:118,2,25.999999206543,8|8|8,0:0|0:0|0:0,0:0:0:0:
187,379,82231,5,8,0:0:0:0:
13,289,82333,1,8,0:0:0:0:
219,296,82436,1,8,0:0:0:0:
100,257,82539,5,8,0:0:0:0:
274,366,82641,1,8,0:0:0:0:
87,345,82744,1,8,0:0:0:0:
178,222,82846,5,8,0:0:0:0:
178,222,83154,6,0,L|206:36,1,173.333333333333,4|0,0:1|0:0,0:0:0:0:
288,29,83462,5,8,0:0:0:0:
377,161,83564,1,8,0:0:0:0:
266,112,83667,1,8,0:0:0:0:
421,92,83769,5,8,0:0:0:0:
288,208,83872,1,8,0:0:0:0:
460,168,83974,1,8,0:0:0:0:
203,50,84077,5,8,0:0:0:0:
0,204,84385,5,4,0:1:0:0:
0,204,84692,6,0,P|20:293|37:367,1,130.000004959107,4|0,0:0|0:0,0:0:0:0:
168,384,85000,6,0,L|89:358,1,65.0000024795533
238,324,85205,1,0,0:0:0:0:
238,324,85308,6,0,L|159:298,1,65.0000024795533,4|0,0:0|0:0,0:0:0:0:
302,260,85513,1,0,0:0:0:0:
302,260,85615,6,0,L|223:234,1,65.0000024795533
289,166,85820,1,0,0:0:0:0:
289,166,85923,6,0,P|369:184|399:243,1,130.000004959107,4|0,0:0|0:0,0:0:0:0:
408,304,86231,5,0,0:0:0:0:
501,129,86385,1,8,0:0:0:0:
501,129,86462,1,8,0:0:0:0:
501,129,86539,6,0,L|488:25,1,65.0000024795533,8|0,0:0|0:0,0:0:0:0:
419,78,86744,1,0,0:0:0:0:
343,94,86846,6,0,L|330:-10,1,65.0000024795533,4|0,0:1|0:0,0:0:0:0:
243,20,87051,1,0,0:0:0:0:
243,20,87154,6,0,L|260:167,3,130,4|0|12|0,0:0|0:0|0:1|0:0,0:0:0:0:
132,165,88231,1,0,0:0:0:0:
132,165,88308,1,0,0:0:0:0:
132,165,88385,6,0,L|115:312,1,130
36,320,89000,2,0,P|87:377|155:366,1,130,12|0,0:1|0:0,0:0:0:0:
212,328,89462,1,0,0:0:0:0:
353,384,89615,6,0,L|336:237,2,130,4|0|8,0:1|0:0|0:0,0:0:0:0:
512,318,90539,1,8,0:0:0:0:
435,239,90692,5,8,0:0:0:0:
435,239,90769,1,0,0:0:0:0:
435,239,90846,2,0,L|452:101,1,130,4|0,0:1|0:0,0:0:0:0:
284,87,91462,5,8,0:0:0:0:
254,159,91615,1,8,0:0:0:0:
205,101,91769,1,8,0:0:0:0:
276,79,91923,1,8,0:0:0:0:
178,173,92077,6,0,B|190:278,1,104,4|4,0:1|0:1,0:0:0:0:
98,191,93923,6,0,B|73:171|73:171|123:126|123:126|191:152|191:152|175:177,1,195
418,350,94539,1,4,0:2:0:0:
350,101,94846,5,8,0:0:0:0:
368,185,95000,1,8,0:0:0:0:
306,129,95154,1,0,0:0:0:0:
391,138,95308,1,8,0:0:0:0:
313,182,95462,2,0,L|303:264,1,78,8|0,0:0|0:0,0:0:0:0:
310,265,96539,6,0,L|378:292,1,48.750001859665,8|0,0:0|0:0,0:0:0:0:
329,355,96692,2,0,L|261:328,1,48.750001859665,8|8,0:0|0:0,0:0:0:0:
200,381,96846,1,8,0:0:0:0:
200,381,96923,1,8,0:0:0:0:
200,381,97000,1,0,0:0:0:0:
195,0,97615,5,4,0:2:0:0:
393,131,97821,1,4,0:2:0:0:
118,252,98026,1,4,0:2:0:0:
320,384,98231,1,4,0:0:0:0:
