osu file format v14

[General]
AudioFilename: audio.mp3
AudioLeadIn: 0
PreviewTime: 67154
Countdown: 0
SampleSet: Drum
StackLeniency: 0.4
Mode: 0
LetterboxInBreaks: 0
WidescreenStoryboard: 1

[Editor]
Bookmarks: 7929,25615,35462,45308,55154,87154,92077,98231
DistanceSpacing: 1.1
BeatDivisor: 4
GridSize: 32
TimelineZoom: 2.7

[Metadata]
Title:FUBUKI (Cut Ver.)
TitleUnicode:吹雪 (Cut Ver.)
Artist:Imperial Circus Dead Decadence
ArtistUnicode:Imperial Circus Dead Decadence
Creator:BadGames
Version:Voyage to the Silent and Warmhearted Sea
Source:艦隊これくしょん -艦これ-
Tags:icdd japanese cover symphonic melodic death metal karcher [Karcher] mx10001 zisa riana amamya hyperpigeon milr_ kaguya_sama [Arcadia]
BeatmapID:3967922
BeatmapSetID:1907725

[Difficulty]
HPDrainRate:5
CircleSize:4.3
OverallDifficulty:9.8
ApproachRate:9.8
SliderMultiplier:2.1
SliderTickRate:1

[Events]
//Background and Video events
0,0,"image.jpg",0,0
//Break Periods
2,15969,19752
2,55354,58367
//Storyboard Layer 0 (Background)
//Storyboard Layer 1 (Fail)
//Storyboard Layer 2 (Pass)
//Storyboard Layer 3 (Foreground)
//Storyboard Layer 4 (Overlay)
//Storyboard Sound Samples

[TimingPoints]
620,333.333333333333,4,3,1,50,1,0
1953,-166.666666666667,4,3,1,50,0,0
7869,-166.666666666667,4,3,1,5,0,0
7929,-166.666666666667,4,3,1,50,0,0
7953,-166.666666666667,4,3,1,50,0,0
12762,-166.666666666667,4,3,1,50,0,0
12786,-166.666666666667,4,3,1,45,0,0
12929,-166.666666666667,4,3,1,45,0,0
12953,-166.666666666667,4,3,1,40,0,0
13095,-166.666666666667,4,3,1,40,0,0
13119,-166.666666666667,4,3,1,35,0,0
13286,-285.714285714286,4,3,1,35,0,0
14539,307.692307692308,4,3,1,40,1,0
14539,-166.666666666667,4,3,1,40,0,0
14846,-142.857142857143,4,3,1,50,0,0
15154,-125,4,3,1,60,0,0
15462,-111.111111111111,4,3,1,70,0,0
15769,-100,4,3,1,70,0,0
20231,-100,4,3,1,70,0,0
20615,-100,4,3,1,5,0,0
20692,-100,4,3,1,70,0,0
23077,-100,4,3,1,5,0,0
23154,-90.9090909090909,4,3,1,70,0,0
23769,-90.9090909090909,4,3,2,70,0,0
24077,-90.9090909090909,4,3,3,70,0,0
24385,-90.9090909090909,4,3,1,70,0,0
25615,-83.3333333333333,4,3,1,70,0,0
34846,-76.9230769230769,4,3,1,70,0,0
35077,-76.9230769230769,4,3,1,5,0,0
35154,-71.4285714285714,4,3,1,70,0,0
35385,-71.4285714285714,4,3,1,5,0,0
35462,-90.9090909090909,4,3,1,70,0,0
42846,-86.9565217391304,4,3,1,70,0,0
45308,-86.9565217391304,4,3,1,70,0,0
49923,-83.3333333333333,4,3,1,70,0,0
50154,-83.3333333333333,4,3,1,5,0,0
50231,-83.3333333333333,4,3,1,70,0,0
53000,-76.9230769230769,4,3,1,70,0,0
54539,-80,4,3,2,70,0,0
54846,-80,4,3,1,70,0,0
55154,-80,4,3,1,60,0,0
58846,-66.6666666666667,4,3,1,70,0,0
59077,-66.6666666666667,4,3,1,5,0,0
59154,-66.6666666666667,4,3,1,70,0,0
59385,-66.6666666666667,4,3,1,5,0,0
59462,-76.9230769230769,4,3,2,65,0,0
59769,-76.9230769230769,4,3,1,65,0,0
60077,-83.3333333333333,4,3,1,65,0,0
60308,-83.3333333333333,4,3,1,5,0,0
60385,-83.3333333333333,4,3,1,65,0,0
62539,-76.9230769230769,4,3,1,65,0,0
63000,-76.9230769230769,4,3,2,65,0,0
63462,-76.9230769230769,4,3,1,65,0,0
64231,-76.9230769230769,4,3,2,65,0,0
64692,-76.9230769230769,4,3,1,65,0,0
65000,-74.0740740740741,4,3,1,65,0,0
66846,-166.666666666667,4,3,1,65,0,0
67462,-71.4285714285714,4,3,1,75,0,1
71769,-83.3333333333333,4,3,1,75,0,1
72077,-71.4285714285714,4,3,1,75,0,1
72385,-74.0740740740741,4,3,1,75,0,1
73846,-74.0740740740741,4,3,1,5,0,1
73923,-74.0740740740741,4,3,1,75,0,1
74539,-83.3333333333333,4,3,1,75,0,1
74846,-83.3333333333333,4,3,1,75,0,1
76897,-83.3333333333333,4,3,2,75,0,1
77154,-83.3333333333333,4,3,1,75,0,0
77308,-71.4285714285714,4,3,1,75,0,1
81923,-83.3333333333333,4,3,1,75,0,1
82231,-71.4285714285714,4,3,1,75,0,1
82846,-71.4285714285714,4,3,1,75,0,0
83154,-111.111111111111,4,3,1,75,0,0
83359,-111.111111111111,4,3,1,5,0,0
83462,-71.4285714285714,4,3,1,75,0,1
84077,-71.4285714285714,4,3,1,75,0,0
84385,-111.111111111111,4,3,1,75,0,0
84590,-111.111111111111,4,3,1,5,0,0
84692,-133.333333333333,4,3,1,75,0,1
85231,-133.333333333333,4,3,1,5,0,1
85308,-133.333333333333,4,3,1,75,0,1
85846,-133.333333333333,4,3,1,5,0,1
85923,-133.333333333333,4,3,1,75,0,1
86385,-125,4,3,1,75,0,1
86539,-125,4,3,2,75,0,1
86846,-125,4,3,1,75,0,1
87077,-125,4,3,1,5,0,1
87154,-142.857142857143,4,3,1,60,0,0
91615,-142.857142857143,4,3,2,60,0,0
91769,-142.857142857143,4,3,3,60,0,0
91923,-142.857142857143,4,3,4,60,0,0
92077,-250,4,3,1,50,0,0
93923,-166.666666666667,4,3,1,50,0,0
94539,-166.666666666667,4,3,1,50,0,0
94846,-166.666666666667,4,3,2,50,0,0
95308,-166.666666666667,4,3,3,50,0,0
96539,-125,4,3,2,50,0,0
96692,-125,4,3,1,50,0,0

[Colours]
Combo1 : 83,83,83
Combo2 : 201,39,189
Combo3 : 155,62,210

[HitObjects]
103,377,1953,6,0,P|101:349|86:234,1,125.999996154785
121,69,2453,1,8,0:0:0:0:
126,51,2536,1,8,0:0:0:0:
133,33,2619,6,0,P|171:17|238:75,1,125.999996154785,8|0,0:0|0:0,0:0:0:0:
209,261,3286,2,0,P|245:253|358:238,1,125.999996154785
426,200,3786,1,0,0:0:0:0:
492,276,3953,2,0,P|497:245|521:138,1,125.999996154785
363,25,4619,2,0,P|319:31|228:38,1,125.999996154785
60,103,5119,1,8,0:0:0:0:
43,112,5203,1,8,0:0:0:0:
27,121,5286,6,0,B|14:138|-1:156|-1:156|13:209|20:242,1,125.999996154785,8|0,0:0|0:0,0:0:0:0:
104,287,5786,1,0,0:0:0:0:
69,381,5953,2,0,P|108:374|199:358,1,125.999996154785
285,317,6453,1,0,0:0:0:0:
359,384,6619,2,0,P|396:358|404:281,1,125.999996154785
297,16,7619,2,0,P|247:12|195:6,1,94.499997116089
105,35,7953,5,8,0:0:0:0:
65,76,8064,5,0,0:0:0:0:
58,133,8175,5,0,0:0:0:0:
85,183,8286,5,0,0:0:0:0:
112,233,8397,5,0,0:0:0:0:
105,289,8508,5,0,0:0:0:0:
65,330,8619,5,0,0:0:0:0:
120,343,8730,5,0,0:0:0:0:
175,356,8841,5,0,0:0:0:0:
225,384,8953,5,0,0:0:0:0:
280,371,9064,5,0,0:0:0:0:
335,358,9175,5,0,0:0:0:0:
389,377,9286,6,0,P|393:337|407:233,1,125.999996154785
364,66,9842,1,0,0:0:0:0:
432,119,9953,2,0,P|381:151|314:137,1,125.999996154785
224,175,10453,1,8,0:0:0:0:
168,44,10619,5,8,0:0:0:0:
112,30,10731,5,0,0:0:0:0:
56,16,10842,5,0,0:0:0:0:
0,2,10953,5,0,0:0:0:0:
14,58,11064,5,0,0:0:0:0:
28,114,11175,5,0,0:0:0:0:
42,170,11287,5,0,0:0:0:0:
98,156,11397,5,0,0:0:0:0:
154,142,11508,5,0,0:0:0:0:
210,128,11619,5,0,0:0:0:0:
196,184,11730,5,0,0:0:0:0:
182,240,11841,5,0,0:0:0:0:
168,296,11953,6,0,B|196:317|216:337|216:337|246:323|279:313,1,125.999996154785,8|0,0:0|0:0,0:0:0:0:
499,359,12619,1,8,0:0:0:0:
502,340,12702,1,8,0:0:0:0:
504,321,12785,1,8,0:0:0:0:
506,302,12869,1,8,0:0:0:0:
508,283,12952,1,8,0:0:0:0:
510,265,13035,1,8,0:0:0:0:
512,246,13119,1,8,0:0:0:0:
458,72,13286,6,0,B|416:86|376:76|376:76|356:96|333:116|333:116|295:101|252:110,1,220.499993270874
113,50,14539,5,8,0:0:0:0:
109,75,14615,1,8,0:0:0:0:
105,100,14692,1,8,0:0:0:0:
101,126,14769,1,8,0:0:0:0:
77,154,14846,5,8,0:0:0:0:
82,190,14922,1,8,0:0:0:0:
87,226,14999,1,8,0:0:0:0:
92,263,15076,1,8,0:0:0:0:
75,311,15154,5,8,0:0:0:0:
114,280,15231,1,8,0:0:0:0:
164,275,15308,1,8,0:0:0:0:
209,297,15385,1,8,0:0:0:0:
253,346,15462,5,8,0:0:0:0:
310,376,15538,1,8,0:0:0:0:
376,375,15615,1,8,0:0:0:0:
432,342,15692,1,8,0:0:0:0:
464,285,15769,5,12,0:0:0:0:
405,289,20231,5,0,0:0:0:0:
411,271,20308,1,0,0:0:0:0:
417,253,20385,2,0,B|401:212|387:182|387:182|406:152|431:115,1,157.5,12|0,0:1|0:0,0:0:0:0:
496,31,20692,5,8,0:0:0:0:
186,113,21154,5,0,0:0:0:0:
273,317,21308,1,8,0:0:0:0:
0,364,21769,5,0,0:0:0:0:
67,69,21923,1,8,0:0:0:0:
370,209,22385,5,0,0:0:0:0:
457,280,22539,1,0,0:0:0:0:
417,384,22692,1,0,0:0:0:0:
363,192,22846,2,0,P|236:175|180:164,1,157.5,12|0,0:1|0:0,0:0:0:0:
125,108,23154,5,4,0:0:0:0:
0,299,23308,1,8,0:0:0:0:
49,318,23384,1,8,0:0:0:0:
82,353,23462,5,8,0:0:0:0:
128,346,23538,1,8,0:0:0:0:
175,339,23615,1,0,0:0:0:0:
222,333,23692,1,0,0:0:0:0:
251,307,23769,5,8,0:0:0:0:
288,313,23845,1,0,0:0:0:0:
325,320,23922,1,0,0:0:0:0:
363,327,23999,1,0,0:0:0:0:
384,348,24077,5,8,0:0:0:0:
413,342,24153,1,0,0:0:0:0:
442,336,24230,1,0,0:0:0:0:
471,330,24307,1,0,0:0:0:0:
490,341,24385,5,0,0:0:0:0:
444,158,24539,1,8,0:0:0:0:
457,108,24615,1,8,0:0:0:0:
470,58,24692,2,0,P|439:63|400:70,1,57.7500017623902
315,144,24846,2,0,P|284:139|245:132,1,57.7500017623902
135,172,25000,5,4,0:1:0:0:
132,147,25077,1,0,0:0:0:0:
129,122,25154,5,8,0:0:0:0:
122,202,25231,1,8,0:0:0:0:
159,272,25308,1,8,0:0:0:0:
228,312,25385,1,8,0:0:0:0:
308,309,25462,1,8,0:0:0:0:
373,263,25538,1,8,0:0:0:0:
405,188,25615,6,0,P|450:227|441:308,1,125.999996154785,4|8,0:0|0:0,0:0:0:0:
234,148,25923,1,0,0:0:0:0:
66,366,26077,1,8,0:0:0:0:
46,372,26154,1,0,0:0:0:0:
26,378,26231,6,0,P|21:338|5:247,1,125.999996154785,0|8,0:0|0:0,0:0:0:0:
234,148,26539,1,0,0:0:0:0:
276,158,26615,1,0,0:0:0:0:
319,168,26692,1,8,0:0:0:0:
362,178,26769,1,0,0:0:0:0:
405,188,26846,6,0,B|426:171|441:160|441:160|437:124|430:64,1,125.999996154785,0|8,0:0|0:0,0:0:0:0:
199,2,27154,1,0,0:0:0:0:
365,200,27308,1,8,0:0:0:0:
385,194,27385,1,0,0:0:0:0:
405,188,27462,6,0,P|410:228|426:319,1,125.999996154785,0|8,0:0|0:0,0:0:0:0:
190,384,27769,1,0,0:0:0:0:
142,343,27845,1,0,0:0:0:0:
118,286,27922,1,8,0:0:0:0:
123,224,27999,1,0,0:0:0:0:
156,171,28077,6,0,P|100:130|41:147,1,125.999996154785,0|8,0:0|0:0,0:0:0:0:
190,384,28385,1,0,0:0:0:0:
211,380,28462,1,0,0:0:0:0:
232,376,28539,1,8,0:0:0:0:
461,260,28692,6,0,P|493:224|481:146,1,125.999996154785,0|8,0:0|0:0,0:0:0:0:
292,16,29000,1,0,0:0:0:0:
271,12,29077,1,0,0:0:0:0:
250,8,29154,1,8,0:0:0:0:
411,195,29307,5,0,0:0:0:0:
391,201,29385,1,0,0:0:0:0:
371,207,29462,2,0,P|365:167|356:129,1,62.9999980773926,8|0,0:0|0:0,0:0:0:0:
292,16,29615,5,0,0:0:0:0:
271,12,29692,1,0,0:0:0:0:
250,8,29769,2,0,P|244:48|235:86,1,62.9999980773926,8|0,0:0|0:0,0:0:0:0:
214,253,29923,5,0,0:0:0:0:
193,311,29999,1,0,0:0:0:0:
143,349,30076,1,8,0:0:0:0:
82,355,30153,1,0,0:0:0:0:
26,326,30230,5,0,0:0:0:0:
84,305,30308,1,0,0:0:0:0:
122,255,30385,1,8,0:0:0:0:
128,194,30462,1,0,0:0:0:0:
99,138,30539,6,0,P|199:120|222:114,1,125.999996154785,4|8,0:1|0:0,0:0:0:0:
448,254,30846,1,0,0:0:0:0:
304,26,31000,1,8,0:0:0:0:
284,18,31077,1,0,0:0:0:0:
264,10,31154,6,0,P|222:48|257:149,1,125.999996154785,0|8,0:0|0:0,0:0:0:0:
448,254,31462,1,0,0:0:0:0:
464,292,31538,1,0,0:0:0:0:
459,336,31615,1,8,0:0:0:0:
430,368,31692,1,0,0:0:0:0:
389,382,31769,6,0,P|326:371|248:361,1,125.999996154785,0|8,0:0|0:0,0:0:0:0:
2,384,32077,1,0,0:0:0:0:
182,191,32231,1,8,0:0:0:0:
189,171,32308,1,0,0:0:0:0:
187,149,32385,6,0,P|233:200|217:263,1,125.999996154785,0|8,0:0|0:0,0:0:0:0:
9,93,32692,1,0,0:0:0:0:
39,38,32768,1,0,0:0:0:0:
92,6,32845,1,8,0:0:0:0:
155,2,32922,1,0,0:0:0:0:
211,29,33000,6,0,B|232:45|249:58|249:58|287:43|331:29,1,125.999996154785,4|8,0:1|0:0,0:0:0:0:
500,215,33308,1,0,0:0:0:0:
506,235,33385,1,0,0:0:0:0:
512,255,33462,1,8,0:0:0:0:
271,147,33615,6,0,P|265:195|248:278,1,125.999996154785,0|8,0:0|0:0,0:0:0:0:
469,109,33923,1,0,0:0:0:0:
475,89,34000,1,0,0:0:0:0:
481,69,34077,1,4,0:0:0:0:
253,155,34231,5,0,0:0:0:0:
440,317,34385,1,8,0:0:0:0:
399,364,34461,1,0,0:0:0:0:
340,384,34538,1,8,0:0:0:0:
279,370,34616,1,0,0:0:0:0:
236,325,34692,1,8,0:0:0:0:
175,310,34769,1,0,0:0:0:0:
116,327,34846,6,0,P|112:292|83:107,1,204.749990627289,4|0,0:0|0:0,0:0:0:0:
17,47,35154,6,0,B|51:64|86:83|86:83|147:51|224:11,1,220.499993270874,4|0,0:2|0:0,0:0:0:0:
319,37,35462,5,4,0:0:0:0:
187,230,35615,1,10,0:0:0:0:
412,285,35769,2,0,P|416:243|432:151,1,115.50000352478,0|10,0:0|0:0,0:0:0:0:
244,92,36077,2,0,P|253:148|260:206,1,115.50000352478,0|10,0:0|0:0,0:0:0:0:
325,19,36385,1,0,0:0:0:0:
126,147,36539,1,10,0:0:0:0:
301,331,36692,6,0,P|336:338|405:287,1,115.50000352478,0|10,0:0|0:0,0:0:0:0:
464,96,37000,1,0,0:0:0:0:
328,256,37154,1,10,0:0:0:0:
239,24,37308,2,0,P|196:18|89:1,1,115.50000352478,0|10,0:0|0:0,0:0:0:0:
349,112,37615,2,0,P|392:106|499:89,1,115.50000352478,0|10,0:0|0:0,0:0:0:0:
239,24,37923,5,0,0:0:0:0:
330,222,38077,1,10,0:0:0:0:
108,190,38231,2,0,P|129:296|132:325,1,115.50000352478,0|10,0:0|0:0,0:0:0:0:
318,218,38539,2,0,P|339:112|342:83,1,115.50000352478,0|10,0:0|0:0,0:0:0:0:
95,199,38846,2,0,P|116:305|119:334,1,115.50000352478,0|10,0:0|0:0,0:0:0:0:
361,292,39154,6,0,P|404:246|396:186,1,115.50000352478,0|10,0:0|0:0,0:0:0:0:
196,49,39462,2,0,P|196:105|236:144,1,115.50000352478,0|10,0:0|0:0,0:0:0:0:
375,298,39769,2,0,P|418:252|410:192,1,115.50000352478,0|10,0:0|0:0,0:0:0:0:
238,349,40077,1,0,0:0:0:0:
219,352,40154,1,0,0:0:0:0:
200,355,40231,1,10,0:0:0:0:
11,184,40385,6,0,P|49:179|142:161,1,115.50000352478,4|10,0:0|0:0,0:0:0:0:
335,228,40692,1,0,0:0:0:0:
235,35,40846,1,10,0:0:0:0:
225,18,40923,1,0,0:0:0:0:
217,0,41000,6,0,B|199:17|184:29|184:29|191:71|196:113,1,115.50000352478,0|10,0:0|0:0,0:0:0:0:
411,182,41308,1,0,0:0:0:0:
426,219,41384,1,0,0:0:0:0:
423,258,41461,1,10,0:0:0:0:
402,293,41538,1,0,0:0:0:0:
368,314,41615,6,0,P|265:325|251:327,1,115.50000352478,0|10,0:0|0:0,0:0:0:0:
51,384,41923,1,0,0:0:0:0:
186,197,42077,1,10,0:0:0:0:
202,206,42154,1,0,0:0:0:0:
218,216,42231,6,0,P|280:224|344:229,1,115.50000352478,0|10,0:0|0:0,0:0:0:0:
128,83,42539,1,4,0:2:0:0:
179,78,42615,1,0,0:0:0:0:
231,73,42692,1,10,0:0:0:0:
283,68,42769,1,0,0:0:0:0:
335,64,42846,6,0,P|375:91|387:160,1,120.750002303124,4|10,0:1|0:0,0:0:0:0:
245,359,43154,1,0,0:0:0:0:
221,304,43230,1,0,0:0:0:0:
221,244,43307,1,10,0:0:0:0:
245,189,43384,1,0,0:0:0:0:
290,149,43462,6,0,P|257:157|159:170,1,120.750002303124,0|10,0:0|0:0,0:0:0:0:
0,0,43769,1,0,0:0:0:0:
50,31,43845,1,0,0:0:0:0:
79,83,43922,1,10,0:0:0:0:
80,143,43999,1,0,0:0:0:0:
51,196,44076,5,4,0:0:0:0:
335,266,44231,1,10,0:0:0:0:
5,384,44385,5,0,0:0:0:0:
295,338,44539,1,10,0:0:0:0:
0,129,44692,5,4,0:1:0:0:
54,106,44768,1,0,0:0:0:0:
110,125,44845,1,0,0:0:0:0:
140,176,44922,1,0,0:0:0:0:
129,234,45000,5,4,0:2:0:0:
183,257,45076,1,0,0:0:0:0:
239,238,45153,1,0,0:0:0:0:
269,187,45230,1,0,0:0:0:0:
258,129,45308,5,4,0:0:0:0:
481,32,45462,1,10,0:0:0:0:
214,63,45615,2,0,P|178:109|193:177,1,120.750002303124,0|10,0:0|0:0,0:0:0:0:
346,350,45923,2,0,P|298:315|234:322,1,120.750002303124,0|10,0:0|0:0,0:0:0:0:
46,384,46231,1,0,0:0:0:0:
239,238,46385,1,10,0:0:0:0:
24,80,46539,6,0,P|62:90|156:102,1,120.750002303124,0|10,0:0|0:0,0:0:0:0:
30,286,46846,1,0,0:0:0:0:
256,234,47000,1,10,0:0:0:0:
469,384,47154,2,0,P|476:324|490:265,1,120.750002303124,0|8,0:0|0:0,0:0:0:0:
400,61,47462,2,0,P|407:121|421:180,1,120.750002303124,0|10,0:0|0:0,0:0:0:0:
273,356,47769,5,0,0:0:0:0:
238,142,47923,1,10,0:0:0:0:
464,249,48077,2,0,P|501:202|477:127,1,120.750002303124,0|10,0:0|0:0,0:0:0:0:
280,196,48385,2,0,P|267:105|259:77,1,120.750002303124,0|10,0:0|0:0,0:0:0:0:
509,150,48692,2,0,P|517:208|480:254,1,120.750002303124,0|10,0:0|0:0,0:0:0:0:
236,363,49000,6,0,B|217:371|196:386|196:386|154:371|119:359,1,120.750002303124,0|10,0:0|0:0,0:0:0:0:
18,147,49308,2,0,P|-14:185|0:261,1,120.750002303124,0|10,0:0|0:0,0:0:0:0:
166,119,49615,2,0,P|176:61|141:13,1,120.750002303124,0|10,0:0|0:0,0:0:0:0:
77,285,49923,6,0,P|232:256|265:253,1,188.999994232178,4|0,0:1|0:0,0:0:0:0:
364,283,50231,5,4,0:0:0:0:
285,42,50385,1,8,0:0:0:0:
244,12,50461,1,0,0:0:0:0:
195,0,50538,1,8,0:0:0:0:
145,6,50615,1,0,0:0:0:0:
101,30,50692,1,8,0:0:0:0:
69,68,50769,1,0,0:0:0:0:
52,115,50847,5,12,0:1:0:0:
98,130,50923,1,0,0:0:0:0:
147,121,51000,1,8,0:0:0:0:
183,88,51077,1,0,0:0:0:0:
206,43,51154,1,8,0:0:0:0:
244,12,51231,1,0,0:0:0:0:
293,5,51308,1,8,0:0:0:0:
339,24,51384,1,0,0:0:0:0:
370,63,51462,5,8,0:0:0:0:
322,77,51538,1,0,0:0:0:0:
286,112,51615,1,8,0:0:0:0:
270,159,51692,1,0,0:0:0:0:
279,208,51769,1,8,0:0:0:0:
274,258,51846,1,0,0:0:0:0:
246,298,51923,1,8,0:0:0:0:
202,322,52000,1,0,0:0:0:0:
153,324,52077,5,8,0:0:0:0:
207,293,52153,1,0,0:0:0:0:
269,294,52230,1,8,0:0:0:0:
321,327,52307,1,0,0:0:0:0:
350,383,52384,1,12,0:1:0:0:
74,361,52539,1,0,0:0:0:0:
46,366,52615,1,0,0:0:0:0:
18,372,52692,5,12,0:0:0:0:
0,311,52768,1,0,0:0:0:0:
21,254,52845,1,8,0:0:0:0:
72,218,52922,1,0,0:0:0:0:
134,219,53000,5,8,0:0:0:0:
177,280,53076,1,0,0:0:0:0:
243,317,53154,1,8,0:0:0:0:
319,327,53231,1,0,0:0:0:0:
390,301,53308,5,12,0:1:0:0:
400,227,53384,1,0,0:0:0:0:
370,158,53461,1,8,0:0:0:0:
309,117,53538,1,0,0:0:0:0:
234,114,53615,1,8,0:0:0:0:
170,152,53692,1,0,0:0:0:0:
134,219,53769,1,8,0:0:0:0:
142,293,53846,1,0,0:0:0:0:
185,354,53923,5,12,0:2:0:0:
257,337,53999,1,0,0:0:0:0:
310,285,54076,1,8,0:0:0:0:
328,213,54153,1,0,0:0:0:0:
303,142,54231,1,8,0:0:0:0:
319,70,54308,1,0,0:0:0:0:
371,17,54385,1,8,0:0:0:0:
444,1,54461,1,0,0:0:0:0:
512,31,54538,5,8,0:0:0:0:
410,307,54692,1,8,0:0:0:0:
175,81,54846,5,12,0:1:0:0:
426,225,55000,1,0,0:0:0:0:
86,356,55154,5,4,0:0:0:0:
58,75,58846,6,0,B|74:42|86:8|86:8|96:109|104:173,1,236.250009012223,4|0,0:0|0:0,0:0:0:0:
51,267,59154,2,0,P|108:203|252:217,1,236.250009012223,4|0,0:2|0:0,0:0:0:0:
335,283,59462,5,8,0:0:0:0:
368,278,59538,1,0,0:0:0:0:
402,274,59615,1,0,0:0:0:0:
492,30,59769,1,8,0:0:0:0:
279,127,59923,1,0,0:0:0:0:
494,332,60077,6,0,P|519:171|526:143,1,188.999994232178,4|0,0:0|0:0,0:0:0:0:
496,43,60385,1,8,0:0:0:0:
301,0,60539,1,0,0:0:0:0:
142,165,60692,6,0,P|177:155|273:130,1,125.999996154785
512,242,61000,1,8,0:0:0:0:
399,22,61154,1,0,0:0:0:0:
426,274,61308,6,0,B|403:290|385:305|385:305|339:292|294:283,1,125.999996154785
49,193,61615,2,0,P|46:129|91:86,1,125.999996154785,8|0,0:0|0:0,0:0:0:0:
141,344,61923,2,0,B|164:360|182:375|182:375|228:362|273:353,1,125.999996154785
376,138,62231,1,8,0:0:0:0:
199,287,62385,1,0,0:0:0:0:
494,332,62539,5,12,0:1:0:0:
430,74,62692,1,0,0:0:0:0:
425,53,62846,1,0,0:0:0:0:
267,339,63000,5,8,0:0:0:0:
342,46,63154,1,0,0:0:0:0:
347,25,63308,1,0,0:0:0:0:
381,359,63462,5,8,0:0:0:0:
251,65,63615,1,0,0:0:0:0:
39,333,63769,5,12,0:1:0:0:
340,255,63923,1,0,0:0:0:0:
366,248,64077,1,0,0:0:0:0:
27,108,64231,5,8,0:0:0:0:
358,165,64385,1,0,0:0:0:0:
385,170,64539,1,0,0:0:0:0:
11,256,64692,5,12,0:1:0:0:
311,83,64846,1,0,0:0:0:0:
512,384,65000,5,4,0:0:0:0:
248,244,65154,1,0,0:0:0:0:
228,235,65230,1,0,0:0:0:0:
209,226,65307,1,12,0:1:0:0:
466,129,65462,1,0,0:0:0:0:
279,377,65615,6,0,P|251:380|184:388,1,70.8750002703667,8|0,0:0|0:0,0:0:0:0:
47,330,65769,2,0,P|82:334|117:337,1,70.8750002703667,8|0,0:0|0:0,0:0:0:0:
268,253,65923,1,8,0:0:0:0:
281,236,65999,1,8,0:0:0:0:
286,216,66076,1,0,0:0:0:0:
28,339,66231,5,8,0:0:0:0:
412,303,66385,1,8,0:0:0:0:
169,0,66539,1,8,0:0:0:0:
49,31,66846,6,0,P|44:83|28:219,1,188.999994232178,2|0,0:1|0:0,0:0:0:0:
85,314,67462,5,12,0:0:0:0:
137,338,67538,1,0,0:0:0:0:
196,336,67615,1,8,0:0:0:0:
247,308,67692,1,0,0:0:0:0:
280,260,67769,1,8,0:0:0:0:
332,235,67846,1,0,0:0:0:0:
391,237,67923,1,8,0:0:0:0:
442,265,68000,1,0,0:0:0:0:
475,313,68077,5,8,0:0:0:0:
409,334,68153,1,0,0:0:0:0:
342,317,68230,1,8,0:0:0:0:
297,264,68307,1,0,0:0:0:0:
289,195,68385,1,8,0:0:0:0:
311,130,68461,1,0,0:0:0:0:
293,64,68538,1,8,0:0:0:0:
240,19,68615,1,0,0:0:0:0:
171,10,68692,5,8,0:0:0:0:
158,56,68768,1,0,0:0:0:0:
146,102,68845,1,8,0:0:0:0:
133,149,68923,1,0,0:0:0:0:
122,195,68999,1,8,0:0:0:0:
110,241,69076,1,0,0:0:0:0:
97,288,69153,1,8,0:0:0:0:
85,334,69230,1,0,0:0:0:0:
73,380,69308,5,8,0:0:0:0:
130,376,69384,1,0,0:0:0:0:
175,339,69461,1,8,0:0:0:0:
192,284,69538,1,0,0:0:0:0:
172,229,69615,1,8,0:0:0:0:
122,195,69692,1,0,0:0:0:0:
64,196,69769,1,8,0:0:0:0:
18,231,69846,1,0,0:0:0:0:
0,286,69923,5,12,0:0:0:0:
66,308,69999,1,0,0:0:0:0:
131,285,70076,1,8,0:0:0:0:
172,229,70153,1,0,0:0:0:0:
184,161,70231,1,8,0:0:0:0:
196,93,70309,1,0,0:0:0:0:
237,37,70386,1,8,0:0:0:0:
302,14,70463,1,0,0:0:0:0:
368,36,70539,5,8,0:0:0:0:
299,69,70615,1,0,0:0:0:0:
262,135,70692,1,8,0:0:0:0:
272,211,70769,1,0,0:0:0:0:
323,268,70846,1,8,0:0:0:0:
398,284,70923,1,0,0:0:0:0:
467,255,71000,1,8,0:0:0:0:
508,189,71077,1,0,0:0:0:0:
502,112,71154,5,8,0:0:0:0:
462,130,71230,1,0,0:0:0:0:
421,147,71307,1,8,0:0:0:0:
381,164,71384,1,0,0:0:0:0:
340,181,71461,1,8,0:0:0:0:
300,199,71538,1,0,0:0:0:0:
259,216,71615,1,8,0:0:0:0:
218,233,71692,1,0,0:0:0:0:
178,250,71769,6,0,P|141:240|93:229,2,83.9999974365235
22,281,72077,6,0,B|-3:232|18:192|18:192|48:139|19:94,1,195.999994018555,12|0,0:1|0:0,0:0:0:0:
94,17,72385,6,0,P|159:4|215:63,1,141.750000540733,4|8,0:0|0:0,0:0:0:0:
369,254,72692,1,0,0:0:0:0:
142,127,72846,1,8,0:0:0:0:
139,109,72923,1,0,0:0:0:0:
136,91,73000,6,0,P|132:140|118:240,1,141.750000540733,0|8,0:0|0:0,0:0:0:0:
350,138,73308,1,0,0:0:0:0:
368,135,73385,1,0,0:0:0:0:
386,132,73462,1,8,0:0:0:0:
499,372,73615,6,0,P|310:340|277:338,1,212.6250008111
184,371,73923,1,0,0:0:0:0:
11,178,74077,1,8,0:0:0:0:
260,221,74231,2,0,P|299:256|287:340,1,141.750000540733,0|8,0:0|0:0,0:0:0:0:
40,291,74539,6,0,P|36:328|26:392,2,83.9999974365235,0|8|8,0:0|0:0|0:0,0:0:0:0:
6,161,74846,5,12,0:0:0:0:
96,102,74949,5,0,0:0:0:0:
101,209,75051,5,0,0:0:0:0:
14,156,75154,5,8,0:0:0:0:
121,108,75256,5,0,0:0:0:0:
106,225,75359,5,0,0:0:0:0:
22,151,75462,5,8,0:0:0:0:
143,117,75565,5,0,0:0:0:0:
105,239,75667,5,0,0:0:0:0:
250,341,75769,6,0,B|261:328|274:317|274:317|268:279|261:242,1,83.9999974365235,8|0,0:0|0:0,0:0:0:0:
227,166,75974,5,0,0:0:0:0:
367,220,76077,6,0,P|408:181|389:63,1,167.999994873047,8|0,0:0|0:0,0:0:0:0:
291,17,76385,5,8,0:0:0:0:
209,28,76487,5,0,0:0:0:0:
127,39,76590,5,0,0:0:0:0:
42,93,76692,6,0,P|40:74|25:1,2,83.9999974365235,8|8|8,0:0|0:0|0:0,0:0:0:0:
78,191,77000,6,0,P|68:232|63:273,2,83.9999974365235
168,144,77308,6,0,P|207:141|321:115,1,146.999995513916,4|8,0:0|0:0,0:0:0:0:
512,278,77615,1,0,0:0:0:0:
407,0,77769,1,8,0:0:0:0:
223,205,77923,6,0,P|163:229|89:165,1,146.999995513916,0|8,0:0|0:0,0:0:0:0:
362,104,78231,1,0,0:0:0:0:
381,108,78308,1,0,0:0:0:0:
400,112,78385,1,8,0:0:0:0:
146,0,78539,6,0,P|157:46|168:159,1,146.999995513916,0|8,0:0|0:0,0:0:0:0:
36,375,78846,1,0,0:0:0:0:
76,83,79000,1,8,0:0:0:0:
330,202,79154,6,0,B|348:224|364:242|364:242|354:289|344:339,1,146.999995513916,0|8,0:0|0:0,0:0:0:0:
167,144,79462,1,0,0:0:0:0:
164,125,79539,1,0,0:0:0:0:
161,106,79615,1,8,0:0:0:0:
36,375,79769,6,0,P|159:349|180:346,1,146.999995513916,4|8,0:0|0:0,0:0:0:0:
448,241,80077,1,0,0:0:0:0:
451,223,80154,1,0,0:0:0:0:
454,205,80231,1,8,0:0:0:0:
158,87,80385,6,0,P|184:210|187:231,1,146.999995513916,4|8,0:1|0:0,0:0:0:0:
432,378,80692,1,0,0:0:0:0:
450,381,80769,1,0,0:0:0:0:
468,384,80846,1,8,0:0:0:0:
271,230,81000,5,12,0:2:0:0:
201,183,81077,1,0,0:0:0:0:
116,180,81154,1,8,0:0:0:0:
43,222,81230,1,0,0:0:0:0:
2,296,81308,5,8,0:0:0:0:
77,258,81385,1,0,0:0:0:0:
122,186,81462,1,8,0:0:0:0:
122,102,81538,1,0,0:0:0:0:
79,31,81615,5,8,0:0:0:0:
74,115,81692,1,0,0:0:0:0:
114,189,81769,1,0,0:0:0:0:
187,231,81845,1,0,0:0:0:0:
271,230,81923,6,0,P|310:205|329:162,2,83.9999974365235,8|8|8,0:0|0:0|0:0,0:0:0:0:
276,85,82231,5,8,0:0:0:0:
437,243,82333,1,8,0:0:0:0:
214,291,82436,1,8,0:0:0:0:
452,161,82539,5,8,0:0:0:0:
197,55,82641,1,8,0:0:0:0:
293,314,82744,1,8,0:0:0:0:
260,2,82846,5,8,0:0:0:0:
375,188,83154,6,0,P|245:201|221:204,1,125.999996154785,4|0,0:1|0:0,0:0:0:0:
104,316,83462,5,8,0:0:0:0:
219,122,83564,1,8,0:0:0:0:
243,346,83667,1,8,0:0:0:0:
0,218,83769,5,8,0:0:0:0:
278,255,83872,1,8,0:0:0:0:
123,24,83974,1,8,0:0:0:0:
25,326,84077,5,8,0:0:0:0:
211,220,84385,6,0,P|266:181|331:201,1,125.999996154785,4|0,0:1|0:0,0:0:0:0:
410,245,84692,6,0,P|472:189|421:22,1,275.62501051426,4|0,0:0|0:0,0:0:0:0:
339,69,85308,6,0,P|293:61|38:30,1,275.62501051426,4|0,0:0|0:0,0:0:0:0:
0,101,85923,6,0,P|-25:159|57:225,1,157.500006008148,4|0,0:0|0:0,0:0:0:0:
189,187,86385,1,8,0:0:0:0:
209,191,86462,1,8,0:0:0:0:
229,195,86539,6,0,P|233:225|243:269,2,56,8|0|0,0:0|0:0|0:0,0:0:0:0:
316,146,86846,6,0,P|324:112|337:1,1,126,4|0,0:1|0:0,0:0:0:0:
429,51,87154,6,0,P|474:84|462:182,1,146.999995513916,4|0,0:0|0:0,0:0:0:0:
333,149,87615,1,0,0:0:0:0:
468,274,87769,2,0,P|343:288|314:292,1,146.999995513916,12|0,0:1|0:0,0:0:0:0:
196,357,88231,1,0,0:0:0:0:
77,217,88385,6,0,P|106:178|201:189,1,146.999995513916
451,269,89000,2,0,P|456:231|492:43,1,220.499993270874,12|0,0:1|0:0,0:0:0:0:
321,0,89615,6,0,P|264:43|283:127,1,146.999995513916,4|0,0:1|0:0,0:0:0:0:
398,52,90077,1,0,0:0:0:0:
292,202,90231,1,8,0:0:0:0:
157,164,90385,1,0,0:0:0:0:
139,158,90462,1,0,0:0:0:0:
121,153,90539,1,8,0:0:0:0:
14,300,90692,1,8,0:0:0:0:
186,366,90846,6,0,B|207:348|225:335|225:335|214:281|207:224,1,146.999995513916,4|0,0:1|0:0,0:0:0:0:
103,147,91308,1,0,0:0:0:0:
280,198,91462,1,8,0:0:0:0:
183,99,91615,1,8,0:0:0:0:
280,60,91769,1,8,0:0:0:0:
223,12,91923,1,8,0:0:0:0:
92,163,92077,6,0,B|133:156|286:138|391:132,1,294,4|8,0:1|0:0,0:0:0:0:
484,169,93308,1,4,0:1:0:0:
299,340,93923,2,0,B|269:358|236:378|236:378|185:352|121:332,1,188.999994232178
21,363,94539,5,4,0:2:0:0:
256,192,94615,12,0,96385,0:0:0:0:
174,183,96539,5,8,0:0:0:0:
194,191,96615,1,0,0:0:0:0:
214,199,96692,2,0,P|240:194|275:189,3,42,8|8|8|8,0:0|0:0|0:0|0:0,0:0:0:0:
345,225,97000,5,0,0:0:0:0:
82,354,97615,5,4,0:2:0:0:
428,147,97821,1,4,0:2:0:0:
47,27,98026,1,4,0:2:0:0:
443,338,98231,5,4,0:0:0:0:
