osu file format v14

[General]
AudioFilename: audio.mp3
AudioLeadIn: 0
PreviewTime: 67154
Countdown: 0
SampleSet: Drum
StackLeniency: 0.7
Mode: 0
LetterboxInBreaks: 0
WidescreenStoryboard: 1

[Editor]
Bookmarks: 7929,25615,35462,45308,55154,62539,87154,92077,98231
DistanceSpacing: 1
BeatDivisor: 4
GridSize: 32
TimelineZoom: 2.7

[Metadata]
Title:FUBUKI (Cut Ver.)
TitleUnicode:吹雪 (Cut Ver.)
Artist:Imperial Circus Dead Decadence
ArtistUnicode:Imperial Circus Dead Decadence
Creator:BadGames
Version:Karcher & BadGames' Normal
Source:艦隊これくしょん -艦これ-
Tags:icdd japanese cover symphonic melodic death metal karcher [Karcher] mx10001 zisa riana amamya hyperpigeon milr_ kaguya_sama [Arcadia]
BeatmapID:3967919
BeatmapSetID:1907725

[Difficulty]
HPDrainRate:3
CircleSize:3
OverallDifficulty:4
ApproachRate:5.5
SliderMultiplier:1.05
SliderTickRate:1

[Events]
//Background and Video events
0,0,"image.jpg",0,0
//Break Periods
2,15969,19567
2,55354,57721
//Storyboard Layer 0 (Background)
//Storyboard Layer 1 (Fail)
//Storyboard Layer 2 (Pass)
//Storyboard Layer 3 (Foreground)
//Storyboard Layer 4 (Overlay)
//Storyboard Sound Samples

[TimingPoints]
620,333.333333333333,4,3,1,50,1,0
1953,-117.647058823529,4,3,1,50,0,0
7869,-117.647058823529,4,3,1,50,0,0
7953,-117.647058823529,4,3,1,50,0,0
12786,-117.647058823529,4,3,1,45,0,0
12953,-117.647058823529,4,3,1,40,0,0
13119,-117.647058823529,4,3,1,35,0,0
14539,307.692307692308,4,3,1,40,1,0
14539,-100,4,3,1,40,0,0
14846,-100,4,3,1,50,0,0
15154,-100,4,3,1,60,0,0
15462,-100,4,3,1,70,0,0
20615,-100,4,3,1,70,0,0
20692,-100,4,3,1,70,0,0
23077,-100,4,3,1,70,0,0
23154,-100,4,3,1,70,0,0
23769,-100,4,3,2,70,0,0
24077,-100,4,3,3,70,0,0
24385,-100,4,3,1,70,0,0
25615,-100,4,3,1,70,0,0
35077,-100,4,3,1,70,0,0
35154,-100,4,3,1,70,0,0
35385,-100,4,3,1,70,0,0
35462,-100,4,3,1,70,0,0
45308,-100,4,3,1,70,0,0
50154,-100,4,3,1,70,0,0
50231,-100,4,3,1,70,0,0
54539,-100,4,3,2,70,0,0
54846,-100,4,3,1,70,0,0
55154,-100,4,3,1,60,0,0
58846,-100,4,3,1,70,0,0
59077,-100,4,3,1,70,0,0
59154,-100,4,3,1,70,0,0
59385,-100,4,3,1,70,0,0
59462,-100,4,3,2,65,0,0
59769,-100,4,3,1,65,0,0
62539,-100,4,3,1,65,0,0
63000,-100,4,3,2,65,0,0
63462,-100,4,3,1,65,0,0
64231,-100,4,3,2,65,0,0
64692,-100,4,3,1,65,0,0
67462,-100,4,3,1,75,0,1
76897,-100,4,3,2,75,0,1
77000,-100,4,3,2,75,0,0
77154,-100,4,3,1,75,0,0
77308,-100,4,3,1,75,0,1
82846,-100,4,3,1,75,0,0
83359,-100,4,3,1,75,0,0
83462,-100,4,3,1,75,0,1
84077,-100,4,3,1,75,0,0
84590,-100,4,3,1,5,0,0
84615,-100,4,3,1,5,0,0
84692,-100,4,3,1,75,0,1
85231,-100,4,3,1,75,0,1
85308,-100,4,3,1,75,0,1
85846,-100,4,3,1,75,0,1
85923,-100,4,3,1,75,0,1
86539,-100,4,3,2,75,0,1
86846,-100,4,3,1,75,0,1
87077,-100,4,3,1,75,0,1
87154,-100,4,3,1,60,0,0
91615,-100,4,3,2,60,0,0
91769,-100,4,3,3,60,0,0
91923,-100,4,3,4,60,0,0
92077,-100,4,3,1,50,0,0
94846,-100,4,3,2,50,0,0
95308,-100,4,3,3,50,0,0
96539,-100,4,3,2,50,0,0
96692,-100,4,3,1,50,0,0

[Colours]
Combo1 : 83,83,83
Combo2 : 201,39,189
Combo3 : 155,62,210

[HitObjects]
98,59,1953,6,0,P|137:97|135:174,1,133.875002553463,0|8,0:0|0:0,0:0:0:0:
105,210,2619,1,8,0:0:0:0:
51,376,3286,2,0,P|73:372|195:356,1,133.875002553463
230,372,3953,1,0,0:0:0:0:
318,196,4619,2,0,P|272:158|202:177,1,133.875002553463,0|8,0:0|0:0,0:0:0:0:
165,204,5286,6,0,P|146:95|140:70,1,133.875002553463,8|0,0:0|0:0,0:0:0:0:
116,29,5953,2,0,P|181:43|247:53,1,133.875002553463
294,37,6619,1,0,0:0:0:0:
454,284,7619,1,0,0:0:0:0:
385,354,7953,6,0,P|346:357|188:374,1,178.500003404617,8|0,0:0|0:0,0:0:0:0:
111,349,8953,1,0,0:0:0:0:
16,323,9286,2,0,B|-1:300|-19:278|-19:278|-4:223|13:156,1,178.500003404617
182,62,10619,6,0,P|257:85|260:184,1,178.500003404617,8|0,0:0|0:0,0:0:0:0:
208,254,11619,1,0,0:0:0:0:
266,333,11953,2,0,P|409:315|445:310,1,178.500003404617,8|8,0:0|0:0,0:0:0:0:
508,236,12953,1,8,0:0:0:0:
464,148,13286,5,0,0:0:0:0:
256,192,13453,12,12,15769,0:0:0:0:
464,148,20692,6,0,P|319:179|288:182,1,157.5,8|0,0:0|0:0,0:0:0:0:
268,212,21308,2,0,P|123:181|92:178,1,157.5,8|0,0:0|0:0,0:0:0:0:
65,199,21923,1,8,0:0:0:0:
318,12,22846,1,12,0:1:0:0:
408,65,23154,6,0,B|420:79|432:93|432:93|418:163,1,105,4|8,0:0|0:0,0:0:0:0:
382,198,23615,1,0,0:0:0:0:
340,230,23769,2,0,B|328:244|316:258|316:258|330:328,1,105,8|8,0:0|0:0,0:0:0:0:
437,312,24385,1,0,0:0:0:0:
437,312,24539,2,0,P|433:343|431:365,2,52.5,8|0|0,0:0|0:0|0:0,0:0:0:0:
478,279,25000,2,0,P|474:252|472:226,1,52.5,4|8,0:1|0:0,0:0:0:0:
490,177,25308,1,8,0:0:0:0:
431,90,25615,6,0,P|388:64|328:82,1,105,4|0,0:0|0:0,0:0:0:0:
294,107,26077,1,8,0:0:0:0:
241,101,26231,1,0,0:0:0:0:
145,144,26539,2,0,P|142:178|138:213,1,52.5,0|8,0:0|0:0,0:0:0:0:
100,230,26846,2,0,P|104:269|112:355,1,105
160,350,27308,1,8,0:0:0:0:
210,364,27462,1,0,0:0:0:0:
308,327,27769,2,0,P|320:303|312:261,1,52.5,0|8,0:0|0:0,0:0:0:0:
301,228,28077,6,0,P|322:231|414:242,1,105
455,257,28539,1,8,0:0:0:0:
498,227,28692,1,0,0:0:0:0:
453,131,29000,2,0,P|455:109|459:74,1,52.5,0|8,0:0|0:0,0:0:0:0:
428,35,29308,2,0,P|381:28|336:72,1,105
313,108,29769,1,8,0:0:0:0:
295,157,29923,2,0,P|270:158|242:162,2,52.5,0|8|0,0:0|0:0|0:0,0:0:0:0:
391,199,30539,6,0,P|424:242|410:301,1,105,4|0,0:1|0:0,0:0:0:0:
388,333,31000,1,8,0:0:0:0:
340,354,31154,1,0,0:0:0:0:
242,313,31462,2,0,P|218:315|173:320,1,52.5,0|8,0:0|0:0,0:0:0:0:
142,341,31769,2,0,B|127:324|114:313|114:313|120:281|126:238,1,105
153,204,32231,1,8,0:0:0:0:
182,160,32385,1,0,0:0:0:0:
127,70,32692,2,0,P|99:74|55:80,1,52.5,0|8,0:0|0:0,0:0:0:0:
28,102,33000,6,0,P|-2:153|17:209,1,105,4|0,0:1|0:0,0:0:0:0:
40,236,33462,1,8,0:0:0:0:
27,286,33615,1,0,0:0:0:0:
94,366,33923,2,0,P|112:363|166:355,1,52.5,0|4,0:0|0:0,0:0:0:0:
197,369,34231,2,0,P|199:342|213:253,1,105,0|8,0:0|0:0,0:0:0:0:
185,218,34692,1,8,0:0:0:0:
211,172,34846,1,4,0:0:0:0:
307,213,35154,1,4,0:2:0:0:
376,134,35462,5,4,0:0:0:0:
319,46,35769,2,0,P|287:43|205:36,1,105
113,6,36385,2,0,P|90:11|40:19,2,52.5,0|10|0,0:0|0:0|0:0,0:0:0:0:
72,102,37000,2,0,P|62:129|66:164,1,52.5,0|10,0:0|0:0,0:0:0:0:
96,193,37308,2,0,P|126:237|105:303,1,105
218,254,37923,5,0,0:0:0:0:
270,346,38231,2,0,P|300:341|384:330,1,105
476,353,38846,1,0,0:0:0:0:
512,254,39154,2,0,P|521:210|473:160,1,105
385,191,39769,2,0,P|341:200|291:152,1,105
274,116,40231,1,10,0:0:0:0:
267,63,40385,6,0,P|236:58|147:38,1,105,4|0,0:0|0:0,0:0:0:0:
113,56,40846,1,10,0:0:0:0:
62,71,41000,1,0,0:0:0:0:
106,166,41308,2,0,P|102:192|98:226,1,52.5,0|10,0:0|0:0,0:0:0:0:
67,260,41615,2,0,P|46:307|77:366,1,105
114,371,42077,1,10,0:0:0:0:
165,384,42231,1,0,0:0:0:0:
248,320,42539,1,4,0:2:0:0:
185,235,42846,6,0,P|213:233|298:218,1,105,4|0,0:1|0:0,0:0:0:0:
327,183,43308,1,10,0:0:0:0:
365,147,43462,2,0,P|393:149|478:164,1,105
494,207,43923,1,10,0:0:0:0:
512,256,44077,1,4,0:0:0:0:
444,336,44385,1,0,0:0:0:0:
344,304,44692,2,0,P|342:289|333:241,2,52.5,4|0|4,0:1|0:0|0:2,0:0:0:0:
268,378,45308,5,4,0:0:0:0:
174,331,45615,2,0,P|142:328|65:321,1,105
0,242,46231,1,0,0:0:0:0:
55,153,46539,2,0,P|100:126|151:138,1,105
194,163,47000,1,10,0:0:0:0:
246,156,47154,2,0,P|273:111|261:60,1,105
347,0,47769,5,0,0:0:0:0:
443,41,48077,2,0,B|456:61|472:84|472:84|463:111|457:135,1,105
499,231,48692,1,0,0:0:0:0:
441,318,49000,2,0,P|411:320|323:330,1,105
247,384,49615,2,0,P|217:381|129:372,1,105,0|4,0:0|0:1,0:0:0:0:
46,330,50231,6,0,P|20:284|40:226,1,105,4|8,0:0|0:0,0:0:0:0:
65,194,50692,1,8,0:0:0:0:
98,153,50846,2,0,P|127:158|214:165,1,105,12|8,0:1|0:0,0:0:0:0:
247,191,51308,1,8,0:0:0:0:
292,217,51462,1,8,0:0:0:0:
385,172,51769,2,0,P|387:151|396:101,1,52.5,8|8,0:0|0:0,0:0:0:0:
417,73,52077,2,0,P|378:44|322:51,1,105,8|12,0:0|0:1,0:0:0:0:
227,8,52692,6,0,B|216:24|203:40|203:40|207:72|212:106,1,105,12|8,0:0|0:0,0:0:0:0:
246,143,53154,1,8,0:0:0:0:
284,179,53308,2,0,B|295:195|308:211|308:211|303:243|299:277,1,105,12|8,0:1|0:0,0:0:0:0:
268,317,53769,1,8,0:0:0:0:
237,359,53923,1,12,0:2:0:0:
135,331,54231,2,0,P|132:308|128:274,1,52.5,8|8,0:0|0:0,0:0:0:0:
94,238,54539,2,0,P|97:215|101:181,2,52.5,8|8|12,0:0|0:0|0:1,0:0:0:0:
0,285,55154,5,4,0:0:0:0:
59,215,58846,5,4,0:0:0:0:
160,187,59154,1,4,0:2:0:0:
261,159,59462,2,0,P|263:137|270:97,2,52.5,8|0|8,0:0|0:0|0:0,0:0:0:0:
317,247,60077,6,0,B|331:259|348:271|348:271|386:253|430:238,1,105,4|8,0:0|0:0,0:0:0:0:
449,211,60539,1,0,0:0:0:0:
485,173,60692,1,0,0:0:0:0:
439,78,61000,2,0,P|418:76|376:71,1,52.5,8|0,0:0|0:0,0:0:0:0:
340,98,61308,2,0,P|290:108|245:76,1,105,0|8,0:0|0:0,0:0:0:0:
157,25,61923,2,0,P|107:15|62:47,1,105,0|8,0:0|0:0,0:0:0:0:
0,127,62539,6,0,P|6:167|13:255,1,105,12|0,0:1|0:0,0:0:0:0:
59,252,63000,2,0,P|53:292|46:380,1,105,8|0,0:0|0:0,0:0:0:0:
92,384,63462,1,8,0:0:0:0:
187,341,63769,2,0,P|215:299|203:243,1,105,12|0,0:1|0:0,0:0:0:0:
166,212,64231,2,0,P|138:170|150:114,1,105,8|0,0:0|0:0,0:0:0:0:
181,79,64692,1,12,0:1:0:0:
275,124,65000,6,0,P|311:117|398:105,1,105,4|12,0:0|0:1,0:0:0:0:
426,85,65462,1,0,0:0:0:0:
474,65,65615,2,0,P|468:101|455:188,1,105,8|8,0:0|0:0,0:0:0:0:
428,212,66077,1,0,0:0:0:0:
400,256,66231,2,0,P|405:288|410:329,1,52.5,8|8,0:0|0:0,0:0:0:0:
432,354,66539,1,8,0:0:0:0:
432,354,67462,6,0,P|379:352|346:311,1,105,12|8,0:0|0:0,0:0:0:0:
306,290,67923,1,8,0:0:0:0:
253,295,68077,2,0,P|227:303|211:324,1,52.5,8|8,0:0|0:0,0:0:0:0:
196,372,68385,1,8,0:0:0:0:
98,333,68692,2,0,P|104:285|117:218,1,105,8|8,0:0|0:0,0:0:0:0:
210,187,69308,2,0,P|204:139|191:72,1,105,8|8,0:0|0:0,0:0:0:0:
152,60,69769,1,8,0:0:0:0:
107,31,69923,6,0,P|49:26|21:71,1,105,12|8,0:0|0:0,0:0:0:0:
15,111,70385,1,8,0:0:0:0:
39,157,70539,2,0,P|97:152|125:197,1,105,8|8,0:0|0:0,0:0:0:0:
157,224,71000,1,8,0:0:0:0:
135,271,71154,2,0,P|125:330|120:375,2,105,8|8|0,0:0|0:0|0:0,0:0:0:0:
239,281,72077,2,0,P|269:286|291:306,1,52.5,12|0,0:1|0:0,0:0:0:0:
299,350,72385,5,4,0:0:0:0:
393,304,72692,2,0,P|429:307|446:293,1,52.5,0|8,0:0|0:0,0:0:0:0:
472,255,73000,1,0,0:0:0:0:
441,165,73308,1,0,0:0:0:0:
485,135,73462,1,8,0:0:0:0:
489,82,73615,2,0,P|442:92|391:119,1,105
343,212,74231,2,0,P|296:187|245:175,1,105
184,260,74846,5,12,0:0:0:0:
84,227,75154,1,8,0:0:0:0:
84,122,75462,1,8,0:0:0:0:
184,90,75769,1,8,0:0:0:0:
245,175,76077,2,0,P|296:187|343:212,1,105,8|8,0:0|0:0,0:0:0:0:
395,303,76692,2,0,P|417:293|446:286,1,52.5,8|0,0:0|0:0,0:0:0:0:
487,254,77000,1,0,0:0:0:0:
500,149,77308,6,0,B|505:94|505:94|481:46,1,105,4|0,0:0|0:0,0:0:0:0:
431,37,77769,1,8,0:0:0:0:
379,49,77923,2,0,P|358:61|344:87,1,52.5,0|8,0:0|0:0,0:0:0:0:
349,137,78231,1,0,0:0:0:0:
294,226,78539,2,0,B|241:237|241:237|190:211,1,105
143,122,79154,2,0,B|97:98|97:98|44:109,1,105
14,153,79615,1,8,0:0:0:0:
23,204,79769,6,0,P|15:260|11:313,1,105,4|0,0:0|0:0,0:0:0:0:
53,340,80231,1,8,0:0:0:0:
105,334,80385,2,0,P|159:328|198:361,1,105,4|0,0:1|0:0,0:0:0:0:
288,306,81000,2,0,B|334:311|334:311|346:305|346:305|390:310,2,105,4|0|0,0:2|0:0|0:0,0:0:0:0:
234,215,81923,1,8,0:0:0:0:
280,120,82231,6,0,P|306:113|334:108,1,52.5,8|0,0:0|0:0,0:0:0:0:
374,77,82539,2,0,P|400:70|428:65,1,52.5,8|0,0:0|0:0,0:0:0:0:
473,45,82846,1,8,0:0:0:0:
422,249,83462,6,0,P|396:242|368:237,1,52.5,8|0,0:0|0:0,0:0:0:0:
328,206,83770,2,0,P|302:199|274:194,1,52.5,8|0,0:0|0:0,0:0:0:0:
229,174,84077,1,8,0:0:0:0:
77,319,84692,6,0,B|168:291|147:352|236:324,1,157.5,4|0,0:0|0:0,0:0:0:0:
282,336,85308,2,0,B|313:278|313:278|275:191,1,157.5,4|0,0:0|0:0,0:0:0:0:
231,166,85923,1,4,0:0:0:0:
131,199,86231,1,0,0:0:0:0:
45,137,86539,2,0,P|50:109|62:89,2,52.5,8|0|4,0:0|0:0|0:1,0:0:0:0:
18,242,87154,6,0,L|131:266,1,105,4|0,0:0|0:0,0:0:0:0:
168,284,87615,1,0,0:0:0:0:
217,266,87769,1,12,0:1:0:0:
356,340,88231,1,0,0:0:0:0:
405,357,88385,2,0,P|392:298|379:237,1,105
293,199,89000,2,0,P|306:140|319:79,1,105,12|0,0:1|0:0,0:0:0:0:
358,66,89462,1,0,0:0:0:0:
409,76,89615,6,0,P|436:114|501:109,1,105,4|0,0:1|0:0,0:0:0:0:
487,220,90231,2,0,P|436:219|405:259,1,105,8|8,0:0|0:0,0:0:0:0:
377,304,90692,1,8,0:0:0:0:
384,355,90846,2,0,P|411:358|441:345,2,52.5,4|0|0,0:1|0:0|0:0,0:0:0:0:
280,334,91462,2,0,P|253:337|223:324,2,52.5,8|8|8,0:0|0:0|0:0,0:0:0:0:
343,250,92077,6,0,B|312:255|278:229|267:172|267:172|259:118|215:77|145:90|115:140|118:182|150:208,1,367.5,4|8,0:1|0:0,0:0:0:0:
156,255,93308,1,4,0:1:0:0:
335,363,93923,2,0,B|413:348|413:348|409:359|409:359|477:346,1,157.5
476,293,94539,6,0,B|509:252|513:205|513:205|478:152|408:171|408:171|400:240|332:331|191:329|116:224|131:129|191:64|191:64|281:97|274:172,1,840,4|0,0:2|0:0,0:0:0:0:
116,296,97615,6,0,L|48:275,2,70,4|4|4,0:2|0:2|0:2,0:0:0:0:
164,346,98231,1,4,0:0:0:0:
