osu file format v14

[General]
AudioFilename: audio.mp3
AudioLeadIn: 0
PreviewTime: 67154
Countdown: 0
SampleSet: Drum
StackLeniency: 0.4
Mode: 0
LetterboxInBreaks: 0
WidescreenStoryboard: 1

[Editor]
Bookmarks: 7929,15769,20231,25615,35462,45308,55154,58846,60077,77308,82231,87154,97000
DistanceSpacing: 1.6
BeatDivisor: 4
GridSize: 32
TimelineZoom: 4.399999

[Metadata]
Title:FUBUKI (Cut Ver.)
TitleUnicode:吹雪 (Cut Ver.)
Artist:Imperial Circus Dead Decadence
ArtistUnicode:Imperial Circus Dead Decadence
Creator:BadGames
Version:HyperPigeon's Expert
Source:艦隊これくしょん -艦これ-
Tags:icdd japanese cover symphonic melodic death metal karcher [Karcher] mx10001 zisa riana amamya hyperpigeon milr_ kaguya_sama [Arcadia]
BeatmapID:3967918
BeatmapSetID:1907725

[Difficulty]
HPDrainRate:5
CircleSize:4
OverallDifficulty:9
ApproachRate:9.3
SliderMultiplier:1.8
SliderTickRate:1

[Events]
//Background and Video events
0,0,"image.jpg",0,0
//Break Periods
2,15969,19462
//Storyboard Layer 0 (Background)
//Storyboard Layer 1 (Fail)
//Storyboard Layer 2 (Pass)
//Storyboard Layer 3 (Foreground)
//Storyboard Layer 4 (Overlay)
//Storyboard Sound Samples

[TimingPoints]
620,333.333333333333,4,3,1,50,1,0
1951,-166.666666666667,4,3,1,50,0,0
2619,-166.666666666667,4,3,1,50,0,0
7869,-166.666666666667,4,3,1,5,0,0
7953,-166.666666666667,4,3,1,50,0,0
12786,-166.666666666667,4,3,1,45,0,0
12953,-166.666666666667,4,3,1,40,0,0
13119,-166.666666666667,4,3,1,35,0,0
14453,-166.666666666667,4,3,1,5,0,0
14539,307.692307692308,4,3,1,40,1,0
14539,-200,4,3,1,40,0,0
14846,-166.666666666667,4,3,1,50,0,0
15154,-142.857142857143,4,3,1,60,0,0
15462,-125,4,3,1,70,0,0
15769,-100,4,3,1,70,0,0
20615,-100,4,3,1,5,0,0
20692,-100,4,3,1,70,0,0
22846,-142.857142857143,4,3,1,70,0,0
23077,-100,4,3,1,5,0,0
23154,-100,4,3,1,70,0,0
23769,-100,4,3,2,70,0,0
24077,-100,4,3,3,70,0,0
24385,-100,4,3,1,70,0,0
25615,-90.9090909090909,4,3,1,70,0,0
30539,-100,4,3,1,70,0,0
35077,-100,4,3,1,5,0,0
35154,-100,4,3,1,70,0,0
35385,-100,4,3,1,70,0,0
35462,-100,4,3,1,70,0,0
36923,-100,4,3,1,5,0,0
37000,-100,4,3,1,70,0,0
46462,-100,4,3,1,5,0,0
46539,-100,4,3,1,70,0,0
50154,-100,4,3,1,70,0,0
50231,-100,4,3,1,70,0,0
52615,-100,4,3,1,70,0,0
52692,-100,4,3,1,70,0,0
54539,-100,4,3,2,70,0,0
54846,-100,4,3,1,70,0,0
55154,-142.857142857143,4,3,1,60,0,0
58846,-90.909090909091,4,3,1,70,0,0
59077,-90.909090909091,4,3,1,70,0,0
59154,-90.909090909091,4,3,1,70,0,0
59385,-90.909090909091,4,3,1,70,0,0
59462,-90.909090909091,4,3,2,65,0,0
59769,-90.909090909091,4,3,1,65,0,0
60077,-100,4,3,1,65,0,0
63000,-100,4,3,2,65,0,0
63462,-100,4,3,1,65,0,0
64231,-100,4,3,2,65,0,0
64692,-100,4,3,1,65,0,0
66846,-200,4,3,1,65,0,0
67462,-83.3333333333333,4,3,1,75,0,1
72385,-90.9090909090909,4,3,1,75,0,0
76897,-90.9090909090909,4,3,2,75,0,0
77000,-90.9090909090909,4,3,2,75,0,0
77154,-90.9090909090909,4,3,1,75,0,0
77205,-90.9090909090909,4,3,1,75,0,0
77308,-90.9090909090909,4,3,1,75,0,0
79385,-90.9090909090909,4,3,1,5,0,0
79462,-90.9090909090909,4,3,1,75,0,0
80000,-90.9090909090909,4,3,1,5,0,0
80077,-90.9090909090909,4,3,1,75,0,0
82231,-90.9090909090909,4,3,1,75,0,0
83154,-200,4,3,1,75,0,0
83359,-200,4,3,1,75,0,0
83385,-200,4,3,1,5,0,0
83462,-90.9090909090909,4,3,1,75,0,0
84385,-200,4,3,1,75,0,0
84590,-200,4,3,1,5,0,0
84615,-200,4,3,1,5,0,0
84692,-100,4,3,1,75,0,0
84897,-100,4,3,1,5,0,0
85000,-100,4,3,1,75,0,0
85231,-100,4,3,1,75,0,0
85308,-100,4,3,1,75,0,0
85846,-100,4,3,1,75,0,0
85923,-100,4,3,1,75,0,0
86539,-100,4,3,2,75,0,0
86846,-100,4,3,1,75,0,0
87077,-100,4,3,1,75,0,0
87154,-111.111111111111,4,3,1,60,0,0
91615,-111.111111111111,4,3,2,60,0,0
91769,-111.111111111111,4,3,3,60,0,0
91923,-111.111111111111,4,3,4,60,0,0
92077,-166.666666666667,4,3,1,50,0,0
94846,-166.666666666667,4,3,2,50,0,0
95308,-166.666666666667,4,3,3,50,0,0
96539,-166.666666666667,4,3,2,50,0,0
96692,-166.666666666667,4,3,1,50,0,0
97615,-125,4,3,1,50,0,0

[Colours]
Combo1 : 83,83,83
Combo2 : 201,39,189
Combo3 : 155,62,210

[HitObjects]
45,279,1953,6,0,B|87:257|124:292|115:299|154:332|197:310,1,161.999995056153,0|8,0:0|0:0,0:0:0:0:
203,308,2619,1,8,0:0:0:0:
407,378,3286,6,0,B|414:311|414:311|439:284|439:284|446:218,1,161.999995056153
446,216,3953,1,0,0:0:0:0:
302,12,4619,6,0,P|289:72|382:74,1,161.999995056153,0|8,0:0|0:0,0:0:0:0:
373,85,5203,1,8,0:0:0:0:
373,85,5286,1,8,0:0:0:0:
181,118,5786,5,0,0:0:0:0:
181,118,5953,2,0,B|140:112|121:69|121:69|90:108|42:103,1,161.999995056153
40,103,6619,1,0,0:0:0:0:
292,161,7619,6,0,B|290:203|290:203|285:208|285:208|281:263,1,80.9999975280763
280,247,7953,6,0,P|302:238|332:242,2,35.9999989013672,8|0|0,0:0|0:0|0:0,0:0:0:0:
207,300,8286,2,0,P|189:298|172:290,2,35.9999989013672
284,253,8619,2,0,P|306:244|336:248,2,35.9999989013672
204,306,8953,2,0,P|186:304|169:296,2,35.9999989013672
292,347,9286,6,0,P|348:364|372:321,1,107.999996704102
464,272,9842,1,0,0:0:0:0:
464,272,9953,2,0,B|459:219|459:219|465:211|465:211|458:143,1,107.999996704102
480,87,10453,1,8,0:0:0:0:
391,47,10619,6,0,L|397:-2,2,35.9999989013672,8|0|0,0:0|0:0|0:0,0:0:0:0:
343,111,10953,1,0,0:0:0:0:
343,111,11064,2,0,B|347:148|347:148|346:154|346:154|352:203,1,71.9999978027344
305,248,11397,2,0,L|313:307,2,35.9999989013672
238,206,11731,2,0,L|232:151,1,35.9999989013672
261,96,11953,1,8,0:0:0:0:
261,96,12619,6,0,B|219:78|182:108|193:118|158:151|109:128,1,161.999995056153,8|8,0:0|0:0,0:0:0:0:
102,125,13286,5,0,0:0:0:0:
256,192,13369,12,0,14453,0:0:0:0:
243,173,14539,6,0,L|244:213,3,22.5,8|8|8|8,0:0|0:0|0:0|0:0,0:0:0:0:
147,237,14846,2,0,L|145:187,3,26.9999991760254,8|8|8|8,0:0|0:0|0:0|0:0,0:0:0:0:
246,293,15154,2,0,L|290:287,1,31.4999990386963,8|8,0:0|0:0,0:0:0:0:
355,230,15308,2,0,L|399:236,1,31.4999990386963,8|8,0:0|0:0,0:0:0:0:
469,287,15462,1,8,0:0:0:0:
472,251,15539,1,8,0:0:0:0:
475,215,15615,1,8,0:0:0:0:
479,179,15692,1,8,0:0:0:0:
483,143,15769,5,12,0:0:0:0:
113,34,20231,5,0,0:0:0:0:
113,34,20308,1,0,0:0:0:0:
113,34,20385,2,0,P|134:98|191:75,1,135,12|0,0:1|0:0,0:0:0:0:
195,72,20692,5,8,0:0:0:0:
498,10,21154,5,0,0:0:0:0:
282,101,21308,1,8,0:0:0:0:
282,101,21769,5,0,0:0:0:0:
500,186,21923,1,8,0:0:0:0:
500,186,22846,6,0,B|494:233|494:233|489:238|489:238|483:285,1,94.499997116089,12|0,0:1|0:0,0:0:0:0:
482,291,23154,6,0,B|437:302|437:302|394:273,1,90,4|8,0:0|0:0,0:0:0:0:
390,269,23385,1,8,0:0:0:0:
360,256,23462,1,8,0:0:0:0:
328,259,23539,1,8,0:0:0:0:
304,279,23615,1,0,0:0:0:0:
297,309,23692,1,0,0:0:0:0:
305,339,23769,2,0,L|370:333,3,45,8|0|0|0,0:0|0:0|0:0|0:0,0:0:0:0:
190,258,24077,2,0,L|125:252,3,45,8|0|0|0,0:0|0:0|0:0|0:0,0:0:0:0:
92,364,24385,5,0,0:0:0:0:
4,259,24539,1,8,0:0:0:0:
4,259,24615,1,8,0:0:0:0:
4,259,24692,2,0,L|8:214,3,45
104,162,25000,2,0,L|99:117,1,45,4|0,0:1|0:0,0:0:0:0:
190,258,25154,1,8,0:0:0:0:
227,274,25231,1,8,0:0:0:0:
266,266,25308,1,8,0:0:0:0:
294,237,25385,1,8,0:0:0:0:
297,196,25462,1,8,0:0:0:0:
275,161,25539,1,8,0:0:0:0:
233,147,25615,6,0,B|228:198|228:198|224:202|224:202|218:257,1,99.0000030212403,4|8,0:0|0:0,0:0:0:0:
286,343,25923,1,0,0:0:0:0:
286,343,26000,1,0,0:0:0:0:
286,343,26077,1,8,0:0:0:0:
414,192,26231,5,0,0:0:0:0:
293,349,26385,1,8,0:0:0:0:
239,158,26539,1,0,0:0:0:0:
239,158,26616,1,0,0:0:0:0:
239,158,26693,1,8,0:0:0:0:
377,298,26846,6,0,P|433:299|451:260,1,99.0000030212403,0|8,0:0|0:0,0:0:0:0:
341,99,27154,2,0,B|334:148|334:148|330:150|330:150|323:217,1,99.0000030212403,0|8,0:0|0:0,0:0:0:0:
231,268,27462,5,0,0:0:0:0:
155,86,27615,1,8,0:0:0:0:
325,194,27769,1,0,0:0:0:0:
325,194,27846,1,0,0:0:0:0:
325,194,27923,1,8,0:0:0:0:
144,316,28077,6,0,B|148:269|148:269|144:262|144:262|150:216,1,99.0000030212403,0|8,0:0|0:0,0:0:0:0:
48,154,28385,1,0,0:0:0:0:
48,154,28462,1,0,0:0:0:0:
48,154,28539,1,8,0:0:0:0:
244,138,28692,5,0,0:0:0:0:
150,322,28846,1,8,0:0:0:0:
42,160,29000,1,0,0:0:0:0:
42,160,29077,1,0,0:0:0:0:
42,160,29154,1,8,0:0:0:0:
238,255,29308,5,0,0:0:0:0:
273,236,29385,1,0,0:0:0:0:
288,199,29462,1,8,0:0:0:0:
276,161,29539,1,0,0:0:0:0:
244,138,29615,1,0,0:0:0:0:
162,194,29769,1,8,0:0:0:0:
352,295,29923,5,0,0:0:0:0:
370,116,30077,1,8,0:0:0:0:
351,304,30231,1,0,0:0:0:0:
371,105,30385,1,8,0:0:0:0:
162,194,30539,6,0,B|137:157|137:157|151:102,1,90,4|8,0:1|0:0,0:0:0:0:
232,144,30846,1,0,0:0:0:0:
232,144,30923,1,0,0:0:0:0:
232,144,31000,1,8,0:0:0:0:
53,168,31154,5,0,0:0:0:0:
237,138,31308,1,8,0:0:0:0:
167,304,31462,1,0,0:0:0:0:
167,304,31539,1,0,0:0:0:0:
167,304,31615,1,8,0:0:0:0:
362,271,31769,6,0,B|356:225|356:225|359:219|359:219|353:171,1,90,0|8,0:0|0:0,0:0:0:0:
471,43,32077,2,0,B|465:89|465:89|468:95|468:95|462:143,1,90,0|8,0:0|0:0,0:0:0:0:
357,278,32385,2,0,P|310:285|268:261,1,90,0|8,0:0|0:0,0:0:0:0:
331,175,32692,1,0,0:0:0:0:
331,175,32769,1,0,0:0:0:0:
331,175,32846,1,8,0:0:0:0:
177,49,33000,6,0,B|130:38|130:38|93:58,1,90,4|8,0:1|0:0,0:0:0:0:
158,227,33308,2,0,B|152:181|152:181|148:179|148:179|143:128,1,90,0|8,0:0|0:0,0:0:0:0:
308,45,33615,5,0,0:0:0:0:
144,140,33769,1,8,0:0:0:0:
301,37,33923,1,0,0:0:0:0:
251,219,34077,1,4,0:0:0:0:
177,49,34231,5,0,0:0:0:0:
333,155,34385,1,8,0:0:0:0:
333,155,34462,1,0,0:0:0:0:
333,155,34539,2,0,L|390:148,1,45,8|0,0:0|0:0,0:0:0:0:
469,19,34692,2,0,L|424:24,1,45,8|0,0:0|0:0,0:0:0:0:
506,209,34846,6,0,B|447:217|447:217|433:231|433:231|361:241,1,135,4|0,0:0|0:0,0:0:0:0:
375,252,35154,1,4,0:2:0:0:
108,232,35462,6,0,B|103:189|103:189|106:184|106:184|101:130,1,90,4|10,0:0|0:0,0:0:0:0:
257,191,35769,2,0,B|261:235|261:235|258:244|258:244|265:299,1,90,0|10,0:0|0:0,0:0:0:0:
196,121,36077,2,0,P|237:96|296:113,1,90,0|10,0:0|0:0,0:0:0:0:
257,191,36385,1,0,0:0:0:0:
136,57,36539,1,10,0:0:0:0:
105,240,36692,6,0,P|41:215|51:154,1,135
57,148,37000,1,0,0:0:0:0:
57,148,37154,1,10,0:0:0:0:
203,281,37308,2,0,B|249:276|249:276|253:272|253:272|307:266,1,90,0|10,0:0|0:0,0:0:0:0:
370,86,37615,2,0,B|324:91|324:91|320:95|320:95|282:99,1,90,0|10,0:0|0:0,0:0:0:0:
424,210,37923,5,0,0:0:0:0:
277,107,38077,1,10,0:0:0:0:
440,31,38231,2,0,P|460:72|453:119,1,90,0|10,0:0|0:0,0:0:0:0:
354,265,38539,2,0,P|333:220|348:168,1,90,0|10,0:0|0:0,0:0:0:0:
424,210,38846,1,0,0:0:0:0:
243,291,39000,1,10,0:0:0:0:
189,119,39154,6,0,B|235:114|235:114|239:110|239:110|277:106,1,90,0|10,0:0|0:0,0:0:0:0:
234,282,39462,2,0,B|188:287|188:287|184:291|184:291|146:295,1,90,0|10,0:0|0:0,0:0:0:0:
23,188,39769,2,0,B|-1:146|-1:146|13:91,1,90,0|10,0:0|0:0,0:0:0:0:
98,138,40077,1,0,0:0:0:0:
98,138,40231,1,10,0:0:0:0:
249,195,40385,6,0,B|297:222|340:179|327:171|365:132|422:160,1,180,4|0,0:0|0:0,0:0:0:0:
394,244,40846,1,10,0:0:0:0:
273,110,41000,2,0,P|229:102|186:131,1,90,0|10,0:0|0:0,0:0:0:0:
249,195,41308,1,0,0:0:0:0:
249,195,41385,1,0,0:0:0:0:
249,195,41462,1,10,0:0:0:0:
218,18,41615,5,0,0:0:0:0:
86,141,41769,1,10,0:0:0:0:
223,24,41923,1,0,0:0:0:0:
241,204,42077,1,10,0:0:0:0:
122,45,42231,2,0,B|76:33|76:33|26:59,1,90,0|10,0:0|0:0,0:0:0:0:
152,215,42539,2,0,B|198:207|198:207|204:209|204:209|253:202,1,90,4|10,0:2|0:0,0:0:0:0:
387,70,42846,6,0,B|423:47|423:47|414:112|414:112|416:117|416:117|407:189,1,180,4|0,0:1|0:0,0:0:0:0:
425,271,43308,1,10,0:0:0:0:
240,203,43462,2,0,B|245:245|245:245|248:251|248:251|256:302,1,90,0|10,0:0|0:0,0:0:0:0:
247,381,43769,1,0,0:0:0:0:
247,381,43846,1,0,0:0:0:0:
247,381,43923,1,10,0:0:0:0:
418,280,44077,5,4,0:0:0:0:
231,213,44231,1,10,0:0:0:0:
379,81,44385,1,0,0:0:0:0:
314,287,44539,1,10,0:0:0:0:
156,140,44692,5,4,0:1:0:0:
129,115,44769,1,0,0:0:0:0:
93,107,44846,1,0,0:0:0:0:
57,115,44923,1,0,0:0:0:0:
33,142,45000,2,0,L|37:196,1,45,4|0,0:2|0:0,0:0:0:0:
134,284,45154,2,0,L|138:230,1,45
249,124,45308,6,0,B|203:128|203:128|199:132|199:132|142:137,1,90,4|10,0:0|0:0,0:0:0:0:
222,304,45615,2,0,B|269:300|269:300|273:296|273:296|309:291,1,90,0|10,0:0|0:0,0:0:0:0:
143,363,45923,2,0,B|119:325|119:325|131:273,1,90,0|10,0:0|0:0,0:0:0:0:
276,210,46231,2,0,B|335:202|335:202|348:186|348:186|419:178,1,135
416,178,46539,6,0,B|431:134|431:134|404:80,1,90,0|10,0:0|0:0,0:0:0:0:
338,42,46846,1,0,0:0:0:0:
268,208,47000,1,10,0:0:0:0:
144,76,47154,2,0,B|189:71|189:71|195:66|195:66|250:60,1,90,0|8,0:0|0:0,0:0:0:0:
39,117,47462,2,0,B|26:69|26:69|47:19,1,90,0|10,0:0|0:0,0:0:0:0:
204,144,47769,5,0,0:0:0:0:
79,274,47923,1,10,0:0:0:0:
255,308,48077,2,0,B|258:265|258:265|261:260|261:260|265:213,1,90,0|10,0:0|0:0,0:0:0:0:
435,279,48385,2,0,B|391:276|391:276|388:273|388:273|340:269,1,90,0|10,0:0|0:0,0:0:0:0:
177,242,48692,1,0,0:0:0:0:
333,364,48846,1,10,0:0:0:0:
383,172,49000,6,0,P|398:125|377:76,1,90,0|10,0:0|0:0,0:0:0:0:
306,129,49308,1,0,0:0:0:0:
465,45,49462,1,10,0:0:0:0:
457,223,49615,1,0,0:0:0:0:
457,223,49692,1,0,0:0:0:0:
457,223,49769,2,0,L|452:278,1,45,10|0,0:0|0:0,0:0:0:0:
300,123,49923,1,4,0:1:0:0:
300,123,50231,6,0,L|225:131,1,45,4|0,0:0|0:0,0:0:0:0:
138,180,50385,1,8,0:0:0:0:
107,199,50462,1,0,0:0:0:0:
70,198,50539,1,8,0:0:0:0:
38,180,50615,1,0,0:0:0:0:
25,146,50692,1,8,0:0:0:0:
33,110,50769,1,0,0:0:0:0:
63,89,50846,2,0,L|124:84,3,45,12|0|8|0,0:1|0:0|0:0|0:0,0:0:0:0:
196,1,51154,2,0,L|201:62,3,45,8|0|8|0,0:0|0:0|0:0|0:0,0:0:0:0:
305,129,51462,5,8,0:0:0:0:
325,158,51539,1,0,0:0:0:0:
330,193,51615,1,8,0:0:0:0:
317,226,51692,1,0,0:0:0:0:
288,247,51769,1,8,0:0:0:0:
266,275,51846,1,0,0:0:0:0:
263,310,51923,1,8,0:0:0:0:
277,343,52000,1,0,0:0:0:0:
306,363,52077,2,0,L|353:358,3,45,8|0|8|0,0:0|0:0|0:0|0:0,0:0:0:0:
456,300,52385,2,0,P|455:230|391:249,1,135,12|0,0:1|0:0,0:0:0:0:
397,242,52692,5,12,0:0:0:0:
356,248,52769,1,0,0:0:0:0:
316,254,52846,1,8,0:0:0:0:
276,260,52923,1,0,0:0:0:0:
236,266,53000,1,8,0:0:0:0:
196,273,53077,1,0,0:0:0:0:
156,280,53154,1,8,0:0:0:0:
116,287,53231,1,0,0:0:0:0:
76,294,53308,6,0,L|86:365,3,45,12|0|8|0,0:1|0:0|0:0|0:0,0:0:0:0:
170,164,53615,2,0,L|163:208,3,45,8|0|8|0,0:0|0:0|0:0|0:0,0:0:0:0:
62,54,53923,5,12,0:2:0:0:
30,85,54000,1,0,0:0:0:0:
23,129,54077,1,8,0:0:0:0:
41,169,54154,1,0,0:0:0:0:
80,189,54231,1,8,0:0:0:0:
124,191,54308,1,0,0:0:0:0:
165,172,54385,2,0,L|175:107,1,45,8|0,0:0|0:0,0:0:0:0:
273,32,54539,5,8,0:0:0:0:
273,32,54615,1,0,0:0:0:0:
273,32,54692,1,8,0:0:0:0:
171,180,54846,1,12,0:1:0:0:
349,206,55000,1,0,0:0:0:0:
265,139,55154,6,0,B|255:195|255:195|257:204|257:204|245:274,1,125.999996154785,4|0,0:0|0:0,0:0:0:0:
300,325,55615,1,0,0:0:0:0:
173,313,55769,2,0,P|185:260|250:266,1,125.999996154785,8|0,0:0|0:0,0:0:0:0:
295,329,56231,1,0,0:0:0:0:
406,270,56385,6,0,B|433:238|433:238|415:143,1,125.999996154785
353,104,56846,1,0,0:0:0:0:
241,163,57000,1,8,0:0:0:0:
241,163,57308,1,8,0:0:0:0:
239,147,57385,1,8,0:0:0:0:
237,131,57462,1,8,0:0:0:0:
235,115,57539,1,8,0:0:0:0:
233,99,57615,6,0,B|212:68|180:69|180:69|165:100|133:110,1,125.999996154785
103,32,58077,1,0,0:0:0:0:
61,151,58231,2,0,L|70:225,1,62.9999980773926,8|0,0:0|0:0,0:0:0:0:
137,259,58539,1,0,0:0:0:0:
137,259,58846,6,0,B|140:306|140:306|144:311|144:311|148:371,1,99.0000030212403,4|0,0:0|0:0,0:0:0:0:
151,371,59077,1,0,0:0:0:0:
151,371,59154,2,0,P|200:385|239:348,1,99.0000030212403,4|0,0:2|0:0,0:0:0:0:
238,178,59462,1,8,0:0:0:0:
238,178,59539,1,0,0:0:0:0:
238,178,59615,1,0,0:0:0:0:
49,240,59769,1,8,0:0:0:0:
223,274,59923,1,0,0:0:0:0:
201,95,60077,6,0,B|251:67|299:103|289:110|335:142|381:117,1,180,4|8,0:0|0:0,0:0:0:0:
346,34,60539,1,0,0:0:0:0:
447,159,60692,2,0,B|465:113|465:113|436:58,1,90
370,121,61000,1,8,0:0:0:0:
370,121,61154,1,0,0:0:0:0:
321,275,61308,6,0,B|363:269|363:269|369:272|369:272|414:265,1,90
229,183,61615,2,0,B|187:189|187:189|181:186|181:186|136:193,1,90,8|0,0:0|0:0,0:0:0:0:
218,335,61923,1,0,0:0:0:0:
312,192,62077,1,0,0:0:0:0:
211,340,62231,2,0,B|180:299|180:299|195:259,1,90,8|0,0:0|0:0,0:0:0:0:
286,107,62539,5,12,0:1:0:0:
418,227,62692,1,0,0:0:0:0:
418,227,62846,1,0,0:0:0:0:
385,56,63000,5,8,0:0:0:0:
311,214,63154,1,0,0:0:0:0:
311,214,63308,1,0,0:0:0:0:
464,129,63462,6,0,B|419:135|419:135|415:137|415:137|371:143,1,90,8|0,0:0|0:0,0:0:0:0:
218,21,63769,5,12,0:1:0:0:
375,142,63923,1,0,0:0:0:0:
375,142,64076,1,0,0:0:0:0:
223,12,64231,5,8,0:0:0:0:
196,208,64385,1,0,0:0:0:0:
196,208,64538,1,0,0:0:0:0:
36,90,64692,6,0,B|82:96|82:96|86:94|86:94|131:100,1,90,12|0,0:1|0:0,0:0:0:0:
259,118,65000,5,4,0:0:0:0:
214,311,65154,1,0,0:0:0:0:
265,123,65308,1,12,0:1:0:0:
409,258,65462,1,0,0:0:0:0:
196,208,65615,6,0,P|172:203|151:206,1,45,8|0,0:0|0:0,0:0:0:0:
324,319,65769,2,0,P|331:342|344:358,1,45,8|0,0:0|0:0,0:0:0:0:
363,165,65923,1,8,0:0:0:0:
363,165,66000,1,8,0:0:0:0:
363,165,66077,2,0,P|379:146|387:127,1,45
214,311,66231,5,8,0:0:0:0:
356,173,66385,1,8,0:0:0:0:
149,108,66539,1,8,0:0:0:0:
149,108,66846,6,0,P|99:85|68:146,1,135,2|0,0:1|0:0,0:0:0:0:
184,212,67462,5,12,0:0:0:0:
223,240,67539,1,0,0:0:0:0:
270,237,67615,1,8,0:0:0:0:
306,205,67692,1,0,0:0:0:0:
347,178,67769,1,8,0:0:0:0:
395,180,67846,1,0,0:0:0:0:
430,212,67923,1,8,0:0:0:0:
436,260,68000,1,0,0:0:0:0:
412,302,68077,6,0,L|356:296,5,53.9999983520508,8|0|8|0|8|0,0:0|0:0|0:0|0:0|0:0|0:0,0:0:0:0:
255,345,68539,2,0,L|200:341,1,53.9999983520508,8|0,0:0|0:0,0:0:0:0:
176,218,68692,5,8,0:0:0:0:
143,189,68769,1,0,0:0:0:0:
100,181,68846,1,8,0:0:0:0:
57,188,68923,1,0,0:0:0:0:
24,216,69000,1,8,0:0:0:0:
10,257,69077,1,0,0:0:0:0:
16,299,69154,1,8,0:0:0:0:
40,334,69231,1,0,0:0:0:0:
79,350,69308,6,0,L|83:294,5,53.9999983520508,8|0|8|0|8|0,0:0|0:0|0:0|0:0|0:0|0:0,0:0:0:0:
168,230,69769,2,0,L|164:174,1,53.9999983520508,8|0,0:0|0:0,0:0:0:0:
53,92,69923,5,12,0:0:0:0:
81,59,70000,1,0,0:0:0:0:
123,51,70077,1,8,0:0:0:0:
165,60,70154,1,0,0:0:0:0:
199,85,70231,1,8,0:0:0:0:
237,104,70308,1,0,0:0:0:0:
280,105,70385,1,8,0:0:0:0:
320,88,70462,1,0,0:0:0:0:
339,49,70539,5,8,0:0:0:0:
295,28,70615,1,0,0:0:0:0:
246,34,70692,1,8,0:0:0:0:
214,70,70769,1,0,0:0:0:0:
214,118,70846,1,8,0:0:0:0:
240,158,70923,1,0,0:0:0:0:
285,174,71000,2,0,L|347:166,1,53.9999983520508,8|0,0:0|0:0,0:0:0:0:
458,79,71154,5,8,0:0:0:0:
488,109,71231,1,0,0:0:0:0:
496,151,71308,1,8,0:0:0:0:
486,193,71385,1,0,0:0:0:0:
456,224,71462,2,0,L|391:231,3,53.9999983520508,8|0|8|0,0:0|0:0|0:0|0:0,0:0:0:0:
311,299,71769,5,0,0:0:0:0:
300,315,71872,5,0,0:0:0:0:
316,325,71974,5,0,0:0:0:0:
328,309,72077,6,0,B|263:315|263:315|253:323|253:323|168:331,1,143.999995605469,12|0,0:1|0:0,0:0:0:0:
105,376,72385,6,0,B|83:330|83:330|103:275,1,99.0000030212403,4|8,0:0|0:0,0:0:0:0:
187,329,72692,1,0,0:0:0:0:
187,329,72769,1,0,0:0:0:0:
187,329,72846,1,8,0:0:0:0:
9,337,73000,5,0,0:0:0:0:
96,181,73154,1,8,0:0:0:0:
182,337,73308,1,0,0:0:0:0:
182,337,73385,1,0,0:0:0:0:
182,337,73462,1,8,0:0:0:0:
88,175,73615,6,0,B|93:125|93:125|97:120|97:120|104:58,1,99.0000030212403,0|8,0:0|0:0,0:0:0:0:
25,14,73923,1,0,0:0:0:0:
200,45,74077,1,8,0:0:0:0:
200,45,74154,1,0,0:0:0:0:
200,45,74231,2,0,B|193:93|193:93|195:98|195:98|188:150,1,99.0000030212403,0|8,0:0|0:0,0:0:0:0:
264,208,74539,5,0,0:0:0:0:
283,206,74641,5,8,0:0:0:0:
302,204,74744,5,8,0:0:0:0:
321,202,74846,6,0,P|336:168|322:138,2,66.0000020141602,12|0|0,0:0|0:0|0:0,0:0:0:0:
414,251,75154,2,0,P|448:237|459:206,2,66.0000020141602,8|0|0,0:0|0:0|0:0,0:0:0:0:
422,356,75462,5,8,0:0:0:0:
422,356,75564,6,0,P|456:371|485:357,1,66.0000020141602
330,308,75769,5,8,0:0:0:0:
330,308,75871,6,0,P|293:299|266:318,1,66.0000020141602
187,361,76077,5,8,0:0:0:0:
168,366,76179,5,0,0:0:0:0:
148,367,76282,5,0,0:0:0:0:
131,355,76385,6,0,L|137:289,2,66.0000020141602,8|0|0,0:0|0:0|0:0,0:0:0:0:
15,379,76692,6,0,B|20:318|20:318|25:313|25:313|32:243,1,132.00000402832,8|8,0:0|0:0,0:0:0:0:
35,230,77000,2,0,P|72:175|139:203,1,132.00000402832
235,266,77308,6,0,B|231:215|231:215|233:209|233:209|228:158,1,99.0000030212403,4|8,0:0|0:0,0:0:0:0:
168,89,77615,1,0,0:0:0:0:
168,89,77692,1,0,0:0:0:0:
168,89,77769,1,8,0:0:0:0:
342,125,77923,5,0,0:0:0:0:
242,272,78077,1,8,0:0:0:0:
419,292,78231,1,0,0:0:0:0:
333,135,78385,1,8,0:0:0:0:
333,135,78462,1,0,0:0:0:0:
333,135,78539,6,0,B|339:183|339:183|336:189|336:189|344:248,1,99.0000030212403,0|8,0:0|0:0,0:0:0:0:
414,300,78846,1,0,0:0:0:0:
485,158,79000,1,8,0:0:0:0:
327,144,79154,6,0,B|290:124|258:162|267:170|236:208|191:185,1,148.50000453186
184,180,79462,1,0,0:0:0:0:
308,53,79615,1,8,0:0:0:0:
114,11,79769,6,0,P|106:67|191:67,1,148.50000453186,4|0,0:0|0:0,0:0:0:0:
191,68,80077,1,0,0:0:0:0:
191,68,80154,1,0,0:0:0:0:
191,68,80231,1,8,0:0:0:0:
14,158,80385,6,0,B|16:206|16:206|20:213|20:213|26:282,1,99.0000030212403,4|8,0:1|0:0,0:0:0:0:
97,321,80692,1,0,0:0:0:0:
97,321,80769,1,0,0:0:0:0:
97,321,80846,1,8,0:0:0:0:
299,239,81000,5,4,0:2:0:0:
94,330,81154,1,8,0:0:0:0:
328,367,81308,5,0,0:0:0:0:
161,225,81462,1,8,0:0:0:0:
381,139,81615,5,0,0:0:0:0:
381,139,81692,1,0,0:0:0:0:
381,139,81769,1,0,0:0:0:0:
321,359,81923,2,0,B|287:368|287:368|243:348,2,66.0000020141602,8|8|8,0:0|0:0|0:0,0:0:0:0:
415,328,82231,5,8,0:0:0:0:
468,290,82333,5,8,0:0:0:0:
469,223,82436,5,8,0:0:0:0:
415,183,82539,5,8,0:0:0:0:
373,131,82641,5,8,0:0:0:0:
389,66,82744,5,8,0:0:0:0:
452,46,82846,5,8,0:0:0:0:
452,46,83154,6,0,P|474:73|477:109,1,67.5,4|0,0:1|0:0,0:0:0:0:
475,119,83462,5,8,0:0:0:0:
449,179,83564,5,8,0:0:0:0:
388,206,83667,5,8,0:0:0:0:
322,195,83770,5,8,0:0:0:0:
278,145,83872,5,8,0:0:0:0:
270,79,83975,5,8,0:0:0:0:
305,24,84077,5,8,0:0:0:0:
305,24,84385,6,0,L|220:17,1,67.5,4|0,0:1|0:0,0:0:0:0:
226,25,84692,6,0,B|172:32|172:32|159:27|159:27|92:35,1,120,4|0,0:0|0:0,0:0:0:0:
89,35,85000,1,0,0:0:0:0:
177,194,85205,5,0,0:0:0:0:
177,194,85308,6,0,B|185:159|185:159|167:127,1,60,4|0,0:0|0:0,0:0:0:0:
54,158,85513,5,0,0:0:0:0:
54,158,85616,6,0,B|45:192|45:192|63:224,1,60
141,300,85821,5,0,0:0:0:0:
141,300,85923,6,0,B|186:330|233:294|223:282|272:251|316:281,1,180,4|0,0:0|0:0,0:0:0:0:
282,363,86385,1,8,0:0:0:0:
282,363,86462,1,8,0:0:0:0:
282,363,86539,1,8,0:0:0:0:
329,190,86692,1,0,0:0:0:0:
404,312,86846,1,4,0:1:0:0:
404,312,87000,1,0,0:0:0:0:
487,213,87154,6,0,B|417:198|417:198|397:204|397:204|326:189,1,161.999995056153,4|0,0:0|0:0,0:0:0:0:
285,121,87615,1,0,0:0:0:0:
157,20,87769,2,0,P|119:78|197:95,1,161.999995056153,12|0,0:1|0:0,0:0:0:0:
243,46,88231,1,0,0:0:0:0:
220,206,88385,6,0,B|217:249|217:249|214:253|214:253|211:302,1,80.9999975280763
98,376,88692,2,0,B|101:333|101:333|104:329|104:329|106:296,1,80.9999975280763
6,187,89000,2,0,B|58:195|58:195|63:200|63:200|122:210|122:210|112:164,1,161.999995056153,12|0,0:1|0:0,0:0:0:0:
100,89,89462,1,0,0:0:0:0:
217,199,89615,6,0,B|260:229|299:199|293:190|330:161|371:189,1,161.999995056153,4|0,0:1|0:0,0:0:0:0:
341,264,90077,1,0,0:0:0:0:
247,131,90231,2,0,P|236:86|264:48,1,80.9999975280763,8|0,0:0|0:0,0:0:0:0:
262,50,90462,1,0,0:0:0:0:
262,50,90539,1,8,0:0:0:0:
324,101,90692,1,8,0:0:0:0:
470,30,90846,5,4,0:1:0:0:
470,30,91000,1,0,0:0:0:0:
329,92,91154,1,0,0:0:0:0:
329,92,91308,1,0,0:0:0:0:
165,23,91462,6,0,B|144:58|171:97|171:97|166:104|166:104|190:141|170:180,1,161.999995056153,8|8,0:0|0:0,0:0:0:0:
88,147,91923,1,8,0:0:0:0:
139,242,92077,6,0,B|194:273|241:227|233:218|286:171|346:204,1,215.999993408203,4|0,0:1|0:0,0:0:0:0:
439,326,93154,1,8,0:0:0:0:
439,326,93308,2,0,P|381:355|377:276,1,161.999995056153,4|0,0:1|0:0,0:0:0:0:
457,219,93923,6,0,B|448:142|448:142|451:131|451:131|444:49,1,161.999995056153
345,11,94539,1,4,0:2:0:0:
256,192,94615,12,0,97000,0:0:0:0:
65,254,97615,6,0,B|62:293|62:293|56:301|56:301|49:368,2,96,4|4|4,0:2|0:2|0:2,0:0:0:0:
175,322,98231,1,4,0:0:0:0:
