osu file format v14

[General]
AudioFilename: audio.mp3
AudioLeadIn: 0
PreviewTime: 138137
Countdown: 0
SampleSet: Normal
StackLeniency: 0.4
Mode: 0
LetterboxInBreaks: 0
WidescreenStoryboard: 1

[Editor]
Bookmarks: 200291,210137,219983
DistanceSpacing: 0.4
BeatDivisor: 4
GridSize: 8
TimelineZoom: 1.9

[Metadata]
Title:FUBUKI
TitleUnicode:吹雪
Artist:Imperial Circus Dead Decadence
ArtistUnicode:Imperial Circus Dead Decadence
Creator:AtHeoN
Version:Tempest
Source:艦隊これくしょん -艦これ-
Tags:
BeatmapID:1702903
BeatmapSetID:460901

[Difficulty]
HPDrainRate:5
CircleSize:4.5
OverallDifficulty:9
ApproachRate:9.7
SliderMultiplier:2.1
SliderTickRate:1

[Events]
//Background and Video events
0,0,"bg2.jpg",0,0
//Break Periods
2,15875,19642
2,200490,202103
2,202951,204565
2,205413,207026
2,207874,209026
//Storyboard Layer 0 (Background)
//Storyboard Layer 1 (Fail)
//Storyboard Layer 2 (Pass)
//Storyboard Layer 3 (Foreground)
//Storyboard Sound Samples

[TimingPoints]
1225,333.333333333333,4,2,1,60,1,0
1891,-133.333333333333,4,2,1,60,0,0
7780,-133.333333333333,4,2,1,5,0,0
7891,-133.333333333333,4,2,1,60,0,0
14391,-133.333333333333,4,2,1,5,0,0
14445,307.692307692308,4,1,1,60,1,0
14445,-100,4,1,1,40,0,0
15060,-100,4,1,1,60,0,0
20291,-66.6666666666667,4,1,1,60,0,0
20521,-66.6666666666667,4,1,1,5,0,0
20598,-100,4,1,1,60,0,0
30445,-79.9999999999999,4,1,1,60,0,0
34983,-79.9999999999999,4,1,1,5,0,0
35060,-79.9999999999999,4,1,1,60,0,0
35291,-79.9999999999999,4,1,1,5,0,0
35368,-100,4,1,1,60,0,0
37521,-133.333333333333,4,1,1,60,0,0
37752,-133.333333333333,4,1,1,5,0,0
37829,-100,4,1,1,60,0,0
42752,-79.9999999999999,4,1,1,60,0,0
45214,-100,4,1,1,60,0,0
47368,-133.333333333333,4,1,1,60,0,0
47598,-133.333333333333,4,1,1,5,0,0
47675,-100,4,1,1,60,0,0
52291,-66.6666666666667,4,1,1,60,0,0
52521,-66.6666666666667,4,1,1,5,0,0
52598,-100,4,1,1,60,0,0
55060,-133.333333333333,4,1,1,60,0,0
58752,-66.6666666666667,4,1,1,60,0,0
58983,-66.6666666666667,4,1,1,5,0,0
59060,-66.6666666666667,4,1,1,60,0,0
59291,-66.6666666666667,4,1,1,5,0,0
59368,-66.6666666666667,4,1,1,60,0,0
59675,-79.9999999999999,4,1,1,60,0,0
59983,-100,4,1,1,60,0,0
66752,-133.333333333333,4,1,1,60,0,0
67368,-80,4,1,1,80,0,1
76598,-80,4,1,1,60,0,0
77214,-80,4,1,1,80,0,1
84598,-133.333333333333,4,1,1,60,0,0
85137,-133.333333333333,4,1,1,5,0,0
85214,-133.333333333333,4,1,1,60,0,0
85752,-133.333333333333,4,1,1,5,0,0
85829,-100,4,1,1,60,0,0
86060,-100,4,1,1,5,0,0
86137,-79.9999999999999,4,1,1,60,0,0
86368,-79.9999999999999,4,1,1,5,0,0
86445,-66.6666666666667,4,1,1,60,0,0
86598,-100,4,1,1,60,0,0
87060,-80,4,1,1,80,0,1
88521,-80,4,1,1,5,0,1
88598,-80,4,1,1,80,0,1
91983,-100,4,1,1,60,0,0
96906,-80,4,1,1,80,0,1
99060,-100,4,1,1,80,0,1
99291,-100,4,2,1,5,0,1
99368,-79.9999999999999,4,1,1,80,0,1
103983,-133.333333333333,4,1,1,80,0,1
104214,-133.333333333333,4,1,1,5,0,1
104291,-100,4,1,1,80,0,1
104906,-66.6666666666667,4,1,1,80,0,1
105521,-79.9999999999999,4,1,1,80,0,1
106752,-100,4,1,1,60,0,0
108060,-100,4,1,1,5,0,0
108137,-100,4,1,1,60,0,0
111675,-100,4,1,1,60,0,0
114060,-100,4,1,1,5,0,0
114137,-100,4,1,1,60,0,0
116598,-79.9999999999999,4,1,1,60,0,0
116906,-100,4,1,1,60,0,0
117675,-79.9999999999999,4,1,1,60,0,0
117906,-79.9999999999999,4,1,1,5,0,0
117983,-79.9999999999999,4,1,1,60,0,0
118291,-100,4,1,1,60,0,0
118983,-100,4,1,1,5,0,0
119060,-100,4,1,1,60,0,0
120137,-79.9999999999999,4,1,1,60,0,0
121521,-133.333333333333,4,1,1,60,0,0
122368,-133.333333333333,4,1,1,5,0,0
122445,-133.333333333333,4,1,1,60,0,0
124829,-133.333333333333,4,1,1,5,0,0
124906,-133.333333333333,4,1,1,60,0,0
126445,-100,4,1,1,60,0,0
138137,-133.333333333333,4,1,1,60,0,0
138752,-80,4,1,1,80,0,1
143598,-80,4,1,1,5,0,1
143675,-80,4,1,1,80,0,1
147983,-83.3333333333333,4,1,1,60,0,0
148598,-80,4,1,1,80,0,1
155983,-133.333333333333,4,1,1,60,0,0
156521,-133.333333333333,4,1,1,5,0,0
156598,-133.333333333333,4,1,1,60,0,0
157137,-133.333333333333,4,1,1,5,0,0
157214,-100,4,1,1,60,0,0
157445,-100,4,1,1,5,0,0
157521,-79.9999999999999,4,1,1,60,0,0
157752,-79.9999999999999,4,1,1,5,0,0
157829,-66.6666666666667,4,1,1,60,0,0
157983,-100,4,1,1,60,0,0
162368,-100,4,1,1,5,0,0
162445,-100,4,1,1,60,0,0
165675,-66.6666666666667,4,1,1,60,0,0
166060,-66.6666666666667,4,1,1,5,0,0
166137,-100,4,1,1,60,0,0
170752,-133.333333333333,4,1,1,60,0,0
170983,-133.333333333333,4,1,1,5,0,0
171060,-100,4,1,1,60,0,0
175060,-66.6666666666667,4,1,1,60,0,0
175675,-100,4,1,1,60,0,0
177752,-100,4,1,1,5,0,0
177829,-100,4,1,1,60,0,0
180521,-100,4,1,1,5,0,0
180598,-100,4,1,1,60,0,0
182983,-100,4,1,1,5,0,0
183060,-100,4,1,1,60,0,0
185445,-100,4,1,1,5,0,0
185521,-100,4,1,1,60,0,0
190368,-100,4,1,1,5,0,0
190445,-100,4,1,1,60,0,0
192906,-133.333333333333,4,1,1,60,0,0
197829,-200,4,1,1,60,0,0
209521,-133.333333333333,4,1,1,60,0,0
210137,-100,4,1,1,60,0,0
214445,-79.9999999999999,4,1,1,60,0,0
214675,-79.9999999999999,4,1,1,5,0,0
214752,-79.9999999999999,4,1,1,60,0,0
215060,-100,4,1,1,60,0,0
219983,-400,4,1,1,60,0,0
223675,-133.333333333333,4,1,1,60,0,0
224060,-133.333333333333,4,1,1,5,0,0
224137,-100,4,1,1,60,0,0
224291,-701.754385964912,4,1,1,60,0,0
224829,-701.754385964912,4,1,1,5,0,0
224906,-100,4,1,1,60,0,0
229521,-300,4,1,1,60,0,0
229752,-300,4,1,1,5,0,0
229829,-100,4,1,1,60,0,0
231060,-133.333333333333,4,1,1,60,0,0
231368,-100,4,1,1,60,0,0
234752,-80,4,1,1,80,0,1
242137,-133.333333333333,4,1,1,70,0,0
242675,-133.333333333333,4,1,1,5,0,0
242752,-133.333333333333,4,1,1,70,0,0
243291,-133.333333333333,4,1,1,5,0,0
243368,-100,4,1,1,70,0,0
243598,-100,4,1,1,5,0,0
243675,-100,4,1,1,70,0,0
244291,-79.9999999999999,4,1,1,70,0,0
244521,-79.9999999999999,4,1,1,5,0,0
244598,-133.333333333333,4,1,1,70,0,0

[Colours]
Combo1 : 234,186,21
Combo2 : 255,128,0
Combo3 : 242,213,40
Combo4 : 240,44,15

[HitObjects]
55,283,1891,6,0,B|170:317|150:232|257:264,1,210.000008010865,2|0,0:0|0:0,0:0:0:0:
332,307,2447,1,0,0:0:0:0:
332,307,2558,1,4,0:3:0:0:
332,307,3224,6,0,P|421:338|470:235,1,210.000008010865,2|0,0:0|0:0,0:0:0:0:
429,142,3891,1,2,0:0:0:0:
83,73,4558,6,0,B|169:70|169:70|205:97|205:97|287:96,1,210.000008010865,2|0,0:0|0:0,0:0:0:0:
358,54,5114,1,0,0:0:0:0:
358,54,5225,1,4,0:3:0:0:
358,54,5669,5,0,0:0:0:0:
374,221,5891,2,0,P|366:112|248:122,1,210.000008010865,2|0,0:0|0:0,0:0:0:0:
204,190,6558,1,2,0:0:0:0:
204,190,7558,2,0,L|81:206,1,105.000004005432,2|0,0:0|0:0,0:0:0:0:
29,155,7891,6,0,P|16:183|17:214,2,52.5000020027161,4|0|0,0:3|0:0|0:0,0:0:0:0:
98,288,8224,2,0,P|128:285|155:268,2,52.5000020027161
99,203,8558,5,0,0:0:0:0:
127,129,8669,1,0,0:0:0:0:
205,116,8780,1,0,0:0:0:0:
255,177,8891,1,0,0:0:0:0:
333,164,9002,1,0,0:0:0:0:
361,90,9113,1,0,0:0:0:0:
311,29,9224,6,0,L|143:19,1,157.500006008148,2|0,0:0|0:0,0:0:0:0:
440,8,9780,1,2,0:0:0:0:
440,8,9891,1,2,0:0:0:0:
334,266,10336,5,0,0:0:0:0:
334,266,10447,1,0,0:0:0:0:
334,266,10558,2,0,P|355:221|343:160,1,105.000004005432,4|0,0:3|0:0,0:0:0:0:
279,111,10891,1,0,0:0:0:0:
279,111,11002,6,0,L|218:103,1,52.5000020027161,0|0,0:0|0:0,0:0:0:0:
169,241,11224,2,0,L|200:199,1,52.5000020027161,0|0,0:0|0:0,0:0:0:0:
112,80,11447,1,0,0:0:0:0:
112,80,11558,1,0,0:0:0:0:
112,80,11669,2,0,L|132:128,1,52.5000020027161,0|0,0:0|0:0,0:0:0:0:
66,336,11891,5,4,0:3:0:0:
66,336,12558,2,0,L|169:326,1,78.7500030040742,0|0,0:0|0:0,0:0:0:0:
153,332,12808,1,0,0:0:0:0:
162,336,12891,1,0,0:0:0:0:
171,340,12974,1,0,0:0:0:0:
180,344,13058,1,0,0:0:0:0:
189,348,13224,6,0,B|94:329|59:228|59:228|150:161|246:226|246:226|328:163|265:84,1,551.25002102852,0|0,0:0|0:0,0:0:0:0:
255,74,14445,5,8,0:0:0:0:
271,93,14521,1,0,0:0:0:0:
293,108,14598,1,0,0:0:0:0:
319,115,14675,1,0,0:0:0:0:
345,114,14752,1,8,0:0:0:0:
370,106,14829,1,0,0:0:0:0:
391,91,14906,1,0,0:0:0:0:
407,70,14983,1,0,0:0:0:0:
416,46,15060,5,8,0:0:0:0:
370,70,15136,1,0,0:0:0:0:
345,115,15213,1,8,0:0:0:0:
348,167,15290,1,0,0:0:0:0:
380,208,15368,1,8,0:0:0:0:
411,249,15445,1,0,0:0:0:0:
415,300,15522,1,8,0:0:0:0:
389,346,15599,1,0,0:0:0:0:
344,370,15675,5,4,0:3:0:0:
156,226,20137,6,0,L|211:214,1,52.5,0|0,0:0|0:0,0:0:0:0:
380,167,20291,2,0,B|321:118|321:118|337:279,1,236.250009012223,4|0,0:0|2:0,0:0:0:0:
344,370,20598,5,4,0:3:0:0:
167,362,21060,5,0,0:0:0:0:
357,63,21214,1,4,0:3:0:0:
85,205,21675,5,0,0:0:0:0:
439,220,21829,1,4,0:3:0:0:
181,56,22752,5,2,0:0:0:0:
68,184,23060,2,0,B|103:202|103:202|170:185,1,105,6|0,0:2|0:0,0:0:0:0:
246,163,23291,1,0,0:0:0:0:
246,163,23368,1,2,0:3:0:0:
376,310,23521,1,0,0:0:0:0:
376,310,23598,1,0,0:0:0:0:
376,310,23675,1,2,0:0:0:0:
376,310,23752,2,0,L|393:191,1,105,0|0,0:0|0:0,0:0:0:0:
487,167,23983,2,0,L|472:270,1,105,2|0,0:0|0:0,0:0:0:0:
256,360,24291,5,2,0:0:0:0:
136,310,24445,1,0,0:0:0:0:
136,310,24522,1,0,0:0:0:0:
136,310,24599,1,0,0:0:0:0:
136,310,24676,2,0,L|119:191,1,105,0|0,0:0|0:0,0:0:0:0:
117,181,24906,1,0,0:0:0:0:
352,162,25060,5,8,0:0:0:0:
313,196,25136,1,8,0:0:0:0:
261,201,25213,1,8,0:0:0:0:
216,176,25290,1,8,0:0:0:0:
193,130,25367,1,8,0:0:0:0:
199,79,25444,1,8,0:0:0:0:
234,40,25521,6,0,L|347:22,1,105,4|8,0:2|0:0,0:0:0:0:
471,142,25829,1,0,0:0:0:0:
340,323,25983,1,8,0:0:0:0:
477,242,26137,2,0,L|373:225,1,105,0|8,0:0|0:0,0:0:0:0:
154,181,26445,1,0,0:0:0:0:
148,205,26521,1,0,0:0:0:0:
142,230,26598,1,8,0:0:0:0:
356,121,26752,6,0,L|374:234,1,105,0|8,0:0|0:0,0:0:0:0:
254,358,27060,1,0,0:0:0:0:
73,227,27214,1,8,0:0:0:0:
154,364,27368,2,0,L|170:260,1,105,0|8,0:0|0:0,0:0:0:0:
202,28,27676,1,0,0:0:0:0:
178,34,27752,1,0,0:0:0:0:
153,40,27829,1,8,0:0:0:0:
356,121,27983,5,0,0:0:0:0:
144,182,28137,1,8,0:0:0:0:
303,336,28291,1,0,0:0:0:0:
328,342,28368,1,0,0:0:0:0:
353,348,28445,1,8,0:0:0:0:
232,90,28598,5,0,0:0:0:0:
178,304,28752,1,8,0:0:0:0:
391,243,28906,1,0,0:0:0:0:
407,223,28983,1,0,0:0:0:0:
425,204,29060,1,8,0:0:0:0:
144,182,29214,6,0,P|174:189|210:188,1,52.5,0|0,0:0|0:0,0:0:0:0:
310,162,29368,1,8,0:0:0:0:
382,29,29521,6,0,P|360:51|343:83,1,52.5,0|0,0:0|0:0,0:0:0:0:
316,182,29675,1,8,0:0:0:0:
396,312,29829,6,0,P|387:282|368:251,1,52.5,0|0,0:0|0:0,0:0:0:0:
295,178,29983,1,8,0:0:0:0:
165,309,30137,1,0,0:0:0:0:
120,334,30213,1,0,0:0:0:0:
68,329,30290,1,8,0:0:0:0:
30,294,30367,1,0,0:0:0:0:
19,244,30444,5,4,0:0:0:0:
177,158,30598,2,0,P|192:97|198:29,1,131.25,8|0,0:0|0:0,0:0:0:0:
294,356,30906,1,8,0:0:0:0:
103,252,31060,1,0,0:0:0:0:
330,125,31214,2,0,P|335:190|350:254,1,131.25,8|0,0:0|0:0,0:0:0:0:
421,313,31445,1,0,0:0:0:0:
421,313,31521,1,8,0:0:0:0:
433,81,31675,5,0,0:0:0:0:
231,235,31829,2,0,P|174:214|76:227,1,131.25,8|0,0:0|0:0,0:0:0:0:
330,125,32137,1,8,0:0:0:0:
155,315,32291,1,0,0:0:0:0:
73,80,32445,1,8,0:0:0:0:
155,315,32598,1,0,0:0:0:0:
169,344,32675,1,0,0:0:0:0:
183,373,32752,1,8,0:0:0:0:
330,125,32906,6,0,B|366:96|366:96|453:128,1,131.25,4|8,0:0|0:0,0:0:0:0:
243,253,33214,1,0,0:0:0:0:
79,98,33368,1,8,0:0:0:0:
250,276,33521,1,0,0:0:0:0:
311,38,33675,1,8,0:0:0:0:
148,212,33829,1,0,0:0:0:0:
115,209,33906,1,0,0:0:0:0:
83,207,33983,1,8,0:0:0:0:
346,331,34137,5,0,0:0:0:0:
310,38,34291,2,0,P|307:70|317:101,1,65.625,8|0,0:0|0:0,0:0:0:0:
509,103,34445,2,0,P|483:85|451:77,1,65.625,8|0,0:0|0:0,0:0:0:0:
353,242,34598,2,0,P|382:229|405:205,1,65.625,8|0,0:0|0:0,0:0:0:0:
215,133,34752,6,0,B|144:77|96:100|96:100|69:148|86:183,1,196.875,4|0,0:0|2:0,0:0:0:0:
276,233,35060,2,0,B|359:199|364:146|364:146|336:99|297:96,1,196.875,0|0,0:0|2:0,0:0:0:0:
159,236,35368,5,4,0:0:0:0:
159,236,35675,2,0,B|146:356,1,105,0|8,0:0|0:0,0:0:0:0:
395,283,35983,2,0,B|382:163,1,105,0|8,0:0|0:0,0:0:0:0:
373,102,36214,1,0,0:0:0:0:
373,102,36291,1,0,0:0:0:0:
159,236,36445,1,8,0:0:0:0:
103,33,36598,6,0,B|145:15|145:15|207:35,1,105,0|8,0:0|0:0,0:0:0:0:
326,179,36906,1,0,0:0:0:0:
446,23,37060,1,8,0:0:0:0:
370,252,37214,2,0,B|328:270|328:270|266:250,1,105,0|8,0:0|0:0,0:0:0:0:
59,85,37521,6,0,B|62:133|62:133|49:155|49:155|54:222,1,118.125004506111,0|0,0:0|2:0,0:0:0:0:
98,314,37829,6,0,P|105:262|153:232,1,105,0|8,0:0|0:0,0:0:0:0:
326,179,38137,2,0,P|278:198|232:178,1,105,0|8,0:0|0:0,0:0:0:0:
96,50,38445,2,0,P|137:82|139:138,1,105,0|8,0:0|0:0,0:0:0:0:
194,320,38752,1,0,0:0:0:0:
42,130,38906,1,8,0:0:0:0:
282,93,39060,5,0,0:0:0:0:
52,252,39214,1,8,0:0:0:0:
289,373,39368,2,0,B|312:337|312:337|298:253,1,105,0|8,0:0|0:0,0:0:0:0:
142,131,39675,2,0,B|119:167|119:167|133:251,1,105,0|8,0:0|0:0,0:0:0:0:
359,133,39982,1,0,0:0:0:0:
332,130,40059,1,0,0:0:0:0:
305,128,40136,1,8,0:0:0:0:
462,10,40291,6,0,B|474:131,1,105,0|8,0:0|0:0,0:0:0:0:
385,259,40598,1,0,0:0:0:0:
255,43,40752,1,8,0:0:0:0:
374,363,40906,6,0,B|386:242,1,105,0|8,0:0|0:0,0:0:0:0:
204,159,41214,1,0,0:0:0:0:
209,184,41291,1,0,0:0:0:0:
215,209,41368,1,8,0:0:0:0:
23,71,41521,6,0,B|53:46|53:46|127:57,1,105,0|8,0:0|0:0,0:0:0:0:
330,138,41829,1,0,0:0:0:0:
109,198,41983,1,8,0:0:0:0:
236,65,42136,1,0,0:0:0:0:
250,307,42291,1,8,0:0:0:0:
33,212,42445,1,0,0:0:0:0:
42,161,42521,1,0,0:0:0:0:
80,125,42598,1,8,0:0:0:0:
132,124,42675,1,0,0:0:0:0:
173,155,42752,6,0,B|309:161,1,131.25,0|8,0:0|0:0,0:0:0:0:
433,262,43059,1,0,0:0:0:0:
442,230,43136,1,0,0:0:0:0:
438,197,43213,1,8,0:0:0:0:
332,342,43368,6,0,B|196:336,1,131.25,0|8,0:0|0:0,0:0:0:0:
72,235,43675,1,0,0:0:0:0:
63,267,43752,1,0,0:0:0:0:
67,300,43829,1,8,0:0:0:0:
196,169,43983,6,0,P|216:106|212:27,1,131.25,0|8,0:0|0:0,0:0:0:0:
356,237,44291,2,0,P|355:302|375:364,1,131.25,0|8,0:0|0:0,0:0:0:0:
491,136,44598,6,0,P|455:140|418:130,1,65.625,0|0,0:0|0:0,0:0:0:0:
356,237,44752,2,0,P|334:207|324:170,1,65.625,8|0,0:0|0:0,0:0:0:0:
215,41,44906,1,0,0:0:0:0:
196,169,45060,1,8,0:0:0:0:
426,43,45214,5,4,0:2:0:0:
426,43,45521,2,0,P|418:98|420:165,1,105,0|8,0:0|0:0,0:0:0:0:
203,273,45829,2,0,P|203:220|195:168,1,105,0|8,0:0|0:0,0:0:0:0:
44,26,46137,1,0,0:0:0:0:
19,198,46291,1,8,0:0:0:0:
198,46,46445,6,0,L|312:36,1,105,0|8,0:0|0:0,0:0:0:0:
97,122,46752,1,0,0:0:0:0:
299,155,46906,1,8,0:0:0:0:
158,315,47060,2,0,L|92:221,1,105,0|8,0:0|0:0,0:0:0:0:
411,214,47368,6,0,L|358:328,1,118.125004506111,0|0,0:0|2:0,0:0:0:0:
349,333,47675,6,0,P|397:306|479:321,1,105,0|0,0:0|0:0,0:0:0:0:
191,208,47983,2,0,P|143:181|61:196,1,105,0|8,0:0|0:0,0:0:0:0:
356,60,48291,2,0,P|345:111|346:163,1,105,0|8,0:0|0:0,0:0:0:0:
445,306,48598,1,0,0:0:0:0:
219,209,48752,1,8,0:0:0:0:
436,98,48906,5,0,0:0:0:0:
309,333,49060,1,8,0:0:0:0:
128,114,49214,2,0,L|231:95,1,105,0|8,0:0|0:0,0:0:0:0:
492,253,49521,2,0,L|389:234,1,105,0|8,0:0|0:0,0:0:0:0:
280,259,49752,1,0,0:0:0:0:
280,259,49829,2,0,B|299:233|299:233|288:135,1,105,0|8,0:0|0:0,0:0:0:0:
133,61,50137,6,0,L|128:114,1,52.5,0|0,0:0|0:0,0:0:0:0:
39,269,50291,1,8,0:0:0:0:
54,318,50367,1,0,0:0:0:0:
96,347,50444,1,8,0:0:0:0:
148,345,50521,1,0,0:0:0:0:
187,312,50598,1,8,0:0:0:0:
198,262,50675,1,0,0:0:0:0:
177,215,50752,5,8,0:0:0:0:
149,171,50828,1,0,0:0:0:0:
152,120,50905,1,8,0:0:0:0:
183,79,50982,1,0,0:0:0:0:
232,62,51059,1,8,0:0:0:0:
282,77,51136,1,0,0:0:0:0:
314,117,51213,1,8,0:0:0:0:
318,169,51290,1,0,0:0:0:0:
292,213,51367,5,8,0:0:0:0:
280,264,51444,1,0,0:0:0:0:
297,313,51521,1,8,0:0:0:0:
337,346,51598,1,0,0:0:0:0:
388,353,51675,1,8,0:0:0:0:
436,332,51752,1,0,0:0:0:0:
465,289,51829,1,8,0:0:0:0:
467,237,51906,1,0,0:0:0:0:
441,192,51983,6,0,P|438:163|442:135,1,52.5,8|0,0:0|0:0,0:0:0:0:
359,0,52137,2,0,P|361:26|359:52,1,52.5,8|0,0:0|0:0,0:0:0:0:
233,150,52291,6,0,B|244:96|301:98|301:98|359:157|319:251,1,236.250009012223,4|0,0:0|2:0,0:0:0:0:
249,298,52598,6,0,L|235:224,1,52.5,8|0,0:0|0:0,0:0:0:0:
175,78,52752,1,8,0:0:0:0:
145,35,52828,1,0,0:0:0:0:
95,23,52905,1,8,0:0:0:0:
50,47,52982,1,0,0:0:0:0:
32,95,53059,1,8,0:0:0:0:
50,143,53136,1,0,0:0:0:0:
96,167,53213,5,8,0:0:0:0:
147,169,53290,1,0,0:0:0:0:
189,200,53367,1,8,0:0:0:0:
205,249,53444,1,0,0:0:0:0:
191,298,53521,1,8,0:0:0:0:
152,332,53598,1,0,0:0:0:0:
100,337,53675,1,8,0:0:0:0:
55,312,53752,1,0,0:0:0:0:
32,266,53829,5,8,0:0:0:0:
68,229,53905,1,0,0:0:0:0:
119,220,53982,1,8,0:0:0:0:
165,244,54059,1,0,0:0:0:0:
188,290,54136,1,8,0:0:0:0:
180,341,54213,1,0,0:0:0:0:
143,377,54290,1,8,0:0:0:0:
92,384,54367,1,0,0:0:0:0:
46,360,54444,5,2,0:0:0:0:
119,220,54598,1,2,0:0:0:0:
204,352,54752,2,0,L|280:371,1,52.5,8|8,0:0|0:0,0:0:0:0:
0,232,54906,1,8,0:0:0:0:
206,116,55060,6,0,P|281:154|274:240,1,157.500006008148,4|0,0:0|0:0,0:0:0:0:
204,352,55521,1,2,0:0:0:0:
107,186,55675,2,0,P|114:91|108:14,1,157.500006008148,8|0,0:0|0:0,0:0:0:0:
194,253,56137,1,0,0:0:0:0:
294,118,56291,6,0,P|336:101|388:105,1,78.7500030040742,0|0,0:0|0:0,0:0:0:0:
480,244,56598,2,0,P|440:242|405:226,1,78.7500030040742,0|2,0:0|0:0,0:0:0:0:
203,60,56906,1,8,0:0:0:0:
86,269,57214,1,0,0:0:0:0:
87,272,57291,1,0,0:0:0:0:
88,275,57368,1,0,0:0:0:0:
89,278,57445,1,0,0:0:0:0:
90,281,57521,6,0,P|104:198|106:108,1,157.500006008148,4|0,0:3|0:0,0:0:0:0:
172,350,57983,1,2,0:0:0:0:
245,236,58137,2,0,P|278:220|323:213,1,78.7500030040742,8|0,0:0|0:0,0:0:0:0:
511,263,58445,2,0,P|480:242|452:206,1,78.7500030040742,0|0,0:0|0:0,0:0:0:0:
368,103,58675,1,0,0:0:0:0:
349,110,58752,6,0,P|351:218|468:181,1,236.250009012223,4|0,0:3|2:0,0:0:0:0:
259,85,59060,2,0,P|163:33|137:152,1,236.250009012223,4|0,0:3|2:0,0:0:0:0:
247,247,59368,1,2,0:0:0:0:
263,282,59445,1,2,0:0:0:0:
261,320,59521,1,2,0:0:0:0:
453,209,59675,2,0,L|388:196,1,65.625,12|0,0:0|0:0,0:0:0:0:
259,85,59829,1,0,0:0:0:0:
163,301,59983,6,0,P|62:300|66:179,1,210,0|8,0:0|0:0,0:0:0:0:
212,86,60445,1,0,0:0:0:0:
80,0,60598,2,0,L|89:114,1,105,2|2,0:0|0:0,0:0:0:0:
163,301,60906,1,8,0:0:0:0:
300,130,61060,1,0,0:0:0:0:
456,319,61214,6,0,P|406:324|356:300,1,105,0|0,0:0|0:0,0:0:0:0:
356,56,61521,2,0,P|385:96|389:152,1,105,8|0,0:0|0:0,0:0:0:0:
179,275,61829,2,0,P|199:229|245:197,1,105,2|2,0:0|0:0,0:0:0:0:
475,227,62137,1,10,0:0:0:0:
243,88,62291,1,0,0:0:0:0:
189,381,62445,5,4,0:0:0:0:
389,150,62598,1,0,0:0:0:0:
396,142,62752,1,2,0:0:0:0:
323,381,62906,5,8,0:0:0:0:
123,150,63059,1,0,0:0:0:0:
116,142,63213,1,2,0:0:0:0:
431,278,63368,5,8,0:0:0:0:
81,278,63521,1,0,0:0:0:0:
335,45,63675,5,12,0:0:0:0:
176,302,63828,1,0,0:0:0:0:
170,311,63982,1,2,0:0:0:0:
177,45,64137,5,8,0:0:0:0:
336,302,64290,1,0,0:0:0:0:
342,311,64444,1,2,0:0:0:0:
130,194,64598,5,12,0:0:0:0:
344,33,64751,1,0,0:0:0:0:
119,190,64906,5,12,0:0:0:0:
443,234,65059,1,0,0:0:0:0:
108,186,65214,5,8,0:0:0:0:
460,101,65367,1,0,0:0:0:0:
201,298,65521,6,0,P|192:271|189:216,1,52.5,8|0,0:0|0:0,0:0:0:0:
140,31,65675,2,0,P|135:56|127:81,1,52.5,8|0,0:0|0:0,0:0:0:0:
27,297,65829,1,8,0:0:0:0:
36,272,65906,1,8,0:0:0:0:
35,245,65983,1,8,0:0:0:0:
109,367,66137,5,0,0:0:0:0:
277,53,66291,1,0,0:0:0:0:
489,336,66445,1,0,0:0:0:0:
489,336,66752,6,0,P|378:319|399:193,1,236.250009012223,0|0,0:0|0:0,0:0:0:0:
495,43,67368,5,8,0:0:0:0:
474,103,67444,1,0,0:0:0:0:
419,137,67521,1,8,0:0:0:0:
355,129,67598,1,0,0:0:0:0:
307,78,67675,1,8,0:0:0:0:
263,31,67751,1,0,0:0:0:0:
199,23,67828,1,8,0:0:0:0:
145,56,67905,1,0,0:0:0:0:
124,117,67983,6,0,L|117:192,1,65.625,8|0,0:0|0:0,0:0:0:0:
213,315,68137,2,0,L|205:240,1,65.625,8|0,0:0|0:0,0:0:0:0:
307,78,68291,2,0,L|299:152,1,65.625,8|0,0:0|0:0,0:0:0:0:
394,331,68445,2,0,L|386:256,1,65.625,8|0,0:0|0:0,0:0:0:0:
495,43,68598,5,8,0:0:0:0:
434,22,68674,1,0,0:0:0:0:
382,58,68751,1,8,0:0:0:0:
377,121,68828,1,0,0:0:0:0:
425,163,68905,1,8,0:0:0:0:
472,205,68982,1,0,0:0:0:0:
467,268,69059,1,8,0:0:0:0:
415,303,69136,1,0,0:0:0:0:
355,283,69214,6,0,P|322:271|265:268,1,65.625,8|0,0:0|0:0,0:0:0:0:
118,251,69368,2,0,P|150:246|181:234,1,65.625,8|0,0:0|0:0,0:0:0:0:
425,163,69521,2,0,P|396:146|365:136,1,65.625,8|0,0:0|0:0,0:0:0:0:
58,129,69675,2,0,P|89:118|117:102,1,65.625,8|0,0:0|0:0,0:0:0:0:
320,30,69829,5,8,0:0:0:0:
366,73,69905,1,0,0:0:0:0:
365,136,69982,1,8,0:0:0:0:
317,178,70059,1,0,0:0:0:0:
254,170,70136,1,8,0:0:0:0:
190,161,70213,1,0,0:0:0:0:
142,203,70290,1,8,0:0:0:0:
141,267,70367,1,0,0:0:0:0:
188,310,70445,6,0,L|271:322,1,65.625,8|0,0:0|0:0,0:0:0:0:
410,248,70598,2,0,L|327:260,1,65.625,8|0,0:0|0:0,0:0:0:0:
125,151,70752,2,0,L|208:163,1,65.625,8|0,0:0|0:0,0:0:0:0:
447,101,70906,2,0,L|364:113,1,65.625,8|0,0:0|0:0,0:0:0:0:
144,236,71060,5,8,0:0:0:0:
79,229,71136,1,0,0:0:0:0:
28,189,71213,1,8,0:0:0:0:
8,128,71290,1,0,0:0:0:0:
24,65,71367,1,8,0:0:0:0:
71,21,71444,1,0,0:0:0:0:
135,9,71521,1,8,0:0:0:0:
195,34,71598,1,0,0:0:0:0:
232,88,71675,6,0,P|276:103|342:86,2,87.5,2|2|2,0:0|0:0|0:0,0:0:0:0:
232,88,71983,2,0,P|251:153|217:244,1,131.25,8|0,0:0|0:0,0:0:0:0:
344,350,72214,1,0,0:0:0:0:
344,350,72291,6,0,P|325:285|359:194,1,131.25,0|8,0:0|0:0,0:0:0:0:
478,55,72598,1,0,0:0:0:0:
232,88,72752,1,8,0:0:0:0:
200,96,72829,1,0,0:0:0:0:
169,83,72906,1,0,0:0:0:0:
338,224,73060,1,8,0:0:0:0:
113,344,73214,1,0,0:0:0:0:
113,344,73291,1,0,0:0:0:0:
113,344,73368,2,0,P|106:308|109:276,1,65.625,0|0,0:0|0:0,0:0:0:0:
232,88,73521,6,0,P|236:152|208:211,1,131.25,0|8,0:0|0:0,0:0:0:0:
20,291,73829,1,0,0:0:0:0:
133,131,73983,1,8,0:0:0:0:
340,303,74137,6,0,P|275:298|216:326,1,131.25,0|8,0:0|0:0,0:0:0:0:
358,114,74445,1,2,0:0:0:0:
444,108,74547,1,2,0:0:0:0:
492,179,74650,1,2,0:0:0:0:
454,256,74752,6,0,P|442:302|447:344,2,87.5,2|2|2,0:0|0:0|0:0,0:0:0:0:
358,114,75060,2,0,P|324:80|285:63,2,87.5,0|0|0,0:0|0:0|0:0,0:0:0:0:
355,224,75368,2,0,P|309:236|275:261,2,87.5,0|0|0,0:0|0:0|0:0,0:0:0:0:
446,341,75675,1,2,0:0:0:0:
366,377,75778,1,2,0:0:0:0:
285,345,75880,1,2,0:0:0:0:
201,371,75983,6,0,B|176:349|176:349|183:284,1,87.5,2|2,0:0|0:0,0:0:0:0:
197,190,76188,1,2,0:0:0:0:
355,224,76291,6,0,B|380:202|380:202|373:137,1,87.5,2|2,0:0|0:0,0:0:0:0:
359,43,76496,1,2,0:0:0:0:
279,153,76598,5,10,0:0:0:0:
238,75,76701,1,10,0:0:0:0:
160,66,76803,1,10,0:0:0:0:
108,113,76906,1,0,0:0:0:0:
46,114,77009,1,0,0:0:0:0:
2,85,77111,1,0,0:0:0:0:
74,22,77214,6,0,L|225:7,1,131.25,4|8,0:2|0:0,0:0:0:0:
459,235,77521,1,0,0:0:0:0:
359,43,77675,1,8,0:0:0:0:
170,245,77829,2,0,L|321:260,1,131.25,0|8,0:0|0:0,0:0:0:0:
482,73,78137,1,0,0:0:0:0:
494,103,78214,1,0,0:0:0:0:
493,135,78291,1,8,0:0:0:0:
208,14,78445,6,0,P|194:50|193:149,1,131.25,0|8,0:0|0:0,0:0:0:0:
384,334,78752,1,0,0:0:0:0:
170,245,78906,1,8,0:0:0:0:
390,84,79060,2,0,P|396:154|371:239,1,131.25,0|8,0:0|0:0,0:0:0:0:
213,351,79368,1,0,0:0:0:0:
242,337,79445,1,0,0:0:0:0:
274,337,79522,1,8,0:0:0:0:
54,264,79675,6,0,B|19:227|19:227|33:113,1,131.25,0|8,0:0|0:0,0:0:0:0:
174,224,79983,2,0,L|246:237,2,65.625,0|0|8,0:0|0:0|0:0,0:0:0:0:
329,98,80291,2,0,B|364:135|364:135|349:248,1,131.25,0|8,0:0|0:0,0:0:0:0:
210,311,80598,2,0,L|145:299,1,65.625,0|0,0:0|0:0,0:0:0:0:
375,363,80752,1,8,0:0:0:0:
174,224,80906,6,0,B|147:173|147:173|170:89,1,131.25,0|8,0:0|0:0,0:0:0:0:
302,301,81214,1,0,0:0:0:0:
302,333,81291,1,0,0:0:0:0:
289,363,81368,1,8,0:0:0:0:
290,160,81521,1,8,0:0:0:0:
312,136,81597,1,8,0:0:0:0:
342,124,81674,1,8,0:0:0:0:
374,126,81751,1,8,0:0:0:0:
402,143,81829,6,0,P|440:162|496:154,2,87.5,0|0|0,0:0|0:0|0:0,0:0:0:0:
247,40,82137,5,8,0:0:0:0:
209,261,82239,1,8,0:0:0:0:
33,117,82342,1,8,0:0:0:0:
290,160,82445,5,8,0:0:0:0:
116,17,82547,1,8,0:0:0:0:
80,239,82650,1,8,0:0:0:0:
162,138,82752,5,8,0:0:0:0:
26,305,83060,6,0,P|81:278|164:305,1,131.25,6|2,0:2|0:0,0:0:0:0:
265,344,83368,5,8,0:0:0:0:
303,123,83470,1,8,0:0:0:0:
479,267,83573,1,8,0:0:0:0:
222,224,83676,5,8,0:0:0:0:
396,367,83778,1,8,0:0:0:0:
432,145,83881,1,8,0:0:0:0:
350,246,83983,5,8,0:0:0:0:
486,79,84291,6,0,P|431:106|348:79,1,131.25,6|2,0:2|0:0,0:0:0:0:
81,18,84598,6,0,P|93:125|197:43,1,275.62501051426,4|0,0:0|2:0,0:0:0:0:
131,66,85214,2,0,B|118:173|118:173|139:220|139:220|128:347,1,275.62501051426,4|0,0:0|2:0,0:0:0:0:
224,377,85829,6,0,P|244:296|318:301,1,157.5,0|0,0:0|2:0,0:0:0:0:
506,222,86137,2,0,P|423:269|355:190,1,196.875,0|0,0:0|2:0,0:0:0:0:
202,155,86445,6,0,P|242:136|292:142,1,78.7500030040742,0|0,0:0|0:0,0:0:0:0:
476,44,86598,1,8,0:0:0:0:
483,94,86674,1,8,0:0:0:0:
455,137,86751,1,8,0:0:0:0:
405,150,86828,1,8,0:0:0:0:
360,126,86905,1,8,0:0:0:0:
342,78,86982,1,8,0:0:0:0:
362,30,87060,6,0,L|371:95,3,65.625,2|2|2|2,0:0|0:0|0:0|0:0,0:0:0:0:
202,155,87368,2,0,L|193:220,3,65.625,2|2|2|2,0:0|0:0|0:0|0:0,0:0:0:0:
264,320,87675,6,0,P|286:348|323:375,1,65.625,2|2,0:0|0:0,0:0:0:0:
381,160,87829,2,0,P|379:127|371:95,1,65.625,2|2,0:0|0:0,0:0:0:0:
380,282,87983,2,0,P|410:270|438:253,1,65.625,2|2,0:0|0:0,0:0:0:0:
264,121,88137,2,0,P|229:111|183:111,1,65.625,2|2,0:0|0:0,0:0:0:0:
192,220,88291,6,0,P|114:265|29:192,1,196.875,4|0,0:0|2:0,0:0:0:0:
34,210,88598,2,0,L|22:276,1,65.625,0|0,0:0|0:0,0:0:0:0:
272,267,88752,1,0,0:0:0:0:
272,267,88829,1,0,0:0:0:0:
272,267,88906,6,0,P|282:229|280:192,1,65.625,8|0,0:0|0:0,0:0:0:0:
149,68,89060,1,0,0:0:0:0:
149,68,89137,2,0,P|176:95|209:112,1,65.625,8|0,0:0|0:0,0:0:0:0:
382,60,89291,1,0,0:0:0:0:
382,60,89368,2,0,P|344:70|313:90,1,65.625,8|0,0:0|0:0,0:0:0:0:
192,220,89521,5,4,0:2:0:0:
229,22,89675,1,8,0:0:0:0:
381,153,89829,1,0,0:0:0:0:
405,214,89906,1,0,0:0:0:0:
387,274,89983,1,8,0:0:0:0:
339,308,90060,1,0,0:0:0:0:
283,306,90137,1,0,0:0:0:0:
240,275,90214,1,0,0:0:0:0:
190,273,90291,1,0,0:0:0:0:
149,294,90368,1,0,0:0:0:0:
126,330,90445,2,0,L|135:242,1,65.625,8|8,0:0|0:0,0:0:0:0:
141,189,90598,1,8,0:0:0:0:
339,308,90752,6,0,B|379:338|379:338|463:304,1,131.25,0|8,0:0|0:0,0:0:0:0:
409,107,90983,1,0,0:0:0:0:
409,107,91060,2,0,L|400:195,1,65.625,0|0,0:0|0:0,0:0:0:0:
394,248,91214,1,8,0:0:0:0:
202,178,91368,1,8,0:0:0:0:
169,173,91445,1,8,0:0:0:0:
141,189,91521,1,8,0:0:0:0:
273,40,91675,2,0,P|287:70|288:105,1,65.625,8|8,0:0|0:0,0:0:0:0:
171,314,91829,2,0,P|172:281|186:251,1,65.625,8|0,0:0|0:0,0:0:0:0:
402,172,91983,5,4,0:3:0:0:
402,172,93214,1,4,0:3:0:0:
110,212,94445,2,0,B|101:192|101:192|106:151,1,52.5,4|0,0:3|0:0,0:0:0:0:
270,212,94598,5,8,0:0:0:0:
294,255,94674,1,8,0:0:0:0:
272,300,94751,1,8,0:0:0:0:
222,309,94828,1,8,0:0:0:0:
187,273,94906,2,0,L|193:211,1,52.5,8|0,0:0|0:0,0:0:0:0:
423,100,95060,5,8,0:0:0:0:
447,143,95136,1,8,0:0:0:0:
425,188,95213,1,8,0:0:0:0:
375,197,95290,1,8,0:0:0:0:
340,161,95368,6,0,L|346:100,1,52.5,8|0,0:0|0:0,0:0:0:0:
228,0,95521,1,8,0:0:0:0:
228,0,95598,1,8,0:0:0:0:
228,0,95675,2,0,L|233:52,1,52.5,8|8,0:0|0:0,0:0:0:0:
120,226,95829,1,8,0:0:0:0:
120,226,95906,1,8,0:0:0:0:
120,226,95983,2,0,L|126:165,1,52.5,8|0,0:0|0:0,0:0:0:0:
21,33,96137,5,8,0:0:0:0:
35,55,96214,1,8,0:0:0:0:
59,74,96291,1,8,0:0:0:0:
94,82,96368,1,8,0:0:0:0:
134,71,96445,1,8,0:0:0:0:
167,37,96521,1,8,0:0:0:0:
218,28,96598,1,8,0:0:0:0:
267,57,96675,1,8,0:0:0:0:
281,118,96752,1,8,0:0:0:0:
241,173,96829,1,8,0:0:0:0:
244,246,96906,6,0,B|278:276|278:276|386:260,1,131.25,4|8,0:0|0:0,0:0:0:0:
422,148,97214,1,0,0:0:0:0:
263,368,97368,1,8,0:0:0:0:
83,150,97521,2,0,B|78:124|91:108|91:108|131:90|176:113,1,131.25,0|8,0:0|0:0,0:0:0:0:
254,277,97829,2,0,B|233:294|213:291|213:291|178:265|175:214,1,131.25,0|8,0:0|0:0,0:0:0:0:
279,66,98137,6,0,B|304:74|311:93|311:93|306:137|264:165,1,131.25,0|8,0:0|0:0,0:0:0:0:
60,264,98445,1,0,0:0:0:0:
340,221,98598,1,8,0:0:0:0:
174,112,98752,1,0,0:0:0:0:
282,368,98906,1,8,0:0:0:0:
430,126,99060,2,0,B|401:80|401:80|336:70|306:122,1,157.5,4|0,0:2|2:0,0:0:0:0:
261,193,99368,6,0,P|205:221|116:183,1,131.25,0|8,0:0|0:0,0:0:0:0:
29,118,99675,1,0,0:0:0:0:
178,323,99829,1,8,0:0:0:0:
200,83,99983,1,0,0:0:0:0:
29,264,100137,1,8,0:0:0:0:
323,331,100291,2,0,B|353:254|353:254|337:203,1,131.25,0|0,0:0|0:0,0:0:0:0:
192,59,100598,5,0,0:0:0:0:
420,121,100752,1,8,0:0:0:0:
244,274,100906,1,0,0:0:0:0:
440,121,101060,1,8,0:0:0:0:
121,168,101214,2,0,B|67:104|111:10|111:10|191:58,1,262.5,2|0,0:0|0:0,0:0:0:0:
338,207,101675,1,8,0:0:0:0:
484,52,101829,6,0,B|441:32|441:32|343:65,1,131.25,0|8,0:0|0:0,0:0:0:0:
265,280,102137,1,0,0:0:0:0:
269,115,102291,1,8,0:0:0:0:
417,361,102445,6,0,B|455:333|455:333|476:232,1,131.25,0|8,0:0|0:0,0:0:0:0:
429,76,102753,1,0,0:0:0:0:
416,105,102829,1,0,0:0:0:0:
414,137,102906,1,8,0:0:0:0:
182,148,103060,6,0,B|186:195|186:195|263:263,1,131.25,0|8,0:0|0:0,0:0:0:0:
472,251,103367,1,0,0:0:0:0:
276,130,103521,1,8,0:0:0:0:
278,324,103675,1,0,0:0:0:0:
416,105,103829,1,8,0:0:0:0:
107,60,103983,2,0,B|112:107|112:107|97:137|97:137|107:191,1,118.125004506111,0|0,0:0|2:0,0:0:0:0:
208,299,104291,6,0,B|184:167,1,131.25,0|0,0:0|0:0,0:0:0:0:
330,33,104598,1,0,0:0:0:0:
439,223,104752,1,8,0:0:0:0:
144,88,104906,6,0,P|106:73|48:87,1,78.7500030040742,0|0,0:0|0:0,0:0:0:0:
232,250,105060,2,0,P|269:264|327:250,1,78.7500030040742,8|0,0:0|0:0,0:0:0:0:
269,125,105214,2,0,P|283:87|269:29,1,78.7500030040742,0|0,0:0|0:0,0:0:0:0:
106,213,105368,2,0,P|91:250|105:308,1,78.7500030040742,8|0,0:0|0:0,0:0:0:0:
353,117,105521,6,0,P|309:112|266:125,1,87.5,8|0,0:0|0:0,0:0:0:0:
293,304,105727,2,0,P|318:268|328:224,1,87.5,8|0,0:0|0:0,0:0:0:0:
160,158,105932,2,0,P|177:198|211:228,1,87.5,8|0,0:0|0:0,0:0:0:0:
451,251,106137,6,0,P|420:182|364:131,1,87.5,8|0,0:0|0:0,0:0:0:0:
127,322,106343,2,0,P|200:330|273:307,1,87.5,8|0,0:0|0:0,0:0:0:0:
228,5,106548,2,0,P|184:64|167:139,1,87.5,8|0,0:0|0:0,0:0:0:0:
269,193,106752,5,4,0:3:0:0:
269,193,107060,1,0,0:0:0:0:
254,206,107136,1,0,0:0:0:0:
236,214,107213,1,0,0:0:0:0:
217,215,107290,1,0,0:0:0:0:
198,210,107367,1,0,0:0:0:0:
181,200,107444,1,0,0:0:0:0:
170,184,107521,1,0,0:0:0:0:
163,165,107598,1,0,0:0:0:0:
164,146,107675,1,0,0:0:0:0:
170,128,107752,1,0,0:0:0:0:
183,112,107829,6,0,L|163:273,1,157.5,4|0,0:3|2:0,0:0:0:0:
78,354,108137,2,0,B|58:319|58:319|80:252,1,105,4|0,0:3|0:0,0:0:0:0:
260,190,108445,1,0,0:0:0:0:
260,209,108521,1,0,0:0:0:0:
267,227,108598,1,0,0:0:0:0:
280,241,108675,1,0,0:0:0:0:
297,251,108752,1,0,0:0:0:0:
316,256,108829,1,0,0:0:0:0:
335,252,108906,1,0,0:0:0:0:
256,384,109060,1,0,0:0:0:0:
408,308,109214,6,0,P|427:253|414:205,1,105,4|0,0:3|0:0,0:0:0:0:
256,56,109598,1,0,0:0:0:0:
256,56,109675,1,0,0:0:0:0:
336,160,109829,1,0,0:0:0:0:
256,56,110137,1,0,0:0:0:0:
176,168,110291,6,0,B|136:181|136:181|52:150,1,105,4|0,0:3|0:0,0:0:0:0:
288,280,110598,1,4,0:3:0:0:
133,103,110752,1,0,0:0:0:0:
12,289,110906,1,0,0:0:0:0:
304,155,111060,2,0,L|336:371,1,210,0|0,0:0|0:0,0:0:0:0:
335,362,111675,6,0,P|359:255|421:293,1,210,4|8,0:3|0:0,0:0:0:0:
502,355,112137,1,0,0:0:0:0:
406,157,112291,1,0,0:0:0:0:
262,314,112445,1,0,0:0:0:0:
486,214,112598,1,8,0:0:0:0:
253,60,112752,6,0,B|235:100|235:100|250:172,1,105,0|0,0:0|0:0,0:0:0:0:
97,329,113060,2,0,B|115:289|115:289|100:217,1,105,0|8,0:0|0:0,0:0:0:0:
92,111,113368,1,0,0:0:0:0:
208,296,113521,1,0,0:0:0:0:
322,116,113675,1,0,0:0:0:0:
29,181,113829,2,0,P|88:206|179:147,1,157.5,8|0,0:0|2:0,0:0:0:0:
225,23,114137,6,0,B|240:147,1,105,4|0,0:0|0:0,0:0:0:0:
342,353,114445,2,0,B|354:248,1,105,8|0,0:0|0:0,0:0:0:0:
456,93,114752,1,0,0:0:0:0:
277,214,114906,1,0,0:0:0:0:
225,23,115060,1,8,0:0:0:0:
423,186,115214,1,0,0:0:0:0:
150,124,115368,5,8,0:0:0:0:
366,16,115521,1,0,0:0:0:0:
354,248,115675,5,8,0:0:0:0:
120,61,115830,1,0,0:0:0:0:
85,97,115906,1,0,0:0:0:0:
84,149,115983,1,8,0:0:0:0:
118,187,116060,1,0,0:0:0:0:
169,192,116137,1,0,0:0:0:0:
209,161,116214,1,0,0:0:0:0:
218,110,116291,5,8,0:0:0:0:
358,269,116445,1,8,0:0:0:0:
486,84,116598,6,0,L|354:67,1,131.25,4|0,0:3|0:0,0:0:0:0:
256,8,116906,1,0,0:0:0:0:
102,160,117137,1,0,0:0:0:0:
102,160,117214,2,0,P|122:117|114:47,1,105,0|0,0:0|0:0,0:0:0:0:
256,232,117521,1,0,0:0:0:0:
336,140,117675,6,0,B|285:106|285:106|238:159|255:231,1,196.875,4|0,0:3|2:0,0:0:0:0:
397,355,117983,2,0,L|412:210,1,131.25,4|0,0:3|0:0,0:0:0:0:
74,341,118368,1,0,0:0:0:0:
74,341,118445,2,0,P|120:319|192:323,1,105,0|0,0:0|0:0,0:0:0:0:
410,224,118752,2,0,P|335:239|274:192,1,157.5,0|0,0:0|2:0,0:0:0:0:
274,192,119060,6,0,L|268:247,1,52.5,4|0,0:3|0:0,0:0:0:0:
315,356,119214,1,8,0:0:0:0:
329,334,119290,1,0,0:0:0:0:
349,317,119367,1,0,0:0:0:0:
373,306,119444,1,0,0:0:0:0:
399,302,119521,1,0,0:0:0:0:
425,304,119598,1,0,0:0:0:0:
449,314,119675,5,8,0:0:0:0:
356,206,119829,1,8,0:0:0:0:
485,101,119983,1,0,0:0:0:0:
485,101,120060,1,0,0:0:0:0:
485,101,120137,6,0,P|418:109|346:76,1,131.25,4|0,0:3|0:0,0:0:0:0:
88,223,120445,2,0,P|150:206|198:162,1,131.25,4|0,0:3|0:0,0:0:0:0:
403,245,120752,2,0,P|342:220|301:170,1,131.25,4|0,0:3|0:0,0:0:0:0:
28,69,121060,2,0,P|90:86|153:72,1,131.25,4|0,0:3|0:0,0:0:0:0:
153,72,121521,5,0,0:0:0:0:
206,129,121675,2,0,B|287:158|281:95|357:117,1,157.500006008148,0|0,0:0|0:0,0:0:0:0:
478,223,122137,2,0,L|360:213,1,118.125004506111,8|0,0:0|2:0,0:0:0:0:
328,191,122444,1,0,0:0:0:0:
215,349,122598,2,0,P|171:295|226:202,2,157.500006008148,0|0|0,0:0|0:0|0:0,0:0:0:0:
412,324,123368,1,8,0:0:0:0:
246,277,123521,1,0,0:0:0:0:
412,324,123675,1,8,0:0:0:0:
114,330,123983,5,0,0:0:0:0:
67,266,124137,2,0,B|35:181|107:199|68:99,1,157.500006008148,0|0,0:0|0:0,0:0:0:0:
2,14,124599,2,0,L|130:22,1,118.125004506111,8|0,0:0|2:0,0:0:0:0:
157,6,124907,1,0,0:0:0:0:
281,111,125060,2,0,P|342:154|414:122,2,157.500006008148,0|0|0,0:0|0:0|0:0,0:0:0:0:
341,25,125829,6,0,L|351:77,1,52.5000020027161,10|0,0:0|0:0,0:0:0:0:
176,100,126034,2,0,L|216:66,1,52.5000020027161,2|0,0:0|0:0,0:0:0:0:
324,205,126239,2,0,L|274:187,1,52.5000020027161,2|0,0:0|0:0,0:0:0:0:
412,124,126445,6,0,B|472:160|472:160|495:225|442:307,1,210,4|8,0:0|0:0,0:0:0:0:
310,384,126906,1,0,0:0:0:0:
136,277,127060,2,0,L|244:267,1,105,2|2,0:0|0:0,0:0:0:0:
370,220,127368,1,8,0:0:0:0:
210,361,127521,1,0,0:0:0:0:
107,177,127675,6,0,P|87:127|90:70,1,105,2|0,0:0|0:0,0:0:0:0:
388,119,127983,2,0,P|389:171|369:219,1,105,8|0,0:0|0:0,0:0:0:0:
240,267,128291,2,0,L|246:142,1,105,2|2,0:0|0:0,0:0:0:0:
251,84,128521,1,0,0:0:0:0:
251,84,128598,1,8,0:0:0:0:
434,284,128752,1,0,0:0:0:0:
504,78,128906,6,0,B|457:23|457:23|287:49,1,210,2|8,0:0|0:0,0:0:0:0:
144,232,129368,1,0,0:0:0:0:
42,55,129521,2,0,L|153:69,1,105,2|2,0:0|0:0,0:0:0:0:
368,161,129829,2,0,L|264:174,1,105,8|0,0:0|0:0,0:0:0:0:
40,254,130137,5,12,0:0:0:0:
268,100,130291,1,0,0:0:0:0:
40,130,130445,5,12,0:0:0:0:
268,284,130599,1,0,0:0:0:0:
40,354,130752,5,0,0:0:0:0:
23,304,130829,1,0,0:0:0:0:
40,254,130906,5,0,0:0:0:0:
146,328,131060,1,8,0:0:0:0:
268,284,131214,1,0,0:0:0:0:
114,143,131368,6,0,P|118:52|223:55,1,210,4|8,0:0|0:0,0:0:0:0:
302,196,131830,1,0,0:0:0:0:
403,9,131983,2,0,P|399:60|412:123,1,105,2|0,0:0|0:0,0:0:0:0:
268,284,132291,1,8,0:0:0:0:
194,80,132445,1,0,0:0:0:0:
449,183,132599,6,0,P|398:194|352:173,1,105,0|0,0:0|0:0,0:0:0:0:
210,363,132906,2,0,P|225:313|267:283,1,105,8|0,0:0|0:0,0:0:0:0:
174,65,133214,2,0,P|208:103|213:154,1,105,2|2,0:0|0:0,0:0:0:0:
381,285,133522,1,8,0:0:0:0:
96,192,133676,1,0,0:0:0:0:
396,79,133830,5,4,0:0:0:0:
164,254,133983,1,0,0:0:0:0:
155,259,134137,1,2,0:0:0:0:
396,305,134291,5,8,0:0:0:0:
164,130,134444,1,0,0:0:0:0:
155,125,134598,1,2,0:0:0:0:
256,344,134753,5,8,0:0:0:0:
360,80,134906,1,0,0:0:0:0:
96,192,135060,5,4,0:0:0:0:
405,297,135213,1,0,0:0:0:0:
414,300,135367,1,2,0:0:0:0:
85,196,135521,5,8,0:0:0:0:
405,91,135674,1,0,0:0:0:0:
414,88,135828,1,0,0:0:0:0:
128,287,135983,5,12,0:0:0:0:
324,12,136136,1,0,0:0:0:0:
274,350,136291,5,4,0:0:0:0:
134,43,136444,1,0,0:0:0:0:
109,34,136521,1,0,0:0:0:0:
83,38,136598,1,0,0:0:0:0:
187,205,136752,1,0,0:0:0:0:
213,215,136829,1,0,0:0:0:0:
239,211,136906,6,0,L|250:148,1,52.5,0|0,0:0|0:0,0:0:0:0:
316,17,137060,2,0,L|325:68,1,52.5,0|0,0:0|0:0,0:0:0:0:
406,307,137214,1,8,0:0:0:0:
397,282,137291,1,8,0:0:0:0:
398,255,137368,1,8,0:0:0:0:
277,370,137522,5,0,0:0:0:0:
487,105,137676,1,0,0:0:0:0:
153,56,137829,1,0,0:0:0:0:
153,56,138137,6,0,P|130:146|260:129,1,236.250009012223,0|0,0:0|0:0,0:0:0:0:
408,27,138752,6,0,B|386:67|386:67|396:156,1,131.25,4|8,0:0|0:0,0:0:0:0:
466,322,139060,1,0,0:0:0:0:
286,231,139214,1,8,0:0:0:0:
470,97,139368,2,0,L|486:235,2,131.25,0|8|0,0:0|0:0|0:0,0:0:0:0:
304,7,139829,1,8,0:0:0:0:
167,230,139983,6,0,P|219:254|295:221,1,131.25,0|8,0:0|0:0,0:0:0:0:
336,108,140291,1,0,0:0:0:0:
361,359,140445,1,8,0:0:0:0:
100,300,140598,2,0,P|75:243|100:155,2,131.25,0|8|0,0:0|0:0|0:0,0:0:0:0:
252,335,141060,1,8,0:0:0:0:
336,108,141214,6,0,P|277:117|212:85,1,131.25,4|0,0:0|0:0,0:0:0:0:
85,176,141521,1,0,0:0:0:0:
289,10,141675,1,8,0:0:0:0:
288,303,141829,6,0,P|310:247|370:207,1,131.25,0|8,0:0|0:0,0:0:0:0:
355,51,142137,1,0,0:0:0:0:
397,311,142291,1,8,0:0:0:0:
143,164,142445,6,0,P|180:211|185:283,1,131.25,0|8,0:0|0:0,0:0:0:0:
327,348,142753,1,0,0:0:0:0:
81,254,142907,1,8,0:0:0:0:
49,251,142983,1,0,0:0:0:0:
19,265,143060,1,0,0:0:0:0:
289,140,143214,1,8,0:0:0:0:
222,344,143368,2,0,B|224:273|224:273|194:226|194:226|199:150,1,196.875,0|0,0:0|2:0,0:0:0:0:
282,51,143675,6,0,L|274:182,1,131.25,4|8,0:0|0:0,0:0:0:0:
410,319,143983,1,0,0:0:0:0:
404,286,144060,1,0,0:0:0:0:
414,256,144137,1,8,0:0:0:0:
222,344,144291,1,0,0:0:0:0:
496,295,144445,1,8,0:0:0:0:
271,116,144598,1,0,0:0:0:0:
271,116,144675,1,0,0:0:0:0:
271,116,144752,2,0,L|274:189,1,65.625,8|0,0:0|0:0,0:0:0:0:
410,319,144906,6,0,P|432:259|401:165,1,131.25,0|8,0:0|0:0,0:0:0:0:
170,103,145214,1,0,0:0:0:0:
364,33,145368,1,8,0:0:0:0:
87,257,145521,6,0,P|65:197|96:103,1,131.25,0|8,0:0|0:0,0:0:0:0:
249,280,145829,1,2,0:0:0:0:
321,328,145932,1,2,0:0:0:0:
399,289,146034,1,2,0:0:0:0:
404,201,146137,6,0,P|398:157|405:115,2,87.5,2|2|0,0:0|0:0|0:0,0:0:0:0:
399,289,146445,2,0,P|439:305|472:333,2,87.5
324,240,146752,2,0,P|290:266|249:281,2,87.5
362,34,147060,1,2,0:0:0:0:
448,29,147162,1,2,0:0:0:0:
493,100,147265,1,2,0:0:0:0:
453,174,147368,6,0,L|356:157,1,87.5,2|2,0:0|0:0,0:0:0:0:
256,96,147573,1,2,0:0:0:0:
72,160,147675,6,0,L|169:143,1,87.5,2|2,0:0|0:0,0:0:0:0:
269,82,147880,1,2,0:0:0:0:
237,231,147983,5,10,0:0:0:0:
297,172,148086,1,10,0:0:0:0:
372,185,148188,1,10,0:0:0:0:
406,242,148291,1,0,0:0:0:0:
462,257,148393,1,0,0:0:0:0:
508,236,148496,1,0,0:0:0:0:
453,174,148598,6,0,L|441:330,1,131.25,4|0,0:2|0:0,0:0:0:0:
256,336,148906,1,8,0:0:0:0:
324,83,149060,1,0,0:0:0:0:
324,83,149137,1,0,0:0:0:0:
324,83,149214,2,0,L|334:213,1,131.25,0|0,0:0|0:0,0:0:0:0:
166,370,149521,1,8,0:0:0:0:
346,302,149675,1,0,0:0:0:0:
59,210,149829,6,0,L|71:54,1,131.25,0|0,0:0|0:0,0:0:0:0:
256,48,150137,1,8,0:0:0:0:
188,301,150291,1,0,0:0:0:0:
188,301,150368,1,0,0:0:0:0:
188,301,150445,2,0,L|177:170,1,131.25,0|0,0:0|0:0,0:0:0:0:
346,14,150752,1,8,0:0:0:0:
166,82,150906,1,0,0:0:0:0:
393,275,151060,6,0,P|420:211|393:128,1,131.25,0|0,0:0|0:0,0:0:0:0:
256,48,151368,1,8,0:0:0:0:
138,218,151521,1,0,0:0:0:0:
60,117,151675,6,0,B|157:113|157:113|226:148|226:148|338:139,1,262.5,0|8,0:0|0:0,0:0:0:0:
444,70,152137,1,0,0:0:0:0:
321,238,152291,6,0,P|412:226|393:360,1,262.5,0|8,0:0|0:0,0:0:0:0:
141,360,152752,1,0,0:0:0:0:
374,289,152906,1,0,0:0:0:0:
206,121,153060,1,0,0:0:0:0:
286,322,153214,6,0,L|300:189,1,131.25,8|0,0:0|0:0,0:0:0:0:
474,42,153521,5,8,0:0:0:0:
240,101,153624,1,8,0:0:0:0:
409,275,153727,1,8,0:0:0:0:
339,4,153829,5,8,0:0:0:0:
273,236,153932,1,8,0:0:0:0:
509,177,154035,1,8,0:0:0:0:
374,139,154137,5,8,0:0:0:0:
374,139,154445,6,0,P|399:210|372:267,1,131.25,6|2,0:2|0:0,0:0:0:0:
38,342,154752,5,8,0:0:0:0:
272,283,154855,1,8,0:0:0:0:
103,109,154958,1,8,0:0:0:0:
173,380,155060,5,8,0:0:0:0:
239,148,155163,1,0,0:0:0:0:
3,207,155266,1,8,0:0:0:0:
138,245,155368,5,8,0:0:0:0:
138,245,155676,6,0,P|113:174|140:117,1,131.25,6|2,0:2|0:0,0:0:0:0:
364,235,155983,6,0,B|391:195|388:163|388:163|288:108|205:181,1,275.62501051426,4|0,0:0|2:0,0:0:0:0:
73,313,156598,2,0,P|21:226|137:258,1,275.62501051426,4|0,0:0|2:0,0:0:0:0:
239,346,157214,6,0,B|228:297|228:297|243:258|243:258|224:184,1,157.5,0|0,0:0|2:0,0:0:0:0:
339,58,157521,2,0,B|320:128|320:128|341:180|341:180|326:247,1,196.875,0|0,0:0|2:0,0:0:0:0:
431,363,157829,6,0,L|407:282,1,78.7500030040742,8|8,0:0|0:0,0:0:0:0:
226,194,157983,1,8,0:0:0:0:
199,171,158059,1,8,0:0:0:0:
166,161,158136,1,8,0:0:0:0:
132,165,158213,1,8,0:0:0:0:
102,184,158290,1,8,0:0:0:0:
83,213,158367,1,8,0:0:0:0:
78,247,158445,5,0,0:0:0:0:
111,207,158521,1,0,0:0:0:0:
121,155,158598,1,0,0:0:0:0:
104,104,158675,1,0,0:0:0:0:
120,53,158752,1,8,0:0:0:0:
160,19,158829,1,0,0:0:0:0:
212,11,158906,1,0,0:0:0:0:
258,34,158983,1,0,0:0:0:0:
285,78,159060,5,2,0:0:0:0:
287,135,159137,1,0,0:0:0:0:
321,181,159214,1,2,0:0:0:0:
376,197,159291,1,0,0:0:0:0:
430,178,159368,1,8,0:0:0:0:
462,130,159445,1,0,0:0:0:0:
461,72,159521,1,0,0:0:0:0:
424,27,159598,1,0,0:0:0:0:
368,11,159675,5,2,0:0:0:0:
314,44,159752,1,0,0:0:0:0:
302,105,159829,1,0,0:0:0:0:
338,156,159906,1,0,0:0:0:0:
388,193,159983,1,8,0:0:0:0:
394,255,160060,1,0,0:0:0:0:
353,303,160137,1,0,0:0:0:0:
289,303,160214,1,0,0:0:0:0:
247,255,160291,5,2,0:0:0:0:
178,260,160368,1,0,0:0:0:0:
140,316,160445,1,2,0:0:0:0:
73,327,160521,1,0,0:0:0:0:
19,283,160598,1,8,0:0:0:0:
14,214,160675,1,0,0:0:0:0:
62,165,160752,1,0,0:0:0:0:
130,167,160829,1,0,0:0:0:0:
185,127,160906,5,2,0:0:0:0:
220,175,160983,1,0,0:0:0:0:
276,195,161060,1,0,0:0:0:0:
332,174,161137,1,0,0:0:0:0:
364,122,161214,1,8,0:0:0:0:
421,103,161291,1,0,0:0:0:0:
477,124,161368,1,0,0:0:0:0:
509,175,161445,1,0,0:0:0:0:
503,234,161521,5,2,0:0:0:0:
467,272,161598,1,0,0:0:0:0:
415,283,161675,1,2,0:0:0:0:
366,262,161752,1,0,0:0:0:0:
337,217,161829,1,8,0:0:0:0:
340,164,161906,1,0,0:0:0:0:
373,123,161983,1,0,0:0:0:0:
376,70,162060,1,0,0:0:0:0:
348,25,162137,6,0,B|299:3|299:3|268:40|287:111,1,157.5,2|0,0:0|2:0,0:0:0:0:
217,216,162445,2,0,P|223:180|221:152,1,52.5,8|0,0:0|0:0,0:0:0:0:
134,107,162598,2,0,P|128:143|130:171,1,52.5,8|8,0:0|0:0,0:0:0:0:
140,326,162752,5,8,0:0:0:0:
40,68,162906,1,8,0:0:0:0:
372,326,163060,5,8,0:0:0:0:
472,68,163214,1,0,0:0:0:0:
128,158,163368,5,4,0:0:0:0:
286,32,163521,2,0,P|302:80|276:145,1,105,0|8,0:0|0:0,0:0:0:0:
72,97,163829,5,0,0:0:0:0:
364,163,163983,2,0,P|330:200|261:211,1,105,2|2,0:0|0:0,0:0:0:0:
96,19,164291,5,8,0:0:0:0:
289,296,164445,2,0,P|239:285|195:230,1,105,0|2,0:0|0:0,0:0:0:0:
175,1,164752,5,2,0:0:0:0:
136,297,164906,2,0,P|119:248|145:183,1,105,8|0,0:0|0:0,0:0:0:0:
230,60,165214,5,2,0:0:0:0:
379,328,165368,1,2,0:0:0:0:
506,58,165521,1,8,0:0:0:0:
134,198,165675,6,0,B|217:231|271:181|271:181|308:202|340:239|340:239|402:181|505:212,1,393.750015020371,0|0,0:0|2:0,0:0:0:0:
496,225,166137,5,8,0:0:0:0:
293,54,166291,1,0,0:0:0:0:
244,333,166445,1,0,0:0:0:0:
367,136,166598,2,0,B|417:89|417:89|395:262,1,210,2|0,0:0|0:0,0:0:0:0:
244,333,167060,5,2,0:0:0:0:
496,225,167214,1,2,0:0:0:0:
284,88,167368,2,0,B|270:132|270:132|297:219,1,105,8|0,0:0|0:0,0:0:0:0:
446,334,167675,5,2,0:0:0:0:
183,241,167829,1,2,0:0:0:0:
404,76,167983,1,10,0:0:0:0:
244,333,168137,1,2,0:0:0:0:
54,76,168291,6,0,B|95:50|95:50|152:64,1,105,4|0,0:0|0:0,0:0:0:0:
380,269,168598,1,8,0:0:0:0:
270,57,168752,1,0,0:0:0:0:
54,308,168906,6,0,B|95:334|95:334|152:320,1,105,2|2,0:0|0:0,0:0:0:0:
380,115,169213,1,8,0:0:0:0:
270,327,169367,1,0,0:0:0:0:
95,144,169521,5,2,0:0:0:0:
414,227,169675,1,0,0:0:0:0:
116,366,169829,1,8,0:0:0:0:
186,42,169983,1,0,0:0:0:0:
346,307,170137,5,2,0:0:0:0:
50,213,170291,1,2,0:0:0:0:
306,68,170445,1,8,0:0:0:0:
33,218,170598,1,0,0:0:0:0:
398,189,170752,6,0,B|420:135|420:135|398:51,1,118.125004506111,2|0,0:0|2:0,0:0:0:0:
481,226,171060,2,0,L|472:336,1,105,8|0,0:0|0:0,0:0:0:0:
158,159,171368,5,2,0:0:0:0:
338,48,171521,1,2,0:0:0:0:
354,27,171598,1,0,0:0:0:0:
370,6,171675,1,8,0:0:0:0:
345,260,171829,1,0,0:0:0:0:
216,51,171983,5,2,0:0:0:0:
402,151,172136,1,0,0:0:0:0:
428,154,172214,1,0,0:0:0:0:
454,157,172291,1,8,0:0:0:0:
222,263,172444,1,0,0:0:0:0:
417,58,172598,5,8,0:0:0:0:
296,311,172752,1,0,0:0:0:0:
169,25,172906,5,8,0:0:0:0:
303,326,173060,1,0,0:0:0:0:
25,204,173214,6,0,B|3:238|33:277|33:277|98:293|148:208,1,210,0|0,0:0|0:0,0:0:0:0:
167,24,173675,2,0,B|129:14|102:55|102:55|106:121|189:139,1,210,0|0,0:0|0:0,0:0:0:0:
382,104,174137,2,0,B|380:65|333:51|333:51|271:76|279:159,1,210,0|0,0:0|0:0,0:0:0:0:
373,333,174598,2,0,B|409:319|408:270|408:270|365:219|286:252,1,210,0|0,0:0|0:0,0:0:0:0:
143,339,175060,6,0,B|216:245|176:151|176:151|84:163|95:251,1,315.000012016297,2|8,0:0|0:0,0:0:0:0:
94,217,175675,5,2,0:0:0:0:
363,254,175829,1,0,0:0:0:0:
166,65,175983,1,8,0:0:0:0:
215,333,176137,1,2,0:0:0:0:
333,89,176291,5,2,0:0:0:0:
109,334,176445,1,0,0:0:0:0:
0,23,176598,1,8,0:0:0:0:
24,14,176675,1,0,0:0:0:0:
48,5,176752,2,0,L|42:78,1,52.5,0|0,0:0|0:0,0:0:0:0:
6,262,176906,5,8,0:0:0:0:
252,45,177060,1,0,0:0:0:0:
353,334,177214,1,12,0:0:0:0:
90,170,177368,2,0,L|164:153,1,52.5,8|0,0:0|0:0,0:0:0:0:
370,140,177521,2,0,B|336:105|336:105|345:230,1,157.5,0|0,0:0|2:0,0:0:0:0:
353,334,177829,5,8,0:0:0:0:
309,360,177905,1,8,0:0:0:0:
258,352,177982,1,8,0:0:0:0:
224,313,178059,1,8,0:0:0:0:
224,260,178137,6,0,P|238:211|216:164,1,105,8|0,0:0|0:0,0:0:0:0:
81,320,178445,1,8,0:0:0:0:
286,131,178598,6,0,P|251:94|190:91,1,105,0|2,0:0|0:0,0:0:0:0:
142,367,178906,1,2,0:0:0:0:
204,12,179060,6,0,P|155:23|122:75,1,105,8|0,0:0|0:0,0:0:0:0:
214,337,179368,1,2,0:0:0:0:
59,23,179521,6,0,P|44:71|73:125,1,105,0|8,0:0|0:0,0:0:0:0:
224,260,179829,1,0,0:0:0:0:
336,104,179983,5,2,0:0:0:0:
416,368,180137,1,2,0:0:0:0:
152,328,180291,2,0,B|123:279|123:279|142:170,1,157.5,8|0,0:0|2:0,0:0:0:0:
248,78,180598,6,0,P|237:124|259:181,1,105,2|0,0:0|0:0,0:0:0:0:
398,234,180906,1,8,0:0:0:0:
59,237,181060,6,0,P|104:223|142:175,1,105,0|2,0:0|0:0,0:0:0:0:
119,28,181368,1,2,0:0:0:0:
290,321,181521,6,0,P|255:288|195:279,1,105,8|0,0:0|0:0,0:0:0:0:
79,372,181829,1,2,0:0:0:0:
313,176,181983,1,0,0:0:0:0:
333,159,182060,1,0,0:0:0:0:
352,141,182137,5,8,0:0:0:0:
167,348,182291,1,0,0:0:0:0:
220,85,182445,1,8,0:0:0:0:
429,266,182598,1,0,0:0:0:0:
122,198,182752,2,0,B|84:142|84:142|117:40,1,157.5,8|0,0:0|2:0,0:0:0:0:
186,0,183060,5,2,0:0:0:0:
186,0,183214,1,0,0:0:0:0:
450,147,183368,2,0,P|406:141|345:166,1,105,8|0,0:0|0:0,0:0:0:0:
86,287,183675,2,0,P|130:293|191:268,1,105,2|2,0:0|0:0,0:0:0:0:
249,79,183983,1,8,0:0:0:0:
475,301,184137,6,0,P|439:273|374:264,1,105,0|2,0:0|0:0,0:0:0:0:
45,114,184445,2,0,P|80:141|145:150,1,105,0|8,0:0|0:0,0:0:0:0:
325,18,184752,1,0,0:0:0:0:
381,264,184906,1,2,0:0:0:0:
381,264,185060,1,2,0:0:0:0:
62,209,185214,2,0,L|224:184,1,157.5,8|0,0:0|2:0,0:0:0:0:
304,167,185521,5,0,0:0:0:0:
234,351,185675,1,0,0:0:0:0:
191,17,185829,2,0,B|152:37|152:37|117:118,1,105,8|0,0:0|0:0,0:0:0:0:
440,223,186137,2,0,B|441:179|441:179|388:108,1,105,8|0,0:0|0:0,0:0:0:0:
256,192,186445,1,0,0:0:0:0:
136,335,186598,6,0,B|173:358|173:358|261:348,1,105,8|0,0:0|0:0,0:0:0:0:
353,294,186829,1,0,0:0:0:0:
352,281,186906,1,0,0:0:0:0:
351,268,186983,1,0,0:0:0:0:
350,255,187060,2,0,L|338:370,1,105,8|0,0:0|0:0,0:0:0:0:
168,137,187368,5,8,0:0:0:0:
169,124,187444,1,8,0:0:0:0:
170,111,187521,1,8,0:0:0:0:
171,98,187598,1,8,0:0:0:0:
172,85,187675,2,0,L|184:200,1,105,0|0,0:0|0:0,0:0:0:0:
120,336,187906,1,0,0:0:0:0:
120,336,187983,6,0,P|100:290|116:208,1,105,0|0,0:0|0:0,0:0:0:0:
256,64,188291,1,8,0:0:0:0:
392,336,188445,6,0,P|412:290|396:208,1,105,0|2,0:0|0:0,0:0:0:0:
256,56,188752,1,2,0:0:0:0:
8,256,188906,6,0,P|13:204|42:160,1,105,8|0,0:0|0:0,0:0:0:0:
256,48,189214,1,2,0:0:0:0:
503,256,189368,6,0,P|497:204|468:161,1,105,0|8,0:0|0:0,0:0:0:0:
256,40,189676,1,0,0:0:0:0:
176,280,189829,5,2,0:0:0:0:
409,236,189983,1,2,0:0:0:0:
140,187,190137,2,0,P|86:235|104:346,1,157.5,8|0,0:0|2:0,0:0:0:0:
165,384,190445,6,0,L|176:272,1,105,2|0,0:0|0:0,0:0:0:0:
69,84,190752,1,8,0:0:0:0:
259,231,190906,6,0,L|248:335,1,105,0|2,0:0|0:0,0:0:0:0:
19,142,191214,1,2,0:0:0:0:
331,286,191368,6,0,L|342:182,1,105,8|0,0:0|0:0,0:0:0:0:
69,84,191675,1,0,0:0:0:0:
175,279,191829,1,0,0:0:0:0:
388,111,191983,5,8,0:0:0:0:
415,138,192059,1,8,0:0:0:0:
427,176,192136,1,8,0:0:0:0:
420,214,192213,1,8,0:0:0:0:
397,246,192290,1,8,0:0:0:0:
363,264,192367,1,8,0:0:0:0:
324,264,192444,1,8,0:0:0:0:
289,247,192521,1,8,0:0:0:0:
265,216,192598,6,0,L|259:152,1,52.5,0|0,0:0|0:0,0:0:0:0:
167,28,192752,2,0,L|160:92,1,52.5,0|0,0:0|0:0,0:0:0:0:
61,251,192906,5,0,0:0:0:0:
26,177,193060,2,0,B|106:157|97:212|183:177,1,157.500006008148,0|0,0:0|0:0,0:0:0:0:
260,164,193521,1,8,0:0:0:0:
416,295,193829,1,0,0:0:0:0:
365,234,193983,2,0,P|350:162|408:104,1,157.500006008148,2|2,0:0|0:0,0:0:0:0:
165,265,194598,1,0,0:0:0:0:
165,265,194675,1,0,0:0:0:0:
165,265,194752,2,0,P|234:288|256:367,1,157.500006008148,8|0,0:0|0:0,0:0:0:0:
45,345,195214,1,0,0:0:0:0:
32,328,195368,5,4,0:0:0:0:
72,260,195521,2,0,B|45:179|112:189|71:83,1,157.500006008148,0|0,0:0|0:0,0:0:0:0:
51,32,195983,1,0,0:0:0:0:
157,225,196137,1,0,0:0:0:0:
440,260,196598,6,0,B|467:179|400:189|441:83,1,157.500006008148,2|0,0:0|0:0,0:0:0:0:
461,32,197060,1,0,0:0:0:0:
461,32,197137,1,0,0:0:0:0:
461,32,197214,1,8,0:0:0:0:
355,225,197368,1,2,0:0:0:0:
256,61,197829,6,0,B|243:114|185:140|185:140|256:168|256:229|256:229|206:258|143:208|143:208|158:244|144:288,1,420,4|0,0:0|0:0,0:0:0:0:
344,104,199983,1,0,0:0:0:0:
344,104,200060,1,0,0:0:0:0:
344,104,200137,2,0,L|382:98,2,26.25,0|0|4,0:0|0:0|0:0,0:0:0:0:
168,104,202598,6,0,L|130:98,2,26.25
349,271,205060,6,0,L|356:314,2,26.25
163,271,207521,6,0,L|156:314,2,26.25
344,179,209521,6,0,B|314:240|357:289|357:289|421:259|404:174,1,236.250009012223,0|0,0:0|0:0,0:0:0:0:
393,97,210060,1,0,0:0:0:0:
393,97,210137,6,0,P|341:73|282:75,1,105,0|0,0:0|0:0,0:0:0:0:
414,293,210445,2,0,P|420:236|400:180,1,105,0|0,0:0|0:0,0:0:0:0:
232,372,210752,2,0,P|288:360|334:324,1,105,0|0,0:0|0:0,0:0:0:0:
405,191,211060,5,0,0:0:0:0:
100,224,211214,2,0,P|127:273|176:307,1,105,8|0,0:0|0:0,0:0:0:0:
199,53,211521,2,0,P|160:95|143:151,1,105,8|0,0:0|0:0,0:0:0:0:
326,333,211829,1,0,0:0:0:0:
448,112,211983,2,0,B|400:88|400:88|344:104,1,105,0|0,0:0|0:0,0:0:0:0:
165,302,212291,1,0,0:0:0:0:
190,307,212368,1,0,0:0:0:0:
215,301,212445,1,0,0:0:0:0:
126,38,212598,6,0,P|144:81|139:158,1,105,0|0,0:0|0:0,0:0:0:0:
451,240,212906,2,0,P|411:215|370:150,1,105,0|0,0:0|0:0,0:0:0:0:
69,268,213214,2,0,P|115:264|187:292,1,105,0|0,0:0|0:0,0:0:0:0:
314,300,213521,5,0,0:0:0:0:
362,20,213675,2,0,P|326:51|252:70,1,105,8|0,0:0|0:0,0:0:0:0:
270,393,213983,2,0,P|281:347|330:288,1,105,8|0,0:0|0:0,0:0:0:0:
144,138,214290,1,0,0:0:0:0:
440,93,214445,6,0,B|472:146|472:146|444:285,1,196.875,2|0,0:0|2:0,0:0:0:0:
283,309,214752,1,2,0:0:0:0:
314,300,214829,1,0,0:0:0:0:
346,302,214906,1,0,0:0:0:0:
144,138,215060,6,0,P|135:84|144:33,1,105,6|0,0:0|0:0,0:0:0:0:
333,125,215368,2,0,P|342:179|333:230,1,105,2|0,0:0|0:0,0:0:0:0:
232,37,215675,2,0,P|286:28|337:37,1,105,2|0,0:0|0:0,0:0:0:0:
245,226,215983,2,0,P|191:235|139:226,1,105,2|0,0:0|0:0,0:0:0:0:
143,34,216291,5,2,0:0:0:0:
333,228,216445,1,0,0:0:0:0:
335,36,216598,5,2,0:0:0:0:
141,226,216752,1,0,0:0:0:0:
239,0,216906,5,2,0:0:0:0:
236,266,217060,1,0,0:0:0:0:
373,132,217213,5,2,0:0:0:0:
102,129,217367,1,0,0:0:0:0:
333,228,217521,6,0,L|327:298,1,52.5,12|8,0:0|0:0,0:0:0:0:
165,350,217675,1,8,0:0:0:0:
138,347,217751,1,8,0:0:0:0:
115,336,217828,1,8,0:0:0:0:
96,318,217905,1,8,0:0:0:0:
84,295,217982,1,8,0:0:0:0:
81,269,218059,1,8,0:0:0:0:
87,244,218137,6,0,L|136:228,1,52.5,4|0,0:0|0:0,0:0:0:0:
333,228,218291,1,8,0:0:0:0:
364,204,218367,1,8,0:0:0:0:
383,170,218444,1,8,0:0:0:0:
387,131,218521,1,8,0:0:0:0:
375,94,218598,1,8,0:0:0:0:
349,65,218675,1,8,0:0:0:0:
313,48,218752,6,0,L|305:112,1,52.5,4|0,0:0|0:0,0:0:0:0:
87,244,218906,1,8,0:0:0:0:
64,197,218982,1,8,0:0:0:0:
69,145,219059,1,8,0:0:0:0:
100,104,219136,1,8,0:0:0:0:
148,85,219213,1,8,0:0:0:0:
199,93,219290,1,8,0:0:0:0:
238,128,219367,1,8,0:0:0:0:
253,177,219444,1,8,0:0:0:0:
268,226,219521,1,8,0:0:0:0:
307,261,219598,1,8,0:0:0:0:
358,269,219675,1,8,0:0:0:0:
406,250,219752,1,8,0:0:0:0:
437,209,219829,1,8,0:0:0:0:
442,157,219906,1,8,0:0:0:0:
421,111,219983,6,0,B|356:104|332:62|332:62|244:44|185:87|189:185|277:232|340:167,1,420,4|4,0:2|0:2,0:0:0:0:
334,175,223675,6,0,B|248:175|205:134|205:134|217:166|200:199,1,196.875007510186,0|0,0:0|2:0,0:0:0:0:
120,227,224137,6,0,P|112:201|115:172,1,52.5,0|0,0:0|0:0,0:0:0:0:
275,249,224291,6,0,P|256:268|229:280,1,52.368749360733,0|0,0:0|2:0,0:0:0:0:
213,100,224906,6,0,P|238:105|263:123,1,52.5,4|0,0:0|0:0,0:0:0:0:
361,177,225060,1,0,0:0:0:0:
409,193,225136,1,0,0:0:0:0:
459,179,225213,1,0,0:0:0:0:
491,139,225290,1,0,0:0:0:0:
495,87,225367,1,0,0:0:0:0:
467,43,225444,1,0,0:0:0:0:
420,23,225521,2,0,B|348:32|348:32|295:11|295:11|196:22,1,210,0|0,0:0|0:0,0:0:0:0:
66,134,225983,1,0,0:0:0:0:
285,226,226137,6,0,P|265:102|193:213,1,315,4|0,0:0|0:0,0:0:0:0:
405,358,226752,2,0,B|384:319|384:319|393:248,1,105,0|0,0:0|0:0,0:0:0:0:
478,113,227060,1,8,0:0:0:0:
437,145,227136,1,8,0:0:0:0:
386,145,227213,1,8,0:0:0:0:
345,114,227290,1,8,0:0:0:0:
332,64,227368,6,0,P|334:118|317:172,1,105,8|0,0:0|0:0,0:0:0:0:
263,235,227598,1,0,0:0:0:0:
263,235,227675,1,0,0:0:0:0:
249,85,227829,1,0,0:0:0:0:
67,111,227983,6,0,P|112:82|168:69,1,105,0|0,0:0|0:0,0:0:0:0:
249,85,228213,1,0,0:0:0:0:
249,85,228290,1,0,0:0:0:0:
127,171,228445,1,0,0:0:0:0:
241,317,228598,6,0,P|193:291|154:250,1,105,0|8,0:0|0:0,0:0:0:0:
127,171,228828,1,8,0:0:0:0:
127,171,228905,1,8,0:0:0:0:
44,384,229060,6,0,L|36:332,1,52.5,0|0,0:0|0:0,0:0:0:0:
17,245,229214,1,0,0:0:0:0:
149,30,229368,6,0,L|141:81,1,52.5,0|0,0:0|0:0,0:0:0:0:
217,189,229521,6,0,L|209:137,1,52.5,8|0,0:0|2:0,0:0:0:0:
208,137,229829,6,0,P|236:151|292:146,2,70,0|0|0,0:0|0:0|0:0,0:0:0:0:
140,81,230137,5,8,0:0:0:0:
75,106,230239,1,8,0:0:0:0:
63,175,230342,1,8,0:0:0:0:
133,59,230445,5,8,0:0:0:0:
51,90,230547,1,8,0:0:0:0:
36,176,230650,1,8,0:0:0:0:
126,37,230752,5,8,0:0:0:0:
27,74,230855,1,8,0:0:0:0:
9,177,230957,1,8,0:0:0:0:
119,15,231060,6,0,B|160:7|160:7|189:21|189:21|241:16,1,118.125004506111,4|0,0:0|0:0,0:0:0:0:
322,91,231368,5,8,0:0:0:0:
391,93,231470,1,8,0:0:0:0:
429,34,231573,1,8,0:0:0:0:
319,113,231676,5,8,0:0:0:0:
407,117,231778,1,8,0:0:0:0:
454,44,231881,1,8,0:0:0:0:
317,136,231983,5,8,0:0:0:0:
423,141,232086,1,8,0:0:0:0:
480,53,232188,1,8,0:0:0:0:
315,159,232291,5,12,0:3:0:0:
313,182,232906,5,4,0:3:0:0:
311,205,233521,5,4,0:3:0:0:
168,96,233675,1,0,0:0:0:0:
134,76,233751,1,0,0:0:0:0:
95,77,233828,1,0,0:0:0:0:
62,98,233905,1,0,0:0:0:0:
45,133,233982,1,8,0:0:0:0:
49,172,234059,1,8,0:0:0:0:
73,203,234136,5,8,0:0:0:0:
120,182,234213,1,8,0:0:0:0:
169,196,234290,1,8,0:0:0:0:
198,239,234367,1,8,0:0:0:0:
194,290,234444,1,8,0:0:0:0:
212,338,234521,1,8,0:0:0:0:
255,368,234598,1,8,0:0:0:0:
306,368,234675,1,8,0:0:0:0:
349,339,234752,6,0,L|371:193,1,131.25,4|8,0:0|0:0,0:0:0:0:
465,39,235060,2,0,L|473:104,2,65.625,0|0|8,0:0|0:0|0:0,0:0:0:0:
163,339,235368,6,0,L|141:193,1,131.25,0|8,0:0|0:0,0:0:0:0:
47,39,235676,2,0,L|38:104,2,65.625,0|0|8,0:0|0:0|0:0,0:0:0:0:
253,55,235983,6,0,B|318:38|318:38|404:85,1,131.25,0|8,0:0|0:0,0:0:0:0:
390,368,236291,2,0,P|404:328|399:263,1,65.625,0|0,0:0|0:0,0:0:0:0:
383,224,236445,1,8,0:0:0:0:
258,328,236598,6,0,B|193:345|193:345|107:298,1,131.25,0|8,0:0|0:0,0:0:0:0:
121,15,236906,2,0,P|107:55|112:120,1,65.625,0|0,0:0|0:0,0:0:0:0:
129,160,237060,1,8,0:0:0:0:
338,66,237214,6,0,B|380:91|380:91|392:147|343:206,1,131.25,0|8,0:0|0:0,0:0:0:0:
148,371,237522,1,0,0:0:0:0:
127,340,237599,1,0,0:0:0:0:
123,303,237676,1,8,0:0:0:0:
331,353,237829,6,0,B|287:375|287:375|234:359|206:286,1,131.25,0|8,0:0|0:0,0:0:0:0:
162,35,238137,1,0,0:0:0:0:
200,32,238214,1,0,0:0:0:0:
234,47,238291,1,8,0:0:0:0:
86,202,238445,6,0,B|87:153|87:153|130:114|205:127,1,131.25,0|8,0:0|0:0,0:0:0:0:
445,215,238753,1,0,0:0:0:0:
430,249,238830,1,0,0:0:0:0:
400,271,238907,1,8,0:0:0:0:
359,110,239060,1,0,0:0:0:0:
512,290,239214,1,8,0:0:0:0:
294,340,239368,6,0,B|267:297|267:297|291:197,1,131.25
364,87,239675,5,8,0:0:0:0:
294,340,239778,1,8,0:0:0:0:
110,151,239881,1,8,0:0:0:0:
402,234,239983,5,8,0:0:0:0:
217,46,240086,1,8,0:0:0:0:
146,298,240189,1,8,0:0:0:0:
256,192,240291,5,8,0:0:0:0:
400,234,240599,6,0,P|429:290|396:360,1,131.25,6|2,0:2|0:0,0:0:0:0:
146,298,240906,5,8,0:0:0:0:
400,234,241009,1,8,0:0:0:0:
216,45,241112,1,8,0:0:0:0:
293,339,241214,5,8,0:0:0:0:
364,87,241317,1,8,0:0:0:0:
108,151,241420,1,8,0:0:0:0:
255,193,241522,5,8,0:0:0:0:
108,151,241829,6,0,P|79:95|112:25,1,131.25,6|2,0:2|0:0,0:0:0:0:
340,229,242137,6,0,B|233:220|233:220|188:257|188:257|78:248,1,275.62501051426,4|0,0:3|2:0,0:0:0:0:
74,69,242752,2,0,B|181:59|181:59|226:96|226:96|335:87,1,275.62501051426,4|0,0:3|2:0,0:0:0:0:
409,32,243368,6,0,P|375:100|412:167,1,157.5,0|0,0:0|2:0,0:0:0:0:
353,329,243675,2,0,P|361:268|323:218,1,105,0|0,0:0|0:0,0:0:0:0:
266,203,243906,1,0,0:0:0:0:
240,197,243983,1,0,0:0:0:0:
214,191,244060,1,0,0:0:0:0:
188,185,244137,1,0,0:0:0:0:
8,312,244291,6,0,L|215:271,1,196.875,4|0,0:0|2:0,0:0:0:0:
201,273,244598,6,0,P|121:243|106:165,1,157.500006008148,0|0,0:0|0:0,0:0:0:0:
137,26,245060,1,0,0:0:0:0:
205,64,245214,2,0,L|301:52,1,78.7500030040742,8|0,0:0|0:0,0:0:0:0:
382,151,245521,2,0,L|286:139,1,78.7500030040742,0|0,0:0|0:0,0:0:0:0:
102,179,245829,6,0,P|175:155|239:216,1,157.500006008148,4|8,0:2|0:0,0:0:0:0:
374,329,246291,1,0,0:0:0:0:
337,259,246445,2,0,L|350:164,1,78.7500030040742,8|0,0:0|0:0,0:0:0:0:
347,23,246752,1,0,0:0:0:0:
291,80,246906,1,0,0:0:0:0:
471,226,247060,6,0,B|489:165|489:165|450:61,1,157.500006008148,0|0,0:0|0:0,0:0:0:0:
337,259,247521,1,0,0:0:0:0:
209,111,247675,1,8,0:0:0:0:
145,297,247829,1,8,0:0:0:0:
140,305,247906,1,8,0:0:0:0:
135,313,247983,1,8,0:0:0:0:
230,222,248137,1,0,0:0:0:0:
103,74,248291,6,0,B|70:123|70:123|94:240,1,157.500006008148,4|0,0:2|0:0,0:0:0:0:
229,344,248752,1,0,0:0:0:0:
378,236,248906,1,0,0:0:0:0:
315,188,249060,1,8,0:0:0:0:
274,238,249214,1,0,0:0:0:0:
230,222,249368,1,0,0:0:0:0:
211,248,249521,6,0,B|166:320|58:323|58:323|32:264|60:211|60:211|23:124|65:76|65:76|130:91|131:182,1,551.25002102852,4|0,0:0|0:0,0:0:0:0:
301,248,250752,2,0,B|346:320|454:323|454:323|480:264|452:211|452:211|489:124|447:76|447:76|382:91|381:182,1,551.25002102852,8|0,0:0|0:0,0:0:0:0:
256,192,251983,5,4,0:0:0:0:
256,192,252060,12,0,253829,0:0:0:0:
256,192,253983,5,8,0:0:0:0:
256,192,254060,1,8,0:0:0:0:
256,192,254137,1,8,0:0:0:0:
256,192,254214,1,8,0:0:0:0:
256,192,254291,1,8,0:0:0:0:
256,192,254368,1,8,0:0:0:0:
256,192,254445,5,8,0:0:0:0:
104,72,255060,1,8,0:0:0:0:
416,152,255265,1,8,0:0:0:0:
80,264,255470,1,8,0:0:0:0:
440,344,255675,5,12,0:0:0:0:
