osu file format v14

[General]
AudioFilename: audio.mp3
AudioLeadIn: 0
PreviewTime: 66691
Countdown: 0
SampleSet: Normal
StackLeniency: 0.7
Mode: 3
LetterboxInBreaks: 0
SpecialStyle: 0
WidescreenStoryboard: 0

[Editor]
DistanceSpacing: 1
BeatDivisor: 4
GridSize: 4
TimelineZoom: 2.7

[Metadata]
Title:FUBUKI
TitleUnicode:吹雪
Artist:Imperial Circus Dead Decadence
ArtistUnicode:Imperial Circus Dead Decadence
Creator:[ Dark_Choco ]
Version:Love on the Battlefield
Source:
Tags:
BeatmapID:1117405
BeatmapSetID:526601

[Difficulty]
HPDrainRate:8.4
CircleSize:4
OverallDifficulty:8.1
ApproachRate:5
SliderMultiplier:1.4
SliderTickRate:1

[Events]
//Background and Video events
0,0,"wallhaven-187522.jpg",0,0
//Break Periods
//Storyboard Layer 0 (Background)
//Storyboard Layer 1 (Fail)
//Storyboard Layer 2 (Pass)
//Storyboard Layer 3 (Foreground)
//Storyboard Sound Samples

[TimingPoints]
2477,666.666666666667,4,1,0,0,1,0
2477,-46.0829493087558,4,1,0,0,0,0
13153,307.692307692308,4,1,0,0,1,0
13153,-100,4,1,0,0,0,0
67306,-100,4,1,0,0,0,1
74691,-100,4,1,0,0,0,0
77153,-100,4,1,0,0,0,1
81768,-100,4,1,0,0,0,0
82076,-100,4,1,0,0,0,1
82999,-100,4,1,0,0,0,0
83306,-100,4,1,0,0,0,1
84229,-100,4,1,0,0,0,0
96845,-100,4,1,0,0,0,1
111614,-100,4,1,0,0,0,0
138691,-100,4,1,0,0,0,1
146076,-100,4,1,0,0,0,0
148537,-100,4,1,0,0,0,1
153153,-100,4,1,0,0,0,0
153460,-100,4,1,0,0,0,1
154383,-100,4,1,0,0,0,0
154691,-100,4,1,0,0,0,1
155614,-100,4,1,0,0,0,0
158383,-100,4,1,0,0,0,1
178076,-100,4,1,0,0,0,0
197768,-333.333333333333,4,1,0,0,0,0
199614,-200,4,1,0,0,0,0
199691,-166.666666666667,4,1,0,0,0,0
199768,-142.857142857143,4,1,0,0,0,0
199845,-125,4,1,0,0,0,0
199922,-83.3333333333333,4,1,0,0,0,0
199999,-80,4,1,0,0,0,0
200076,-76.9230769230769,4,1,0,0,0,0
200153,-74.0740740740741,4,1,0,0,0,0
200229,-111.111111111111,4,1,0,0,0,0
209845,-105.263157894737,4,1,0,0,0,0
210076,-100,4,1,0,0,0,0
219922,-1000.00000000001,4,1,0,0,0,0
223614,-142.857142857143,4,1,0,0,0,0
224076,-111.111111111111,4,1,0,0,0,0
224153,-100,4,1,0,0,0,0
224229,-100,4,1,0,0,0,0
224845,-100,4,1,0,0,0,1
225153,-100,4,1,0,0,0,0
234691,-100,4,1,0,0,0,1
239306,-100,4,1,0,0,0,0
239614,-100,4,1,0,0,0,1
240537,-100,4,1,0,0,0,0
240845,-100,4,1,0,0,0,1
241768,-100,4,1,0,0,0,0
251922,-100,4,1,0,0,0,1
254383,-100,4,1,0,0,0,0
254999,-100,4,1,0,0,0,1
255050,-100,4,1,0,0,0,0
255204,-100,4,1,0,0,0,1
255255,-100,4,1,0,0,0,0
255409,-100,4,1,0,0,0,1
255460,-100,4,1,0,0,0,0
255614,-100,4,1,0,0,0,1
256076,-100,4,1,0,0,0,0

[HitObjects]
64,192,1810,128,0,2477:0:0:0:0:
448,192,2310,1,0,0:0:0:0:
320,192,2352,1,0,0:0:0:0:
192,192,2393,1,0,0:0:0:0:
320,192,2477,1,0,0:0:0:0:
448,192,2477,1,0,0:0:0:0:
448,192,3143,128,0,3810:0:0:0:0:
320,192,3643,128,0,3810:0:0:0:0:
64,192,3810,128,0,4143:0:0:0:0:
320,192,4477,128,0,5143:0:0:0:0:
64,192,4977,1,0,0:0:0:0:
192,192,5018,1,0,0:0:0:0:
448,192,5060,1,0,0:0:0:0:
64,192,5143,1,0,0:0:0:0:
192,192,5143,128,0,5365:0:0:0:0:
448,192,5588,1,0,0:0:0:0:
320,192,5810,128,0,6477:0:0:0:0:
192,192,6310,128,0,6477:0:0:0:0:
64,192,6477,128,0,6810:0:0:0:0:
320,192,7477,128,0,7810:0:0:0:0:
448,192,7810,1,0,0:0:0:0:
64,192,7810,1,0,0:0:0:0:
192,192,7810,1,0,0:0:0:0:
192,192,7921,1,0,0:0:0:0:
192,192,8032,1,0,0:0:0:0:
448,192,8143,1,0,0:0:0:0:
448,192,8254,1,0,0:0:0:0:
320,192,8365,1,0,0:0:0:0:
320,192,8477,1,0,0:0:0:0:
320,192,8588,1,0,0:0:0:0:
64,192,8699,1,0,0:0:0:0:
64,192,8810,1,0,0:0:0:0:
192,192,8921,1,0,0:0:0:0:
448,192,9032,1,0,0:0:0:0:
448,192,9143,1,0,0:0:0:0:
192,192,9185,1,0,0:0:0:0:
320,192,9227,1,0,0:0:0:0:
64,192,9254,1,0,0:0:0:0:
64,192,9365,1,0,0:0:0:0:
192,192,9477,128,0,9699:0:0:0:0:
448,192,9699,128,0,9810:0:0:0:0:
320,192,9810,128,0,10143:0:0:0:0:
448,192,10310,1,0,0:0:0:0:
320,192,10352,1,0,0:0:0:0:
192,192,10393,1,0,0:0:0:0:
64,192,10435,1,0,0:0:0:0:
320,192,10477,1,0,0:0:0:0:
448,192,10477,1,0,0:0:0:0:
64,192,10588,1,0,0:0:0:0:
64,192,10699,1,0,0:0:0:0:
192,192,10810,128,0,11060:0:0:0:0:
192,192,11143,128,0,11310:0:0:0:0:
448,192,11310,1,0,0:0:0:0:
320,192,11393,128,0,11560:0:0:0:0:
64,192,11560,128,0,11643:0:0:0:0:
448,192,11643,128,0,11810:0:0:0:0:
64,192,11810,1,0,0:0:0:0:
320,192,11810,1,0,0:0:0:0:
192,192,11810,128,0,12143:0:0:0:0:
64,192,12477,128,0,13143:0:0:0:0:
192,192,12977,128,0,13143:0:0:0:0:
448,192,13153,128,0,14383:0:0:0:0:
64,192,14383,1,0,0:0:0:0:
192,192,14383,1,0,0:0:0:0:
320,192,14460,1,0,0:0:0:0:
448,192,14460,1,0,0:0:0:0:
64,192,14537,1,0,0:0:0:0:
192,192,14537,1,0,0:0:0:0:
320,192,14614,1,0,0:0:0:0:
448,192,14691,1,0,0:0:0:0:
64,192,14691,1,0,0:0:0:0:
192,192,14768,1,0,0:0:0:0:
320,192,14768,1,0,0:0:0:0:
64,192,14845,1,0,0:0:0:0:
448,192,14845,1,0,0:0:0:0:
320,192,14922,1,0,0:0:0:0:
192,192,14922,1,0,0:0:0:0:
64,192,14999,1,0,0:0:0:0:
192,192,14999,1,0,0:0:0:0:
320,192,15076,1,0,0:0:0:0:
448,192,15076,1,0,0:0:0:0:
64,192,15153,1,0,0:0:0:0:
192,192,15153,1,0,0:0:0:0:
320,192,15229,1,0,0:0:0:0:
448,192,15229,1,0,0:0:0:0:
64,192,15306,1,0,0:0:0:0:
448,192,15306,1,0,0:0:0:0:
192,192,15383,1,0,0:0:0:0:
320,192,15383,1,0,0:0:0:0:
64,192,15460,1,0,0:0:0:0:
448,192,15460,1,0,0:0:0:0:
192,192,15537,1,0,0:0:0:0:
320,192,15537,1,0,0:0:0:0:
64,192,15614,1,0,0:0:0:0:
320,192,15614,1,0,0:0:0:0:
448,192,15614,1,0,0:0:0:0:
64,192,16076,128,0,16229:0:0:0:0:
320,192,16229,128,0,16306:0:0:0:0:
320,192,16383,128,0,16460:0:0:0:0:
64,192,16691,128,0,16845:0:0:0:0:
320,192,16845,128,0,16922:0:0:0:0:
320,192,16999,128,0,17076:0:0:0:0:
64,192,17306,128,0,17460:0:0:0:0:
320,192,17460,128,0,17537:0:0:0:0:
320,192,17614,128,0,17768:0:0:0:0:
448,192,17768,128,0,18076:0:0:0:0:
64,192,18076,128,0,18306:0:0:0:0:
448,192,18306,128,0,18460:0:0:0:0:
320,192,18383,128,0,18460:0:0:0:0:
64,192,18537,128,0,18691:0:0:0:0:
320,192,18691,128,0,18768:0:0:0:0:
320,192,18845,128,0,18922:0:0:0:0:
64,192,19153,128,0,19306:0:0:0:0:
448,192,19306,128,0,19460:0:0:0:0:
192,192,19460,128,0,19614:0:0:0:0:
320,192,19614,128,0,19768:0:0:0:0:
64,192,19768,128,0,19922:0:0:0:0:
448,192,19922,128,0,20076:0:0:0:0:
64,192,20076,1,0,0:0:0:0:
192,192,20076,1,0,0:0:0:0:
320,192,20153,1,0,0:0:0:0:
448,192,20153,1,0,0:0:0:0:
64,192,20229,1,0,0:0:0:0:
448,192,20229,1,0,0:0:0:0:
192,192,20229,128,0,20537:0:0:0:0:
320,192,20537,1,0,0:0:0:0:
448,192,20537,1,0,0:0:0:0:
64,192,20537,1,0,0:0:0:0:
64,192,20999,1,0,0:0:0:0:
320,192,20999,1,0,0:0:0:0:
448,192,20999,1,0,0:0:0:0:
64,192,21153,1,0,0:0:0:0:
192,192,21153,1,0,0:0:0:0:
320,192,21153,1,0,0:0:0:0:
448,192,21153,1,0,0:0:0:0:
192,192,21614,1,0,0:0:0:0:
64,192,21614,1,0,0:0:0:0:
448,192,21614,1,0,0:0:0:0:
320,192,21768,1,0,0:0:0:0:
448,192,21768,1,0,0:0:0:0:
192,192,21768,1,0,0:0:0:0:
64,192,21768,1,0,0:0:0:0:
64,192,22229,128,0,22383:0:0:0:0:
320,192,22383,128,0,22537:0:0:0:0:
192,192,22537,128,0,22691:0:0:0:0:
448,192,22691,128,0,22999:0:0:0:0:
64,192,22691,1,0,0:0:0:0:
64,192,22999,1,0,0:0:0:0:
192,192,22999,1,0,0:0:0:0:
320,192,23076,1,0,0:0:0:0:
448,192,23076,1,0,0:0:0:0:
64,192,23153,1,0,0:0:0:0:
192,192,23153,1,0,0:0:0:0:
320,192,23229,1,0,0:0:0:0:
448,192,23229,1,0,0:0:0:0:
64,192,23306,1,0,0:0:0:0:
192,192,23306,1,0,0:0:0:0:
448,192,23383,1,0,0:0:0:0:
192,192,23460,1,0,0:0:0:0:
320,192,23537,1,0,0:0:0:0:
448,192,23614,1,0,0:0:0:0:
64,192,23614,1,0,0:0:0:0:
192,192,23691,1,0,0:0:0:0:
448,192,23768,1,0,0:0:0:0:
320,192,23845,1,0,0:0:0:0:
64,192,23922,1,0,0:0:0:0:
192,192,23922,1,0,0:0:0:0:
448,192,23999,1,0,0:0:0:0:
192,192,24076,1,0,0:0:0:0:
320,192,24153,1,0,0:0:0:0:
64,192,24229,1,0,0:0:0:0:
448,192,24229,1,0,0:0:0:0:
192,192,24306,1,0,0:0:0:0:
448,192,24383,1,0,0:0:0:0:
320,192,24383,1,0,0:0:0:0:
64,192,24460,1,0,0:0:0:0:
192,192,24460,1,0,0:0:0:0:
448,192,24537,1,0,0:0:0:0:
320,192,24537,1,0,0:0:0:0:
64,192,24537,1,0,0:0:0:0:
192,192,24614,1,0,0:0:0:0:
448,192,24691,1,0,0:0:0:0:
320,192,24768,1,0,0:0:0:0:
64,192,24845,1,0,0:0:0:0:
192,192,24845,1,0,0:0:0:0:
448,192,24845,1,0,0:0:0:0:
320,192,24922,1,0,0:0:0:0:
64,192,24999,1,0,0:0:0:0:
448,192,24999,1,0,0:0:0:0:
192,192,25076,1,0,0:0:0:0:
320,192,25076,1,0,0:0:0:0:
64,192,25153,1,0,0:0:0:0:
448,192,25153,1,0,0:0:0:0:
192,192,25229,1,0,0:0:0:0:
320,192,25229,1,0,0:0:0:0:
64,192,25306,1,0,0:0:0:0:
448,192,25306,1,0,0:0:0:0:
320,192,25383,1,0,0:0:0:0:
192,192,25383,1,0,0:0:0:0:
192,192,25460,1,0,0:0:0:0:
448,192,25460,1,0,0:0:0:0:
64,192,25460,1,0,0:0:0:0:
320,192,25537,1,0,0:0:0:0:
448,192,25614,1,0,0:0:0:0:
64,192,25614,1,0,0:0:0:0:
192,192,25691,1,0,0:0:0:0:
320,192,25768,1,0,0:0:0:0:
64,192,25845,1,0,0:0:0:0:
448,192,25922,1,0,0:0:0:0:
192,192,25922,1,0,0:0:0:0:
64,192,25999,1,0,0:0:0:0:
320,192,26076,1,0,0:0:0:0:
192,192,26153,1,0,0:0:0:0:
448,192,26229,1,0,0:0:0:0:
320,192,26229,1,0,0:0:0:0:
64,192,26306,1,0,0:0:0:0:
448,192,26383,1,0,0:0:0:0:
320,192,26383,1,0,0:0:0:0:
192,192,26460,1,0,0:0:0:0:
64,192,26460,1,0,0:0:0:0:
320,192,26537,1,0,0:0:0:0:
448,192,26537,1,0,0:0:0:0:
64,192,26614,1,0,0:0:0:0:
192,192,26691,1,0,0:0:0:0:
320,192,26768,1,0,0:0:0:0:
64,192,26845,1,0,0:0:0:0:
448,192,26845,1,0,0:0:0:0:
192,192,26922,1,0,0:0:0:0:
320,192,26999,1,0,0:0:0:0:
64,192,27076,1,0,0:0:0:0:
320,192,27153,1,0,0:0:0:0:
448,192,27153,1,0,0:0:0:0:
192,192,27229,1,0,0:0:0:0:
448,192,27306,1,0,0:0:0:0:
320,192,27383,1,0,0:0:0:0:
64,192,27460,1,0,0:0:0:0:
192,192,27460,1,0,0:0:0:0:
448,192,27537,1,0,0:0:0:0:
64,192,27614,1,0,0:0:0:0:
320,192,27614,1,0,0:0:0:0:
448,192,27691,1,0,0:0:0:0:
192,192,27691,1,0,0:0:0:0:
64,192,27768,1,0,0:0:0:0:
320,192,27768,1,0,0:0:0:0:
192,192,27845,1,0,0:0:0:0:
320,192,27922,1,0,0:0:0:0:
64,192,27999,1,0,0:0:0:0:
192,192,28076,1,0,0:0:0:0:
448,192,28076,1,0,0:0:0:0:
320,192,28153,1,0,0:0:0:0:
64,192,28229,1,0,0:0:0:0:
192,192,28229,1,0,0:0:0:0:
448,192,28306,1,0,0:0:0:0:
320,192,28306,1,0,0:0:0:0:
192,192,28383,1,0,0:0:0:0:
64,192,28383,1,0,0:0:0:0:
448,192,28460,1,0,0:0:0:0:
192,192,28537,1,0,0:0:0:0:
320,192,28614,1,0,0:0:0:0:
64,192,28691,1,0,0:0:0:0:
192,192,28691,1,0,0:0:0:0:
448,192,28768,1,0,0:0:0:0:
64,192,28845,1,0,0:0:0:0:
320,192,28845,1,0,0:0:0:0:
192,192,28922,1,0,0:0:0:0:
448,192,28922,1,0,0:0:0:0:
64,192,28999,1,0,0:0:0:0:
320,192,28999,1,0,0:0:0:0:
192,192,29076,1,0,0:0:0:0:
320,192,29153,1,0,0:0:0:0:
64,192,29229,1,0,0:0:0:0:
320,192,29306,1,0,0:0:0:0:
448,192,29306,1,0,0:0:0:0:
192,192,29383,1,0,0:0:0:0:
448,192,29460,1,0,0:0:0:0:
64,192,29460,1,0,0:0:0:0:
320,192,29537,1,0,0:0:0:0:
192,192,29537,1,0,0:0:0:0:
64,192,29614,1,0,0:0:0:0:
448,192,29614,1,0,0:0:0:0:
320,192,29691,1,0,0:0:0:0:
192,192,29768,1,0,0:0:0:0:
448,192,29845,1,0,0:0:0:0:
64,192,29922,1,0,0:0:0:0:
192,192,29922,1,0,0:0:0:0:
448,192,29999,1,0,0:0:0:0:
192,192,30076,1,0,0:0:0:0:
320,192,30153,1,0,0:0:0:0:
192,192,30229,1,0,0:0:0:0:
64,192,30229,1,0,0:0:0:0:
320,192,30306,1,0,0:0:0:0:
192,192,30383,1,0,0:0:0:0:
64,192,30383,1,0,0:0:0:0:
448,192,30383,1,0,0:0:0:0:
320,192,30460,1,0,0:0:0:0:
64,192,30537,1,0,0:0:0:0:
448,192,30537,1,0,0:0:0:0:
192,192,30614,1,0,0:0:0:0:
320,192,30691,1,0,0:0:0:0:
64,192,30768,1,0,0:0:0:0:
320,192,30845,1,0,0:0:0:0:
448,192,30845,1,0,0:0:0:0:
192,192,30845,1,0,0:0:0:0:
64,192,30922,1,0,0:0:0:0:
448,192,30999,1,0,0:0:0:0:
192,192,30999,1,0,0:0:0:0:
320,192,30999,1,0,0:0:0:0:
64,192,31076,1,0,0:0:0:0:
448,192,31153,1,0,0:0:0:0:
320,192,31153,1,0,0:0:0:0:
192,192,31229,1,0,0:0:0:0:
448,192,31306,1,0,0:0:0:0:
64,192,31306,1,0,0:0:0:0:
192,192,31383,1,0,0:0:0:0:
448,192,31460,1,0,0:0:0:0:
64,192,31460,1,0,0:0:0:0:
320,192,31460,1,0,0:0:0:0:
192,192,31537,1,0,0:0:0:0:
320,192,31614,1,0,0:0:0:0:
448,192,31614,1,0,0:0:0:0:
64,192,31614,1,0,0:0:0:0:
192,192,31691,1,0,0:0:0:0:
64,192,31768,1,0,0:0:0:0:
448,192,31768,1,0,0:0:0:0:
320,192,31845,1,0,0:0:0:0:
64,192,31922,1,0,0:0:0:0:
192,192,31999,1,0,0:0:0:0:
64,192,32076,1,0,0:0:0:0:
448,192,32076,1,0,0:0:0:0:
320,192,32076,1,0,0:0:0:0:
192,192,32153,1,0,0:0:0:0:
320,192,32229,1,0,0:0:0:0:
448,192,32229,1,0,0:0:0:0:
64,192,32229,1,0,0:0:0:0:
192,192,32306,1,0,0:0:0:0:
448,192,32383,1,0,0:0:0:0:
64,192,32383,1,0,0:0:0:0:
320,192,32383,1,0,0:0:0:0:
192,192,32460,1,0,0:0:0:0:
448,192,32537,1,0,0:0:0:0:
64,192,32537,1,0,0:0:0:0:
192,192,32614,1,0,0:0:0:0:
320,192,32614,1,0,0:0:0:0:
64,192,32691,1,0,0:0:0:0:
448,192,32691,1,0,0:0:0:0:
320,192,32768,1,0,0:0:0:0:
192,192,32845,1,0,0:0:0:0:
448,192,32845,1,0,0:0:0:0:
64,192,32845,1,0,0:0:0:0:
320,192,32922,1,0,0:0:0:0:
64,192,32999,1,0,0:0:0:0:
448,192,32999,1,0,0:0:0:0:
192,192,33076,5,0,0:0:0:0:
448,192,33153,1,0,0:0:0:0:
320,192,33229,1,0,0:0:0:0:
64,192,33306,1,0,0:0:0:0:
192,192,33306,1,0,0:0:0:0:
448,192,33306,1,0,0:0:0:0:
320,192,33383,1,0,0:0:0:0:
448,192,33460,1,0,0:0:0:0:
64,192,33460,1,0,0:0:0:0:
192,192,33460,1,0,0:0:0:0:
320,192,33537,1,0,0:0:0:0:
64,192,33614,1,0,0:0:0:0:
192,192,33614,1,0,0:0:0:0:
448,192,33691,1,0,0:0:0:0:
64,192,33768,1,0,0:0:0:0:
192,192,33768,1,0,0:0:0:0:
448,192,33845,1,0,0:0:0:0:
320,192,33845,1,0,0:0:0:0:
192,192,33922,1,0,0:0:0:0:
64,192,33922,1,0,0:0:0:0:
448,192,33999,1,0,0:0:0:0:
320,192,34076,1,0,0:0:0:0:
192,192,34076,1,0,0:0:0:0:
448,192,34229,5,0,0:0:0:0:
64,192,34229,1,0,0:0:0:0:
320,192,34383,1,0,0:0:0:0:
448,192,34383,1,0,0:0:0:0:
64,192,34383,1,0,0:0:0:0:
64,192,34537,1,0,0:0:0:0:
320,192,34537,1,0,0:0:0:0:
448,192,34537,1,0,0:0:0:0:
64,192,34691,1,0,0:0:0:0:
448,192,34691,1,0,0:0:0:0:
192,192,34691,128,0,34999:0:0:0:0:
64,192,34999,1,0,0:0:0:0:
448,192,34999,1,0,0:0:0:0:
320,192,34999,128,0,35306:0:0:0:0:
64,192,35306,1,0,0:0:0:0:
448,192,35306,1,0,0:0:0:0:
192,192,35383,1,0,0:0:0:0:
320,192,35460,1,0,0:0:0:0:
448,192,35460,1,0,0:0:0:0:
64,192,35537,1,0,0:0:0:0:
448,192,35614,1,0,0:0:0:0:
192,192,35691,1,0,0:0:0:0:
320,192,35768,1,0,0:0:0:0:
448,192,35768,1,0,0:0:0:0:
64,192,35845,1,0,0:0:0:0:
192,192,35922,1,0,0:0:0:0:
448,192,35999,1,0,0:0:0:0:
320,192,36076,1,0,0:0:0:0:
64,192,36076,1,0,0:0:0:0:
192,192,36153,1,0,0:0:0:0:
448,192,36229,1,0,0:0:0:0:
64,192,36306,1,0,0:0:0:0:
320,192,36383,1,0,0:0:0:0:
448,192,36383,1,0,0:0:0:0:
192,192,36460,1,0,0:0:0:0:
448,192,36537,1,0,0:0:0:0:
320,192,36614,1,0,0:0:0:0:
64,192,36691,1,0,0:0:0:0:
192,192,36691,1,0,0:0:0:0:
448,192,36768,1,0,0:0:0:0:
192,192,36845,1,0,0:0:0:0:
320,192,36922,1,0,0:0:0:0:
64,192,36999,1,0,0:0:0:0:
448,192,36999,1,0,0:0:0:0:
192,192,37076,1,0,0:0:0:0:
448,192,37153,1,0,0:0:0:0:
320,192,37229,1,0,0:0:0:0:
64,192,37306,1,0,0:0:0:0:
192,192,37306,1,0,0:0:0:0:
448,192,37383,1,0,0:0:0:0:
192,192,37460,1,0,0:0:0:0:
320,192,37537,1,0,0:0:0:0:
64,192,37614,1,0,0:0:0:0:
448,192,37614,1,0,0:0:0:0:
192,192,37691,1,0,0:0:0:0:
320,192,37768,1,0,0:0:0:0:
64,192,37845,1,0,0:0:0:0:
448,192,37922,1,0,0:0:0:0:
320,192,37922,1,0,0:0:0:0:
192,192,37999,1,0,0:0:0:0:
448,192,38076,1,0,0:0:0:0:
320,192,38153,1,0,0:0:0:0:
64,192,38229,1,0,0:0:0:0:
192,192,38229,1,0,0:0:0:0:
448,192,38306,1,0,0:0:0:0:
192,192,38383,1,0,0:0:0:0:
320,192,38460,1,0,0:0:0:0:
64,192,38537,1,0,0:0:0:0:
448,192,38537,1,0,0:0:0:0:
192,192,38614,1,0,0:0:0:0:
448,192,38691,1,0,0:0:0:0:
320,192,38768,1,0,0:0:0:0:
64,192,38845,1,0,0:0:0:0:
192,192,38845,1,0,0:0:0:0:
448,192,38922,1,0,0:0:0:0:
192,192,38999,1,0,0:0:0:0:
320,192,39076,1,0,0:0:0:0:
64,192,39153,1,0,0:0:0:0:
448,192,39153,1,0,0:0:0:0:
192,192,39229,1,0,0:0:0:0:
320,192,39306,1,0,0:0:0:0:
64,192,39383,1,0,0:0:0:0:
448,192,39460,1,0,0:0:0:0:
320,192,39460,1,0,0:0:0:0:
192,192,39537,1,0,0:0:0:0:
448,192,39614,1,0,0:0:0:0:
320,192,39691,1,0,0:0:0:0:
64,192,39768,1,0,0:0:0:0:
448,192,39768,1,0,0:0:0:0:
192,192,39845,1,0,0:0:0:0:
448,192,39922,1,0,0:0:0:0:
64,192,39922,1,0,0:0:0:0:
64,192,40076,1,0,0:0:0:0:
448,192,40076,1,0,0:0:0:0:
448,192,40229,1,0,0:0:0:0:
64,192,40229,1,0,0:0:0:0:
320,192,40229,1,0,0:0:0:0:
192,192,40306,1,0,0:0:0:0:
448,192,40383,1,0,0:0:0:0:
64,192,40383,1,0,0:0:0:0:
320,192,40460,1,0,0:0:0:0:
192,192,40537,1,0,0:0:0:0:
448,192,40614,1,0,0:0:0:0:
64,192,40691,1,0,0:0:0:0:
320,192,40691,1,0,0:0:0:0:
192,192,40768,1,0,0:0:0:0:
448,192,40845,1,0,0:0:0:0:
64,192,40922,1,0,0:0:0:0:
192,192,40999,1,0,0:0:0:0:
320,192,40999,1,0,0:0:0:0:
448,192,41076,1,0,0:0:0:0:
64,192,41153,1,0,0:0:0:0:
192,192,41153,1,0,0:0:0:0:
320,192,41229,1,0,0:0:0:0:
448,192,41229,1,0,0:0:0:0:
192,192,41306,1,0,0:0:0:0:
64,192,41306,1,0,0:0:0:0:
448,192,41383,1,0,0:0:0:0:
64,192,41460,1,0,0:0:0:0:
192,192,41537,1,0,0:0:0:0:
320,192,41614,1,0,0:0:0:0:
448,192,41614,1,0,0:0:0:0:
64,192,41691,1,0,0:0:0:0:
448,192,41768,1,0,0:0:0:0:
192,192,41845,1,0,0:0:0:0:
320,192,41922,1,0,0:0:0:0:
448,192,41922,1,0,0:0:0:0:
64,192,41999,1,0,0:0:0:0:
320,192,42076,1,0,0:0:0:0:
192,192,42153,1,0,0:0:0:0:
448,192,42229,1,0,0:0:0:0:
64,192,42229,1,0,0:0:0:0:
320,192,42306,1,0,0:0:0:0:
192,192,42383,1,0,0:0:0:0:
64,192,42383,1,0,0:0:0:0:
448,192,42460,1,0,0:0:0:0:
320,192,42460,1,0,0:0:0:0:
64,192,42537,1,0,0:0:0:0:
192,192,42537,1,0,0:0:0:0:
320,192,42614,1,0,0:0:0:0:
64,192,42691,1,0,0:0:0:0:
192,192,42691,1,0,0:0:0:0:
448,192,42691,1,0,0:0:0:0:
320,192,42768,1,0,0:0:0:0:
64,192,42845,1,0,0:0:0:0:
448,192,42845,1,0,0:0:0:0:
192,192,42922,1,0,0:0:0:0:
448,192,42999,1,0,0:0:0:0:
320,192,42999,1,0,0:0:0:0:
64,192,43076,1,0,0:0:0:0:
192,192,43076,1,0,0:0:0:0:
320,192,43153,1,0,0:0:0:0:
448,192,43153,1,0,0:0:0:0:
192,192,43229,1,0,0:0:0:0:
320,192,43306,1,0,0:0:0:0:
64,192,43306,1,0,0:0:0:0:
448,192,43306,1,0,0:0:0:0:
192,192,43383,1,0,0:0:0:0:
448,192,43460,1,0,0:0:0:0:
64,192,43460,1,0,0:0:0:0:
320,192,43537,1,0,0:0:0:0:
192,192,43614,1,0,0:0:0:0:
64,192,43614,1,0,0:0:0:0:
448,192,43691,1,0,0:0:0:0:
320,192,43691,1,0,0:0:0:0:
64,192,43768,1,0,0:0:0:0:
192,192,43768,1,0,0:0:0:0:
320,192,43845,1,0,0:0:0:0:
64,192,43922,1,0,0:0:0:0:
448,192,43922,1,0,0:0:0:0:
192,192,43922,1,0,0:0:0:0:
320,192,43999,1,0,0:0:0:0:
64,192,44076,1,0,0:0:0:0:
448,192,44076,1,0,0:0:0:0:
192,192,44153,1,0,0:0:0:0:
320,192,44229,1,0,0:0:0:0:
448,192,44229,1,0,0:0:0:0:
64,192,44229,1,0,0:0:0:0:
192,192,44306,1,0,0:0:0:0:
448,192,44383,1,0,0:0:0:0:
320,192,44383,1,0,0:0:0:0:
64,192,44460,1,0,0:0:0:0:
192,192,44537,1,0,0:0:0:0:
320,192,44537,1,0,0:0:0:0:
448,192,44537,1,0,0:0:0:0:
64,192,44614,1,0,0:0:0:0:
448,192,44691,1,0,0:0:0:0:
192,192,44691,1,0,0:0:0:0:
320,192,44768,1,0,0:0:0:0:
448,192,44845,1,0,0:0:0:0:
64,192,44845,1,0,0:0:0:0:
192,192,44845,1,0,0:0:0:0:
320,192,44922,1,0,0:0:0:0:
448,192,44999,1,0,0:0:0:0:
64,192,44999,1,0,0:0:0:0:
192,192,45076,1,0,0:0:0:0:
320,192,45153,1,0,0:0:0:0:
448,192,45153,1,0,0:0:0:0:
64,192,45153,1,0,0:0:0:0:
192,192,45229,1,0,0:0:0:0:
320,192,45306,1,0,0:0:0:0:
448,192,45306,1,0,0:0:0:0:
64,192,45383,1,0,0:0:0:0:
448,192,45460,1,0,0:0:0:0:
320,192,45537,1,0,0:0:0:0:
64,192,45614,1,0,0:0:0:0:
192,192,45614,1,0,0:0:0:0:
448,192,45691,1,0,0:0:0:0:
192,192,45768,1,0,0:0:0:0:
320,192,45845,1,0,0:0:0:0:
64,192,45922,1,0,0:0:0:0:
448,192,45922,1,0,0:0:0:0:
192,192,45999,1,0,0:0:0:0:
448,192,46076,1,0,0:0:0:0:
64,192,46153,1,0,0:0:0:0:
320,192,46229,1,0,0:0:0:0:
448,192,46229,1,0,0:0:0:0:
192,192,46306,1,0,0:0:0:0:
448,192,46383,1,0,0:0:0:0:
320,192,46460,1,0,0:0:0:0:
64,192,46537,1,0,0:0:0:0:
192,192,46537,1,0,0:0:0:0:
448,192,46614,1,0,0:0:0:0:
192,192,46691,1,0,0:0:0:0:
320,192,46768,1,0,0:0:0:0:
64,192,46845,1,0,0:0:0:0:
448,192,46845,1,0,0:0:0:0:
192,192,46922,1,0,0:0:0:0:
448,192,46999,1,0,0:0:0:0:
320,192,47076,1,0,0:0:0:0:
64,192,47153,1,0,0:0:0:0:
192,192,47153,1,0,0:0:0:0:
448,192,47229,1,0,0:0:0:0:
64,192,47306,1,0,0:0:0:0:
192,192,47383,1,0,0:0:0:0:
320,192,47460,1,0,0:0:0:0:
448,192,47460,1,0,0:0:0:0:
192,192,47537,1,0,0:0:0:0:
64,192,47614,1,0,0:0:0:0:
448,192,47691,1,0,0:0:0:0:
192,192,47768,1,0,0:0:0:0:
320,192,47768,1,0,0:0:0:0:
64,192,47845,1,0,0:0:0:0:
448,192,47922,1,0,0:0:0:0:
320,192,47999,1,0,0:0:0:0:
64,192,48076,1,0,0:0:0:0:
192,192,48076,1,0,0:0:0:0:
448,192,48153,1,0,0:0:0:0:
192,192,48229,1,0,0:0:0:0:
320,192,48306,1,0,0:0:0:0:
64,192,48383,1,0,0:0:0:0:
448,192,48383,1,0,0:0:0:0:
192,192,48460,1,0,0:0:0:0:
320,192,48537,1,0,0:0:0:0:
64,192,48614,1,0,0:0:0:0:
320,192,48691,1,0,0:0:0:0:
448,192,48691,1,0,0:0:0:0:
192,192,48768,1,0,0:0:0:0:
448,192,48845,1,0,0:0:0:0:
320,192,48922,1,0,0:0:0:0:
64,192,48999,1,0,0:0:0:0:
192,192,48999,1,0,0:0:0:0:
448,192,49076,1,0,0:0:0:0:
192,192,49153,1,0,0:0:0:0:
320,192,49229,1,0,0:0:0:0:
64,192,49306,1,0,0:0:0:0:
448,192,49306,1,0,0:0:0:0:
192,192,49383,1,0,0:0:0:0:
448,192,49460,1,0,0:0:0:0:
320,192,49537,1,0,0:0:0:0:
448,192,49614,1,0,0:0:0:0:
64,192,49614,1,0,0:0:0:0:
320,192,49768,1,0,0:0:0:0:
448,192,49768,1,0,0:0:0:0:
64,192,49768,1,0,0:0:0:0:
192,192,49768,1,0,0:0:0:0:
320,192,50076,1,0,0:0:0:0:
448,192,50076,1,0,0:0:0:0:
64,192,50076,1,0,0:0:0:0:
192,192,50153,1,0,0:0:0:0:
320,192,50229,1,0,0:0:0:0:
448,192,50229,1,0,0:0:0:0:
64,192,50306,1,0,0:0:0:0:
192,192,50383,1,0,0:0:0:0:
448,192,50383,1,0,0:0:0:0:
320,192,50460,1,0,0:0:0:0:
64,192,50537,1,0,0:0:0:0:
192,192,50537,1,0,0:0:0:0:
448,192,50537,1,0,0:0:0:0:
320,192,50614,1,0,0:0:0:0:
192,192,50691,1,0,0:0:0:0:
448,192,50691,1,0,0:0:0:0:
64,192,50691,1,0,0:0:0:0:
320,192,50768,1,0,0:0:0:0:
64,192,50845,1,0,0:0:0:0:
448,192,50845,1,0,0:0:0:0:
192,192,50922,1,0,0:0:0:0:
320,192,50999,1,0,0:0:0:0:
448,192,50999,1,0,0:0:0:0:
64,192,51076,1,0,0:0:0:0:
448,192,51153,1,0,0:0:0:0:
320,192,51153,1,0,0:0:0:0:
192,192,51153,1,0,0:0:0:0:
64,192,51229,1,0,0:0:0:0:
320,192,51306,1,0,0:0:0:0:
192,192,51306,1,0,0:0:0:0:
448,192,51306,1,0,0:0:0:0:
64,192,51383,1,0,0:0:0:0:
448,192,51460,1,0,0:0:0:0:
192,192,51460,1,0,0:0:0:0:
320,192,51537,1,0,0:0:0:0:
64,192,51614,1,0,0:0:0:0:
192,192,51614,1,0,0:0:0:0:
448,192,51691,1,0,0:0:0:0:
64,192,51768,1,0,0:0:0:0:
192,192,51768,1,0,0:0:0:0:
320,192,51768,1,0,0:0:0:0:
448,192,51845,1,0,0:0:0:0:
192,192,51922,1,0,0:0:0:0:
64,192,51922,1,0,0:0:0:0:
320,192,51922,1,0,0:0:0:0:
448,192,51999,1,0,0:0:0:0:
64,192,52076,1,0,0:0:0:0:
320,192,52076,1,0,0:0:0:0:
192,192,52153,1,0,0:0:0:0:
64,192,52229,128,0,52537:0:0:0:0:
320,192,52229,1,0,0:0:0:0:
448,192,52229,1,0,0:0:0:0:
320,192,52537,1,0,0:0:0:0:
448,192,52537,1,0,0:0:0:0:
64,192,52614,1,0,0:0:0:0:
448,192,52691,1,0,0:0:0:0:
192,192,52691,1,0,0:0:0:0:
320,192,52768,1,0,0:0:0:0:
448,192,52845,1,0,0:0:0:0:
64,192,52845,1,0,0:0:0:0:
192,192,52922,1,0,0:0:0:0:
448,192,52999,1,0,0:0:0:0:
320,192,52999,1,0,0:0:0:0:
64,192,52999,1,0,0:0:0:0:
192,192,53076,1,0,0:0:0:0:
320,192,53153,1,0,0:0:0:0:
448,192,53153,1,0,0:0:0:0:
64,192,53153,1,0,0:0:0:0:
192,192,53229,1,0,0:0:0:0:
448,192,53306,1,0,0:0:0:0:
320,192,53306,1,0,0:0:0:0:
64,192,53383,1,0,0:0:0:0:
448,192,53460,1,0,0:0:0:0:
192,192,53460,1,0,0:0:0:0:
320,192,53537,1,0,0:0:0:0:
448,192,53614,1,0,0:0:0:0:
64,192,53614,1,0,0:0:0:0:
192,192,53614,1,0,0:0:0:0:
320,192,53691,1,0,0:0:0:0:
448,192,53768,1,0,0:0:0:0:
64,192,53768,1,0,0:0:0:0:
192,192,53768,1,0,0:0:0:0:
320,192,53845,1,0,0:0:0:0:
64,192,53922,1,0,0:0:0:0:
192,192,53922,1,0,0:0:0:0:
448,192,53999,1,0,0:0:0:0:
64,192,54076,1,0,0:0:0:0:
320,192,54076,1,0,0:0:0:0:
192,192,54153,1,0,0:0:0:0:
320,192,54229,1,0,0:0:0:0:
448,192,54229,1,0,0:0:0:0:
64,192,54306,1,0,0:0:0:0:
448,192,54383,1,0,0:0:0:0:
320,192,54422,1,0,0:0:0:0:
64,192,54460,1,0,0:0:0:0:
192,192,54499,1,0,0:0:0:0:
448,192,54537,1,0,0:0:0:0:
320,192,54576,1,0,0:0:0:0:
64,192,54614,1,0,0:0:0:0:
192,192,54653,1,0,0:0:0:0:
448,192,54691,1,0,0:0:0:0:
320,192,54729,1,0,0:0:0:0:
192,192,54768,1,0,0:0:0:0:
64,192,54806,1,0,0:0:0:0:
448,192,54845,1,0,0:0:0:0:
320,192,54883,1,0,0:0:0:0:
192,192,54922,1,0,0:0:0:0:
64,192,54960,1,0,0:0:0:0:
320,192,54999,128,0,55460:0:0:0:0:
448,192,54999,128,0,56383:0:0:0:0:
64,192,55460,128,0,55614:0:0:0:0:
192,192,55614,128,0,55922:0:0:0:0:
320,192,55614,1,0,0:0:0:0:
64,192,55922,1,0,0:0:0:0:
320,192,56076,128,0,56229:0:0:0:0:
64,192,56229,128,0,56537:0:0:0:0:
192,192,56383,128,0,56845:0:0:0:0:
320,192,56537,128,0,56845:0:0:0:0:
448,192,56691,1,0,0:0:0:0:
448,192,56845,128,0,57153:0:0:0:0:
64,192,56845,128,0,57153:0:0:0:0:
320,192,57153,1,0,0:0:0:0:
192,192,57191,1,0,0:0:0:0:
448,192,57229,1,0,0:0:0:0:
320,192,57268,1,0,0:0:0:0:
64,192,57306,1,0,0:0:0:0:
192,192,57345,1,0,0:0:0:0:
448,192,57383,1,0,0:0:0:0:
320,192,57422,1,0,0:0:0:0:
448,192,57460,1,0,0:0:0:0:
192,192,57460,128,0,57922:0:0:0:0:
64,192,57460,128,0,58229:0:0:0:0:
448,192,57922,1,0,0:0:0:0:
320,192,57922,128,0,58076:0:0:0:0:
192,192,58076,128,0,58229:0:0:0:0:
448,192,58076,128,0,58383:0:0:0:0:
320,192,58383,128,0,58691:0:0:0:0:
192,192,58383,128,0,58691:0:0:0:0:
64,192,58691,1,0,0:0:0:0:
320,192,58768,1,0,0:0:0:0:
448,192,58768,1,0,0:0:0:0:
64,192,58845,1,0,0:0:0:0:
192,192,58845,1,0,0:0:0:0:
320,192,58922,1,0,0:0:0:0:
448,192,58922,1,0,0:0:0:0:
64,192,58999,1,0,0:0:0:0:
192,192,58999,1,0,0:0:0:0:
320,192,58999,1,0,0:0:0:0:
448,192,59076,1,0,0:0:0:0:
192,192,59153,1,0,0:0:0:0:
320,192,59229,1,0,0:0:0:0:
64,192,59306,1,0,0:0:0:0:
448,192,59306,1,0,0:0:0:0:
192,192,59383,1,0,0:0:0:0:
320,192,59383,1,0,0:0:0:0:
64,192,59460,1,0,0:0:0:0:
448,192,59460,1,0,0:0:0:0:
192,192,59537,1,0,0:0:0:0:
320,192,59537,1,0,0:0:0:0:
64,192,59614,1,0,0:0:0:0:
448,192,59614,1,0,0:0:0:0:
320,192,59614,1,0,0:0:0:0:
192,192,59691,1,0,0:0:0:0:
320,192,59768,1,0,0:0:0:0:
64,192,59845,1,0,0:0:0:0:
448,192,59922,1,0,0:0:0:0:
192,192,59922,1,0,0:0:0:0:
448,192,60229,1,0,0:0:0:0:
64,192,60229,1,0,0:0:0:0:
320,192,60229,1,0,0:0:0:0:
64,192,60537,1,0,0:0:0:0:
448,192,60537,1,0,0:0:0:0:
64,192,60691,1,0,0:0:0:0:
448,192,60691,1,0,0:0:0:0:
64,192,60845,1,0,0:0:0:0:
320,192,60845,1,0,0:0:0:0:
448,192,60845,1,0,0:0:0:0:
64,192,61153,1,0,0:0:0:0:
448,192,61153,1,0,0:0:0:0:
192,192,61153,1,0,0:0:0:0:
320,192,61153,1,0,0:0:0:0:
64,192,61460,1,0,0:0:0:0:
448,192,61460,1,0,0:0:0:0:
320,192,61460,1,0,0:0:0:0:
192,192,61768,1,0,0:0:0:0:
320,192,61768,1,0,0:0:0:0:
192,192,61922,1,0,0:0:0:0:
320,192,61922,1,0,0:0:0:0:
320,192,62076,1,0,0:0:0:0:
448,192,62076,1,0,0:0:0:0:
64,192,62076,1,0,0:0:0:0:
192,192,62229,1,0,0:0:0:0:
320,192,62229,1,0,0:0:0:0:
64,192,62383,1,0,0:0:0:0:
448,192,62383,1,0,0:0:0:0:
192,192,62383,1,0,0:0:0:0:
320,192,62383,1,0,0:0:0:0:
64,192,62537,1,0,0:0:0:0:
64,192,62691,1,0,0:0:0:0:
320,192,62845,1,0,0:0:0:0:
448,192,62845,1,0,0:0:0:0:
192,192,62845,1,0,0:0:0:0:
64,192,62999,1,0,0:0:0:0:
64,192,63153,1,0,0:0:0:0:
320,192,63306,1,0,0:0:0:0:
448,192,63306,1,0,0:0:0:0:
192,192,63306,1,0,0:0:0:0:
64,192,63460,1,0,0:0:0:0:
448,192,63460,1,0,0:0:0:0:
64,192,63614,1,0,0:0:0:0:
320,192,63614,1,0,0:0:0:0:
448,192,63614,1,0,0:0:0:0:
192,192,63614,1,0,0:0:0:0:
448,192,63768,1,0,0:0:0:0:
448,192,63922,1,0,0:0:0:0:
64,192,64076,1,0,0:0:0:0:
192,192,64076,1,0,0:0:0:0:
320,192,64076,1,0,0:0:0:0:
448,192,64229,1,0,0:0:0:0:
448,192,64383,1,0,0:0:0:0:
64,192,64537,1,0,0:0:0:0:
192,192,64537,1,0,0:0:0:0:
320,192,64537,1,0,0:0:0:0:
64,192,64691,1,0,0:0:0:0:
448,192,64691,1,0,0:0:0:0:
320,192,64845,1,0,0:0:0:0:
448,192,64845,1,0,0:0:0:0:
64,192,64845,1,0,0:0:0:0:
192,192,64922,1,0,0:0:0:0:
448,192,64999,1,0,0:0:0:0:
320,192,65076,1,0,0:0:0:0:
64,192,65153,1,0,0:0:0:0:
192,192,65153,1,0,0:0:0:0:
448,192,65229,1,0,0:0:0:0:
192,192,65306,1,0,0:0:0:0:
320,192,65383,1,0,0:0:0:0:
64,192,65460,1,0,0:0:0:0:
448,192,65460,1,0,0:0:0:0:
192,192,65537,1,0,0:0:0:0:
320,192,65614,1,0,0:0:0:0:
448,192,65614,1,0,0:0:0:0:
192,192,65691,1,0,0:0:0:0:
448,192,65768,1,0,0:0:0:0:
64,192,65768,1,0,0:0:0:0:
192,192,65845,1,0,0:0:0:0:
320,192,65845,1,0,0:0:0:0:
64,192,65922,1,0,0:0:0:0:
448,192,65922,1,0,0:0:0:0:
64,192,66076,1,0,0:0:0:0:
448,192,66076,1,0,0:0:0:0:
320,192,66076,1,0,0:0:0:0:
448,192,66229,1,0,0:0:0:0:
64,192,66229,1,0,0:0:0:0:
320,192,66229,1,0,0:0:0:0:
448,192,66383,128,0,66422:0:0:0:0:
320,192,66383,128,0,66422:0:0:0:0:
192,192,66383,128,0,66422:0:0:0:0:
64,192,66383,128,0,66422:0:0:0:0:
192,192,66691,128,0,67153:0:0:0:0:
320,192,67153,128,0,67306:0:0:0:0:
64,192,67306,1,0,0:0:0:0:
448,192,67306,1,0,0:0:0:0:
192,192,67383,1,0,0:0:0:0:
320,192,67460,1,0,0:0:0:0:
448,192,67460,1,0,0:0:0:0:
64,192,67537,1,0,0:0:0:0:
192,192,67614,1,0,0:0:0:0:
320,192,67614,1,0,0:0:0:0:
448,192,67691,1,0,0:0:0:0:
64,192,67768,1,0,0:0:0:0:
320,192,67768,1,0,0:0:0:0:
192,192,67845,1,0,0:0:0:0:
320,192,67922,1,0,0:0:0:0:
448,192,67922,1,0,0:0:0:0:
64,192,67999,1,0,0:0:0:0:
192,192,68076,1,0,0:0:0:0:
320,192,68076,1,0,0:0:0:0:
448,192,68153,1,0,0:0:0:0:
64,192,68229,1,0,0:0:0:0:
192,192,68229,1,0,0:0:0:0:
320,192,68306,1,0,0:0:0:0:
64,192,68383,1,0,0:0:0:0:
448,192,68383,1,0,0:0:0:0:
192,192,68460,1,0,0:0:0:0:
320,192,68537,1,0,0:0:0:0:
448,192,68537,1,0,0:0:0:0:
64,192,68537,1,0,0:0:0:0:
192,192,68614,1,0,0:0:0:0:
448,192,68691,1,0,0:0:0:0:
320,192,68691,1,0,0:0:0:0:
64,192,68768,1,0,0:0:0:0:
192,192,68845,1,0,0:0:0:0:
448,192,68845,1,0,0:0:0:0:
320,192,68922,1,0,0:0:0:0:
64,192,68999,1,0,0:0:0:0:
448,192,68999,1,0,0:0:0:0:
192,192,69076,1,0,0:0:0:0:
320,192,69153,1,0,0:0:0:0:
448,192,69153,1,0,0:0:0:0:
64,192,69229,1,0,0:0:0:0:
192,192,69306,1,0,0:0:0:0:
320,192,69306,1,0,0:0:0:0:
448,192,69383,1,0,0:0:0:0:
64,192,69460,1,0,0:0:0:0:
192,192,69460,1,0,0:0:0:0:
320,192,69537,1,0,0:0:0:0:
64,192,69614,1,0,0:0:0:0:
448,192,69614,1,0,0:0:0:0:
192,192,69691,1,0,0:0:0:0:
320,192,69768,1,0,0:0:0:0:
448,192,69768,1,0,0:0:0:0:
64,192,69768,1,0,0:0:0:0:
192,192,69845,1,0,0:0:0:0:
448,192,69922,1,0,0:0:0:0:
64,192,69922,1,0,0:0:0:0:
320,192,69999,1,0,0:0:0:0:
64,192,70076,1,0,0:0:0:0:
192,192,70076,1,0,0:0:0:0:
448,192,70153,1,0,0:0:0:0:
192,192,70229,1,0,0:0:0:0:
320,192,70229,1,0,0:0:0:0:
64,192,70306,1,0,0:0:0:0:
192,192,70383,1,0,0:0:0:0:
448,192,70383,1,0,0:0:0:0:
320,192,70383,1,0,0:0:0:0:
64,192,70460,1,0,0:0:0:0:
448,192,70537,1,0,0:0:0:0:
320,192,70537,1,0,0:0:0:0:
192,192,70614,1,0,0:0:0:0:
448,192,70691,1,0,0:0:0:0:
64,192,70691,1,0,0:0:0:0:
320,192,70768,1,0,0:0:0:0:
448,192,70845,1,0,0:0:0:0:
64,192,70845,1,0,0:0:0:0:
192,192,70922,1,0,0:0:0:0:
320,192,70999,1,0,0:0:0:0:
448,192,70999,1,0,0:0:0:0:
64,192,70999,1,0,0:0:0:0:
192,192,71076,1,0,0:0:0:0:
320,192,71153,1,0,0:0:0:0:
448,192,71153,1,0,0:0:0:0:
64,192,71229,1,0,0:0:0:0:
448,192,71306,1,0,0:0:0:0:
192,192,71306,1,0,0:0:0:0:
320,192,71383,1,0,0:0:0:0:
64,192,71460,1,0,0:0:0:0:
192,192,71460,1,0,0:0:0:0:
448,192,71537,1,0,0:0:0:0:
64,192,71614,1,0,0:0:0:0:
192,192,71691,1,0,0:0:0:0:
448,192,71768,1,0,0:0:0:0:
320,192,71845,1,0,0:0:0:0:
64,192,71922,1,0,0:0:0:0:
192,192,71922,1,0,0:0:0:0:
448,192,71922,1,0,0:0:0:0:
64,192,72229,1,0,0:0:0:0:
448,192,72229,1,0,0:0:0:0:
320,192,72229,1,0,0:0:0:0:
448,192,72332,1,0,0:0:0:0:
448,192,72435,1,0,0:0:0:0:
64,192,72537,1,0,0:0:0:0:
192,192,72537,1,0,0:0:0:0:
320,192,72537,1,0,0:0:0:0:
64,192,72640,1,0,0:0:0:0:
64,192,72742,1,0,0:0:0:0:
448,192,72845,1,0,0:0:0:0:
320,192,72845,1,0,0:0:0:0:
192,192,72845,1,0,0:0:0:0:
320,192,72947,1,0,0:0:0:0:
320,192,73050,1,0,0:0:0:0:
192,192,73153,1,0,0:0:0:0:
64,192,73153,1,0,0:0:0:0:
448,192,73153,1,0,0:0:0:0:
192,192,73255,1,0,0:0:0:0:
192,192,73358,1,0,0:0:0:0:
448,192,73460,1,0,0:0:0:0:
64,192,73460,1,0,0:0:0:0:
320,192,73460,1,0,0:0:0:0:
192,192,73537,1,0,0:0:0:0:
320,192,73614,1,0,0:0:0:0:
448,192,73614,1,0,0:0:0:0:
64,192,73691,1,0,0:0:0:0:
448,192,73768,1,0,0:0:0:0:
320,192,73845,1,0,0:0:0:0:
64,192,73922,1,0,0:0:0:0:
192,192,73922,1,0,0:0:0:0:
448,192,73999,1,0,0:0:0:0:
192,192,74076,1,0,0:0:0:0:
320,192,74153,1,0,0:0:0:0:
64,192,74229,1,0,0:0:0:0:
448,192,74229,1,0,0:0:0:0:
320,192,74306,1,0,0:0:0:0:
192,192,74383,1,0,0:0:0:0:
320,192,74486,1,0,0:0:0:0:
448,192,74486,1,0,0:0:0:0:
64,192,74486,1,0,0:0:0:0:
320,192,74588,1,0,0:0:0:0:
448,192,74588,1,0,0:0:0:0:
64,192,74588,1,0,0:0:0:0:
320,192,74691,1,0,0:0:0:0:
448,192,74691,1,0,0:0:0:0:
64,192,74691,1,0,0:0:0:0:
448,192,74794,1,0,0:0:0:0:
448,192,74896,1,0,0:0:0:0:
64,192,74999,1,0,0:0:0:0:
320,192,74999,1,0,0:0:0:0:
448,192,74999,1,0,0:0:0:0:
192,192,75076,1,0,0:0:0:0:
448,192,75153,1,0,0:0:0:0:
320,192,75229,1,0,0:0:0:0:
64,192,75306,1,0,0:0:0:0:
192,192,75306,1,0,0:0:0:0:
448,192,75306,1,0,0:0:0:0:
320,192,75383,1,0,0:0:0:0:
64,192,75460,1,0,0:0:0:0:
192,192,75537,1,0,0:0:0:0:
64,192,75614,1,0,0:0:0:0:
448,192,75614,1,0,0:0:0:0:
320,192,75614,1,0,0:0:0:0:
192,192,75691,1,0,0:0:0:0:
64,192,75768,1,0,0:0:0:0:
320,192,75845,1,0,0:0:0:0:
64,192,75922,1,0,0:0:0:0:
448,192,75922,1,0,0:0:0:0:
192,192,75922,1,0,0:0:0:0:
320,192,75999,1,0,0:0:0:0:
64,192,76076,1,0,0:0:0:0:
192,192,76153,1,0,0:0:0:0:
64,192,76229,1,0,0:0:0:0:
320,192,76229,1,0,0:0:0:0:
448,192,76229,1,0,0:0:0:0:
320,192,76332,1,0,0:0:0:0:
320,192,76435,1,0,0:0:0:0:
64,192,76537,1,0,0:0:0:0:
192,192,76537,1,0,0:0:0:0:
320,192,76614,1,0,0:0:0:0:
448,192,76614,1,0,0:0:0:0:
64,192,76691,1,0,0:0:0:0:
192,192,76691,1,0,0:0:0:0:
320,192,76768,1,0,0:0:0:0:
64,192,76845,1,0,0:0:0:0:
448,192,76845,1,0,0:0:0:0:
192,192,76922,1,0,0:0:0:0:
320,192,76922,1,0,0:0:0:0:
64,192,76999,1,0,0:0:0:0:
448,192,76999,1,0,0:0:0:0:
192,192,77076,1,0,0:0:0:0:
320,192,77076,1,0,0:0:0:0:
320,192,77153,1,0,0:0:0:0:
448,192,77153,1,0,0:0:0:0:
64,192,77153,1,0,0:0:0:0:
192,192,77229,1,0,0:0:0:0:
320,192,77306,1,0,0:0:0:0:
448,192,77306,1,0,0:0:0:0:
64,192,77383,1,0,0:0:0:0:
192,192,77460,1,0,0:0:0:0:
448,192,77537,1,0,0:0:0:0:
64,192,77614,1,0,0:0:0:0:
320,192,77614,1,0,0:0:0:0:
192,192,77691,1,0,0:0:0:0:
448,192,77768,1,0,0:0:0:0:
64,192,77845,1,0,0:0:0:0:
320,192,77922,1,0,0:0:0:0:
448,192,77922,1,0,0:0:0:0:
192,192,77999,1,0,0:0:0:0:
448,192,78076,1,0,0:0:0:0:
64,192,78076,1,0,0:0:0:0:
320,192,78153,1,0,0:0:0:0:
192,192,78153,1,0,0:0:0:0:
64,192,78229,1,0,0:0:0:0:
448,192,78229,1,0,0:0:0:0:
320,192,78306,1,0,0:0:0:0:
192,192,78383,1,0,0:0:0:0:
320,192,78460,1,0,0:0:0:0:
64,192,78537,1,0,0:0:0:0:
448,192,78537,1,0,0:0:0:0:
192,192,78614,1,0,0:0:0:0:
320,192,78691,1,0,0:0:0:0:
64,192,78768,1,0,0:0:0:0:
320,192,78845,1,0,0:0:0:0:
448,192,78845,1,0,0:0:0:0:
192,192,78922,1,0,0:0:0:0:
448,192,78999,1,0,0:0:0:0:
320,192,79076,1,0,0:0:0:0:
64,192,79153,1,0,0:0:0:0:
192,192,79153,1,0,0:0:0:0:
448,192,79229,1,0,0:0:0:0:
192,192,79306,1,0,0:0:0:0:
320,192,79306,1,0,0:0:0:0:
64,192,79383,1,0,0:0:0:0:
448,192,79383,1,0,0:0:0:0:
320,192,79460,1,0,0:0:0:0:
192,192,79460,1,0,0:0:0:0:
64,192,79537,1,0,0:0:0:0:
448,192,79614,1,0,0:0:0:0:
192,192,79691,1,0,0:0:0:0:
320,192,79768,1,0,0:0:0:0:
448,192,79768,1,0,0:0:0:0:
64,192,79845,1,0,0:0:0:0:
448,192,79922,1,0,0:0:0:0:
192,192,79922,1,0,0:0:0:0:
320,192,79999,1,0,0:0:0:0:
64,192,79999,1,0,0:0:0:0:
448,192,80076,1,0,0:0:0:0:
192,192,80076,1,0,0:0:0:0:
320,192,80153,1,0,0:0:0:0:
64,192,80229,1,0,0:0:0:0:
192,192,80306,1,0,0:0:0:0:
320,192,80383,1,0,0:0:0:0:
448,192,80383,1,0,0:0:0:0:
64,192,80460,1,0,0:0:0:0:
320,192,80537,1,0,0:0:0:0:
192,192,80614,1,0,0:0:0:0:
64,192,80691,1,0,0:0:0:0:
448,192,80691,1,0,0:0:0:0:
192,192,80768,1,0,0:0:0:0:
320,192,80845,1,0,0:0:0:0:
448,192,80845,1,0,0:0:0:0:
64,192,80883,1,0,0:0:0:0:
192,192,80922,1,0,0:0:0:0:
448,192,80960,1,0,0:0:0:0:
320,192,80999,1,0,0:0:0:0:
192,192,81037,1,0,0:0:0:0:
64,192,81076,1,0,0:0:0:0:
320,192,81114,1,0,0:0:0:0:
448,192,81153,1,0,0:0:0:0:
64,192,81191,1,0,0:0:0:0:
192,192,81229,1,0,0:0:0:0:
320,192,81268,1,0,0:0:0:0:
448,192,81306,1,0,0:0:0:0:
64,192,81345,1,0,0:0:0:0:
192,192,81383,1,0,0:0:0:0:
448,192,81422,1,0,0:0:0:0:
320,192,81460,1,0,0:0:0:0:
64,192,81499,1,0,0:0:0:0:
192,192,81537,1,0,0:0:0:0:
320,192,81576,1,0,0:0:0:0:
448,192,81614,1,0,0:0:0:0:
192,192,81653,1,0,0:0:0:0:
64,192,81691,1,0,0:0:0:0:
192,192,81768,1,0,0:0:0:0:
320,192,81768,1,0,0:0:0:0:
192,192,81870,1,0,0:0:0:0:
320,192,81870,1,0,0:0:0:0:
192,192,81973,1,0,0:0:0:0:
320,192,81973,1,0,0:0:0:0:
64,192,82076,1,0,0:0:0:0:
448,192,82076,1,0,0:0:0:0:
320,192,82076,1,0,0:0:0:0:
64,192,82178,1,0,0:0:0:0:
320,192,82178,1,0,0:0:0:0:
448,192,82178,1,0,0:0:0:0:
320,192,82281,1,0,0:0:0:0:
448,192,82281,1,0,0:0:0:0:
64,192,82281,1,0,0:0:0:0:
320,192,82383,1,0,0:0:0:0:
448,192,82383,1,0,0:0:0:0:
64,192,82383,1,0,0:0:0:0:
320,192,82486,1,0,0:0:0:0:
448,192,82486,1,0,0:0:0:0:
64,192,82486,1,0,0:0:0:0:
320,192,82588,1,0,0:0:0:0:
448,192,82588,1,0,0:0:0:0:
64,192,82588,1,0,0:0:0:0:
64,192,82691,1,0,0:0:0:0:
320,192,82691,1,0,0:0:0:0:
448,192,82691,1,0,0:0:0:0:
64,192,82999,128,0,83037:0:0:0:0:
192,192,82999,128,0,83037:0:0:0:0:
448,192,82999,128,0,83037:0:0:0:0:
320,192,83306,1,0,0:0:0:0:
448,192,83306,1,0,0:0:0:0:
192,192,83306,1,0,0:0:0:0:
192,192,83409,1,0,0:0:0:0:
320,192,83409,1,0,0:0:0:0:
448,192,83409,1,0,0:0:0:0:
192,192,83511,1,0,0:0:0:0:
320,192,83511,1,0,0:0:0:0:
448,192,83511,1,0,0:0:0:0:
192,192,83614,1,0,0:0:0:0:
320,192,83614,1,0,0:0:0:0:
448,192,83614,1,0,0:0:0:0:
192,192,83717,1,0,0:0:0:0:
320,192,83717,1,0,0:0:0:0:
448,192,83717,1,0,0:0:0:0:
192,192,83819,1,0,0:0:0:0:
320,192,83819,1,0,0:0:0:0:
448,192,83819,1,0,0:0:0:0:
192,192,83922,1,0,0:0:0:0:
320,192,83922,1,0,0:0:0:0:
448,192,83922,1,0,0:0:0:0:
192,192,84229,128,0,84268:0:0:0:0:
64,192,84229,128,0,84268:0:0:0:0:
448,192,84229,128,0,84268:0:0:0:0:
64,192,84537,1,0,0:0:0:0:
448,192,84537,1,0,0:0:0:0:
320,192,84537,128,0,84691:0:0:0:0:
64,192,84845,128,0,84999:0:0:0:0:
192,192,84999,128,0,85153:0:0:0:0:
320,192,85153,1,0,0:0:0:0:
448,192,85153,128,0,85306:0:0:0:0:
64,192,85306,128,0,85383:0:0:0:0:
192,192,85460,128,0,85614:0:0:0:0:
448,192,85614,128,0,85691:0:0:0:0:
64,192,85768,1,0,0:0:0:0:
320,192,85768,128,0,86076:0:0:0:0:
192,192,86076,128,0,86383:0:0:0:0:
320,192,86383,1,0,0:0:0:0:
448,192,86383,1,0,0:0:0:0:
64,192,86537,1,0,0:0:0:0:
192,192,86537,1,0,0:0:0:0:
320,192,86614,1,0,0:0:0:0:
448,192,86614,1,0,0:0:0:0:
64,192,86691,1,0,0:0:0:0:
192,192,86691,1,0,0:0:0:0:
320,192,86768,1,0,0:0:0:0:
448,192,86768,1,0,0:0:0:0:
64,192,86845,1,0,0:0:0:0:
192,192,86845,1,0,0:0:0:0:
320,192,86922,1,0,0:0:0:0:
448,192,86922,1,0,0:0:0:0:
64,192,86999,1,0,0:0:0:0:
192,192,86999,1,0,0:0:0:0:
448,192,87076,1,0,0:0:0:0:
192,192,87153,1,0,0:0:0:0:
320,192,87229,1,0,0:0:0:0:
64,192,87306,1,0,0:0:0:0:
448,192,87306,1,0,0:0:0:0:
192,192,87306,1,0,0:0:0:0:
320,192,87383,1,0,0:0:0:0:
64,192,87460,1,0,0:0:0:0:
192,192,87537,1,0,0:0:0:0:
448,192,87614,1,0,0:0:0:0:
64,192,87691,1,0,0:0:0:0:
320,192,87768,1,0,0:0:0:0:
192,192,87845,1,0,0:0:0:0:
64,192,87922,1,0,0:0:0:0:
448,192,87922,1,0,0:0:0:0:
320,192,87922,1,0,0:0:0:0:
192,192,87999,1,0,0:0:0:0:
320,192,88076,1,0,0:0:0:0:
64,192,88153,1,0,0:0:0:0:
192,192,88229,1,0,0:0:0:0:
448,192,88306,1,0,0:0:0:0:
320,192,88383,1,0,0:0:0:0:
64,192,88460,1,0,0:0:0:0:
192,192,88537,1,0,0:0:0:0:
320,192,88537,1,0,0:0:0:0:
448,192,88537,1,0,0:0:0:0:
64,192,88614,1,0,0:0:0:0:
448,192,88691,1,0,0:0:0:0:
320,192,88768,1,0,0:0:0:0:
64,192,88845,1,0,0:0:0:0:
192,192,88845,1,0,0:0:0:0:
448,192,88845,1,0,0:0:0:0:
320,192,88922,1,0,0:0:0:0:
192,192,88999,1,0,0:0:0:0:
320,192,89076,1,0,0:0:0:0:
448,192,89076,1,0,0:0:0:0:
64,192,89076,1,0,0:0:0:0:
192,192,89153,1,0,0:0:0:0:
448,192,89229,1,0,0:0:0:0:
64,192,89306,1,0,0:0:0:0:
192,192,89306,1,0,0:0:0:0:
320,192,89306,1,0,0:0:0:0:
448,192,89383,1,0,0:0:0:0:
320,192,89460,1,0,0:0:0:0:
64,192,89460,1,0,0:0:0:0:
192,192,89460,1,0,0:0:0:0:
448,192,89537,1,0,0:0:0:0:
64,192,89614,1,0,0:0:0:0:
192,192,89614,1,0,0:0:0:0:
320,192,89691,1,0,0:0:0:0:
64,192,89768,1,0,0:0:0:0:
448,192,89768,1,0,0:0:0:0:
192,192,89845,1,0,0:0:0:0:
320,192,89922,1,0,0:0:0:0:
192,192,89999,1,0,0:0:0:0:
448,192,90076,1,0,0:0:0:0:
64,192,90153,1,0,0:0:0:0:
448,192,90229,1,0,0:0:0:0:
192,192,90306,1,0,0:0:0:0:
448,192,90383,1,0,0:0:0:0:
64,192,90383,1,0,0:0:0:0:
192,192,90460,1,0,0:0:0:0:
320,192,90460,1,0,0:0:0:0:
64,192,90537,1,0,0:0:0:0:
448,192,90537,1,0,0:0:0:0:
320,192,90614,1,0,0:0:0:0:
192,192,90691,1,0,0:0:0:0:
448,192,90768,1,0,0:0:0:0:
64,192,90845,1,0,0:0:0:0:
448,192,90922,1,0,0:0:0:0:
192,192,90999,1,0,0:0:0:0:
320,192,91076,1,0,0:0:0:0:
192,192,91153,1,0,0:0:0:0:
448,192,91229,1,0,0:0:0:0:
64,192,91306,1,0,0:0:0:0:
192,192,91306,1,0,0:0:0:0:
320,192,91383,1,0,0:0:0:0:
448,192,91383,1,0,0:0:0:0:
64,192,91460,1,0,0:0:0:0:
192,192,91460,1,0,0:0:0:0:
320,192,91537,1,0,0:0:0:0:
64,192,91614,1,0,0:0:0:0:
448,192,91614,1,0,0:0:0:0:
192,192,91614,1,0,0:0:0:0:
320,192,91922,1,0,0:0:0:0:
448,192,91922,1,0,0:0:0:0:
64,192,91922,1,0,0:0:0:0:
192,192,91973,1,0,0:0:0:0:
320,192,92024,1,0,0:0:0:0:
448,192,92076,1,0,0:0:0:0:
192,192,92127,1,0,0:0:0:0:
64,192,92178,1,0,0:0:0:0:
448,192,92229,1,0,0:0:0:0:
320,192,92281,1,0,0:0:0:0:
64,192,92332,1,0,0:0:0:0:
192,192,92383,1,0,0:0:0:0:
448,192,92435,1,0,0:0:0:0:
320,192,92486,1,0,0:0:0:0:
192,192,92537,1,0,0:0:0:0:
64,192,92588,1,0,0:0:0:0:
320,192,92640,1,0,0:0:0:0:
448,192,92691,1,0,0:0:0:0:
64,192,92742,1,0,0:0:0:0:
192,192,92794,1,0,0:0:0:0:
448,192,92845,1,0,0:0:0:0:
320,192,92896,1,0,0:0:0:0:
192,192,92947,1,0,0:0:0:0:
64,192,92999,1,0,0:0:0:0:
320,192,93050,1,0,0:0:0:0:
448,192,93101,1,0,0:0:0:0:
64,192,93153,1,0,0:0:0:0:
192,192,93204,1,0,0:0:0:0:
448,192,93255,1,0,0:0:0:0:
320,192,93306,1,0,0:0:0:0:
192,192,93358,1,0,0:0:0:0:
64,192,93409,1,0,0:0:0:0:
320,192,93460,1,0,0:0:0:0:
448,192,93511,1,0,0:0:0:0:
192,192,93563,1,0,0:0:0:0:
64,192,93614,1,0,0:0:0:0:
448,192,93665,1,0,0:0:0:0:
320,192,93717,1,0,0:0:0:0:
64,192,93768,1,0,0:0:0:0:
192,192,93819,1,0,0:0:0:0:
320,192,93870,1,0,0:0:0:0:
448,192,93922,1,0,0:0:0:0:
64,192,93973,1,0,0:0:0:0:
192,192,94024,1,0,0:0:0:0:
448,192,94076,1,0,0:0:0:0:
320,192,94127,1,0,0:0:0:0:
64,192,94178,1,0,0:0:0:0:
192,192,94229,1,0,0:0:0:0:
448,192,94281,1,0,0:0:0:0:
320,192,94332,1,0,0:0:0:0:
192,192,94383,1,0,0:0:0:0:
64,192,94435,1,0,0:0:0:0:
320,192,94537,1,0,0:0:0:0:
448,192,94537,1,0,0:0:0:0:
64,192,94614,1,0,0:0:0:0:
192,192,94614,1,0,0:0:0:0:
320,192,94691,1,0,0:0:0:0:
448,192,94691,1,0,0:0:0:0:
64,192,94768,1,0,0:0:0:0:
192,192,94768,1,0,0:0:0:0:
320,192,94845,1,0,0:0:0:0:
448,192,94845,1,0,0:0:0:0:
64,192,94999,1,0,0:0:0:0:
448,192,94999,1,0,0:0:0:0:
320,192,95076,1,0,0:0:0:0:
192,192,95076,1,0,0:0:0:0:
64,192,95153,1,0,0:0:0:0:
448,192,95153,1,0,0:0:0:0:
192,192,95229,1,0,0:0:0:0:
320,192,95229,1,0,0:0:0:0:
64,192,95306,1,0,0:0:0:0:
448,192,95306,1,0,0:0:0:0:
64,192,95460,1,0,0:0:0:0:
320,192,95460,1,0,0:0:0:0:
192,192,95537,1,0,0:0:0:0:
448,192,95537,1,0,0:0:0:0:
64,192,95614,1,0,0:0:0:0:
320,192,95614,1,0,0:0:0:0:
192,192,95691,1,0,0:0:0:0:
64,192,95768,1,0,0:0:0:0:
448,192,95768,1,0,0:0:0:0:
192,192,95845,1,0,0:0:0:0:
320,192,95845,1,0,0:0:0:0:
64,192,95922,1,0,0:0:0:0:
448,192,95999,1,0,0:0:0:0:
192,192,95999,1,0,0:0:0:0:
320,192,96076,1,0,0:0:0:0:
64,192,96076,1,0,0:0:0:0:
192,192,96153,1,0,0:0:0:0:
320,192,96229,1,0,0:0:0:0:
448,192,96229,1,0,0:0:0:0:
64,192,96306,1,0,0:0:0:0:
192,192,96306,1,0,0:0:0:0:
320,192,96383,1,0,0:0:0:0:
448,192,96383,1,0,0:0:0:0:
64,192,96460,1,0,0:0:0:0:
192,192,96460,1,0,0:0:0:0:
320,192,96537,1,0,0:0:0:0:
448,192,96537,1,0,0:0:0:0:
64,192,96614,1,0,0:0:0:0:
192,192,96614,1,0,0:0:0:0:
320,192,96691,1,0,0:0:0:0:
448,192,96691,1,0,0:0:0:0:
64,192,96768,1,0,0:0:0:0:
192,192,96768,1,0,0:0:0:0:
320,192,96845,1,0,0:0:0:0:
448,192,96845,1,0,0:0:0:0:
64,192,96845,1,0,0:0:0:0:
192,192,96922,1,0,0:0:0:0:
320,192,96999,1,0,0:0:0:0:
448,192,96999,1,0,0:0:0:0:
64,192,97076,1,0,0:0:0:0:
320,192,97153,1,0,0:0:0:0:
192,192,97229,1,0,0:0:0:0:
448,192,97306,1,0,0:0:0:0:
64,192,97306,1,0,0:0:0:0:
320,192,97383,1,0,0:0:0:0:
64,192,97460,1,0,0:0:0:0:
192,192,97511,1,0,0:0:0:0:
320,192,97563,1,0,0:0:0:0:
64,192,97614,1,0,0:0:0:0:
448,192,97614,1,0,0:0:0:0:
192,192,97691,1,0,0:0:0:0:
320,192,97768,1,0,0:0:0:0:
192,192,97819,1,0,0:0:0:0:
64,192,97870,1,0,0:0:0:0:
320,192,97922,1,0,0:0:0:0:
448,192,97922,1,0,0:0:0:0:
192,192,97999,1,0,0:0:0:0:
448,192,98076,1,0,0:0:0:0:
320,192,98127,1,0,0:0:0:0:
192,192,98178,1,0,0:0:0:0:
448,192,98229,1,0,0:0:0:0:
64,192,98229,1,0,0:0:0:0:
320,192,98306,1,0,0:0:0:0:
64,192,98383,1,0,0:0:0:0:
192,192,98435,1,0,0:0:0:0:
320,192,98486,1,0,0:0:0:0:
448,192,98537,1,0,0:0:0:0:
64,192,98537,1,0,0:0:0:0:
320,192,98614,1,0,0:0:0:0:
64,192,98691,1,0,0:0:0:0:
192,192,98742,1,0,0:0:0:0:
448,192,98794,1,0,0:0:0:0:
64,192,98845,1,0,0:0:0:0:
320,192,98845,1,0,0:0:0:0:
192,192,98922,1,0,0:0:0:0:
448,192,98999,1,0,0:0:0:0:
320,192,99050,1,0,0:0:0:0:
192,192,99101,1,0,0:0:0:0:
64,192,99153,1,0,0:0:0:0:
448,192,99153,1,0,0:0:0:0:
192,192,99229,1,0,0:0:0:0:
448,192,99306,1,0,0:0:0:0:
320,192,99383,1,0,0:0:0:0:
64,192,99460,1,0,0:0:0:0:
192,192,99460,1,0,0:0:0:0:
320,192,99537,1,0,0:0:0:0:
448,192,99614,1,0,0:0:0:0:
320,192,99665,1,0,0:0:0:0:
192,192,99717,1,0,0:0:0:0:
448,192,99768,1,0,0:0:0:0:
320,192,99768,1,0,0:0:0:0:
64,192,99819,1,0,0:0:0:0:
192,192,99870,1,0,0:0:0:0:
448,192,99922,1,0,0:0:0:0:
320,192,99973,1,0,0:0:0:0:
192,192,100024,1,0,0:0:0:0:
64,192,100076,1,0,0:0:0:0:
448,192,100076,1,0,0:0:0:0:
192,192,100153,1,0,0:0:0:0:
448,192,100229,1,0,0:0:0:0:
320,192,100281,1,0,0:0:0:0:
192,192,100332,1,0,0:0:0:0:
448,192,100383,1,0,0:0:0:0:
64,192,100383,1,0,0:0:0:0:
192,192,100435,1,0,0:0:0:0:
320,192,100486,1,0,0:0:0:0:
64,192,100537,1,0,0:0:0:0:
192,192,100588,1,0,0:0:0:0:
320,192,100614,1,0,0:0:0:0:
448,192,100691,1,0,0:0:0:0:
64,192,100691,1,0,0:0:0:0:
320,192,100742,1,0,0:0:0:0:
192,192,100768,1,0,0:0:0:0:
64,192,100845,1,0,0:0:0:0:
192,192,100896,1,0,0:0:0:0:
320,192,100947,1,0,0:0:0:0:
448,192,100999,1,0,0:0:0:0:
64,192,100999,1,0,0:0:0:0:
320,192,101076,1,0,0:0:0:0:
64,192,101153,1,0,0:0:0:0:
192,192,101204,1,0,0:0:0:0:
448,192,101255,1,0,0:0:0:0:
320,192,101306,1,0,0:0:0:0:
64,192,101358,1,0,0:0:0:0:
192,192,101409,1,0,0:0:0:0:
448,192,101460,1,0,0:0:0:0:
320,192,101486,1,0,0:0:0:0:
192,192,101511,1,0,0:0:0:0:
64,192,101537,1,0,0:0:0:0:
448,192,101576,1,0,0:0:0:0:
320,192,101614,1,0,0:0:0:0:
64,192,101653,1,0,0:0:0:0:
192,192,101691,1,0,0:0:0:0:
320,192,101729,1,0,0:0:0:0:
64,192,101768,1,0,0:0:0:0:
448,192,101768,1,0,0:0:0:0:
192,192,101768,1,0,0:0:0:0:
320,192,101845,1,0,0:0:0:0:
64,192,101922,1,0,0:0:0:0:
448,192,101922,1,0,0:0:0:0:
192,192,101999,1,0,0:0:0:0:
448,192,102076,1,0,0:0:0:0:
320,192,102153,1,0,0:0:0:0:
448,192,102229,1,0,0:0:0:0:
64,192,102229,1,0,0:0:0:0:
192,192,102281,1,0,0:0:0:0:
448,192,102383,1,0,0:0:0:0:
320,192,102435,1,0,0:0:0:0:
192,192,102486,1,0,0:0:0:0:
64,192,102537,1,0,0:0:0:0:
448,192,102537,1,0,0:0:0:0:
192,192,102614,1,0,0:0:0:0:
320,192,102691,1,0,0:0:0:0:
64,192,102768,1,0,0:0:0:0:
448,192,102845,1,0,0:0:0:0:
320,192,102845,1,0,0:0:0:0:
192,192,102896,1,0,0:0:0:0:
448,192,102999,1,0,0:0:0:0:
64,192,103050,1,0,0:0:0:0:
192,192,103101,1,0,0:0:0:0:
448,192,103153,1,0,0:0:0:0:
320,192,103153,1,0,0:0:0:0:
64,192,103229,1,0,0:0:0:0:
320,192,103306,1,0,0:0:0:0:
192,192,103383,1,0,0:0:0:0:
64,192,103460,1,0,0:0:0:0:
448,192,103460,1,0,0:0:0:0:
192,192,103511,1,0,0:0:0:0:
320,192,103563,1,0,0:0:0:0:
64,192,103614,1,0,0:0:0:0:
448,192,103665,1,0,0:0:0:0:
320,192,103717,1,0,0:0:0:0:
64,192,103768,1,0,0:0:0:0:
192,192,103768,1,0,0:0:0:0:
320,192,103845,1,0,0:0:0:0:
192,192,103922,1,0,0:0:0:0:
448,192,103973,1,0,0:0:0:0:
320,192,104024,1,0,0:0:0:0:
448,192,104076,1,0,0:0:0:0:
64,192,104076,1,0,0:0:0:0:
192,192,104153,1,0,0:0:0:0:
320,192,104229,1,0,0:0:0:0:
64,192,104306,1,0,0:0:0:0:
448,192,104383,1,0,0:0:0:0:
192,192,104383,1,0,0:0:0:0:
320,192,104435,1,0,0:0:0:0:
64,192,104486,1,0,0:0:0:0:
448,192,104537,1,0,0:0:0:0:
192,192,104537,1,0,0:0:0:0:
64,192,104614,1,0,0:0:0:0:
448,192,104691,1,0,0:0:0:0:
320,192,104691,1,0,0:0:0:0:
192,192,104742,1,0,0:0:0:0:
448,192,104845,1,0,0:0:0:0:
320,192,104870,1,0,0:0:0:0:
64,192,104896,1,0,0:0:0:0:
192,192,104922,1,0,0:0:0:0:
64,192,104999,1,0,0:0:0:0:
448,192,104999,1,0,0:0:0:0:
192,192,105024,1,0,0:0:0:0:
320,192,105050,1,0,0:0:0:0:
448,192,105076,1,0,0:0:0:0:
64,192,105153,1,0,0:0:0:0:
192,192,105153,1,0,0:0:0:0:
320,192,105229,1,0,0:0:0:0:
448,192,105229,1,0,0:0:0:0:
64,192,105306,1,0,0:0:0:0:
192,192,105306,1,0,0:0:0:0:
448,192,105332,1,0,0:0:0:0:
320,192,105358,1,0,0:0:0:0:
192,192,105383,1,0,0:0:0:0:
448,192,105460,1,0,0:0:0:0:
320,192,105499,1,0,0:0:0:0:
192,192,105537,1,0,0:0:0:0:
64,192,105576,1,0,0:0:0:0:
448,192,105614,1,0,0:0:0:0:
320,192,105653,1,0,0:0:0:0:
192,192,105691,1,0,0:0:0:0:
64,192,105729,1,0,0:0:0:0:
448,192,105768,1,0,0:0:0:0:
320,192,105806,1,0,0:0:0:0:
64,192,105845,1,0,0:0:0:0:
192,192,105883,1,0,0:0:0:0:
448,192,105922,1,0,0:0:0:0:
320,192,105960,1,0,0:0:0:0:
64,192,105999,1,0,0:0:0:0:
192,192,106037,1,0,0:0:0:0:
448,192,106076,1,0,0:0:0:0:
320,192,106114,1,0,0:0:0:0:
192,192,106153,1,0,0:0:0:0:
64,192,106191,1,0,0:0:0:0:
448,192,106229,1,0,0:0:0:0:
320,192,106268,1,0,0:0:0:0:
192,192,106306,1,0,0:0:0:0:
64,192,106345,1,0,0:0:0:0:
448,192,106383,1,0,0:0:0:0:
320,192,106422,1,0,0:0:0:0:
64,192,106460,1,0,0:0:0:0:
192,192,106499,1,0,0:0:0:0:
448,192,106537,1,0,0:0:0:0:
320,192,106576,1,0,0:0:0:0:
64,192,106614,1,0,0:0:0:0:
192,192,106653,1,0,0:0:0:0:
448,192,106691,1,0,0:0:0:0:
320,192,106691,1,0,0:0:0:0:
64,192,106999,128,0,107229:0:0:0:0:
320,192,107306,128,0,107537:0:0:0:0:
192,192,107614,128,0,107845:0:0:0:0:
64,192,107768,1,0,0:0:0:0:
320,192,107768,1,0,0:0:0:0:
448,192,107768,1,0,0:0:0:0:
448,192,107922,128,0,108076:0:0:0:0:
64,192,108076,1,0,0:0:0:0:
192,192,108076,128,0,108229:0:0:0:0:
320,192,108076,1,0,0:0:0:0:
320,192,108229,128,0,108383:0:0:0:0:
64,192,108383,128,0,108537:0:0:0:0:
448,192,108537,128,0,108845:0:0:0:0:
192,192,108845,128,0,109153:0:0:0:0:
448,192,109153,1,0,0:0:0:0:
64,192,109153,1,0,0:0:0:0:
320,192,109153,1,0,0:0:0:0:
192,192,109306,1,0,0:0:0:0:
320,192,109383,1,0,0:0:0:0:
192,192,109460,1,0,0:0:0:0:
320,192,109537,1,0,0:0:0:0:
64,192,109614,1,0,0:0:0:0:
192,192,109614,1,0,0:0:0:0:
448,192,109691,1,0,0:0:0:0:
320,192,109768,1,0,0:0:0:0:
192,192,109768,1,0,0:0:0:0:
64,192,109768,1,0,0:0:0:0:
448,192,109845,1,0,0:0:0:0:
64,192,109922,1,0,0:0:0:0:
320,192,109999,1,0,0:0:0:0:
192,192,110076,1,0,0:0:0:0:
320,192,110153,1,0,0:0:0:0:
64,192,110229,1,0,0:0:0:0:
448,192,110229,1,0,0:0:0:0:
192,192,110229,1,0,0:0:0:0:
320,192,110306,1,0,0:0:0:0:
192,192,110383,1,0,0:0:0:0:
320,192,110460,1,0,0:0:0:0:
64,192,110537,1,0,0:0:0:0:
192,192,110537,1,0,0:0:0:0:
448,192,110537,1,0,0:0:0:0:
320,192,110614,1,0,0:0:0:0:
448,192,110691,1,0,0:0:0:0:
64,192,110691,1,0,0:0:0:0:
192,192,110845,1,0,0:0:0:0:
448,192,110999,1,0,0:0:0:0:
320,192,110999,128,0,111306:0:0:0:0:
64,192,110999,1,0,0:0:0:0:
192,192,111306,128,0,111614:0:0:0:0:
320,192,111614,1,0,0:0:0:0:
448,192,111614,1,0,0:0:0:0:
64,192,111614,1,0,0:0:0:0:
192,192,111768,1,0,0:0:0:0:
320,192,111922,1,0,0:0:0:0:
448,192,111922,1,0,0:0:0:0:
64,192,111922,1,0,0:0:0:0:
448,192,112076,1,0,0:0:0:0:
192,192,112229,1,0,0:0:0:0:
320,192,112229,1,0,0:0:0:0:
192,192,112383,1,0,0:0:0:0:
320,192,112383,1,0,0:0:0:0:
320,192,112537,1,0,0:0:0:0:
448,192,112537,1,0,0:0:0:0:
64,192,112537,1,0,0:0:0:0:
192,192,112691,128,0,112845:0:0:0:0:
320,192,112691,1,0,0:0:0:0:
448,192,112845,1,0,0:0:0:0:
192,192,112999,1,0,0:0:0:0:
320,192,112999,1,0,0:0:0:0:
64,192,113153,1,0,0:0:0:0:
320,192,113153,1,0,0:0:0:0:
448,192,113153,1,0,0:0:0:0:
320,192,113306,1,0,0:0:0:0:
64,192,113460,1,0,0:0:0:0:
192,192,113460,1,0,0:0:0:0:
64,192,113614,1,0,0:0:0:0:
192,192,113614,1,0,0:0:0:0:
448,192,113768,1,0,0:0:0:0:
64,192,113768,1,0,0:0:0:0:
320,192,113768,128,0,114076:0:0:0:0:
64,192,114076,1,0,0:0:0:0:
192,192,114076,1,0,0:0:0:0:
448,192,114076,1,0,0:0:0:0:
192,192,114229,1,0,0:0:0:0:
320,192,114383,1,0,0:0:0:0:
448,192,114383,1,0,0:0:0:0:
64,192,114383,1,0,0:0:0:0:
64,192,114537,1,0,0:0:0:0:
320,192,114691,1,0,0:0:0:0:
448,192,114691,1,0,0:0:0:0:
320,192,114845,1,0,0:0:0:0:
448,192,114845,1,0,0:0:0:0:
64,192,114999,1,0,0:0:0:0:
192,192,114999,1,0,0:0:0:0:
448,192,114999,1,0,0:0:0:0:
320,192,115153,1,0,0:0:0:0:
192,192,115153,128,0,115306:0:0:0:0:
320,192,115306,1,0,0:0:0:0:
448,192,115306,1,0,0:0:0:0:
64,192,115306,1,0,0:0:0:0:
192,192,115460,1,0,0:0:0:0:
320,192,115460,1,0,0:0:0:0:
320,192,115614,1,0,0:0:0:0:
448,192,115614,1,0,0:0:0:0:
64,192,115614,1,0,0:0:0:0:
192,192,115768,1,0,0:0:0:0:
320,192,115768,1,0,0:0:0:0:
64,192,115922,1,0,0:0:0:0:
192,192,115922,1,0,0:0:0:0:
320,192,115999,1,0,0:0:0:0:
448,192,115999,1,0,0:0:0:0:
64,192,116076,1,0,0:0:0:0:
192,192,116076,1,0,0:0:0:0:
320,192,116153,1,0,0:0:0:0:
448,192,116153,1,0,0:0:0:0:
64,192,116229,1,0,0:0:0:0:
192,192,116229,1,0,0:0:0:0:
448,192,116383,1,0,0:0:0:0:
64,192,116383,1,0,0:0:0:0:
320,192,116537,1,0,0:0:0:0:
448,192,116537,1,0,0:0:0:0:
64,192,116537,1,0,0:0:0:0:
192,192,116537,1,0,0:0:0:0:
64,192,116845,128,0,117076:0:0:0:0:
448,192,116845,1,0,0:0:0:0:
448,192,117076,1,0,0:0:0:0:
320,192,117153,128,0,117383:0:0:0:0:
192,192,117460,128,0,117614:0:0:0:0:
448,192,117460,1,0,0:0:0:0:
320,192,117614,128,0,117768:0:0:0:0:
448,192,117614,1,0,0:0:0:0:
64,192,117614,1,0,0:0:0:0:
64,192,117768,128,0,117922:0:0:0:0:
448,192,117922,128,0,118076:0:0:0:0:
320,192,117922,1,0,0:0:0:0:
192,192,117922,1,0,0:0:0:0:
192,192,118076,128,0,118229:0:0:0:0:
64,192,118076,1,0,0:0:0:0:
320,192,118229,128,0,118383:0:0:0:0:
448,192,118306,1,0,0:0:0:0:
64,192,118383,128,0,118614:0:0:0:0:
192,192,118383,1,0,0:0:0:0:
448,192,118460,1,0,0:0:0:0:
320,192,118537,1,0,0:0:0:0:
448,192,118691,128,0,118922:0:0:0:0:
64,192,118999,1,0,0:0:0:0:
192,192,118999,1,0,0:0:0:0:
320,192,119076,1,0,0:0:0:0:
448,192,119076,1,0,0:0:0:0:
64,192,119153,1,0,0:0:0:0:
192,192,119153,1,0,0:0:0:0:
448,192,119229,1,0,0:0:0:0:
320,192,119229,1,0,0:0:0:0:
64,192,119306,1,0,0:0:0:0:
192,192,119306,1,0,0:0:0:0:
448,192,119383,1,0,0:0:0:0:
320,192,119383,1,0,0:0:0:0:
64,192,119460,1,0,0:0:0:0:
192,192,119460,1,0,0:0:0:0:
320,192,119537,1,0,0:0:0:0:
448,192,119537,1,0,0:0:0:0:
448,192,119614,1,0,0:0:0:0:
64,192,119614,1,0,0:0:0:0:
192,192,119614,1,0,0:0:0:0:
448,192,119922,1,0,0:0:0:0:
64,192,119922,1,0,0:0:0:0:
192,192,119999,1,0,0:0:0:0:
320,192,119999,1,0,0:0:0:0:
64,192,120076,1,0,0:0:0:0:
448,192,120076,1,0,0:0:0:0:
320,192,120076,1,0,0:0:0:0:
448,192,120229,128,0,120383:0:0:0:0:
320,192,120383,1,0,0:0:0:0:
64,192,120383,1,0,0:0:0:0:
192,192,120537,128,0,120691:0:0:0:0:
448,192,120691,1,0,0:0:0:0:
64,192,120691,1,0,0:0:0:0:
320,192,120845,128,0,120999:0:0:0:0:
448,192,120999,1,0,0:0:0:0:
64,192,120999,1,0,0:0:0:0:
192,192,120999,1,0,0:0:0:0:
64,192,121460,128,0,121922:0:0:0:0:
320,192,121460,1,0,0:0:0:0:
448,192,121460,1,0,0:0:0:0:
192,192,121460,1,0,0:0:0:0:
192,192,121614,1,0,0:0:0:0:
320,192,121614,1,0,0:0:0:0:
448,192,121614,1,0,0:0:0:0:
448,192,121922,1,0,0:0:0:0:
192,192,121922,128,0,122076:0:0:0:0:
320,192,122076,128,0,122691:0:0:0:0:
448,192,122076,128,0,123922:0:0:0:0:
64,192,122383,1,0,0:0:0:0:
192,192,122537,1,0,0:0:0:0:
192,192,122845,1,0,0:0:0:0:
64,192,122845,1,0,0:0:0:0:
192,192,123153,1,0,0:0:0:0:
64,192,123153,1,0,0:0:0:0:
320,192,123306,1,0,0:0:0:0:
64,192,123306,1,0,0:0:0:0:
320,192,123614,1,0,0:0:0:0:
192,192,123614,1,0,0:0:0:0:
64,192,123922,1,0,0:0:0:0:
192,192,123922,1,0,0:0:0:0:
64,192,124076,1,0,0:0:0:0:
448,192,124076,1,0,0:0:0:0:
192,192,124383,1,0,0:0:0:0:
320,192,124383,1,0,0:0:0:0:
320,192,124537,1,0,0:0:0:0:
448,192,124537,1,0,0:0:0:0:
64,192,124537,128,0,124845:0:0:0:0:
448,192,124845,1,0,0:0:0:0:
320,192,124845,1,0,0:0:0:0:
448,192,124999,1,0,0:0:0:0:
320,192,124999,1,0,0:0:0:0:
64,192,125306,1,0,0:0:0:0:
192,192,125306,1,0,0:0:0:0:
192,192,125460,1,0,0:0:0:0:
320,192,125460,1,0,0:0:0:0:
320,192,125614,1,0,0:0:0:0:
448,192,125614,1,0,0:0:0:0:
64,192,125768,1,0,0:0:0:0:
192,192,125768,1,0,0:0:0:0:
448,192,125768,1,0,0:0:0:0:
320,192,125999,1,0,0:0:0:0:
448,192,125999,1,0,0:0:0:0:
64,192,125999,1,0,0:0:0:0:
320,192,126229,1,0,0:0:0:0:
192,192,126229,1,0,0:0:0:0:
64,192,126229,1,0,0:0:0:0:
64,192,126383,1,0,0:0:0:0:
320,192,126383,128,0,126537:0:0:0:0:
192,192,126691,1,0,0:0:0:0:
320,192,126691,1,0,0:0:0:0:
320,192,126845,1,0,0:0:0:0:
64,192,126999,128,0,127153:0:0:0:0:
448,192,126999,1,0,0:0:0:0:
320,192,127153,1,0,0:0:0:0:
192,192,127153,1,0,0:0:0:0:
320,192,127306,1,0,0:0:0:0:
448,192,127306,1,0,0:0:0:0:
64,192,127306,1,0,0:0:0:0:
448,192,127460,1,0,0:0:0:0:
64,192,127614,1,0,0:0:0:0:
192,192,127614,128,0,127768:0:0:0:0:
448,192,127922,1,0,0:0:0:0:
64,192,127922,1,0,0:0:0:0:
320,192,127922,1,0,0:0:0:0:
448,192,128076,1,0,0:0:0:0:
64,192,128229,1,0,0:0:0:0:
320,192,128229,128,0,128383:0:0:0:0:
192,192,128383,1,0,0:0:0:0:
320,192,128537,1,0,0:0:0:0:
448,192,128537,1,0,0:0:0:0:
64,192,128537,1,0,0:0:0:0:
448,192,128691,1,0,0:0:0:0:
64,192,128691,1,0,0:0:0:0:
320,192,128845,1,0,0:0:0:0:
64,192,128845,128,0,128999:0:0:0:0:
192,192,129153,1,0,0:0:0:0:
320,192,129153,1,0,0:0:0:0:
448,192,129153,1,0,0:0:0:0:
320,192,129306,1,0,0:0:0:0:
64,192,129460,1,0,0:0:0:0:
448,192,129460,128,0,129614:0:0:0:0:
64,192,129614,1,0,0:0:0:0:
192,192,129614,1,0,0:0:0:0:
320,192,129768,1,0,0:0:0:0:
448,192,129768,1,0,0:0:0:0:
64,192,129768,1,0,0:0:0:0:
192,192,129922,1,0,0:0:0:0:
320,192,130076,1,0,0:0:0:0:
448,192,130076,1,0,0:0:0:0:
64,192,130076,1,0,0:0:0:0:
192,192,130229,5,0,0:0:0:0:
320,192,130229,1,0,0:0:0:0:
64,192,130383,1,0,0:0:0:0:
320,192,130383,1,0,0:0:0:0:
448,192,130383,1,0,0:0:0:0:
192,192,130537,1,0,0:0:0:0:
320,192,130537,1,0,0:0:0:0:
64,192,130691,1,0,0:0:0:0:
448,192,130691,1,0,0:0:0:0:
192,192,130768,1,0,0:0:0:0:
320,192,130768,1,0,0:0:0:0:
64,192,130845,1,0,0:0:0:0:
448,192,130845,1,0,0:0:0:0:
192,192,130922,1,0,0:0:0:0:
320,192,130922,1,0,0:0:0:0:
320,192,130999,1,0,0:0:0:0:
448,192,130999,1,0,0:0:0:0:
64,192,130999,1,0,0:0:0:0:
192,192,131153,1,0,0:0:0:0:
320,192,131153,1,0,0:0:0:0:
448,192,131306,1,0,0:0:0:0:
320,192,131306,128,0,131460:0:0:0:0:
64,192,131614,1,0,0:0:0:0:
448,192,131614,1,0,0:0:0:0:
192,192,131614,1,0,0:0:0:0:
448,192,131922,1,0,0:0:0:0:
64,192,131922,1,0,0:0:0:0:
448,192,132076,1,0,0:0:0:0:
64,192,132076,1,0,0:0:0:0:
448,192,132229,1,0,0:0:0:0:
192,192,132229,1,0,0:0:0:0:
64,192,132229,1,0,0:0:0:0:
448,192,132537,1,0,0:0:0:0:
320,192,132537,1,0,0:0:0:0:
64,192,132537,128,0,132691:0:0:0:0:
448,192,132845,1,0,0:0:0:0:
64,192,132845,1,0,0:0:0:0:
192,192,132845,1,0,0:0:0:0:
320,192,133153,1,0,0:0:0:0:
192,192,133153,1,0,0:0:0:0:
320,192,133306,1,0,0:0:0:0:
192,192,133306,1,0,0:0:0:0:
192,192,133460,1,0,0:0:0:0:
64,192,133460,1,0,0:0:0:0:
448,192,133460,1,0,0:0:0:0:
192,192,133614,1,0,0:0:0:0:
320,192,133614,1,0,0:0:0:0:
64,192,133768,1,0,0:0:0:0:
448,192,133768,1,0,0:0:0:0:
192,192,133768,1,0,0:0:0:0:
320,192,133768,1,0,0:0:0:0:
192,192,133922,1,0,0:0:0:0:
192,192,134076,1,0,0:0:0:0:
320,192,134229,1,0,0:0:0:0:
448,192,134229,1,0,0:0:0:0:
64,192,134229,1,0,0:0:0:0:
192,192,134383,1,0,0:0:0:0:
192,192,134537,1,0,0:0:0:0:
320,192,134691,1,0,0:0:0:0:
448,192,134691,1,0,0:0:0:0:
64,192,134691,1,0,0:0:0:0:
64,192,134845,1,0,0:0:0:0:
448,192,134845,1,0,0:0:0:0:
64,192,134999,1,0,0:0:0:0:
320,192,134999,1,0,0:0:0:0:
448,192,134999,1,0,0:0:0:0:
192,192,134999,1,0,0:0:0:0:
320,192,135153,1,0,0:0:0:0:
320,192,135306,1,0,0:0:0:0:
64,192,135460,1,0,0:0:0:0:
192,192,135460,1,0,0:0:0:0:
448,192,135460,1,0,0:0:0:0:
320,192,135614,1,0,0:0:0:0:
320,192,135768,1,0,0:0:0:0:
64,192,135922,1,0,0:0:0:0:
192,192,135922,1,0,0:0:0:0:
448,192,135922,1,0,0:0:0:0:
64,192,136076,1,0,0:0:0:0:
448,192,136076,1,0,0:0:0:0:
192,192,136229,1,0,0:0:0:0:
64,192,136229,1,0,0:0:0:0:
448,192,136229,1,0,0:0:0:0:
320,192,136306,1,0,0:0:0:0:
64,192,136383,1,0,0:0:0:0:
192,192,136460,1,0,0:0:0:0:
448,192,136537,1,0,0:0:0:0:
320,192,136537,1,0,0:0:0:0:
64,192,136614,1,0,0:0:0:0:
320,192,136691,1,0,0:0:0:0:
192,192,136768,1,0,0:0:0:0:
448,192,136845,1,0,0:0:0:0:
64,192,136845,1,0,0:0:0:0:
320,192,136922,1,0,0:0:0:0:
192,192,136999,1,0,0:0:0:0:
64,192,136999,1,0,0:0:0:0:
320,192,137076,1,0,0:0:0:0:
64,192,137153,1,0,0:0:0:0:
448,192,137153,1,0,0:0:0:0:
192,192,137229,1,0,0:0:0:0:
448,192,137306,1,0,0:0:0:0:
64,192,137306,1,0,0:0:0:0:
320,192,137383,1,0,0:0:0:0:
448,192,137460,1,0,0:0:0:0:
64,192,137460,1,0,0:0:0:0:
192,192,137460,1,0,0:0:0:0:
64,192,137614,1,0,0:0:0:0:
448,192,137614,1,0,0:0:0:0:
192,192,137614,1,0,0:0:0:0:
64,192,137768,128,0,137806:0:0:0:0:
320,192,137768,128,0,137806:0:0:0:0:
192,192,137768,128,0,137806:0:0:0:0:
448,192,137768,128,0,137806:0:0:0:0:
192,192,138076,128,0,138537:0:0:0:0:
320,192,138537,128,0,138691:0:0:0:0:
64,192,138691,1,0,0:0:0:0:
448,192,138691,1,0,0:0:0:0:
192,192,138768,1,0,0:0:0:0:
64,192,138845,1,0,0:0:0:0:
448,192,138845,1,0,0:0:0:0:
320,192,138922,1,0,0:0:0:0:
192,192,138999,1,0,0:0:0:0:
448,192,139076,1,0,0:0:0:0:
64,192,139153,1,0,0:0:0:0:
320,192,139153,1,0,0:0:0:0:
192,192,139229,1,0,0:0:0:0:
448,192,139306,1,0,0:0:0:0:
64,192,139383,1,0,0:0:0:0:
320,192,139460,1,0,0:0:0:0:
448,192,139460,1,0,0:0:0:0:
192,192,139537,1,0,0:0:0:0:
448,192,139614,1,0,0:0:0:0:
320,192,139691,1,0,0:0:0:0:
64,192,139768,1,0,0:0:0:0:
192,192,139768,1,0,0:0:0:0:
448,192,139845,1,0,0:0:0:0:
64,192,139922,1,0,0:0:0:0:
192,192,139999,1,0,0:0:0:0:
448,192,140076,1,0,0:0:0:0:
64,192,140076,1,0,0:0:0:0:
320,192,140153,1,0,0:0:0:0:
64,192,140229,1,0,0:0:0:0:
192,192,140306,1,0,0:0:0:0:
320,192,140383,1,0,0:0:0:0:
448,192,140383,1,0,0:0:0:0:
64,192,140460,1,0,0:0:0:0:
448,192,140537,1,0,0:0:0:0:
192,192,140614,1,0,0:0:0:0:
320,192,140691,1,0,0:0:0:0:
448,192,140691,1,0,0:0:0:0:
64,192,140768,1,0,0:0:0:0:
192,192,140845,1,0,0:0:0:0:
448,192,140922,1,0,0:0:0:0:
64,192,140999,1,0,0:0:0:0:
320,192,140999,1,0,0:0:0:0:
192,192,141076,1,0,0:0:0:0:
448,192,141153,1,0,0:0:0:0:
320,192,141153,1,0,0:0:0:0:
64,192,141153,1,0,0:0:0:0:
192,192,141229,1,0,0:0:0:0:
320,192,141306,1,0,0:0:0:0:
448,192,141306,1,0,0:0:0:0:
64,192,141383,1,0,0:0:0:0:
448,192,141460,1,0,0:0:0:0:
192,192,141537,1,0,0:0:0:0:
320,192,141614,1,0,0:0:0:0:
448,192,141614,1,0,0:0:0:0:
64,192,141691,1,0,0:0:0:0:
320,192,141768,1,0,0:0:0:0:
448,192,141768,1,0,0:0:0:0:
192,192,141768,1,0,0:0:0:0:
64,192,141845,1,0,0:0:0:0:
448,192,141922,1,0,0:0:0:0:
192,192,141922,1,0,0:0:0:0:
320,192,141999,1,0,0:0:0:0:
64,192,142076,1,0,0:0:0:0:
192,192,142153,1,0,0:0:0:0:
448,192,142229,1,0,0:0:0:0:
320,192,142229,1,0,0:0:0:0:
192,192,142306,1,0,0:0:0:0:
448,192,142383,1,0,0:0:0:0:
64,192,142383,1,0,0:0:0:0:
320,192,142383,1,0,0:0:0:0:
192,192,142460,1,0,0:0:0:0:
448,192,142537,1,0,0:0:0:0:
64,192,142537,1,0,0:0:0:0:
320,192,142614,1,0,0:0:0:0:
192,192,142691,1,0,0:0:0:0:
448,192,142768,1,0,0:0:0:0:
64,192,142845,1,0,0:0:0:0:
192,192,142845,1,0,0:0:0:0:
320,192,142922,1,0,0:0:0:0:
448,192,142999,1,0,0:0:0:0:
192,192,143076,1,0,0:0:0:0:
320,192,143153,1,0,0:0:0:0:
448,192,143153,1,0,0:0:0:0:
64,192,143229,1,0,0:0:0:0:
448,192,143306,1,0,0:0:0:0:
320,192,143383,1,0,0:0:0:0:
64,192,143460,1,0,0:0:0:0:
448,192,143460,1,0,0:0:0:0:
192,192,143537,1,0,0:0:0:0:
320,192,143614,1,0,0:0:0:0:
448,192,143614,1,0,0:0:0:0:
64,192,143614,1,0,0:0:0:0:
320,192,143717,1,0,0:0:0:0:
320,192,143819,1,0,0:0:0:0:
192,192,143922,1,0,0:0:0:0:
448,192,143922,1,0,0:0:0:0:
64,192,143922,1,0,0:0:0:0:
64,192,144024,1,0,0:0:0:0:
64,192,144127,1,0,0:0:0:0:
320,192,144229,1,0,0:0:0:0:
448,192,144229,1,0,0:0:0:0:
192,192,144229,1,0,0:0:0:0:
448,192,144332,1,0,0:0:0:0:
448,192,144435,1,0,0:0:0:0:
64,192,144537,1,0,0:0:0:0:
192,192,144537,1,0,0:0:0:0:
320,192,144537,1,0,0:0:0:0:
192,192,144640,1,0,0:0:0:0:
192,192,144742,1,0,0:0:0:0:
320,192,144845,1,0,0:0:0:0:
448,192,144845,1,0,0:0:0:0:
64,192,144845,1,0,0:0:0:0:
192,192,144922,1,0,0:0:0:0:
320,192,144999,1,0,0:0:0:0:
448,192,144999,1,0,0:0:0:0:
64,192,145076,1,0,0:0:0:0:
192,192,145153,1,0,0:0:0:0:
448,192,145229,1,0,0:0:0:0:
64,192,145306,1,0,0:0:0:0:
320,192,145306,1,0,0:0:0:0:
192,192,145383,1,0,0:0:0:0:
448,192,145460,1,0,0:0:0:0:
320,192,145537,1,0,0:0:0:0:
64,192,145614,1,0,0:0:0:0:
192,192,145614,1,0,0:0:0:0:
448,192,145691,1,0,0:0:0:0:
320,192,145768,1,0,0:0:0:0:
64,192,145870,1,0,0:0:0:0:
192,192,145870,1,0,0:0:0:0:
448,192,145870,1,0,0:0:0:0:
448,192,145973,1,0,0:0:0:0:
64,192,145973,1,0,0:0:0:0:
192,192,145973,1,0,0:0:0:0:
448,192,146076,1,0,0:0:0:0:
64,192,146076,1,0,0:0:0:0:
192,192,146076,1,0,0:0:0:0:
64,192,146178,1,0,0:0:0:0:
64,192,146281,1,0,0:0:0:0:
448,192,146383,1,0,0:0:0:0:
192,192,146383,1,0,0:0:0:0:
320,192,146383,1,0,0:0:0:0:
64,192,146460,1,0,0:0:0:0:
320,192,146537,1,0,0:0:0:0:
192,192,146614,1,0,0:0:0:0:
448,192,146691,1,0,0:0:0:0:
64,192,146691,1,0,0:0:0:0:
320,192,146691,1,0,0:0:0:0:
192,192,146768,1,0,0:0:0:0:
448,192,146845,1,0,0:0:0:0:
320,192,146922,1,0,0:0:0:0:
448,192,146999,1,0,0:0:0:0:
64,192,146999,1,0,0:0:0:0:
192,192,146999,1,0,0:0:0:0:
320,192,147076,1,0,0:0:0:0:
448,192,147153,1,0,0:0:0:0:
192,192,147229,1,0,0:0:0:0:
448,192,147306,1,0,0:0:0:0:
64,192,147306,1,0,0:0:0:0:
320,192,147306,1,0,0:0:0:0:
192,192,147383,1,0,0:0:0:0:
448,192,147460,1,0,0:0:0:0:
320,192,147537,1,0,0:0:0:0:
448,192,147614,1,0,0:0:0:0:
192,192,147614,1,0,0:0:0:0:
64,192,147614,1,0,0:0:0:0:
192,192,147717,1,0,0:0:0:0:
192,192,147819,1,0,0:0:0:0:
64,192,147922,1,0,0:0:0:0:
448,192,147922,1,0,0:0:0:0:
320,192,147999,1,0,0:0:0:0:
192,192,147999,1,0,0:0:0:0:
448,192,148076,1,0,0:0:0:0:
64,192,148076,1,0,0:0:0:0:
192,192,148153,1,0,0:0:0:0:
320,192,148229,1,0,0:0:0:0:
448,192,148229,1,0,0:0:0:0:
64,192,148306,1,0,0:0:0:0:
192,192,148306,1,0,0:0:0:0:
448,192,148383,1,0,0:0:0:0:
320,192,148383,1,0,0:0:0:0:
64,192,148460,1,0,0:0:0:0:
192,192,148460,1,0,0:0:0:0:
320,192,148537,1,0,0:0:0:0:
448,192,148537,1,0,0:0:0:0:
64,192,148537,1,0,0:0:0:0:
192,192,148614,1,0,0:0:0:0:
448,192,148691,1,0,0:0:0:0:
320,192,148768,1,0,0:0:0:0:
64,192,148845,1,0,0:0:0:0:
192,192,148845,1,0,0:0:0:0:
448,192,148845,1,0,0:0:0:0:
320,192,148922,1,0,0:0:0:0:
64,192,148999,1,0,0:0:0:0:
192,192,149076,1,0,0:0:0:0:
320,192,149153,1,0,0:0:0:0:
448,192,149153,1,0,0:0:0:0:
64,192,149229,1,0,0:0:0:0:
320,192,149306,1,0,0:0:0:0:
192,192,149383,1,0,0:0:0:0:
320,192,149460,1,0,0:0:0:0:
448,192,149460,1,0,0:0:0:0:
64,192,149460,1,0,0:0:0:0:
192,192,149537,1,0,0:0:0:0:
448,192,149614,1,0,0:0:0:0:
320,192,149691,1,0,0:0:0:0:
64,192,149768,1,0,0:0:0:0:
192,192,149768,1,0,0:0:0:0:
448,192,149845,1,0,0:0:0:0:
192,192,149922,1,0,0:0:0:0:
320,192,149999,1,0,0:0:0:0:
64,192,150076,1,0,0:0:0:0:
448,192,150076,1,0,0:0:0:0:
192,192,150076,1,0,0:0:0:0:
320,192,150153,1,0,0:0:0:0:
192,192,150229,1,0,0:0:0:0:
448,192,150306,1,0,0:0:0:0:
64,192,150383,1,0,0:0:0:0:
320,192,150383,1,0,0:0:0:0:
192,192,150460,1,0,0:0:0:0:
448,192,150537,1,0,0:0:0:0:
64,192,150614,1,0,0:0:0:0:
192,192,150691,1,0,0:0:0:0:
320,192,150691,1,0,0:0:0:0:
448,192,150691,1,0,0:0:0:0:
64,192,150768,1,0,0:0:0:0:
320,192,150845,1,0,0:0:0:0:
192,192,150922,1,0,0:0:0:0:
64,192,150999,1,0,0:0:0:0:
448,192,150999,1,0,0:0:0:0:
320,192,151076,1,0,0:0:0:0:
64,192,151153,1,0,0:0:0:0:
192,192,151229,1,0,0:0:0:0:
64,192,151306,1,0,0:0:0:0:
320,192,151306,1,0,0:0:0:0:
448,192,151306,1,0,0:0:0:0:
192,192,151383,1,0,0:0:0:0:
448,192,151460,1,0,0:0:0:0:
320,192,151537,1,0,0:0:0:0:
64,192,151614,1,0,0:0:0:0:
192,192,151614,1,0,0:0:0:0:
448,192,151691,1,0,0:0:0:0:
192,192,151768,1,0,0:0:0:0:
320,192,151845,1,0,0:0:0:0:
64,192,151922,1,0,0:0:0:0:
192,192,151922,1,0,0:0:0:0:
448,192,151922,1,0,0:0:0:0:
320,192,151999,1,0,0:0:0:0:
64,192,152076,1,0,0:0:0:0:
192,192,152153,1,0,0:0:0:0:
448,192,152229,1,0,0:0:0:0:
320,192,152268,1,0,0:0:0:0:
64,192,152306,1,0,0:0:0:0:
192,192,152345,1,0,0:0:0:0:
320,192,152383,1,0,0:0:0:0:
448,192,152422,1,0,0:0:0:0:
192,192,152460,1,0,0:0:0:0:
64,192,152499,1,0,0:0:0:0:
448,192,152537,1,0,0:0:0:0:
320,192,152576,1,0,0:0:0:0:
64,192,152614,1,0,0:0:0:0:
192,192,152653,1,0,0:0:0:0:
320,192,152691,1,0,0:0:0:0:
448,192,152729,1,0,0:0:0:0:
192,192,152768,1,0,0:0:0:0:
64,192,152806,1,0,0:0:0:0:
448,192,152845,1,0,0:0:0:0:
320,192,152883,1,0,0:0:0:0:
64,192,152922,1,0,0:0:0:0:
192,192,152960,1,0,0:0:0:0:
320,192,152999,1,0,0:0:0:0:
448,192,153037,1,0,0:0:0:0:
192,192,153076,1,0,0:0:0:0:
64,192,153114,1,0,0:0:0:0:
320,192,153153,1,0,0:0:0:0:
448,192,153153,1,0,0:0:0:0:
320,192,153255,1,0,0:0:0:0:
320,192,153358,1,0,0:0:0:0:
64,192,153460,1,0,0:0:0:0:
192,192,153460,1,0,0:0:0:0:
448,192,153460,1,0,0:0:0:0:
64,192,153563,1,0,0:0:0:0:
192,192,153563,1,0,0:0:0:0:
448,192,153563,1,0,0:0:0:0:
64,192,153665,1,0,0:0:0:0:
192,192,153665,1,0,0:0:0:0:
448,192,153665,1,0,0:0:0:0:
64,192,153768,1,0,0:0:0:0:
192,192,153768,1,0,0:0:0:0:
448,192,153768,1,0,0:0:0:0:
64,192,153870,1,0,0:0:0:0:
192,192,153870,1,0,0:0:0:0:
448,192,153870,1,0,0:0:0:0:
64,192,153973,1,0,0:0:0:0:
192,192,153973,1,0,0:0:0:0:
448,192,153973,1,0,0:0:0:0:
448,192,154076,1,0,0:0:0:0:
192,192,154076,1,0,0:0:0:0:
64,192,154076,1,0,0:0:0:0:
320,192,154383,128,0,154422:0:0:0:0:
448,192,154383,128,0,154422:0:0:0:0:
64,192,154383,128,0,154422:0:0:0:0:
64,192,154691,1,0,0:0:0:0:
192,192,154691,1,0,0:0:0:0:
320,192,154691,1,0,0:0:0:0:
64,192,154794,1,0,0:0:0:0:
192,192,154794,1,0,0:0:0:0:
320,192,154794,1,0,0:0:0:0:
64,192,154896,1,0,0:0:0:0:
320,192,154896,1,0,0:0:0:0:
192,192,154896,1,0,0:0:0:0:
64,192,154999,1,0,0:0:0:0:
192,192,154999,1,0,0:0:0:0:
320,192,154999,1,0,0:0:0:0:
64,192,155101,1,0,0:0:0:0:
192,192,155101,1,0,0:0:0:0:
320,192,155101,1,0,0:0:0:0:
64,192,155204,1,0,0:0:0:0:
192,192,155204,1,0,0:0:0:0:
320,192,155204,1,0,0:0:0:0:
320,192,155306,1,0,0:0:0:0:
192,192,155306,1,0,0:0:0:0:
64,192,155306,1,0,0:0:0:0:
320,192,155614,128,0,155653:0:0:0:0:
448,192,155614,128,0,155653:0:0:0:0:
64,192,155614,128,0,155653:0:0:0:0:
64,192,155922,1,0,0:0:0:0:
192,192,155922,1,0,0:0:0:0:
448,192,155922,128,0,156076:0:0:0:0:
192,192,156229,128,0,156383:0:0:0:0:
448,192,156537,1,0,0:0:0:0:
320,192,156537,128,0,156691:0:0:0:0:
64,192,156691,128,0,156768:0:0:0:0:
192,192,156845,128,0,156999:0:0:0:0:
448,192,156999,128,0,157076:0:0:0:0:
64,192,157153,1,0,0:0:0:0:
320,192,157153,128,0,157460:0:0:0:0:
192,192,157460,128,0,157768:0:0:0:0:
64,192,157460,1,0,0:0:0:0:
320,192,157768,1,0,0:0:0:0:
448,192,157768,1,0,0:0:0:0:
64,192,157922,1,0,0:0:0:0:
448,192,157922,1,0,0:0:0:0:
320,192,157999,1,0,0:0:0:0:
192,192,157999,1,0,0:0:0:0:
64,192,158076,1,0,0:0:0:0:
448,192,158076,1,0,0:0:0:0:
320,192,158153,1,0,0:0:0:0:
192,192,158153,1,0,0:0:0:0:
64,192,158229,1,0,0:0:0:0:
448,192,158229,1,0,0:0:0:0:
320,192,158306,1,0,0:0:0:0:
192,192,158306,1,0,0:0:0:0:
448,192,158383,1,0,0:0:0:0:
64,192,158383,128,0,158409:0:0:0:0:
192,192,158435,128,0,158460:0:0:0:0:
320,192,158486,128,0,158511:0:0:0:0:
448,192,158537,128,0,158563:0:0:0:0:
64,192,158588,128,0,158614:0:0:0:0:
192,192,158640,128,0,158665:0:0:0:0:
448,192,158691,128,0,158717:0:0:0:0:
320,192,158742,128,0,158768:0:0:0:0:
192,192,158794,128,0,158819:0:0:0:0:
64,192,158845,128,0,158870:0:0:0:0:
448,192,158896,128,0,158922:0:0:0:0:
320,192,158947,128,0,158973:0:0:0:0:
64,192,158999,128,0,159024:0:0:0:0:
192,192,159050,128,0,159076:0:0:0:0:
448,192,159101,128,0,159127:0:0:0:0:
320,192,159153,128,0,159178:0:0:0:0:
192,192,159204,128,0,159229:0:0:0:0:
64,192,159255,128,0,159281:0:0:0:0:
320,192,159306,128,0,159332:0:0:0:0:
448,192,159358,128,0,159383:0:0:0:0:
64,192,159409,128,0,159435:0:0:0:0:
192,192,159460,128,0,159486:0:0:0:0:
448,192,159511,128,0,159537:0:0:0:0:
320,192,159563,128,0,159588:0:0:0:0:
192,192,159614,128,0,159665:0:0:0:0:
64,192,159665,128,0,159717:0:0:0:0:
448,192,159717,128,0,159768:0:0:0:0:
320,192,159768,128,0,159819:0:0:0:0:
64,192,159819,128,0,159870:0:0:0:0:
192,192,159870,128,0,159922:0:0:0:0:
448,192,159922,128,0,159973:0:0:0:0:
64,192,159973,128,0,160024:0:0:0:0:
320,192,160024,128,0,160076:0:0:0:0:
192,192,160076,128,0,160127:0:0:0:0:
448,192,160127,128,0,160178:0:0:0:0:
320,192,160178,128,0,160229:0:0:0:0:
64,192,160229,128,0,160281:0:0:0:0:
192,192,160281,128,0,160332:0:0:0:0:
320,192,160332,128,0,160383:0:0:0:0:
448,192,160383,128,0,160435:0:0:0:0:
64,192,160435,128,0,160486:0:0:0:0:
192,192,160486,128,0,160537:0:0:0:0:
448,192,160537,128,0,160588:0:0:0:0:
320,192,160588,128,0,160640:0:0:0:0:
192,192,160640,128,0,160691:0:0:0:0:
64,192,160691,128,0,160742:0:0:0:0:
448,192,160742,128,0,160794:0:0:0:0:
192,192,160794,128,0,160845:0:0:0:0:
320,192,160845,128,0,160922:0:0:0:0:
64,192,160896,128,0,160973:0:0:0:0:
448,192,160947,128,0,161024:0:0:0:0:
320,192,160999,128,0,161076:0:0:0:0:
192,192,161050,128,0,161127:0:0:0:0:
64,192,161101,128,0,161178:0:0:0:0:
448,192,161153,128,0,161229:0:0:0:0:
320,192,161204,128,0,161281:0:0:0:0:
192,192,161255,128,0,161332:0:0:0:0:
64,192,161306,128,0,161383:0:0:0:0:
448,192,161358,128,0,161435:0:0:0:0:
320,192,161409,128,0,161486:0:0:0:0:
64,192,161460,128,0,161537:0:0:0:0:
448,192,161511,128,0,161588:0:0:0:0:
192,192,161563,128,0,161640:0:0:0:0:
320,192,161614,128,0,161691:0:0:0:0:
64,192,161665,128,0,161742:0:0:0:0:
192,192,161717,128,0,161794:0:0:0:0:
448,192,161768,128,0,161845:0:0:0:0:
320,192,161819,128,0,161896:0:0:0:0:
64,192,161870,128,0,161947:0:0:0:0:
192,192,161922,128,0,161999:0:0:0:0:
320,192,161973,128,0,162050:0:0:0:0:
448,192,162024,128,0,162101:0:0:0:0:
64,192,162076,128,0,162204:0:0:0:0:
192,192,162127,128,0,162255:0:0:0:0:
448,192,162178,128,0,162306:0:0:0:0:
320,192,162229,128,0,162358:0:0:0:0:
192,192,162281,128,0,162409:0:0:0:0:
64,192,162332,128,0,162460:0:0:0:0:
320,192,162383,128,0,162511:0:0:0:0:
448,192,162435,128,0,162563:0:0:0:0:
64,192,162486,128,0,162614:0:0:0:0:
320,192,162537,128,0,162665:0:0:0:0:
192,192,162588,128,0,162717:0:0:0:0:
448,192,162640,128,0,162768:0:0:0:0:
64,192,162691,128,0,163306:0:0:0:0:
448,192,162845,1,0,0:0:0:0:
192,192,162999,1,0,0:0:0:0:
320,192,162999,1,0,0:0:0:0:
448,192,163153,1,0,0:0:0:0:
192,192,163306,1,0,0:0:0:0:
320,192,163460,128,0,163614:0:0:0:0:
64,192,163614,1,0,0:0:0:0:
192,192,163614,1,0,0:0:0:0:
448,192,163614,1,0,0:0:0:0:
448,192,163922,128,0,164076:0:0:0:0:
64,192,163922,1,0,0:0:0:0:
192,192,163922,1,0,0:0:0:0:
64,192,164076,1,0,0:0:0:0:
192,192,164076,1,0,0:0:0:0:
320,192,164229,1,0,0:0:0:0:
448,192,164229,1,0,0:0:0:0:
64,192,164229,1,0,0:0:0:0:
192,192,164383,128,0,164537:0:0:0:0:
320,192,164537,1,0,0:0:0:0:
320,192,164845,128,0,164999:0:0:0:0:
64,192,164845,1,0,0:0:0:0:
192,192,164845,1,0,0:0:0:0:
448,192,164845,1,0,0:0:0:0:
64,192,165153,128,0,165306:0:0:0:0:
448,192,165153,1,0,0:0:0:0:
192,192,165306,128,0,165460:0:0:0:0:
320,192,165306,1,0,0:0:0:0:
448,192,165306,1,0,0:0:0:0:
320,192,165460,128,0,165614:0:0:0:0:
64,192,165460,1,0,0:0:0:0:
448,192,165460,1,0,0:0:0:0:
448,192,165614,128,0,166076:0:0:0:0:
64,192,165768,1,0,0:0:0:0:
192,192,166076,128,0,166229:0:0:0:0:
320,192,166076,1,0,0:0:0:0:
64,192,166076,1,0,0:0:0:0:
64,192,166229,128,0,166383:0:0:0:0:
448,192,166383,128,0,166537:0:0:0:0:
320,192,166383,1,0,0:0:0:0:
320,192,166537,128,0,166691:0:0:0:0:
64,192,166537,1,0,0:0:0:0:
192,192,166537,1,0,0:0:0:0:
192,192,166691,128,0,166845:0:0:0:0:
448,192,166691,1,0,0:0:0:0:
64,192,166691,1,0,0:0:0:0:
64,192,166845,128,0,166999:0:0:0:0:
320,192,166999,128,0,167153:0:0:0:0:
448,192,166999,1,0,0:0:0:0:
192,192,167153,128,0,167306:0:0:0:0:
64,192,167153,1,0,0:0:0:0:
320,192,167306,128,0,167460:0:0:0:0:
448,192,167306,1,0,0:0:0:0:
64,192,167306,1,0,0:0:0:0:
64,192,167460,128,0,167614:0:0:0:0:
192,192,167460,1,0,0:0:0:0:
320,192,167614,128,0,167768:0:0:0:0:
192,192,167768,128,0,167922:0:0:0:0:
64,192,167768,1,0,0:0:0:0:
320,192,167922,128,0,168076:0:0:0:0:
448,192,167922,1,0,0:0:0:0:
64,192,167922,1,0,0:0:0:0:
448,192,168076,128,0,168229:0:0:0:0:
64,192,168076,1,0,0:0:0:0:
192,192,168229,128,0,168537:0:0:0:0:
320,192,168229,1,0,0:0:0:0:
320,192,168537,128,0,168691:0:0:0:0:
448,192,168537,1,0,0:0:0:0:
64,192,168537,1,0,0:0:0:0:
64,192,168691,128,0,168845:0:0:0:0:
192,192,168845,128,0,168999:0:0:0:0:
448,192,168845,1,0,0:0:0:0:
320,192,168999,128,0,169153:0:0:0:0:
448,192,168999,1,0,0:0:0:0:
192,192,169153,128,0,169306:0:0:0:0:
448,192,169153,1,0,0:0:0:0:
64,192,169153,1,0,0:0:0:0:
64,192,169306,128,0,169460:0:0:0:0:
320,192,169460,128,0,169614:0:0:0:0:
448,192,169460,1,0,0:0:0:0:
448,192,169614,128,0,169768:0:0:0:0:
320,192,169768,128,0,169922:0:0:0:0:
64,192,169768,1,0,0:0:0:0:
192,192,169768,1,0,0:0:0:0:
192,192,169922,128,0,170076:0:0:0:0:
64,192,170076,128,0,170229:0:0:0:0:
448,192,170076,1,0,0:0:0:0:
192,192,170229,128,0,170383:0:0:0:0:
320,192,170229,1,0,0:0:0:0:
448,192,170229,1,0,0:0:0:0:
320,192,170383,128,0,170537:0:0:0:0:
448,192,170383,1,0,0:0:0:0:
64,192,170383,1,0,0:0:0:0:
192,192,170537,1,0,0:0:0:0:
64,192,170537,128,0,170691:0:0:0:0:
192,192,170691,128,0,170999:0:0:0:0:
448,192,170691,1,0,0:0:0:0:
320,192,170691,1,0,0:0:0:0:
448,192,170999,128,0,171306:0:0:0:0:
320,192,170999,1,0,0:0:0:0:
64,192,170999,1,0,0:0:0:0:
320,192,171306,128,0,171460:0:0:0:0:
64,192,171306,1,0,0:0:0:0:
64,192,171460,128,0,171614:0:0:0:0:
192,192,171460,1,0,0:0:0:0:
320,192,171614,128,0,171768:0:0:0:0:
448,192,171614,1,0,0:0:0:0:
192,192,171614,1,0,0:0:0:0:
192,192,171768,128,0,171922:0:0:0:0:
64,192,171922,128,0,172076:0:0:0:0:
448,192,171922,1,0,0:0:0:0:
448,192,172076,128,0,172229:0:0:0:0:
320,192,172076,1,0,0:0:0:0:
192,192,172229,128,0,172383:0:0:0:0:
320,192,172229,1,0,0:0:0:0:
64,192,172229,1,0,0:0:0:0:
320,192,172383,128,0,172537:0:0:0:0:
448,192,172383,1,0,0:0:0:0:
192,192,172537,128,0,172691:0:0:0:0:
448,192,172537,1,0,0:0:0:0:
64,192,172537,1,0,0:0:0:0:
64,192,172691,128,0,172845:0:0:0:0:
448,192,172691,1,0,0:0:0:0:
448,192,172845,128,0,172999:0:0:0:0:
192,192,172845,1,0,0:0:0:0:
320,192,172845,1,0,0:0:0:0:
320,192,172999,128,0,173153:0:0:0:0:
448,192,173153,128,0,173537:0:0:0:0:
64,192,173153,1,0,0:0:0:0:
192,192,173460,1,0,0:0:0:0:
320,192,173460,1,0,0:0:0:0:
64,192,173460,1,0,0:0:0:0:
64,192,173614,128,0,173999:0:0:0:0:
448,192,173768,1,0,0:0:0:0:
448,192,173922,1,0,0:0:0:0:
192,192,173922,1,0,0:0:0:0:
320,192,174076,128,0,174460:0:0:0:0:
192,192,174076,1,0,0:0:0:0:
448,192,174076,1,0,0:0:0:0:
64,192,174076,1,0,0:0:0:0:
64,192,174383,1,0,0:0:0:0:
448,192,174383,1,0,0:0:0:0:
192,192,174537,128,0,174922:0:0:0:0:
320,192,174691,1,0,0:0:0:0:
448,192,174691,1,0,0:0:0:0:
64,192,174691,1,0,0:0:0:0:
320,192,174999,128,0,175614:0:0:0:0:
448,192,174999,1,0,0:0:0:0:
64,192,175153,1,0,0:0:0:0:
192,192,175153,1,0,0:0:0:0:
448,192,175306,1,0,0:0:0:0:
64,192,175306,1,0,0:0:0:0:
192,192,175306,1,0,0:0:0:0:
64,192,175614,128,0,175768:0:0:0:0:
192,192,175614,1,0,0:0:0:0:
320,192,175768,128,0,175922:0:0:0:0:
192,192,175922,128,0,176076:0:0:0:0:
448,192,175922,1,0,0:0:0:0:
64,192,175922,1,0,0:0:0:0:
320,192,176076,1,0,0:0:0:0:
448,192,176076,128,0,176229:0:0:0:0:
64,192,176229,128,0,176383:0:0:0:0:
192,192,176229,1,0,0:0:0:0:
192,192,176383,128,0,176537:0:0:0:0:
320,192,176383,1,0,0:0:0:0:
448,192,176537,128,0,176614:0:0:0:0:
64,192,176537,1,0,0:0:0:0:
320,192,176537,1,0,0:0:0:0:
192,192,176614,128,0,176691:0:0:0:0:
320,192,176691,128,0,176845:0:0:0:0:
64,192,176768,1,0,0:0:0:0:
192,192,176845,128,0,176999:0:0:0:0:
448,192,176845,1,0,0:0:0:0:
64,192,176999,128,0,177153:0:0:0:0:
448,192,176999,1,0,0:0:0:0:
320,192,177153,128,0,177306:0:0:0:0:
192,192,177153,1,0,0:0:0:0:
448,192,177306,128,0,177460:0:0:0:0:
64,192,177306,1,0,0:0:0:0:
192,192,177306,1,0,0:0:0:0:
192,192,177460,128,0,178076:0:0:0:0:
64,192,177460,1,0,0:0:0:0:
320,192,177614,1,0,0:0:0:0:
448,192,177614,1,0,0:0:0:0:
448,192,177768,1,0,0:0:0:0:
64,192,177768,1,0,0:0:0:0:
320,192,177845,1,0,0:0:0:0:
448,192,177922,1,0,0:0:0:0:
64,192,177922,1,0,0:0:0:0:
320,192,177999,1,0,0:0:0:0:
448,192,178076,1,0,0:0:0:0:
64,192,178076,128,0,178229:0:0:0:0:
320,192,178383,1,0,0:0:0:0:
448,192,178383,1,0,0:0:0:0:
64,192,178383,1,0,0:0:0:0:
64,192,178691,1,0,0:0:0:0:
192,192,178691,1,0,0:0:0:0:
64,192,178845,1,0,0:0:0:0:
192,192,178845,1,0,0:0:0:0:
320,192,178999,1,0,0:0:0:0:
448,192,178999,1,0,0:0:0:0:
64,192,178999,1,0,0:0:0:0:
320,192,179153,1,0,0:0:0:0:
448,192,179306,1,0,0:0:0:0:
64,192,179306,1,0,0:0:0:0:
320,192,179614,1,0,0:0:0:0:
448,192,179614,1,0,0:0:0:0:
64,192,179614,1,0,0:0:0:0:
320,192,179922,1,0,0:0:0:0:
448,192,179922,1,0,0:0:0:0:
320,192,180076,1,0,0:0:0:0:
448,192,180076,1,0,0:0:0:0:
64,192,180229,1,0,0:0:0:0:
448,192,180229,1,0,0:0:0:0:
192,192,180229,1,0,0:0:0:0:
192,192,180383,1,0,0:0:0:0:
64,192,180537,1,0,0:0:0:0:
448,192,180537,1,0,0:0:0:0:
320,192,180845,1,0,0:0:0:0:
448,192,180845,1,0,0:0:0:0:
64,192,180845,1,0,0:0:0:0:
192,192,181153,1,0,0:0:0:0:
320,192,181153,1,0,0:0:0:0:
192,192,181306,1,0,0:0:0:0:
320,192,181306,1,0,0:0:0:0:
64,192,181460,1,0,0:0:0:0:
192,192,181460,1,0,0:0:0:0:
448,192,181460,1,0,0:0:0:0:
192,192,181614,1,0,0:0:0:0:
320,192,181768,1,0,0:0:0:0:
448,192,181768,1,0,0:0:0:0:
448,192,181922,1,0,0:0:0:0:
64,192,181999,1,0,0:0:0:0:
320,192,182076,1,0,0:0:0:0:
448,192,182076,1,0,0:0:0:0:
192,192,182076,1,0,0:0:0:0:
64,192,182229,1,0,0:0:0:0:
448,192,182229,1,0,0:0:0:0:
320,192,182383,1,0,0:0:0:0:
448,192,182383,1,0,0:0:0:0:
64,192,182383,1,0,0:0:0:0:
192,192,182383,1,0,0:0:0:0:
192,192,182537,1,0,0:0:0:0:
320,192,182537,1,0,0:0:0:0:
64,192,182691,1,0,0:0:0:0:
320,192,182691,1,0,0:0:0:0:
448,192,182691,1,0,0:0:0:0:
192,192,182691,1,0,0:0:0:0:
192,192,182999,1,0,0:0:0:0:
320,192,182999,1,0,0:0:0:0:
64,192,183306,1,0,0:0:0:0:
192,192,183306,1,0,0:0:0:0:
320,192,183306,1,0,0:0:0:0:
64,192,183460,1,0,0:0:0:0:
320,192,183614,1,0,0:0:0:0:
448,192,183614,1,0,0:0:0:0:
320,192,183768,1,0,0:0:0:0:
448,192,183768,1,0,0:0:0:0:
64,192,183922,1,0,0:0:0:0:
192,192,183922,1,0,0:0:0:0:
448,192,183922,1,0,0:0:0:0:
192,192,184076,1,0,0:0:0:0:
64,192,184229,1,0,0:0:0:0:
448,192,184229,1,0,0:0:0:0:
448,192,184383,1,0,0:0:0:0:
320,192,184537,1,0,0:0:0:0:
448,192,184537,1,0,0:0:0:0:
64,192,184537,1,0,0:0:0:0:
64,192,184691,1,0,0:0:0:0:
192,192,184845,1,0,0:0:0:0:
320,192,184845,1,0,0:0:0:0:
192,192,184999,1,0,0:0:0:0:
320,192,184999,1,0,0:0:0:0:
64,192,185153,1,0,0:0:0:0:
192,192,185153,1,0,0:0:0:0:
448,192,185153,1,0,0:0:0:0:
192,192,185306,1,0,0:0:0:0:
320,192,185460,1,0,0:0:0:0:
448,192,185460,1,0,0:0:0:0:
64,192,185614,1,0,0:0:0:0:
192,192,185768,1,0,0:0:0:0:
448,192,185768,1,0,0:0:0:0:
320,192,185922,1,0,0:0:0:0:
64,192,186076,1,0,0:0:0:0:
192,192,186076,1,0,0:0:0:0:
448,192,186076,1,0,0:0:0:0:
64,192,186229,1,0,0:0:0:0:
320,192,186383,1,0,0:0:0:0:
448,192,186383,1,0,0:0:0:0:
64,192,186537,1,0,0:0:0:0:
192,192,186537,1,0,0:0:0:0:
448,192,186537,1,0,0:0:0:0:
192,192,186768,1,0,0:0:0:0:
320,192,186845,1,0,0:0:0:0:
192,192,186922,1,0,0:0:0:0:
320,192,186999,1,0,0:0:0:0:
448,192,186999,1,0,0:0:0:0:
64,192,186999,1,0,0:0:0:0:
192,192,187153,1,0,0:0:0:0:
320,192,187306,1,0,0:0:0:0:
192,192,187383,1,0,0:0:0:0:
320,192,187460,1,0,0:0:0:0:
192,192,187537,1,0,0:0:0:0:
320,192,187614,1,0,0:0:0:0:
448,192,187614,1,0,0:0:0:0:
64,192,187614,1,0,0:0:0:0:
320,192,187768,1,0,0:0:0:0:
64,192,187922,1,0,0:0:0:0:
192,192,187922,1,0,0:0:0:0:
448,192,187922,1,0,0:0:0:0:
320,192,188229,1,0,0:0:0:0:
448,192,188229,1,0,0:0:0:0:
64,192,188229,1,0,0:0:0:0:
64,192,188537,1,0,0:0:0:0:
192,192,188537,1,0,0:0:0:0:
64,192,188691,1,0,0:0:0:0:
192,192,188691,1,0,0:0:0:0:
320,192,188845,1,0,0:0:0:0:
448,192,188845,1,0,0:0:0:0:
64,192,188845,1,0,0:0:0:0:
64,192,188999,1,0,0:0:0:0:
320,192,189153,1,0,0:0:0:0:
448,192,189153,1,0,0:0:0:0:
64,192,189460,1,0,0:0:0:0:
320,192,189460,1,0,0:0:0:0:
448,192,189460,1,0,0:0:0:0:
192,192,189768,1,0,0:0:0:0:
320,192,189768,1,0,0:0:0:0:
192,192,189922,1,0,0:0:0:0:
320,192,189922,1,0,0:0:0:0:
64,192,190076,1,0,0:0:0:0:
320,192,190076,1,0,0:0:0:0:
448,192,190076,1,0,0:0:0:0:
320,192,190229,1,0,0:0:0:0:
448,192,190383,1,0,0:0:0:0:
64,192,190383,1,0,0:0:0:0:
320,192,190691,1,0,0:0:0:0:
448,192,190691,1,0,0:0:0:0:
64,192,190691,1,0,0:0:0:0:
192,192,190999,1,0,0:0:0:0:
320,192,190999,1,0,0:0:0:0:
192,192,191153,1,0,0:0:0:0:
320,192,191153,1,0,0:0:0:0:
320,192,191306,1,0,0:0:0:0:
448,192,191306,1,0,0:0:0:0:
64,192,191306,1,0,0:0:0:0:
64,192,191460,1,0,0:0:0:0:
192,192,191614,1,0,0:0:0:0:
320,192,191614,1,0,0:0:0:0:
320,192,191845,1,0,0:0:0:0:
448,192,191845,1,0,0:0:0:0:
64,192,191922,1,0,0:0:0:0:
192,192,191922,1,0,0:0:0:0:
320,192,191999,1,0,0:0:0:0:
448,192,191999,1,0,0:0:0:0:
64,192,192076,1,0,0:0:0:0:
192,192,192076,1,0,0:0:0:0:
320,192,192153,1,0,0:0:0:0:
448,192,192153,1,0,0:0:0:0:
64,192,192229,1,0,0:0:0:0:
192,192,192229,1,0,0:0:0:0:
320,192,192306,1,0,0:0:0:0:
448,192,192306,1,0,0:0:0:0:
64,192,192383,1,0,0:0:0:0:
192,192,192383,1,0,0:0:0:0:
320,192,192460,1,0,0:0:0:0:
448,192,192460,1,0,0:0:0:0:
448,192,192537,1,0,0:0:0:0:
64,192,192537,1,0,0:0:0:0:
192,192,192537,1,0,0:0:0:0:
64,192,192691,1,0,0:0:0:0:
192,192,192691,1,0,0:0:0:0:
448,192,192691,1,0,0:0:0:0:
320,192,192845,5,0,0:0:0:0:
448,192,192845,1,0,0:0:0:0:
64,192,192845,128,0,195306:0:0:0:0:
320,192,192999,1,0,0:0:0:0:
448,192,192999,1,0,0:0:0:0:
192,192,193306,1,0,0:0:0:0:
448,192,193306,1,0,0:0:0:0:
192,192,193460,1,0,0:0:0:0:
320,192,193460,1,0,0:0:0:0:
448,192,193460,1,0,0:0:0:0:
320,192,193768,1,0,0:0:0:0:
448,192,193768,1,0,0:0:0:0:
192,192,193845,1,0,0:0:0:0:
320,192,193922,1,0,0:0:0:0:
448,192,193922,1,0,0:0:0:0:
192,192,194229,1,0,0:0:0:0:
320,192,194229,1,0,0:0:0:0:
448,192,194537,1,0,0:0:0:0:
192,192,194537,1,0,0:0:0:0:
320,192,194614,1,0,0:0:0:0:
192,192,194691,1,0,0:0:0:0:
448,192,194691,1,0,0:0:0:0:
320,192,194999,1,0,0:0:0:0:
448,192,194999,1,0,0:0:0:0:
448,192,195306,128,0,196537:0:0:0:0:
320,192,195306,1,0,0:0:0:0:
64,192,195460,1,0,0:0:0:0:
192,192,195460,1,0,0:0:0:0:
320,192,195768,1,0,0:0:0:0:
64,192,195768,1,0,0:0:0:0:
64,192,195922,1,0,0:0:0:0:
320,192,195922,1,0,0:0:0:0:
192,192,195922,1,0,0:0:0:0:
192,192,196076,1,0,0:0:0:0:
64,192,196537,1,0,0:0:0:0:
192,192,196537,128,0,197768:0:0:0:0:
64,192,197076,1,0,0:0:0:0:
320,192,197153,1,0,0:0:0:0:
448,192,197153,1,0,0:0:0:0:
64,192,197229,1,0,0:0:0:0:
320,192,197306,1,0,0:0:0:0:
448,192,197460,1,0,0:0:0:0:
64,192,197460,1,0,0:0:0:0:
448,192,197768,5,0,0:0:0:0:
64,192,197768,128,0,198922:0:0:0:0:
448,192,199614,128,0,200229:0:0:0:0:
64,192,199922,1,0,0:0:0:0:
192,192,199999,1,0,0:0:0:0:
320,192,200076,1,0,0:0:0:0:
64,192,200153,1,0,0:0:0:0:
192,192,200229,1,0,0:0:0:0:
320,192,200229,128,0,200537:0:0:0:0:
64,192,200383,128,0,200422:0:0:0:0:
192,192,200845,128,0,201153:0:0:0:0:
448,192,201191,1,0,0:0:0:0:
320,192,201229,1,0,0:0:0:0:
192,192,201268,1,0,0:0:0:0:
64,192,201306,1,0,0:0:0:0:
448,192,201345,1,0,0:0:0:0:
320,192,201383,1,0,0:0:0:0:
192,192,201422,1,0,0:0:0:0:
64,192,201460,128,0,201768:0:0:0:0:
320,192,201922,128,0,202076:0:0:0:0:
192,192,202076,128,0,202460:0:0:0:0:
448,192,202460,1,0,0:0:0:0:
64,192,202460,1,0,0:0:0:0:
320,192,202499,1,0,0:0:0:0:
192,192,202537,1,0,0:0:0:0:
448,192,202576,1,0,0:0:0:0:
320,192,202614,1,0,0:0:0:0:
64,192,202653,1,0,0:0:0:0:
320,192,202691,128,0,202845:0:0:0:0:
448,192,202691,128,0,203153:0:0:0:0:
192,192,202691,1,0,0:0:0:0:
64,192,203153,128,0,203306:0:0:0:0:
192,192,203306,128,0,203460:0:0:0:0:
320,192,203306,128,0,203768:0:0:0:0:
448,192,203768,128,0,203806:0:0:0:0:
64,192,203768,128,0,203922:0:0:0:0:
192,192,203922,128,0,204229:0:0:0:0:
320,192,203922,128,0,204076:0:0:0:0:
64,192,204383,128,0,204537:0:0:0:0:
320,192,204537,128,0,204845:0:0:0:0:
448,192,204845,128,0,204999:0:0:0:0:
64,192,204999,1,0,0:0:0:0:
192,192,204999,1,0,0:0:0:0:
320,192,205076,1,0,0:0:0:0:
448,192,205076,1,0,0:0:0:0:
64,192,205153,1,0,0:0:0:0:
448,192,205153,1,0,0:0:0:0:
192,192,205153,128,0,205460:0:0:0:0:
64,192,205614,128,0,205768:0:0:0:0:
320,192,205768,128,0,205999:0:0:0:0:
64,192,206229,128,0,206460:0:0:0:0:
320,192,206268,128,0,206383:0:0:0:0:
192,192,206383,128,0,206460:0:0:0:0:
448,192,206460,128,0,206537:0:0:0:0:
320,192,206460,128,0,206537:0:0:0:0:
192,192,206999,128,0,207306:0:0:0:0:
64,192,207460,1,0,0:0:0:0:
448,192,207460,1,0,0:0:0:0:
320,192,207499,1,0,0:0:0:0:
192,192,207537,1,0,0:0:0:0:
64,192,207576,1,0,0:0:0:0:
448,192,207614,1,0,0:0:0:0:
192,192,207614,1,0,0:0:0:0:
320,192,207614,128,0,207845:0:0:0:0:
448,192,207960,1,0,0:0:0:0:
448,192,207999,1,0,0:0:0:0:
192,192,208076,128,0,208229:0:0:0:0:
320,192,208229,128,0,208922:0:0:0:0:
448,192,208229,128,0,208691:0:0:0:0:
192,192,208691,128,0,208922:0:0:0:0:
64,192,208922,128,0,209153:0:0:0:0:
448,192,208922,128,0,209076:0:0:0:0:
320,192,209460,128,0,209845:0:0:0:0:
192,192,209845,128,0,210076:0:0:0:0:
64,192,209922,1,0,0:0:0:0:
320,192,209999,1,0,0:0:0:0:
64,192,210076,1,0,0:0:0:0:
448,192,210076,128,0,210229:0:0:0:0:
64,192,210383,128,0,210537:0:0:0:0:
192,192,210383,1,0,0:0:0:0:
64,192,210691,128,0,210845:0:0:0:0:
448,192,210691,1,0,0:0:0:0:
64,192,210999,128,0,211153:0:0:0:0:
192,192,210999,1,0,0:0:0:0:
448,192,211153,1,0,0:0:0:0:
320,192,211153,1,0,0:0:0:0:
64,192,211306,128,0,211460:0:0:0:0:
192,192,211306,1,0,0:0:0:0:
320,192,211460,1,0,0:0:0:0:
192,192,211460,1,0,0:0:0:0:
448,192,211460,1,0,0:0:0:0:
64,192,211614,128,0,211768:0:0:0:0:
64,192,211922,128,0,212076:0:0:0:0:
448,192,211999,1,0,0:0:0:0:
192,192,212076,1,0,0:0:0:0:
320,192,212076,1,0,0:0:0:0:
448,192,212153,1,0,0:0:0:0:
64,192,212229,128,0,212383:0:0:0:0:
192,192,212229,1,0,0:0:0:0:
320,192,212383,1,0,0:0:0:0:
448,192,212537,128,0,212691:0:0:0:0:
64,192,212537,1,0,0:0:0:0:
192,192,212537,1,0,0:0:0:0:
448,192,212845,128,0,212999:0:0:0:0:
320,192,212845,1,0,0:0:0:0:
448,192,213153,128,0,213306:0:0:0:0:
64,192,213153,1,0,0:0:0:0:
448,192,213460,128,0,213614:0:0:0:0:
320,192,213460,1,0,0:0:0:0:
64,192,213614,1,0,0:0:0:0:
192,192,213614,1,0,0:0:0:0:
448,192,213768,128,0,213922:0:0:0:0:
320,192,213768,1,0,0:0:0:0:
64,192,213922,1,0,0:0:0:0:
192,192,213922,1,0,0:0:0:0:
320,192,213922,1,0,0:0:0:0:
448,192,214076,128,0,214229:0:0:0:0:
64,192,214076,1,0,0:0:0:0:
192,192,214383,128,0,214999:0:0:0:0:
64,192,214383,1,0,0:0:0:0:
448,192,214537,1,0,0:0:0:0:
320,192,214691,1,0,0:0:0:0:
64,192,214768,1,0,0:0:0:0:
448,192,214845,1,0,0:0:0:0:
320,192,214922,1,0,0:0:0:0:
448,192,214999,1,0,0:0:0:0:
64,192,214999,128,0,217460:0:0:0:0:
448,192,215306,1,0,0:0:0:0:
448,192,215614,1,0,0:0:0:0:
448,192,215922,1,0,0:0:0:0:
448,192,216229,1,0,0:0:0:0:
192,192,216383,1,0,0:0:0:0:
320,192,216537,1,0,0:0:0:0:
192,192,216691,1,0,0:0:0:0:
448,192,216845,1,0,0:0:0:0:
192,192,216999,1,0,0:0:0:0:
320,192,217153,1,0,0:0:0:0:
192,192,217306,1,0,0:0:0:0:
320,192,217460,1,0,0:0:0:0:
448,192,217460,1,0,0:0:0:0:
64,192,217537,1,0,0:0:0:0:
192,192,217537,1,0,0:0:0:0:
320,192,217614,1,0,0:0:0:0:
448,192,217614,1,0,0:0:0:0:
64,192,217691,1,0,0:0:0:0:
192,192,217691,1,0,0:0:0:0:
448,192,217768,1,0,0:0:0:0:
320,192,217768,1,0,0:0:0:0:
64,192,217845,1,0,0:0:0:0:
192,192,217845,1,0,0:0:0:0:
320,192,217922,1,0,0:0:0:0:
448,192,217922,1,0,0:0:0:0:
192,192,217999,1,0,0:0:0:0:
448,192,218076,1,0,0:0:0:0:
64,192,218076,1,0,0:0:0:0:
320,192,218076,1,0,0:0:0:0:
192,192,218153,1,0,0:0:0:0:
448,192,218229,1,0,0:0:0:0:
64,192,218229,1,0,0:0:0:0:
320,192,218306,1,0,0:0:0:0:
192,192,218306,1,0,0:0:0:0:
64,192,218383,1,0,0:0:0:0:
448,192,218383,1,0,0:0:0:0:
192,192,218460,1,0,0:0:0:0:
320,192,218460,1,0,0:0:0:0:
64,192,218537,1,0,0:0:0:0:
448,192,218537,1,0,0:0:0:0:
192,192,218614,1,0,0:0:0:0:
448,192,218691,1,0,0:0:0:0:
320,192,218691,1,0,0:0:0:0:
64,192,218691,1,0,0:0:0:0:
192,192,218768,1,0,0:0:0:0:
320,192,218845,1,0,0:0:0:0:
448,192,218845,1,0,0:0:0:0:
64,192,218922,1,0,0:0:0:0:
192,192,218922,1,0,0:0:0:0:
320,192,218999,1,0,0:0:0:0:
448,192,218999,1,0,0:0:0:0:
64,192,219076,1,0,0:0:0:0:
192,192,219076,1,0,0:0:0:0:
320,192,219153,1,0,0:0:0:0:
448,192,219153,1,0,0:0:0:0:
64,192,219229,1,0,0:0:0:0:
192,192,219229,1,0,0:0:0:0:
320,192,219306,1,0,0:0:0:0:
448,192,219306,1,0,0:0:0:0:
64,192,219383,1,0,0:0:0:0:
192,192,219383,1,0,0:0:0:0:
320,192,219460,1,0,0:0:0:0:
448,192,219460,1,0,0:0:0:0:
64,192,219537,1,0,0:0:0:0:
192,192,219537,1,0,0:0:0:0:
320,192,219614,1,0,0:0:0:0:
448,192,219614,1,0,0:0:0:0:
64,192,219691,1,0,0:0:0:0:
192,192,219691,1,0,0:0:0:0:
448,192,219768,1,0,0:0:0:0:
64,192,219768,1,0,0:0:0:0:
192,192,219845,1,0,0:0:0:0:
320,192,219845,1,0,0:0:0:0:
448,192,219922,1,0,0:0:0:0:
64,192,219922,128,0,223614:0:0:0:0:
448,192,222383,1,0,0:0:0:0:
320,192,223614,128,0,224229:0:0:0:0:
64,192,224076,1,0,0:0:0:0:
448,192,224153,1,0,0:0:0:0:
192,192,224229,128,0,224845:0:0:0:0:
64,192,224229,1,0,0:0:0:0:
448,192,224845,1,0,0:0:0:0:
64,192,224845,1,0,0:0:0:0:
320,192,224922,1,0,0:0:0:0:
192,192,224999,1,0,0:0:0:0:
64,192,224999,1,0,0:0:0:0:
320,192,225076,1,0,0:0:0:0:
448,192,225076,1,0,0:0:0:0:
64,192,225153,1,0,0:0:0:0:
192,192,225153,1,0,0:0:0:0:
320,192,225229,1,0,0:0:0:0:
448,192,225229,1,0,0:0:0:0:
64,192,225306,1,0,0:0:0:0:
192,192,225306,1,0,0:0:0:0:
192,192,225460,1,0,0:0:0:0:
320,192,225537,1,0,0:0:0:0:
64,192,225614,1,0,0:0:0:0:
192,192,225691,1,0,0:0:0:0:
320,192,225768,1,0,0:0:0:0:
448,192,225845,1,0,0:0:0:0:
192,192,225922,1,0,0:0:0:0:
64,192,225999,1,0,0:0:0:0:
320,192,226076,1,0,0:0:0:0:
448,192,226076,1,0,0:0:0:0:
192,192,226153,1,0,0:0:0:0:
448,192,226229,1,0,0:0:0:0:
64,192,226306,1,0,0:0:0:0:
192,192,226306,1,0,0:0:0:0:
320,192,226383,1,0,0:0:0:0:
192,192,226460,1,0,0:0:0:0:
448,192,226537,1,0,0:0:0:0:
64,192,226537,1,0,0:0:0:0:
320,192,226614,1,0,0:0:0:0:
64,192,226691,1,0,0:0:0:0:
192,192,226768,1,0,0:0:0:0:
320,192,226845,1,0,0:0:0:0:
448,192,226922,1,0,0:0:0:0:
64,192,226999,1,0,0:0:0:0:
192,192,226999,1,0,0:0:0:0:
320,192,227076,1,0,0:0:0:0:
448,192,227076,1,0,0:0:0:0:
64,192,227153,1,0,0:0:0:0:
192,192,227153,1,0,0:0:0:0:
320,192,227229,1,0,0:0:0:0:
448,192,227229,1,0,0:0:0:0:
64,192,227306,1,0,0:0:0:0:
192,192,227306,1,0,0:0:0:0:
448,192,227306,1,0,0:0:0:0:
320,192,227383,1,0,0:0:0:0:
64,192,227460,1,0,0:0:0:0:
192,192,227537,1,0,0:0:0:0:
448,192,227614,1,0,0:0:0:0:
320,192,227691,1,0,0:0:0:0:
192,192,227768,1,0,0:0:0:0:
64,192,227845,1,0,0:0:0:0:
320,192,227922,1,0,0:0:0:0:
448,192,227922,1,0,0:0:0:0:
192,192,227922,1,0,0:0:0:0:
64,192,227999,1,0,0:0:0:0:
448,192,228076,1,0,0:0:0:0:
192,192,228153,1,0,0:0:0:0:
320,192,228229,1,0,0:0:0:0:
64,192,228306,1,0,0:0:0:0:
448,192,228383,1,0,0:0:0:0:
320,192,228460,1,0,0:0:0:0:
64,192,228537,1,0,0:0:0:0:
192,192,228537,1,0,0:0:0:0:
448,192,228537,1,0,0:0:0:0:
320,192,228614,1,0,0:0:0:0:
64,192,228691,1,0,0:0:0:0:
448,192,228691,1,0,0:0:0:0:
192,192,228768,1,0,0:0:0:0:
320,192,228768,1,0,0:0:0:0:
64,192,228845,1,0,0:0:0:0:
448,192,228845,1,0,0:0:0:0:
320,192,228922,1,0,0:0:0:0:
64,192,228999,1,0,0:0:0:0:
192,192,228999,1,0,0:0:0:0:
320,192,229076,1,0,0:0:0:0:
448,192,229076,1,0,0:0:0:0:
64,192,229153,1,0,0:0:0:0:
192,192,229153,1,0,0:0:0:0:
320,192,229229,1,0,0:0:0:0:
448,192,229229,1,0,0:0:0:0:
64,192,229306,1,0,0:0:0:0:
192,192,229306,1,0,0:0:0:0:
320,192,229383,1,0,0:0:0:0:
448,192,229383,1,0,0:0:0:0:
64,192,229460,1,0,0:0:0:0:
192,192,229460,1,0,0:0:0:0:
448,192,229460,1,0,0:0:0:0:
448,192,229768,1,0,0:0:0:0:
64,192,229768,1,0,0:0:0:0:
192,192,229845,1,0,0:0:0:0:
320,192,229922,1,0,0:0:0:0:
448,192,229999,1,0,0:0:0:0:
64,192,230076,1,0,0:0:0:0:
192,192,230076,1,0,0:0:0:0:
320,192,230178,1,0,0:0:0:0:
448,192,230178,1,0,0:0:0:0:
64,192,230281,1,0,0:0:0:0:
192,192,230281,1,0,0:0:0:0:
320,192,230383,1,0,0:0:0:0:
448,192,230383,1,0,0:0:0:0:
64,192,230486,1,0,0:0:0:0:
192,192,230486,1,0,0:0:0:0:
320,192,230588,1,0,0:0:0:0:
448,192,230588,1,0,0:0:0:0:
64,192,230691,1,0,0:0:0:0:
192,192,230691,1,0,0:0:0:0:
320,192,230794,1,0,0:0:0:0:
448,192,230794,1,0,0:0:0:0:
64,192,230896,1,0,0:0:0:0:
192,192,230896,1,0,0:0:0:0:
448,192,230999,1,0,0:0:0:0:
64,192,230999,1,0,0:0:0:0:
320,192,230999,1,0,0:0:0:0:
448,192,231306,1,0,0:0:0:0:
64,192,231306,1,0,0:0:0:0:
192,192,231409,1,0,0:0:0:0:
320,192,231409,1,0,0:0:0:0:
64,192,231511,1,0,0:0:0:0:
448,192,231511,1,0,0:0:0:0:
192,192,231614,1,0,0:0:0:0:
320,192,231614,1,0,0:0:0:0:
64,192,231717,1,0,0:0:0:0:
448,192,231717,1,0,0:0:0:0:
192,192,231819,1,0,0:0:0:0:
320,192,231819,1,0,0:0:0:0:
64,192,231922,1,0,0:0:0:0:
448,192,231922,1,0,0:0:0:0:
192,192,232024,1,0,0:0:0:0:
320,192,232024,1,0,0:0:0:0:
64,192,232127,1,0,0:0:0:0:
448,192,232127,1,0,0:0:0:0:
320,192,232229,1,0,0:0:0:0:
448,192,232229,1,0,0:0:0:0:
192,192,232229,1,0,0:0:0:0:
320,192,232845,1,0,0:0:0:0:
448,192,232845,1,0,0:0:0:0:
64,192,232845,1,0,0:0:0:0:
448,192,233460,1,0,0:0:0:0:
192,192,233460,1,0,0:0:0:0:
64,192,233460,1,0,0:0:0:0:
320,192,233768,1,0,0:0:0:0:
448,192,233768,1,0,0:0:0:0:
64,192,233768,1,0,0:0:0:0:
192,192,233845,1,0,0:0:0:0:
448,192,233922,1,0,0:0:0:0:
320,192,233922,1,0,0:0:0:0:
64,192,233999,1,0,0:0:0:0:
192,192,233999,1,0,0:0:0:0:
320,192,234076,1,0,0:0:0:0:
448,192,234076,1,0,0:0:0:0:
64,192,234153,1,0,0:0:0:0:
192,192,234153,1,0,0:0:0:0:
320,192,234229,1,0,0:0:0:0:
448,192,234229,1,0,0:0:0:0:
64,192,234306,1,0,0:0:0:0:
192,192,234306,1,0,0:0:0:0:
320,192,234383,1,0,0:0:0:0:
448,192,234383,1,0,0:0:0:0:
64,192,234460,1,0,0:0:0:0:
192,192,234460,1,0,0:0:0:0:
320,192,234537,1,0,0:0:0:0:
448,192,234537,1,0,0:0:0:0:
192,192,234614,1,0,0:0:0:0:
64,192,234614,1,0,0:0:0:0:
320,192,234691,1,0,0:0:0:0:
448,192,234691,1,0,0:0:0:0:
64,192,234691,1,0,0:0:0:0:
192,192,234768,1,0,0:0:0:0:
320,192,234845,1,0,0:0:0:0:
448,192,234845,1,0,0:0:0:0:
64,192,234922,1,0,0:0:0:0:
320,192,234999,1,0,0:0:0:0:
448,192,234999,1,0,0:0:0:0:
64,192,235076,1,0,0:0:0:0:
192,192,235076,1,0,0:0:0:0:
320,192,235153,1,0,0:0:0:0:
448,192,235153,1,0,0:0:0:0:
64,192,235229,1,0,0:0:0:0:
448,192,235306,1,0,0:0:0:0:
192,192,235383,1,0,0:0:0:0:
320,192,235460,1,0,0:0:0:0:
448,192,235460,1,0,0:0:0:0:
64,192,235537,1,0,0:0:0:0:
192,192,235614,1,0,0:0:0:0:
448,192,235691,1,0,0:0:0:0:
64,192,235768,1,0,0:0:0:0:
320,192,235768,1,0,0:0:0:0:
192,192,235845,1,0,0:0:0:0:
448,192,235922,1,0,0:0:0:0:
320,192,235922,1,0,0:0:0:0:
64,192,235922,1,0,0:0:0:0:
192,192,235999,1,0,0:0:0:0:
448,192,236076,1,0,0:0:0:0:
320,192,236076,1,0,0:0:0:0:
64,192,236153,1,0,0:0:0:0:
448,192,236229,1,0,0:0:0:0:
192,192,236229,1,0,0:0:0:0:
320,192,236306,1,0,0:0:0:0:
64,192,236306,1,0,0:0:0:0:
448,192,236383,1,0,0:0:0:0:
192,192,236383,1,0,0:0:0:0:
320,192,236460,1,0,0:0:0:0:
64,192,236537,1,0,0:0:0:0:
192,192,236614,1,0,0:0:0:0:
320,192,236691,1,0,0:0:0:0:
448,192,236691,1,0,0:0:0:0:
64,192,236768,1,0,0:0:0:0:
320,192,236845,1,0,0:0:0:0:
192,192,236845,1,0,0:0:0:0:
448,192,236922,1,0,0:0:0:0:
64,192,236922,1,0,0:0:0:0:
192,192,236999,1,0,0:0:0:0:
320,192,236999,1,0,0:0:0:0:
448,192,237076,1,0,0:0:0:0:
320,192,237153,1,0,0:0:0:0:
64,192,237153,1,0,0:0:0:0:
192,192,237153,1,0,0:0:0:0:
448,192,237229,1,0,0:0:0:0:
64,192,237306,1,0,0:0:0:0:
192,192,237306,1,0,0:0:0:0:
320,192,237383,1,0,0:0:0:0:
64,192,237460,1,0,0:0:0:0:
448,192,237460,1,0,0:0:0:0:
192,192,237537,1,0,0:0:0:0:
320,192,237537,1,0,0:0:0:0:
64,192,237614,1,0,0:0:0:0:
448,192,237614,1,0,0:0:0:0:
192,192,237691,1,0,0:0:0:0:
320,192,237768,1,0,0:0:0:0:
448,192,237768,1,0,0:0:0:0:
64,192,237768,1,0,0:0:0:0:
192,192,237845,1,0,0:0:0:0:
320,192,237922,1,0,0:0:0:0:
448,192,237922,1,0,0:0:0:0:
64,192,237999,1,0,0:0:0:0:
448,192,238076,1,0,0:0:0:0:
192,192,238076,1,0,0:0:0:0:
320,192,238153,1,0,0:0:0:0:
64,192,238153,1,0,0:0:0:0:
192,192,238229,1,0,0:0:0:0:
448,192,238229,1,0,0:0:0:0:
64,192,238306,1,0,0:0:0:0:
320,192,238383,1,0,0:0:0:0:
192,192,238422,1,0,0:0:0:0:
64,192,238460,1,0,0:0:0:0:
448,192,238499,1,0,0:0:0:0:
320,192,238537,1,0,0:0:0:0:
192,192,238576,1,0,0:0:0:0:
64,192,238614,1,0,0:0:0:0:
448,192,238653,1,0,0:0:0:0:
320,192,238691,1,0,0:0:0:0:
192,192,238729,1,0,0:0:0:0:
64,192,238768,1,0,0:0:0:0:
448,192,238806,1,0,0:0:0:0:
320,192,238845,1,0,0:0:0:0:
192,192,238883,1,0,0:0:0:0:
64,192,238922,1,0,0:0:0:0:
448,192,238960,1,0,0:0:0:0:
320,192,238999,1,0,0:0:0:0:
192,192,239037,1,0,0:0:0:0:
64,192,239076,1,0,0:0:0:0:
448,192,239114,1,0,0:0:0:0:
320,192,239153,1,0,0:0:0:0:
192,192,239191,1,0,0:0:0:0:
64,192,239229,1,0,0:0:0:0:
448,192,239268,1,0,0:0:0:0:
320,192,239306,1,0,0:0:0:0:
192,192,239345,1,0,0:0:0:0:
64,192,239383,1,0,0:0:0:0:
448,192,239422,1,0,0:0:0:0:
320,192,239460,128,0,239614:0:0:0:0:
64,192,239614,1,0,0:0:0:0:
192,192,239614,1,0,0:0:0:0:
448,192,239614,1,0,0:0:0:0:
64,192,239717,1,0,0:0:0:0:
192,192,239717,1,0,0:0:0:0:
320,192,239717,1,0,0:0:0:0:
448,192,239717,1,0,0:0:0:0:
64,192,239819,1,0,0:0:0:0:
192,192,239819,1,0,0:0:0:0:
320,192,239819,1,0,0:0:0:0:
448,192,239819,1,0,0:0:0:0:
64,192,239922,1,0,0:0:0:0:
192,192,239922,1,0,0:0:0:0:
320,192,239922,1,0,0:0:0:0:
448,192,239922,1,0,0:0:0:0:
64,192,240024,1,0,0:0:0:0:
192,192,240024,1,0,0:0:0:0:
320,192,240024,1,0,0:0:0:0:
448,192,240024,1,0,0:0:0:0:
64,192,240127,1,0,0:0:0:0:
192,192,240127,1,0,0:0:0:0:
320,192,240127,1,0,0:0:0:0:
448,192,240127,1,0,0:0:0:0:
320,192,240229,1,0,0:0:0:0:
192,192,240229,1,0,0:0:0:0:
64,192,240229,1,0,0:0:0:0:
448,192,240229,1,0,0:0:0:0:
448,192,240537,1,0,0:0:0:0:
64,192,240537,128,0,240653:0:0:0:0:
192,192,240537,128,0,240614:0:0:0:0:
320,192,240537,128,0,240576:0:0:0:0:
320,192,240845,1,0,0:0:0:0:
448,192,240845,1,0,0:0:0:0:
192,192,240845,1,0,0:0:0:0:
64,192,240845,1,0,0:0:0:0:
192,192,240947,1,0,0:0:0:0:
320,192,240947,1,0,0:0:0:0:
448,192,240947,1,0,0:0:0:0:
64,192,240947,1,0,0:0:0:0:
192,192,241050,1,0,0:0:0:0:
320,192,241050,1,0,0:0:0:0:
448,192,241050,1,0,0:0:0:0:
64,192,241050,1,0,0:0:0:0:
192,192,241153,1,0,0:0:0:0:
320,192,241153,1,0,0:0:0:0:
448,192,241153,1,0,0:0:0:0:
64,192,241153,1,0,0:0:0:0:
192,192,241255,1,0,0:0:0:0:
320,192,241255,1,0,0:0:0:0:
448,192,241255,1,0,0:0:0:0:
64,192,241255,1,0,0:0:0:0:
192,192,241358,1,0,0:0:0:0:
320,192,241358,1,0,0:0:0:0:
448,192,241358,1,0,0:0:0:0:
64,192,241358,1,0,0:0:0:0:
192,192,241460,1,0,0:0:0:0:
320,192,241460,1,0,0:0:0:0:
448,192,241460,1,0,0:0:0:0:
64,192,241460,1,0,0:0:0:0:
64,192,241768,1,0,0:0:0:0:
448,192,241768,128,0,241883:0:0:0:0:
320,192,241768,128,0,241845:0:0:0:0:
192,192,241768,128,0,241806:0:0:0:0:
64,192,242076,1,0,0:0:0:0:
448,192,242076,1,0,0:0:0:0:
320,192,242076,128,0,242229:0:0:0:0:
192,192,242383,128,0,242537:0:0:0:0:
320,192,242537,128,0,242691:0:0:0:0:
448,192,242691,128,0,242845:0:0:0:0:
64,192,242691,1,0,0:0:0:0:
192,192,242845,128,0,242922:0:0:0:0:
64,192,242999,128,0,243153:0:0:0:0:
448,192,243153,128,0,243229:0:0:0:0:
64,192,243306,1,0,0:0:0:0:
320,192,243306,128,0,243614:0:0:0:0:
192,192,243614,128,0,243922:0:0:0:0:
448,192,243768,1,0,0:0:0:0:
64,192,243768,1,0,0:0:0:0:
320,192,243845,1,0,0:0:0:0:
448,192,243922,1,0,0:0:0:0:
64,192,243922,1,0,0:0:0:0:
320,192,244229,1,0,0:0:0:0:
448,192,244229,1,0,0:0:0:0:
64,192,244537,128,0,245768:0:0:0:0:
448,192,244537,1,0,0:0:0:0:
448,192,244999,1,0,0:0:0:0:
192,192,244999,1,0,0:0:0:0:
192,192,245153,1,0,0:0:0:0:
320,192,245153,1,0,0:0:0:0:
448,192,245153,1,0,0:0:0:0:
192,192,245460,1,0,0:0:0:0:
320,192,245614,1,0,0:0:0:0:
448,192,245614,1,0,0:0:0:0:
192,192,245768,1,0,0:0:0:0:
448,192,245768,1,0,0:0:0:0:
320,192,245768,1,0,0:0:0:0:
320,192,246076,1,0,0:0:0:0:
448,192,246076,1,0,0:0:0:0:
320,192,246383,128,0,246691:0:0:0:0:
64,192,246383,1,0,0:0:0:0:
64,192,246691,128,0,246845:0:0:0:0:
192,192,246845,128,0,246999:0:0:0:0:
448,192,246999,128,0,248229:0:0:0:0:
320,192,246999,1,0,0:0:0:0:
64,192,247614,1,0,0:0:0:0:
192,192,247614,1,0,0:0:0:0:
320,192,247845,1,0,0:0:0:0:
64,192,247922,1,0,0:0:0:0:
192,192,247922,1,0,0:0:0:0:
320,192,248076,1,0,0:0:0:0:
192,192,248076,1,0,0:0:0:0:
64,192,248229,1,0,0:0:0:0:
320,192,248229,1,0,0:0:0:0:
192,192,248229,1,0,0:0:0:0:
192,192,248537,128,0,248614:0:0:0:0:
192,192,248691,128,0,248768:0:0:0:0:
320,192,248845,128,0,249460:0:0:0:0:
64,192,248845,1,0,0:0:0:0:
192,192,248999,1,0,0:0:0:0:
448,192,248999,1,0,0:0:0:0:
448,192,249153,1,0,0:0:0:0:
64,192,249153,1,0,0:0:0:0:
192,192,249460,128,0,250691:0:0:0:0:
448,192,249460,1,0,0:0:0:0:
64,192,249460,1,0,0:0:0:0:
448,192,250537,1,0,0:0:0:0:
320,192,250537,1,0,0:0:0:0:
448,192,250691,1,0,0:0:0:0:
64,192,250691,1,0,0:0:0:0:
320,192,250691,1,0,0:0:0:0:
320,192,251306,128,0,251768:0:0:0:0:
192,192,251768,128,0,251922:0:0:0:0:
64,192,251922,1,0,0:0:0:0:
320,192,251999,1,0,0:0:0:0:
448,192,251999,1,0,0:0:0:0:
64,192,252076,1,0,0:0:0:0:
192,192,252076,1,0,0:0:0:0:
320,192,252153,1,0,0:0:0:0:
448,192,252153,1,0,0:0:0:0:
192,192,252229,1,0,0:0:0:0:
64,192,252229,1,0,0:0:0:0:
320,192,252306,1,0,0:0:0:0:
448,192,252306,1,0,0:0:0:0:
64,192,252383,1,0,0:0:0:0:
192,192,252383,1,0,0:0:0:0:
320,192,252460,1,0,0:0:0:0:
448,192,252460,1,0,0:0:0:0:
64,192,252537,1,0,0:0:0:0:
192,192,252537,1,0,0:0:0:0:
320,192,252614,1,0,0:0:0:0:
448,192,252614,1,0,0:0:0:0:
64,192,252691,1,0,0:0:0:0:
192,192,252691,1,0,0:0:0:0:
320,192,252768,1,0,0:0:0:0:
448,192,252768,1,0,0:0:0:0:
64,192,252845,1,0,0:0:0:0:
192,192,252845,1,0,0:0:0:0:
320,192,252922,1,0,0:0:0:0:
448,192,252922,1,0,0:0:0:0:
64,192,252999,1,0,0:0:0:0:
192,192,252999,1,0,0:0:0:0:
320,192,253076,1,0,0:0:0:0:
448,192,253076,1,0,0:0:0:0:
64,192,253153,1,0,0:0:0:0:
192,192,253153,1,0,0:0:0:0:
320,192,253204,1,0,0:0:0:0:
448,192,253204,1,0,0:0:0:0:
64,192,253255,1,0,0:0:0:0:
192,192,253255,1,0,0:0:0:0:
320,192,253306,1,0,0:0:0:0:
448,192,253306,1,0,0:0:0:0:
64,192,253358,1,0,0:0:0:0:
192,192,253358,1,0,0:0:0:0:
320,192,253409,1,0,0:0:0:0:
448,192,253409,1,0,0:0:0:0:
64,192,253460,1,0,0:0:0:0:
192,192,253460,1,0,0:0:0:0:
320,192,253511,1,0,0:0:0:0:
448,192,253511,1,0,0:0:0:0:
64,192,253563,1,0,0:0:0:0:
192,192,253563,1,0,0:0:0:0:
448,192,253614,1,0,0:0:0:0:
320,192,253614,1,0,0:0:0:0:
64,192,253665,1,0,0:0:0:0:
192,192,253665,1,0,0:0:0:0:
320,192,253717,1,0,0:0:0:0:
448,192,253717,1,0,0:0:0:0:
64,192,253768,1,0,0:0:0:0:
192,192,253768,128,0,253819:0:0:0:0:
320,192,253819,1,0,0:0:0:0:
448,192,253819,128,0,253870:0:0:0:0:
192,192,253870,1,0,0:0:0:0:
64,192,253870,128,0,253922:0:0:0:0:
448,192,253922,1,0,0:0:0:0:
320,192,253922,128,0,253973:0:0:0:0:
64,192,253973,1,0,0:0:0:0:
192,192,253973,128,0,254024:0:0:0:0:
320,192,254024,1,0,0:0:0:0:
448,192,254024,128,0,254076:0:0:0:0:
192,192,254076,1,0,0:0:0:0:
64,192,254076,128,0,254127:0:0:0:0:
448,192,254127,1,0,0:0:0:0:
320,192,254127,128,0,254178:0:0:0:0:
64,192,254178,1,0,0:0:0:0:
192,192,254178,128,0,254229:0:0:0:0:
320,192,254229,1,0,0:0:0:0:
448,192,254229,128,0,254281:0:0:0:0:
192,192,254281,1,0,0:0:0:0:
64,192,254281,128,0,254332:0:0:0:0:
448,192,254332,1,0,0:0:0:0:
320,192,254332,128,0,254383:0:0:0:0:
192,192,254383,128,0,254403:0:0:0:0:
64,192,254383,128,0,254403:0:0:0:0:
320,192,254403,128,0,254422:0:0:0:0:
448,192,254403,128,0,254422:0:0:0:0:
192,192,254422,128,0,254441:0:0:0:0:
64,192,254422,128,0,254441:0:0:0:0:
448,192,254999,128,0,255114:0:0:0:0:
320,192,254999,128,0,255076:0:0:0:0:
192,192,254999,128,0,255037:0:0:0:0:
64,192,254999,1,0,0:0:0:0:
192,192,255204,128,0,255281:0:0:0:0:
320,192,255204,128,0,255242:0:0:0:0:
64,192,255204,128,0,255319:0:0:0:0:
448,192,255204,1,0,0:0:0:0:
448,192,255409,128,0,255524:0:0:0:0:
64,192,255409,1,0,0:0:0:0:
320,192,255409,128,0,255486:0:0:0:0:
192,192,255409,128,0,255447:0:0:0:0:
320,192,255614,128,0,255845:0:0:0:0:
448,192,255614,128,0,255806:0:0:0:0:
64,192,255614,128,0,255883:0:0:0:0:
192,192,255614,128,0,255922:0:0:0:0:
448,192,255845,128,0,256076:0:0:0:0:
320,192,255883,128,0,256076:0:0:0:0:
64,192,255922,128,0,256076:0:0:0:0:
192,192,255960,128,0,256076:0:0:0:0:
