osu file format v14

[General]
AudioFilename: audio.mp3
AudioLeadIn: 0
PreviewTime: 173140
Countdown: 0
SampleSet: Soft
StackLeniency: 0.4
Mode: 0
LetterboxInBreaks: 0
WidescreenStoryboard: 0

[Editor]
Bookmarks: 18657,24519,24606,24692,25381,25468,25554,26071,26157,26243,26330,26416,27278,27364,27450,28140,28226,28312,28830,28916,29002,29174,29261,29347,29433,29519,29606,29692,30037,30123,30209,30899,30985,31071,31588,31674,31761,31847,31933,32795,32881,32968,33657,33743,33830,34002,34088,34174,34261,34347,34433,34519,68312,81753,81925,82442,82615,83132,83304,83822,83994,84511,84684,85201,85373,85891,85977,86063,86149,86235,86408,86494,86580,86753,86839,86925,87011,87098,87184,87270,87356,87442,87787,87873,87960,88046,88132,88218,88304,88649,88735,88822,89511,89598,89684,91580,170381,173140
DistanceSpacing: 0.8
BeatDivisor: 4
GridSize: 4
TimelineZoom: 2.6

[Metadata]
Title:Danzai no Homura to Koibito-Tachi no Rondo
TitleUnicode:断罪の焔と恋人たちの輪舞曲
Artist:Imperial Circus Dead Decadence
ArtistUnicode:Imperial Circus Dead Decadence
Creator:ShaiLee
Version:Rondo
Source:
Tags:
BeatmapID:1928087
BeatmapSetID:923293

[Difficulty]
HPDrainRate:5.5
CircleSize:4.1
OverallDifficulty:8.6
ApproachRate:9.5
SliderMultiplier:1.9
SliderTickRate:1

[Events]
//Background and Video events
0,0,"maxresdefault (1).jpg",0,0
//Break Periods
//Storyboard Layer 0 (Background)
//Storyboard Layer 1 (Fail)
//Storyboard Layer 2 (Pass)
//Storyboard Layer 3 (Foreground)
//Storyboard Sound Samples

[TimingPoints]
2098,344.827586206897,4,2,0,55,1,0
12787,-80,4,2,0,55,0,0
15546,-133.333333333333,4,2,0,55,0,0
15891,-80,4,2,0,55,0,0
18649,-111.111111111111,4,2,0,55,0,0
18994,-100,4,2,0,55,0,0
19339,-111.111111111111,4,2,0,55,0,0
20029,-90.9090909090909,4,2,0,55,0,0
20373,-111.111111111111,4,2,0,55,0,0
21408,-90.9090909090909,4,2,0,55,0,0
22098,-111.111111111111,4,2,0,55,0,0
22787,-90.9090909090909,4,2,0,55,0,0
23132,-100,4,2,0,55,0,0
24166,-80,4,2,0,55,0,0
37615,-133.333333333333,4,2,0,55,0,0
37960,-80,4,2,0,55,0,0
40718,-111.111111111111,4,2,0,55,0,0
41063,-90.9090909090909,4,2,0,55,0,0
41408,-111.111111111111,4,2,0,55,0,0
42098,-90.9090909090909,4,2,0,55,0,0
42442,-111.111111111111,4,2,0,55,0,0
43477,-90.9090909090909,4,2,0,55,0,0
43822,-83.3333333333333,4,2,0,55,0,0
44166,-90.9090909090909,4,2,0,55,0,0
44511,-76.9230769230769,4,2,0,55,0,0
44856,-90.9090909090909,4,2,0,55,0,0
45546,-111.111111111111,4,2,0,55,0,0
45891,-80,4,2,0,55,0,0
56925,-100,4,2,0,55,0,0
62098,-66.6666666666667,4,2,0,55,0,0
62442,-100,4,2,0,55,0,0
68304,-80,4,2,0,55,0,0
68994,-66.6666666666667,4,2,0,55,0,0
69684,-80,4,2,0,55,0,0
80718,-100,4,2,0,55,0,0
85891,-200,4,2,0,55,0,0
86235,-100,4,2,0,55,0,0
91753,-80,4,2,0,55,0,0

[HitObjects]
456,90,2098,6,0,P|407:59|360:57,1,95
349,216,2442,2,0,P|380:167|382:120,1,95
257,70,2787,2,0,P|302:117|306:177,1,95
272,204,3046,1,0,0:0:0:0:
239,234,3132,2,0,P|216:178|246:123,1,95
458,236,3477,6,0,B|351:215|351:215|379:196,1,142.5
406,157,3822,2,0,B|434:138|434:138|327:117,1,142.5
318,37,4166,6,0,P|262:66|250:143,1,142.5
282,173,4511,2,0,P|272:241|212:275,1,142.5
142,211,4856,6,0,L|172:148,2,63.3333333333333
89,141,5201,2,0,P|147:125|201:152,1,95
180,293,5546,2,0,P|161:230|111:197,1,95
63,198,5805,1,0,0:0:0:0:
28,226,5891,2,0,P|64:273|127:275,1,95
210,74,6235,6,0,P|140:95|77:156,1,142.5
101,186,6580,2,0,P|170:172|239:189,1,142.5
328,177,6925,6,0,L|321:107,2,63.3333333333333
317,89,7270,2,0,P|263:112|240:195,1,142.5
227,234,7615,6,0,L|115:218,1,95
51,141,7960,2,0,L|163:125,1,95
251,68,8304,2,0,L|208:172,1,95
227,234,8563,1,0,0:0:0:0:
214,277,8649,2,0,L|144:188,1,95
144,331,8994,6,0,P|199:366|281:328,1,142.5
263,296,9339,2,0,P|328:273|387:308,1,142.5
425,279,9684,6,0,B|472:295|472:295|464:183,1,142.5
426,173,10029,2,0,B|419:72|419:72|466:96,1,142.5
368,120,10373,6,0,L|340:60,2,63.3333333333333
335,43,10718,2,0,P|295:84|290:138,1,95
244,211,11063,2,0,P|228:155|184:124,1,95
105,231,11408,2,0,L|153:207,2,47.5
243,331,11753,5,0,0:0:0:0:
243,331,11839,1,0,0:0:0:0:
243,331,11925,2,0,L|248:273,1,47.5
320,203,12098,5,0,0:0:0:0:
320,203,12184,1,0,0:0:0:0:
320,203,12270,2,0,L|325:261,1,47.5
384,350,12442,5,0,0:0:0:0:
384,350,12528,1,0,0:0:0:0:
384,350,12614,2,0,L|389:292,1,47.5
465,210,12787,6,0,P|396:171|359:95,1,118.75
364,117,13046,1,0,0:0:0:0:
390,84,13132,5,0,0:0:0:0:
155,219,13304,1,0,0:0:0:0:
126,21,13477,5,0,0:0:0:0:
261,256,13649,1,0,0:0:0:0:
0,228,13822,6,0,P|6:151|59:107,1,118.75
155,219,14080,1,0,0:0:0:0:
122,244,14166,2,0,P|129:310|166:357,1,118.75
381,319,14511,5,0,0:0:0:0:
215,107,14684,1,0,0:0:0:0:
375,152,14856,1,0,0:0:0:0:
155,219,15029,1,0,0:0:0:0:
454,233,15201,6,0,L|447:167,1,59.375
308,76,15373,2,0,L|301:142,1,59.375
241,261,15546,2,0,P|195:218|138:226,1,106.875004076958
80,260,15891,5,0,0:0:0:0:
320,209,16063,1,0,0:0:0:0:
240,29,16235,5,0,0:0:0:0:
320,295,16407,1,0,0:0:0:0:
488,150,16580,2,0,P|510:203|491:277,1,118.75
320,209,16839,1,0,0:0:0:0:
323,167,16925,2,0,P|379:174|435:227,1,118.75
181,370,17270,5,0,0:0:0:0:
228,105,17442,1,0,0:0:0:0:
320,295,17615,2,0,P|255:266|235:206,1,118.75
488,97,17960,5,0,0:0:0:0:
390,370,18132,1,0,0:0:0:0:
320,209,18304,2,0,L|313:144,2,59.375
154,325,18649,5,0,0:0:0:0:
126,292,18735,1,0,0:0:0:0:
111,253,18821,1,0,0:0:0:0:
111,210,18907,1,0,0:0:0:0:
149,182,18994,5,0,0:0:0:0:
191,162,19080,1,0,0:0:0:0:
218,123,19166,1,0,0:0:0:0:
221,76,19252,1,0,0:0:0:0:
195,42,19339,5,0,0:0:0:0:
157,22,19425,1,0,0:0:0:0:
115,21,19511,1,0,0:0:0:0:
77,40,19597,1,0,0:0:0:0:
54,75,19683,1,0,0:0:0:0:
52,117,19770,1,0,0:0:0:0:
71,155,19856,1,0,0:0:0:0:
106,178,19942,1,0,0:0:0:0:
149,182,20029,5,0,0:0:0:0:
201,179,20115,1,0,0:0:0:0:
253,177,20201,1,0,0:0:0:0:
305,175,20287,1,0,0:0:0:0:
348,178,20373,5,0,0:0:0:0:
360,218,20459,1,0,0:0:0:0:
356,260,20545,1,0,0:0:0:0:
337,298,20631,1,0,0:0:0:0:
303,326,20718,5,0,0:0:0:0:
261,334,20804,1,0,0:0:0:0:
218,331,20890,1,0,0:0:0:0:
176,329,20976,1,0,0:0:0:0:
133,322,21063,5,0,0:0:0:0:
92,310,21149,1,0,0:0:0:0:
60,282,21235,1,0,0:0:0:0:
44,243,21321,1,0,0:0:0:0:
42,190,21408,5,0,0:0:0:0:
93,203,21494,1,0,0:0:0:0:
143,193,21580,1,0,0:0:0:0:
185,161,21666,1,0,0:0:0:0:
190,108,21753,5,0,0:0:0:0:
222,68,21839,1,0,0:0:0:0:
270,47,21925,1,0,0:0:0:0:
321,56,22011,1,0,0:0:0:0:
350,87,22098,5,0,0:0:0:0:
347,129,22184,1,0,0:0:0:0:
344,172,22270,1,0,0:0:0:0:
341,214,22356,1,0,0:0:0:0:
302,233,22442,5,0,0:0:0:0:
309,275,22528,1,0,0:0:0:0:
323,315,22614,1,0,0:0:0:0:
347,349,22700,1,0,0:0:0:0:
398,359,22787,5,0,0:0:0:0:
449,348,22873,1,0,0:0:0:0:
488,313,22960,1,0,0:0:0:0:
504,263,23046,1,0,0:0:0:0:
500,215,23132,6,0,L|441:191,1,47.5
227,142,23304,2,0,L|288:119,1,47.5
406,269,23477,5,0,0:0:0:0:
327,66,23649,1,0,0:0:0:0:
206,225,23822,2,0,L|307:190,1,95
460,180,24166,5,0,0:0:0:0:
232,38,24339,1,0,0:0:0:0:
500,19,24511,2,0,L|448:64,1,59.375
295,193,24684,1,0,0:0:0:0:
327,66,24856,2,0,P|386:97|416:144,1,118.75
206,224,25201,1,0,0:0:0:0:
129,39,25373,6,0,L|188:85,1,59.375
295,193,25546,2,0,P|291:269|253:310,1,118.75
126,197,25891,1,0,0:0:0:0:
327,66,26063,1,0,0:0:0:0:
349,72,26149,1,0,0:0:0:0:
369,83,26235,5,0,0:0:0:0:
386,98,26322,1,0,0:0:0:0:
399,117,26408,1,0,0:0:0:0:
295,193,26580,2,0,P|226:154|206:114,1,118.75
67,50,26925,5,0,0:0:0:0:
168,300,27098,1,0,0:0:0:0:
233,38,27270,2,0,L|176:86,1,59.375
27,211,27442,1,0,0:0:0:0:
235,215,27615,2,0,P|180:187|102:213,1,118.75
253,299,27960,1,0,0:0:0:0:
295,105,28132,6,0,L|260:168,1,59.375
168,300,28304,2,0,P|184:244|251:215,1,118.75
402,207,28649,1,0,0:0:0:0:
328,343,28822,2,0,L|317:270,1,59.375
295,105,28994,1,0,0:0:0:0:
458,224,29166,2,0,L|386:202,1,59.375
196,112,29339,5,0,0:0:0:0:
196,88,29425,1,0,0:0:0:0:
203,65,29511,1,0,0:0:0:0:
215,44,29598,1,0,0:0:0:0:
246,32,29684,5,0,0:0:0:0:
451,51,29856,1,0,0:0:0:0:
279,189,30029,2,0,L|323:121,1,59.375
401,0,30201,1,0,0:0:0:0:
436,155,30373,2,0,P|444:214|416:273,1,118.75
339,95,30718,1,0,0:0:0:0:
220,200,30891,6,0,L|297:185,1,59.375
290,19,31063,2,0,P|251:79|259:136,1,118.75
436,155,31408,1,0,0:0:0:0:
220,200,31580,1,0,0:0:0:0:
242,206,31666,1,0,0:0:0:0:
265,206,31753,5,0,0:0:0:0:
287,200,31839,1,0,0:0:0:0:
307,187,31925,1,0,0:0:0:0:
170,127,32098,2,0,P|134:190|148:255,1,118.75
301,341,32442,5,0,0:0:0:0:
405,115,32615,1,0,0:0:0:0:
170,281,32787,2,0,L|244:275,1,59.375
422,261,32959,1,0,0:0:0:0:
253,98,33132,2,0,P|251:164|304:205,1,118.75
477,180,33477,1,0,0:0:0:0:
338,70,33649,6,0,L|325:149,1,59.375
300,283,33822,1,0,0:0:0:0:
170,127,33994,6,0,L|183:206,1,59.375
215,316,34167,1,0,0:0:0:0:
225,337,34253,1,0,0:0:0:0:
240,355,34339,1,0,0:0:0:0:
260,367,34425,1,0,0:0:0:0:
282,375,34511,6,0,P|341:368|385:323,1,118.75
292,164,34856,2,0,L|300:288,1,118.75
398,60,35201,5,0,0:0:0:0:
136,156,35373,1,0,0:0:0:0:
406,234,35546,5,0,0:0:0:0:
123,156,35718,1,0,0:0:0:0:
243,292,35891,2,0,L|253:161,1,118.75
107,157,36149,1,0,0:0:0:0:
73,182,36235,2,0,L|181:256,1,118.75
406,234,36580,5,0,0:0:0:0:
243,292,36753,1,0,0:0:0:0:
398,60,36925,1,0,0:0:0:0:
312,220,37098,1,0,0:0:0:0:
157,132,37270,5,0,0:0:0:0:
243,292,37443,1,0,0:0:0:0:
336,145,37615,2,0,B|315:141|315:141|298:142|298:142|279:141|279:141|261:155|261:155|249:170|249:170|233:182,1,106.875004076958
197,213,37960,5,0,0:0:0:0:
443,318,38132,1,0,0:0:0:0:
348,46,38304,5,0,0:0:0:0:
243,292,38476,1,0,0:0:0:0:
399,183,38649,6,0,B|385:249|385:249|347:319,1,118.75
197,213,38908,1,0,0:0:0:0:
237,202,38994,2,0,B|255:135|255:135|252:77,1,118.75
93,104,39339,5,0,0:0:0:0:
331,143,39511,1,0,0:0:0:0:
129,279,39684,5,0,0:0:0:0:
164,65,39856,1,0,0:0:0:0:
272,321,40029,5,0,0:0:0:0:
162,51,40201,1,0,0:0:0:0:
36,259,40373,2,0,P|50:327|119:363,1,118.75
316,155,40718,5,0,0:0:0:0:
274,146,40804,1,0,0:0:0:0:
232,152,40890,1,0,0:0:0:0:
195,174,40976,1,0,0:0:0:0:
150,202,41063,5,0,0:0:0:0:
99,204,41149,1,0,0:0:0:0:
64,167,41235,1,0,0:0:0:0:
69,116,41321,1,0,0:0:0:0:
104,91,41408,5,0,0:0:0:0:
146,86,41494,1,0,0:0:0:0:
188,81,41580,1,0,0:0:0:0:
231,76,41666,1,0,0:0:0:0:
261,107,41753,5,0,0:0:0:0:
303,111,41839,1,0,0:0:0:0:
345,116,41925,1,0,0:0:0:0:
388,121,42011,1,0,0:0:0:0:
439,136,42098,5,0,0:0:0:0:
388,148,42184,1,0,0:0:0:0:
351,184,42270,1,0,0:0:0:0:
335,233,42356,1,0,0:0:0:0:
342,275,42442,1,0,0:0:0:0:
333,316,42528,1,0,0:0:0:0:
305,348,42614,1,0,0:0:0:0:
265,362,42700,1,0,0:0:0:0:
222,363,42787,5,0,0:0:0:0:
182,348,42873,1,0,0:0:0:0:
155,315,42959,1,0,0:0:0:0:
149,273,43045,1,0,0:0:0:0:
153,230,43132,1,0,0:0:0:0:
195,233,43218,1,0,0:0:0:0:
238,236,43304,1,0,0:0:0:0:
280,239,43390,1,0,0:0:0:0:
333,245,43477,5,0,0:0:0:0:
289,217,43563,1,0,0:0:0:0:
264,173,43649,1,0,0:0:0:0:
263,120,43735,1,0,0:0:0:0:
284,66,43822,5,0,0:0:0:0:
230,49,43908,1,0,0:0:0:0:
177,67,43994,1,0,0:0:0:0:
144,113,44080,1,0,0:0:0:0:
156,164,44166,5,0,0:0:0:0:
151,215,44252,1,0,0:0:0:0:
123,259,44338,1,0,0:0:0:0:
78,285,44424,1,0,0:0:0:0:
17,273,44511,5,0,0:0:0:0:
15,211,44597,1,0,0:0:0:0:
23,150,44683,1,0,0:0:0:0:
41,91,44769,1,0,0:0:0:0:
74,49,44856,5,0,0:0:0:0:
122,30,44942,1,0,0:0:0:0:
174,29,45028,1,0,0:0:0:0:
223,47,45114,1,0,0:0:0:0:
234,99,45201,5,0,0:0:0:0:
279,123,45287,1,0,0:0:0:0:
331,128,45373,1,0,0:0:0:0:
381,114,45459,1,0,0:0:0:0:
425,86,45546,6,0,L|421:150,1,42.7499986953736
378,311,45718,2,0,L|366:254,1,42.7499986953736
216,163,45891,2,0,P|158:161|111:202,1,118.75
295,290,46235,5,0,0:0:0:0:
325,48,46408,1,0,0:0:0:0:
186,230,46580,2,0,P|226:236|262:221,1,59.375
459,191,46753,1,0,0:0:0:0:
258,94,46925,2,0,P|318:130|377:109,1,118.75
216,163,47270,1,0,0:0:0:0:
317,328,47442,6,0,L|366:258,1,59.375
473,108,47615,2,0,P|401:131|376:181,1,118.75
278,217,47960,2,0,P|294:143|263:96,1,118.75
258,94,48218,1,0,0:0:0:0:
236,83,48304,5,0,0:0:0:0:
212,80,48391,1,0,0:0:0:0:
189,87,48477,1,0,0:0:0:0:
181,276,48649,2,0,B|221:232|171:215|219:155,1,118.75
398,228,48994,5,0,0:0:0:0:
116,232,49166,1,0,0:0:0:0:
329,132,49339,2,0,P|330:167|325:203,1,59.375
206,353,49511,1,0,0:0:0:0:
139,146,49684,2,0,P|195:192|205:248,1,118.75
235,96,50029,1,0,0:0:0:0:
59,248,50201,6,0,P|95:240|128:226,1,59.375
329,132,50373,2,0,P|273:178|263:234,1,118.75
416,312,50718,1,0,0:0:0:0:
441,83,50891,2,0,L|387:174,1,59.375
187,235,51063,2,0,L|200:162,1,59.375
329,132,51235,2,0,L|343:199,1,59.375
273,316,51408,1,0,0:0:0:0:
249,311,51494,1,0,0:0:0:0:
227,301,51580,1,0,0:0:0:0:
208,285,51666,1,0,0:0:0:0:
189,262,51753,5,0,0:0:0:0:
285,72,51925,1,0,0:0:0:0:
445,237,52098,2,0,P|418:258|386:273,1,59.375
171,300,52270,1,0,0:0:0:0:
326,242,52442,2,0,P|338:313|315:371,1,118.75
220,210,52787,1,0,0:0:0:0:
466,318,52960,6,0,L|397:315,1,59.375
154,305,53132,2,0,P|109:257|103:192,1,118.75
278,114,53477,2,0,P|258:176|205:214,1,118.75
197,218,53735,1,0,0:0:0:0:
173,221,53822,5,0,0:0:0:0:
149,215,53908,1,0,0:0:0:0:
127,205,53994,1,0,0:0:0:0:
196,19,54166,2,0,B|237:66|169:104|218:167,1,118.75
386,169,54511,5,0,0:0:0:0:
195,295,54684,1,0,0:0:0:0:
322,73,54856,2,0,L|281:154,1,59.375
181,303,55029,1,0,0:0:0:0:
201,133,55201,2,0,P|226:198|287:225,1,118.75
460,226,55546,1,0,0:0:0:0:
405,66,55718,6,0,L|386:134,1,59.375
336,302,55891,1,0,0:0:0:0:
185,75,56063,6,0,L|201:135,1,59.375
246,284,56236,1,0,0:0:0:0:
245,307,56322,1,0,0:0:0:0:
231,326,56408,1,0,0:0:0:0:
210,338,56494,1,0,0:0:0:0:
187,344,56580,2,0,P|132:329|112:270,1,118.75
234,123,56925,2,0,P|188:182|140:197,1,95
126,65,57184,5,0,0:0:0:0:
147,39,57270,2,0,L|377:55,1,190
385,171,57787,2,0,L|460:177,2,47.5
168,154,58132,1,0,0:0:0:0:
168,154,58477,6,0,B|107:251|107:251|170:357,1,237.5
202,362,58994,1,0,0:0:0:0:
235,359,59080,1,0,0:0:0:0:
385,171,59339,2,0,P|314:193|274:251,2,142.5
265,137,60029,6,0,B|172:101|172:101|62:149,1,190
174,190,60546,1,0,0:0:0:0:
252,49,60718,2,0,P|321:17|401:40,2,142.5
458,165,61408,2,0,L|328:99,1,142.5
232,124,61753,2,0,L|253:185,3,47.5
132,32,62098,2,0,B|99:94|99:94|100:85|100:85|132:148|132:148|132:138|132:138|90:199,1,213.750008153916
44,248,62442,6,0,L|158:272,1,95
316,248,62701,1,0,0:0:0:0:
337,229,62787,6,0,L|300:118,1,95
223,11,63132,2,0,L|185:121,1,95
136,267,63477,1,0,0:0:0:0:
392,168,63649,1,0,0:0:0:0:
392,168,63908,5,0,0:0:0:0:
384,151,63994,2,0,L|229:133,1,142.5
171,160,64339,2,0,L|179:221,5,47.5
194,297,64856,2,0,P|249:267|261:185,2,142.5
226,103,65546,6,0,L|353:121,1,95
421,301,65891,2,0,L|294:283,1,95
110,316,66235,2,0,P|132:242|203:216,2,142.5
363,311,66925,6,0,B|399:242|399:242|356:149,1,142.5
356,153,67270,1,0,0:0:0:0:
341,123,67356,1,0,0:0:0:0:
187,215,67615,6,0,L|246:229,1,47.5
219,40,67873,6,0,L|160:54,1,47.5
51,152,68132,5,0,0:0:0:0:
32,179,68218,1,0,0:0:0:0:
27,220,68304,1,0,0:0:0:0:
246,136,68477,1,0,0:0:0:0:
97,57,68649,1,0,0:0:0:0:
142,251,68822,1,0,0:0:0:0:
267,51,68994,6,0,B|236:67|236:67|164:36|178:114|178:114|122:173|194:189|194:189|246:258|289:194|289:194|353:189|353:189,1,427.500016307831
142,251,69684,2,0,L|246:322,1,118.75
450,164,70029,2,0,L|395:277,1,118.75
330,322,70287,1,0,0:0:0:0:
310,300,70373,1,0,0:0:0:0:
248,131,70546,1,0,0:0:0:0:
229,286,70718,2,0,P|271:229|341:228,1,118.75
374,363,71063,5,0,0:0:0:0:
190,182,71235,1,0,0:0:0:0:
471,164,71408,5,0,0:0:0:0:
290,348,71580,1,0,0:0:0:0:
162,101,71753,5,0,0:0:0:0:
343,285,71925,2,0,L|362:215,1,59.375
408,55,72098,1,0,0:0:0:0:
183,266,72270,1,0,0:0:0:0:
452,197,72442,6,0,L|309:152,1,118.75
95,199,72787,2,0,L|180:72,1,118.75
293,236,73046,1,0,0:0:0:0:
301,264,73132,2,0,L|164:266,1,118.75
256,103,73477,1,0,0:0:0:0:
435,257,73649,1,0,0:0:0:0:
242,345,73822,5,0,0:0:0:0:
332,80,73994,1,0,0:0:0:0:
119,278,74166,5,0,0:0:0:0:
329,93,74338,1,0,0:0:0:0:
407,343,74511,1,0,0:0:0:0:
407,343,74598,1,0,0:0:0:0:
407,343,74684,2,0,L|340:324,1,59.375
119,278,74856,1,0,0:0:0:0:
119,278,74943,1,0,0:0:0:0:
119,278,75029,2,0,L|186:259,1,59.375
386,169,75201,6,0,P|323:180|239:165,1,118.75
153,129,75546,1,0,0:0:0:0:
153,129,75632,1,0,0:0:0:0:
153,129,75718,1,0,0:0:0:0:
303,44,75891,1,0,0:0:0:0:
329,248,76063,2,0,L|261:256,1,59.375
119,278,76235,1,0,0:0:0:0:
119,278,76322,1,0,0:0:0:0:
119,278,76408,1,0,0:0:0:0:
189,49,76580,5,0,0:0:0:0:
232,330,76753,1,0,0:0:0:0:
322,65,76925,2,0,L|330:129,1,59.375
351,272,77098,2,0,L|359:208,1,59.375
465,157,77270,2,0,L|451:294,1,118.75
329,248,77529,1,0,0:0:0:0:
301,236,77615,6,0,P|246:221|187:232,1,118.75
161,247,77873,1,0,0:0:0:0:
139,268,77960,1,0,0:0:0:0:
124,72,78132,1,0,0:0:0:0:
44,146,78304,1,0,0:0:0:0:
67,164,78391,1,0,0:0:0:0:
92,179,78477,1,0,0:0:0:0:
121,183,78563,1,0,0:0:0:0:
150,181,78649,6,0,P|213:145|232:75,1,118.75
308,58,78908,1,0,0:0:0:0:
334,70,78994,2,0,L|327:138,2,59.375
429,61,79253,1,0,0:0:0:0:
457,67,79339,2,0,L|446:194,1,118.75
357,314,79684,1,0,0:0:0:0:
357,314,79770,1,0,0:0:0:0:
357,314,79856,2,0,L|344:187,1,118.75
140,212,80201,5,0,0:0:0:0:
140,212,80287,1,0,0:0:0:0:
140,212,80373,2,0,L|213:235,1,59.375
334,70,80546,5,0,0:0:0:0:
334,70,80632,1,0,0:0:0:0:
334,70,80718,2,0,P|280:48|218:69,1,95
309,177,81063,6,0,L|270:130,1,47.5
199,82,81235,2,0,L|177:139,1,47.5
346,265,81408,2,0,P|291:295|239:286,1,95
309,177,81753,6,0,L|258:238,1,47.5
212,270,81925,2,0,L|184:195,1,47.5
199,82,82098,2,0,P|143:80|91:125,1,95
158,205,82442,6,0,L|173:144,1,47.5
77,203,82615,2,0,L|92:264,1,47.5
284,268,82787,2,0,L|313:159,1,95
238,127,83132,6,0,L|231:189,1,47.5
154,157,83304,2,0,L|158:219,1,47.5
391,243,83477,1,0,0:0:0:0:
350,96,83649,1,0,0:0:0:0:
236,262,83822,6,0,L|307:271,1,47.5
324,180,83994,2,0,L|253:189,1,47.5
340,368,84166,1,0,0:0:0:0:
391,243,84339,1,0,0:0:0:0:
156,249,84511,6,0,L|167:326,1,47.5
236,262,84684,2,0,L|247:185,1,47.5
213,24,84856,2,0,P|248:68|307:82,1,95
420,27,85201,6,0,L|412:90,1,47.5
356,169,85373,2,0,L|348:106,1,47.5
506,205,85546,2,0,P|486:265|443:295,1,95
265,172,85891,6,0,L|246:175,1,11.875
265,186,85977,6,0,L|245:185,1,11.875
264,199,86063,6,0,L|245:195,1,11.875
260,212,86149,6,0,L|242:205,1,11.875
256,225,86235,2,0,L|183:212,1,47.5
80,119,86408,1,0,0:0:0:0:
80,119,86494,1,0,0:0:0:0:
80,119,86580,2,0,L|130:127,1,47.5
295,42,86753,5,0,0:0:0:0:
295,42,86839,1,0,0:0:0:0:
295,42,86925,2,0,L|245:50,1,47.5
110,205,87098,1,0,0:0:0:0:
121,236,87184,1,0,0:0:0:0:
141,261,87270,2,0,L|187:303,1,47.5
265,172,87442,2,0,L|205:190,1,47.5
294,316,87615,6,0,P|366:294|390:243,1,95
385,269,87873,1,0,0:0:0:0:
395,252,87960,1,0,0:0:0:0:
405,230,88046,1,0,0:0:0:0:
409,201,88132,1,0,0:0:0:0:
411,167,88218,1,0,0:0:0:0:
408,129,88304,5,0,0:0:0:0:
265,172,88477,1,0,0:0:0:0:
223,309,88649,2,0,L|207:357,2,47.5
293,78,88994,1,0,0:0:0:0:
132,135,89166,1,0,0:0:0:0:
132,135,89253,1,0,0:0:0:0:
456,282,89511,6,0,L|447:222,1,47.5
429,93,89684,1,0,0:0:0:0:
362,357,89942,1,0,0:0:0:0:
323,42,90201,1,0,0:0:0:0:
497,182,90373,6,0,L|371:190,1,95
177,125,90718,2,0,L|303:133,1,95
386,288,91063,1,0,0:0:0:0:
77,105,91235,5,0,0:0:0:0:
323,42,91408,1,0,0:0:0:0:
386,288,91580,1,0,0:0:0:0:
