osu file format v14

[General]
AudioFilename: audio.mp3
AudioLeadIn: 0
PreviewTime: -1
Countdown: 0
SampleSet: Normal
StackLeniency: 0.8
Mode: 3
LetterboxInBreaks: 0
SpecialStyle: 0
WidescreenStoryboard: 0

[Editor]
Bookmarks: 2113,13147,18665,23492,29699,32458,35216,40733,45561,51768,56595,67975,75216,80733,85561,89613,91768,97285,102802,108320,113837,116595,122113,127630,138664,149699,156595,162113,167630,171078,173147,178664,181423,186940,195216,206250,217285,229699,232457,243492,247630
DistanceSpacing: 0.7
BeatDivisor: 4
GridSize: 32
TimelineZoom: 2.2

[Metadata]
Title:Danzai no Homura to Koibito Tachi no Rondo
TitleUnicode:断罪の焔と恋人たちの輪舞曲
Artist:Imperial Circus Dead Decadence
ArtistUnicode:Imperial Circus Dead Decadence
Creator:Insp1r3
Version:Shutsugen
Source:
Tags:imperial circus dead decadence danzai
BeatmapID:1387496
BeatmapSetID:654588

[Difficulty]
HPDrainRate:8.5
CircleSize:4
OverallDifficulty:8.5
ApproachRate:9.5
SliderMultiplier:1.4
SliderTickRate:1

[Events]
//Background and Video events
0,0,"0787905977e94400abd8ceddd60bb340.jpg",0,0
//Break Periods
//Storyboard Layer 0 (Background)
//Storyboard Layer 1 (Fail)
//Storyboard Layer 2 (Pass)
//Storyboard Layer 3 (Foreground)
//Storyboard Sound Samples

[TimingPoints]
716,344.827142857143,4,1,0,55,1,0
13129,-100,4,1,0,55,0,1
24164,-100,4,1,0,55,0,0
40715,-100,4,1,0,55,0,1
46233,-100,4,1,0,55,0,0
91750,-100,4,1,0,55,0,1
113819,-100,4,1,0,55,0,0
122095,-100,4,1,0,55,0,1
127612,-100,4,1,0,55,0,0
173129,-100,4,1,0,55,0,1
182784,-100,4,1,0,55,0,0
189681,-100,4,1,0,55,0,1
206232,-100,4,1,0,55,0,0
218646,-100,4,1,0,55,0,1
230715,-100,4,1,0,55,0,0
237957,-100,4,1,0,55,0,1
243474,-100,4,1,0,55,0,0
244853,-100,4,1,0,55,0,1
245026,-100,4,1,0,55,0,0
245198,-100,4,1,0,55,0,1
245370,-100,4,1,0,55,0,0
245543,-100,4,1,0,55,0,1
245974,-100,4,1,0,55,0,0

[HitObjects]
64,192,1405,5,0,0:0:0:0:
192,192,1491,1,0,0:0:0:0:
448,192,1578,1,0,0:0:0:0:
320,192,1664,1,0,0:0:0:0:
64,192,1750,1,0,0:0:0:0:
192,192,1836,1,0,0:0:0:0:
448,192,1922,1,0,0:0:0:0:
320,192,2009,1,0,0:0:0:0:
448,192,2095,128,0,3474:0:0:0:0:
192,192,2095,1,0,0:0:0:0:
64,192,2095,128,0,3302:0:0:0:0:
320,192,2267,1,0,0:0:0:0:
320,192,2440,1,0,0:0:0:0:
192,192,2612,1,0,0:0:0:0:
192,192,2784,1,0,0:0:0:0:
320,192,2957,1,0,0:0:0:0:
192,192,3043,1,0,0:0:0:0:
320,192,3129,1,0,0:0:0:0:
192,192,3302,1,0,0:0:0:0:
192,192,3474,128,0,3819:0:0:0:0:
64,192,3474,128,0,4336:0:0:0:0:
320,192,3647,1,0,0:0:0:0:
320,192,3819,128,0,4164:0:0:0:0:
448,192,3819,1,0,0:0:0:0:
192,192,3991,1,0,0:0:0:0:
448,192,4164,128,0,4509:0:0:0:0:
192,192,4164,1,0,0:0:0:0:
320,192,4336,1,0,0:0:0:0:
64,192,4509,128,0,4681:0:0:0:0:
192,192,4509,128,0,4681:0:0:0:0:
320,192,4509,1,0,0:0:0:0:
448,192,4681,1,0,0:0:0:0:
320,192,4853,128,0,6233:0:0:0:0:
448,192,4853,1,0,0:0:0:0:
64,192,4853,128,0,6060:0:0:0:0:
192,192,5026,1,0,0:0:0:0:
448,192,5198,1,0,0:0:0:0:
192,192,5371,1,0,0:0:0:0:
448,192,5543,1,0,0:0:0:0:
192,192,5715,1,0,0:0:0:0:
448,192,5802,1,0,0:0:0:0:
192,192,5888,1,0,0:0:0:0:
448,192,6060,1,0,0:0:0:0:
448,192,6233,128,0,6578:0:0:0:0:
64,192,6233,128,0,6750:0:0:0:0:
192,192,6233,1,0,0:0:0:0:
320,192,6405,1,0,0:0:0:0:
320,192,6578,128,0,6922:0:0:0:0:
192,192,6578,1,0,0:0:0:0:
448,192,6750,1,0,0:0:0:0:
192,192,6922,128,0,7267:0:0:0:0:
64,192,6922,128,0,7440:0:0:0:0:
448,192,6922,1,0,0:0:0:0:
320,192,7095,1,0,0:0:0:0:
448,192,7267,128,0,7612:0:0:0:0:
320,192,7267,1,0,0:0:0:0:
192,192,7440,1,0,0:0:0:0:
320,192,7612,128,0,8302:0:0:0:0:
64,192,7612,128,0,8819:0:0:0:0:
192,192,7612,1,0,0:0:0:0:
448,192,7784,1,0,0:0:0:0:
192,192,7957,1,0,0:0:0:0:
448,192,8129,1,0,0:0:0:0:
448,192,8302,128,0,8647:0:0:0:0:
192,192,8302,1,0,0:0:0:0:
320,192,8474,1,0,0:0:0:0:
192,192,8560,1,0,0:0:0:0:
320,192,8647,128,0,8991:0:0:0:0:
448,192,8819,1,0,0:0:0:0:
192,192,8991,128,0,9336:0:0:0:0:
448,192,8991,1,0,0:0:0:0:
64,192,8991,128,0,9853:0:0:0:0:
320,192,9164,1,0,0:0:0:0:
320,192,9336,128,0,9681:0:0:0:0:
448,192,9336,1,0,0:0:0:0:
192,192,9509,1,0,0:0:0:0:
448,192,9681,128,0,10026:0:0:0:0:
192,192,9853,1,0,0:0:0:0:
192,192,10026,128,0,10371:0:0:0:0:
64,192,10026,128,0,10198:0:0:0:0:
320,192,10026,1,0,0:0:0:0:
448,192,10198,1,0,0:0:0:0:
320,192,10371,128,0,11060:0:0:0:0:
64,192,10371,128,0,10888:0:0:0:0:
448,192,10371,1,0,0:0:0:0:
192,192,10543,1,0,0:0:0:0:
448,192,10715,1,0,0:0:0:0:
192,192,10888,1,0,0:0:0:0:
64,192,11060,1,0,0:0:0:0:
448,192,11060,128,0,11405:0:0:0:0:
192,192,11233,1,0,0:0:0:0:
320,192,11405,128,0,11750:0:0:0:0:
64,192,11405,1,0,0:0:0:0:
448,192,11491,1,0,0:0:0:0:
192,192,11578,1,0,0:0:0:0:
192,192,11750,128,0,12095:0:0:0:0:
448,192,11750,1,0,0:0:0:0:
64,192,11836,1,0,0:0:0:0:
320,192,11922,1,0,0:0:0:0:
448,192,12009,1,0,0:0:0:0:
320,192,12095,128,0,12267:0:0:0:0:
64,192,12095,1,0,0:0:0:0:
192,192,12181,1,0,0:0:0:0:
448,192,12267,128,0,12440:0:0:0:0:
64,192,12353,1,0,0:0:0:0:
320,192,12440,128,0,12784:0:0:0:0:
192,192,12440,1,0,0:0:0:0:
64,192,12526,1,0,0:0:0:0:
192,192,12612,1,0,0:0:0:0:
448,192,12698,1,0,0:0:0:0:
192,192,12784,128,0,13043:0:0:0:0:
64,192,12784,128,0,13043:0:0:0:0:
320,192,12871,1,0,0:0:0:0:
448,192,12957,1,0,0:0:0:0:
320,192,13043,1,0,0:0:0:0:
192,192,13129,1,0,0:0:0:0:
448,192,13129,1,0,0:0:0:0:
320,192,13215,1,0,0:0:0:0:
192,192,13302,1,0,0:0:0:0:
64,192,13302,1,0,0:0:0:0:
448,192,13388,1,0,0:0:0:0:
320,192,13474,1,0,0:0:0:0:
192,192,13474,1,0,0:0:0:0:
64,192,13560,1,0,0:0:0:0:
448,192,13647,1,0,0:0:0:0:
192,192,13647,1,0,0:0:0:0:
320,192,13733,1,0,0:0:0:0:
448,192,13819,1,0,0:0:0:0:
64,192,13819,1,0,0:0:0:0:
192,192,13905,1,0,0:0:0:0:
320,192,13991,1,0,0:0:0:0:
448,192,13991,1,0,0:0:0:0:
64,192,14078,1,0,0:0:0:0:
192,192,14164,1,0,0:0:0:0:
320,192,14164,1,0,0:0:0:0:
448,192,14250,1,0,0:0:0:0:
64,192,14336,1,0,0:0:0:0:
192,192,14336,1,0,0:0:0:0:
320,192,14422,1,0,0:0:0:0:
192,192,14509,1,0,0:0:0:0:
448,192,14509,1,0,0:0:0:0:
320,192,14595,1,0,0:0:0:0:
448,192,14681,1,0,0:0:0:0:
64,192,14681,1,0,0:0:0:0:
192,192,14767,1,0,0:0:0:0:
320,192,14853,1,0,0:0:0:0:
448,192,14853,1,0,0:0:0:0:
64,192,14940,1,0,0:0:0:0:
192,192,15026,1,0,0:0:0:0:
320,192,15026,1,0,0:0:0:0:
448,192,15112,1,0,0:0:0:0:
64,192,15198,1,0,0:0:0:0:
192,192,15198,1,0,0:0:0:0:
448,192,15284,1,0,0:0:0:0:
64,192,15371,1,0,0:0:0:0:
320,192,15371,1,0,0:0:0:0:
192,192,15457,1,0,0:0:0:0:
448,192,15543,1,0,0:0:0:0:
320,192,15543,1,0,0:0:0:0:
64,192,15629,1,0,0:0:0:0:
448,192,15715,1,0,0:0:0:0:
192,192,15715,1,0,0:0:0:0:
320,192,15802,1,0,0:0:0:0:
448,192,15888,1,0,0:0:0:0:
64,192,15888,1,0,0:0:0:0:
320,192,15974,1,0,0:0:0:0:
192,192,16060,1,0,0:0:0:0:
64,192,16060,1,0,0:0:0:0:
320,192,16147,1,0,0:0:0:0:
448,192,16233,1,0,0:0:0:0:
64,192,16233,1,0,0:0:0:0:
192,192,16319,1,0,0:0:0:0:
448,192,16405,1,0,0:0:0:0:
320,192,16405,1,0,0:0:0:0:
64,192,16491,1,0,0:0:0:0:
448,192,16578,1,0,0:0:0:0:
192,192,16578,1,0,0:0:0:0:
320,192,16664,1,0,0:0:0:0:
64,192,16750,1,0,0:0:0:0:
192,192,16750,1,0,0:0:0:0:
320,192,16836,1,0,0:0:0:0:
448,192,16922,1,0,0:0:0:0:
64,192,16922,1,0,0:0:0:0:
192,192,17009,1,0,0:0:0:0:
64,192,17095,1,0,0:0:0:0:
320,192,17095,1,0,0:0:0:0:
448,192,17181,1,0,0:0:0:0:
192,192,17267,1,0,0:0:0:0:
64,192,17267,1,0,0:0:0:0:
448,192,17353,1,0,0:0:0:0:
192,192,17440,1,0,0:0:0:0:
320,192,17440,1,0,0:0:0:0:
64,192,17526,1,0,0:0:0:0:
192,192,17612,1,0,0:0:0:0:
448,192,17612,1,0,0:0:0:0:
320,192,17698,1,0,0:0:0:0:
64,192,17784,1,0,0:0:0:0:
448,192,17784,1,0,0:0:0:0:
192,192,17871,1,0,0:0:0:0:
448,192,17957,128,0,18129:0:0:0:0:
320,192,17957,1,0,0:0:0:0:
64,192,18043,1,0,0:0:0:0:
320,192,18129,128,0,18302:0:0:0:0:
192,192,18129,1,0,0:0:0:0:
448,192,18215,1,0,0:0:0:0:
192,192,18302,128,0,18647:0:0:0:0:
64,192,18302,1,0,0:0:0:0:
320,192,18388,1,0,0:0:0:0:
64,192,18474,1,0,0:0:0:0:
448,192,18474,1,0,0:0:0:0:
320,192,18560,1,0,0:0:0:0:
64,192,18647,1,0,0:0:0:0:
448,192,18647,1,0,0:0:0:0:
320,192,18733,1,0,0:0:0:0:
192,192,18819,1,0,0:0:0:0:
448,192,18819,1,0,0:0:0:0:
64,192,18905,1,0,0:0:0:0:
320,192,18991,1,0,0:0:0:0:
192,192,18991,1,0,0:0:0:0:
64,192,19078,1,0,0:0:0:0:
320,192,19164,1,0,0:0:0:0:
448,192,19164,1,0,0:0:0:0:
192,192,19250,1,0,0:0:0:0:
64,192,19336,1,0,0:0:0:0:
320,192,19336,1,0,0:0:0:0:
448,192,19422,1,0,0:0:0:0:
64,192,19509,1,0,0:0:0:0:
192,192,19509,1,0,0:0:0:0:
448,192,19595,1,0,0:0:0:0:
192,192,19681,1,0,0:0:0:0:
320,192,19681,1,0,0:0:0:0:
64,192,19767,1,0,0:0:0:0:
448,192,19853,1,0,0:0:0:0:
320,192,19853,1,0,0:0:0:0:
192,192,19940,1,0,0:0:0:0:
320,192,20026,1,0,0:0:0:0:
64,192,20026,1,0,0:0:0:0:
448,192,20026,1,0,0:0:0:0:
192,192,20112,1,0,0:0:0:0:
64,192,20198,1,0,0:0:0:0:
448,192,20198,1,0,0:0:0:0:
320,192,20284,1,0,0:0:0:0:
192,192,20371,1,0,0:0:0:0:
448,192,20371,1,0,0:0:0:0:
64,192,20457,1,0,0:0:0:0:
192,192,20543,1,0,0:0:0:0:
320,192,20543,1,0,0:0:0:0:
64,192,20629,1,0,0:0:0:0:
192,192,20715,1,0,0:0:0:0:
448,192,20715,1,0,0:0:0:0:
320,192,20715,1,0,0:0:0:0:
64,192,20802,1,0,0:0:0:0:
448,192,20888,1,0,0:0:0:0:
320,192,20888,1,0,0:0:0:0:
192,192,20974,1,0,0:0:0:0:
64,192,21060,1,0,0:0:0:0:
320,192,21060,1,0,0:0:0:0:
448,192,21060,1,0,0:0:0:0:
192,192,21147,1,0,0:0:0:0:
320,192,21233,1,0,0:0:0:0:
64,192,21233,1,0,0:0:0:0:
448,192,21319,1,0,0:0:0:0:
320,192,21405,1,0,0:0:0:0:
192,192,21405,1,0,0:0:0:0:
64,192,21405,1,0,0:0:0:0:
448,192,21491,1,0,0:0:0:0:
320,192,21578,1,0,0:0:0:0:
192,192,21578,1,0,0:0:0:0:
64,192,21664,1,0,0:0:0:0:
448,192,21750,1,0,0:0:0:0:
192,192,21750,1,0,0:0:0:0:
320,192,21836,1,0,0:0:0:0:
64,192,21922,1,0,0:0:0:0:
448,192,21922,1,0,0:0:0:0:
192,192,22009,1,0,0:0:0:0:
448,192,22095,1,0,0:0:0:0:
320,192,22095,1,0,0:0:0:0:
64,192,22181,1,0,0:0:0:0:
192,192,22267,1,0,0:0:0:0:
320,192,22267,1,0,0:0:0:0:
64,192,22353,1,0,0:0:0:0:
448,192,22440,1,0,0:0:0:0:
192,192,22440,1,0,0:0:0:0:
320,192,22526,1,0,0:0:0:0:
448,192,22612,1,0,0:0:0:0:
64,192,22612,1,0,0:0:0:0:
192,192,22698,1,0,0:0:0:0:
64,192,22784,1,0,0:0:0:0:
320,192,22784,1,0,0:0:0:0:
448,192,22784,1,0,0:0:0:0:
192,192,22871,1,0,0:0:0:0:
320,192,22957,1,0,0:0:0:0:
64,192,22957,1,0,0:0:0:0:
192,192,23043,1,0,0:0:0:0:
448,192,23129,1,0,0:0:0:0:
320,192,23129,1,0,0:0:0:0:
64,192,23215,1,0,0:0:0:0:
448,192,23302,1,0,0:0:0:0:
192,192,23302,1,0,0:0:0:0:
64,192,23388,1,0,0:0:0:0:
448,192,23474,1,0,0:0:0:0:
320,192,23474,1,0,0:0:0:0:
64,192,23647,1,0,0:0:0:0:
192,192,23647,1,0,0:0:0:0:
448,192,23819,1,0,0:0:0:0:
320,192,23819,1,0,0:0:0:0:
64,192,23905,1,0,0:0:0:0:
192,192,23905,1,0,0:0:0:0:
448,192,23991,1,0,0:0:0:0:
320,192,23991,1,0,0:0:0:0:
64,192,24078,1,0,0:0:0:0:
192,192,24078,1,0,0:0:0:0:
448,192,24164,1,0,0:0:0:0:
320,192,24164,1,0,0:0:0:0:
64,192,24164,128,0,24336:0:0:0:0:
448,192,24336,128,0,24509:0:0:0:0:
192,192,24336,1,0,0:0:0:0:
320,192,24509,128,0,24681:0:0:0:0:
192,192,24509,1,0,0:0:0:0:
64,192,24595,1,0,0:0:0:0:
192,192,24681,128,0,24853:0:0:0:0:
448,192,24681,1,0,0:0:0:0:
64,192,24853,128,0,25026:0:0:0:0:
320,192,24853,1,0,0:0:0:0:
448,192,25026,128,0,25198:0:0:0:0:
192,192,25026,1,0,0:0:0:0:
320,192,25198,128,0,25371:0:0:0:0:
64,192,25198,1,0,0:0:0:0:
64,192,25371,128,0,25543:0:0:0:0:
448,192,25371,1,0,0:0:0:0:
320,192,25457,1,0,0:0:0:0:
192,192,25543,128,0,25715:0:0:0:0:
448,192,25543,1,0,0:0:0:0:
64,192,25715,128,0,25888:0:0:0:0:
320,192,25715,1,0,0:0:0:0:
192,192,25888,128,0,26060:0:0:0:0:
448,192,25888,1,0,0:0:0:0:
448,192,26060,128,0,26233:0:0:0:0:
64,192,26060,1,0,0:0:0:0:
192,192,26147,1,0,0:0:0:0:
320,192,26233,128,0,26405:0:0:0:0:
64,192,26233,1,0,0:0:0:0:
448,192,26319,1,0,0:0:0:0:
192,192,26405,128,0,26578:0:0:0:0:
64,192,26405,1,0,0:0:0:0:
64,192,26578,128,0,26836:0:0:0:0:
320,192,26578,1,0,0:0:0:0:
448,192,26750,1,0,0:0:0:0:
320,192,26922,1,0,0:0:0:0:
192,192,26922,1,0,0:0:0:0:
64,192,26922,128,0,27095:0:0:0:0:
192,192,27095,128,0,27267:0:0:0:0:
448,192,27095,1,0,0:0:0:0:
448,192,27267,128,0,27440:0:0:0:0:
320,192,27267,1,0,0:0:0:0:
192,192,27353,1,0,0:0:0:0:
320,192,27440,128,0,27612:0:0:0:0:
64,192,27440,1,0,0:0:0:0:
64,192,27612,128,0,27784:0:0:0:0:
448,192,27612,1,0,0:0:0:0:
320,192,27784,128,0,27957:0:0:0:0:
192,192,27784,1,0,0:0:0:0:
192,192,27957,128,0,28129:0:0:0:0:
64,192,27957,1,0,0:0:0:0:
64,192,28129,128,0,28302:0:0:0:0:
448,192,28129,1,0,0:0:0:0:
192,192,28215,1,0,0:0:0:0:
320,192,28302,128,0,28474:0:0:0:0:
448,192,28302,1,0,0:0:0:0:
64,192,28474,128,0,28646:0:0:0:0:
192,192,28474,1,0,0:0:0:0:
192,192,28646,128,0,28819:0:0:0:0:
448,192,28646,1,0,0:0:0:0:
320,192,28819,128,0,28991:0:0:0:0:
448,192,28819,1,0,0:0:0:0:
64,192,28905,1,0,0:0:0:0:
448,192,28991,128,0,29164:0:0:0:0:
192,192,28991,1,0,0:0:0:0:
64,192,29078,1,0,0:0:0:0:
320,192,29164,128,0,29336:0:0:0:0:
192,192,29164,1,0,0:0:0:0:
64,192,29250,1,0,0:0:0:0:
192,192,29336,128,0,29509:0:0:0:0:
448,192,29336,1,0,0:0:0:0:
320,192,29422,1,0,0:0:0:0:
448,192,29509,1,0,0:0:0:0:
64,192,29509,1,0,0:0:0:0:
320,192,29595,1,0,0:0:0:0:
448,192,29681,1,0,0:0:0:0:
64,192,29681,128,0,29724:0:0:0:0:
192,192,29681,128,0,29724:0:0:0:0:
192,192,29853,128,0,29896:0:0:0:0:
320,192,29853,128,0,29896:0:0:0:0:
448,192,30026,128,0,30069:0:0:0:0:
320,192,30026,128,0,30069:0:0:0:0:
64,192,30112,1,0,0:0:0:0:
320,192,30198,128,0,30241:0:0:0:0:
192,192,30198,128,0,30241:0:0:0:0:
64,192,30371,128,0,30414:0:0:0:0:
192,192,30371,128,0,30414:0:0:0:0:
448,192,30543,128,0,30586:0:0:0:0:
320,192,30543,128,0,30586:0:0:0:0:
192,192,30715,128,0,30759:0:0:0:0:
320,192,30715,128,0,30759:0:0:0:0:
192,192,30888,128,0,30931:0:0:0:0:
64,192,30888,128,0,30931:0:0:0:0:
448,192,30974,1,0,0:0:0:0:
192,192,31060,128,0,31103:0:0:0:0:
320,192,31060,128,0,31103:0:0:0:0:
64,192,31233,128,0,31276:0:0:0:0:
192,192,31233,128,0,31276:0:0:0:0:
192,192,31405,128,0,31448:0:0:0:0:
320,192,31405,128,0,31448:0:0:0:0:
448,192,31578,128,0,31621:0:0:0:0:
320,192,31578,128,0,31621:0:0:0:0:
64,192,31664,1,0,0:0:0:0:
320,192,31750,128,0,31793:0:0:0:0:
192,192,31750,128,0,31793:0:0:0:0:
64,192,31836,1,0,0:0:0:0:
192,192,31922,128,0,31965:0:0:0:0:
64,192,31922,128,0,31965:0:0:0:0:
448,192,31922,1,0,0:0:0:0:
320,192,32095,128,0,32224:0:0:0:0:
448,192,32095,128,0,32224:0:0:0:0:
64,192,32267,1,0,0:0:0:0:
64,192,32440,128,0,32526:0:0:0:0:
320,192,32440,128,0,32526:0:0:0:0:
192,192,32612,128,0,32698:0:0:0:0:
320,192,32612,128,0,32698:0:0:0:0:
448,192,32784,128,0,32871:0:0:0:0:
64,192,32784,128,0,32871:0:0:0:0:
320,192,32871,1,0,0:0:0:0:
192,192,32957,128,0,33043:0:0:0:0:
320,192,32957,128,0,33043:0:0:0:0:
64,192,33129,128,0,33215:0:0:0:0:
192,192,33129,128,0,33215:0:0:0:0:
448,192,33302,128,0,33388:0:0:0:0:
192,192,33302,128,0,33388:0:0:0:0:
320,192,33474,128,0,33560:0:0:0:0:
64,192,33474,128,0,33560:0:0:0:0:
64,192,33646,128,0,33733:0:0:0:0:
192,192,33646,128,0,33733:0:0:0:0:
320,192,33733,1,0,0:0:0:0:
448,192,33819,128,0,33905:0:0:0:0:
64,192,33819,128,0,33905:0:0:0:0:
320,192,33991,128,0,34078:0:0:0:0:
192,192,33991,128,0,34078:0:0:0:0:
448,192,34078,1,0,0:0:0:0:
64,192,34164,128,0,34250:0:0:0:0:
320,192,34164,128,0,34250:0:0:0:0:
192,192,34250,1,0,0:0:0:0:
192,192,34336,128,0,34422:0:0:0:0:
448,192,34336,128,0,34422:0:0:0:0:
320,192,34422,1,0,0:0:0:0:
448,192,34509,128,0,34595:0:0:0:0:
320,192,34509,128,0,34595:0:0:0:0:
64,192,34681,128,0,34767:0:0:0:0:
320,192,34681,128,0,34767:0:0:0:0:
64,192,34853,128,0,34940:0:0:0:0:
192,192,34853,128,0,34940:0:0:0:0:
320,192,35026,128,0,35112:0:0:0:0:
448,192,35026,128,0,35112:0:0:0:0:
64,192,35198,128,0,36233:0:0:0:0:
192,192,35198,1,0,0:0:0:0:
320,192,35198,1,0,0:0:0:0:
448,192,35371,1,0,0:0:0:0:
192,192,35371,1,0,0:0:0:0:
320,192,35543,1,0,0:0:0:0:
448,192,35543,1,0,0:0:0:0:
192,192,35715,1,0,0:0:0:0:
320,192,35715,1,0,0:0:0:0:
448,192,35888,1,0,0:0:0:0:
192,192,35888,1,0,0:0:0:0:
320,192,36060,1,0,0:0:0:0:
448,192,36060,1,0,0:0:0:0:
192,192,36233,1,0,0:0:0:0:
320,192,36233,1,0,0:0:0:0:
448,192,36405,1,0,0:0:0:0:
64,192,36405,1,0,0:0:0:0:
448,192,36578,1,0,0:0:0:0:
320,192,36578,1,0,0:0:0:0:
192,192,36578,1,0,0:0:0:0:
64,192,36750,1,0,0:0:0:0:
320,192,36750,1,0,0:0:0:0:
448,192,36922,1,0,0:0:0:0:
192,192,36922,1,0,0:0:0:0:
64,192,37095,1,0,0:0:0:0:
192,192,37095,1,0,0:0:0:0:
448,192,37267,1,0,0:0:0:0:
320,192,37267,1,0,0:0:0:0:
64,192,37267,1,0,0:0:0:0:
192,192,37440,1,0,0:0:0:0:
320,192,37440,1,0,0:0:0:0:
448,192,37612,1,0,0:0:0:0:
192,192,37612,1,0,0:0:0:0:
64,192,37612,1,0,0:0:0:0:
448,192,37784,1,0,0:0:0:0:
320,192,37784,1,0,0:0:0:0:
64,192,37957,1,0,0:0:0:0:
192,192,37957,1,0,0:0:0:0:
320,192,37957,1,0,0:0:0:0:
448,192,38129,1,0,0:0:0:0:
192,192,38129,1,0,0:0:0:0:
64,192,38302,1,0,0:0:0:0:
448,192,38302,1,0,0:0:0:0:
192,192,38474,1,0,0:0:0:0:
64,192,38474,1,0,0:0:0:0:
448,192,38646,1,0,0:0:0:0:
192,192,38646,1,0,0:0:0:0:
64,192,38819,1,0,0:0:0:0:
448,192,38819,1,0,0:0:0:0:
192,192,38991,1,0,0:0:0:0:
64,192,38991,1,0,0:0:0:0:
448,192,39164,1,0,0:0:0:0:
192,192,39164,1,0,0:0:0:0:
64,192,39336,1,0,0:0:0:0:
320,192,39336,1,0,0:0:0:0:
448,192,39336,1,0,0:0:0:0:
64,192,39509,1,0,0:0:0:0:
192,192,39509,1,0,0:0:0:0:
448,192,39681,1,0,0:0:0:0:
192,192,39681,1,0,0:0:0:0:
64,192,39853,1,0,0:0:0:0:
448,192,39853,1,0,0:0:0:0:
320,192,40026,1,0,0:0:0:0:
192,192,40026,1,0,0:0:0:0:
64,192,40026,1,0,0:0:0:0:
448,192,40198,1,0,0:0:0:0:
192,192,40198,1,0,0:0:0:0:
448,192,40371,1,0,0:0:0:0:
320,192,40371,1,0,0:0:0:0:
64,192,40457,1,0,0:0:0:0:
192,192,40457,1,0,0:0:0:0:
448,192,40543,1,0,0:0:0:0:
320,192,40543,1,0,0:0:0:0:
64,192,40629,1,0,0:0:0:0:
192,192,40629,1,0,0:0:0:0:
448,192,40715,1,0,0:0:0:0:
320,192,40715,1,0,0:0:0:0:
192,192,40802,1,0,0:0:0:0:
64,192,40888,1,0,0:0:0:0:
320,192,40888,1,0,0:0:0:0:
448,192,40974,1,0,0:0:0:0:
64,192,41060,1,0,0:0:0:0:
192,192,41060,1,0,0:0:0:0:
320,192,41146,1,0,0:0:0:0:
448,192,41233,1,0,0:0:0:0:
192,192,41233,1,0,0:0:0:0:
64,192,41319,1,0,0:0:0:0:
448,192,41405,1,0,0:0:0:0:
320,192,41405,1,0,0:0:0:0:
192,192,41491,1,0,0:0:0:0:
64,192,41578,1,0,0:0:0:0:
320,192,41578,1,0,0:0:0:0:
448,192,41664,1,0,0:0:0:0:
64,192,41750,1,0,0:0:0:0:
320,192,41750,1,0,0:0:0:0:
192,192,41836,1,0,0:0:0:0:
448,192,41922,1,0,0:0:0:0:
320,192,41922,1,0,0:0:0:0:
64,192,42009,1,0,0:0:0:0:
192,192,42095,1,0,0:0:0:0:
448,192,42095,1,0,0:0:0:0:
320,192,42095,1,0,0:0:0:0:
64,192,42181,1,0,0:0:0:0:
192,192,42267,1,0,0:0:0:0:
448,192,42267,1,0,0:0:0:0:
320,192,42353,1,0,0:0:0:0:
64,192,42440,1,0,0:0:0:0:
192,192,42440,1,0,0:0:0:0:
448,192,42526,1,0,0:0:0:0:
320,192,42612,1,0,0:0:0:0:
64,192,42612,1,0,0:0:0:0:
192,192,42698,1,0,0:0:0:0:
320,192,42784,1,0,0:0:0:0:
448,192,42784,1,0,0:0:0:0:
64,192,42784,1,0,0:0:0:0:
192,192,42871,1,0,0:0:0:0:
64,192,42957,1,0,0:0:0:0:
448,192,42957,1,0,0:0:0:0:
320,192,43043,1,0,0:0:0:0:
64,192,43129,1,0,0:0:0:0:
192,192,43129,1,0,0:0:0:0:
448,192,43215,1,0,0:0:0:0:
192,192,43302,1,0,0:0:0:0:
320,192,43302,1,0,0:0:0:0:
64,192,43388,1,0,0:0:0:0:
192,192,43474,1,0,0:0:0:0:
448,192,43474,1,0,0:0:0:0:
320,192,43474,1,0,0:0:0:0:
64,192,43560,1,0,0:0:0:0:
192,192,43646,1,0,0:0:0:0:
448,192,43646,1,0,0:0:0:0:
320,192,43733,1,0,0:0:0:0:
64,192,43819,1,0,0:0:0:0:
448,192,43819,1,0,0:0:0:0:
192,192,43905,1,0,0:0:0:0:
64,192,43991,1,0,0:0:0:0:
320,192,43991,1,0,0:0:0:0:
448,192,44078,1,0,0:0:0:0:
320,192,44164,1,0,0:0:0:0:
192,192,44164,1,0,0:0:0:0:
64,192,44250,1,0,0:0:0:0:
448,192,44336,1,0,0:0:0:0:
192,192,44336,1,0,0:0:0:0:
320,192,44422,1,0,0:0:0:0:
64,192,44509,1,0,0:0:0:0:
192,192,44509,1,0,0:0:0:0:
448,192,44595,1,0,0:0:0:0:
320,192,44681,1,0,0:0:0:0:
64,192,44681,1,0,0:0:0:0:
192,192,44767,1,0,0:0:0:0:
448,192,44853,1,0,0:0:0:0:
320,192,44853,1,0,0:0:0:0:
64,192,44853,1,0,0:0:0:0:
192,192,44940,1,0,0:0:0:0:
448,192,45026,1,0,0:0:0:0:
320,192,45026,1,0,0:0:0:0:
64,192,45112,1,0,0:0:0:0:
192,192,45198,1,0,0:0:0:0:
448,192,45198,1,0,0:0:0:0:
320,192,45284,1,0,0:0:0:0:
64,192,45371,1,0,0:0:0:0:
192,192,45371,1,0,0:0:0:0:
448,192,45457,1,0,0:0:0:0:
320,192,45543,1,0,0:0:0:0:
192,192,45543,1,0,0:0:0:0:
64,192,45543,1,0,0:0:0:0:
320,192,45715,1,0,0:0:0:0:
448,192,45715,1,0,0:0:0:0:
64,192,45888,1,0,0:0:0:0:
192,192,45888,1,0,0:0:0:0:
448,192,46060,1,0,0:0:0:0:
320,192,46060,1,0,0:0:0:0:
192,192,46146,1,0,0:0:0:0:
64,192,46233,1,0,0:0:0:0:
320,192,46233,1,0,0:0:0:0:
448,192,46233,1,0,0:0:0:0:
192,192,46405,1,0,0:0:0:0:
64,192,46405,1,0,0:0:0:0:
448,192,46578,1,0,0:0:0:0:
192,192,46578,1,0,0:0:0:0:
320,192,46664,1,0,0:0:0:0:
64,192,46750,1,0,0:0:0:0:
192,192,46750,1,0,0:0:0:0:
448,192,46750,1,0,0:0:0:0:
320,192,46922,1,0,0:0:0:0:
64,192,46922,1,0,0:0:0:0:
448,192,47095,1,0,0:0:0:0:
320,192,47095,1,0,0:0:0:0:
64,192,47267,1,0,0:0:0:0:
448,192,47267,1,0,0:0:0:0:
64,192,47440,1,0,0:0:0:0:
192,192,47440,1,0,0:0:0:0:
320,192,47526,1,0,0:0:0:0:
192,192,47612,1,0,0:0:0:0:
448,192,47612,1,0,0:0:0:0:
64,192,47612,1,0,0:0:0:0:
320,192,47784,1,0,0:0:0:0:
448,192,47784,1,0,0:0:0:0:
64,192,47957,1,0,0:0:0:0:
192,192,47957,1,0,0:0:0:0:
320,192,48129,1,0,0:0:0:0:
448,192,48129,1,0,0:0:0:0:
64,192,48215,1,0,0:0:0:0:
448,192,48302,1,0,0:0:0:0:
192,192,48302,1,0,0:0:0:0:
320,192,48388,1,0,0:0:0:0:
64,192,48474,1,0,0:0:0:0:
192,192,48474,1,0,0:0:0:0:
448,192,48474,1,0,0:0:0:0:
64,192,48646,1,0,0:0:0:0:
320,192,48646,1,0,0:0:0:0:
448,192,48819,1,0,0:0:0:0:
320,192,48819,1,0,0:0:0:0:
64,192,48991,1,0,0:0:0:0:
192,192,48991,1,0,0:0:0:0:
192,192,49164,1,0,0:0:0:0:
320,192,49164,1,0,0:0:0:0:
64,192,49336,1,0,0:0:0:0:
448,192,49336,1,0,0:0:0:0:
192,192,49422,1,0,0:0:0:0:
448,192,49509,1,0,0:0:0:0:
320,192,49509,1,0,0:0:0:0:
64,192,49509,1,0,0:0:0:0:
192,192,49681,1,0,0:0:0:0:
320,192,49681,1,0,0:0:0:0:
64,192,49853,1,0,0:0:0:0:
192,192,49853,1,0,0:0:0:0:
64,192,50026,1,0,0:0:0:0:
448,192,50026,1,0,0:0:0:0:
192,192,50112,1,0,0:0:0:0:
448,192,50198,1,0,0:0:0:0:
320,192,50198,1,0,0:0:0:0:
64,192,50198,1,0,0:0:0:0:
192,192,50371,1,0,0:0:0:0:
320,192,50371,1,0,0:0:0:0:
64,192,50543,1,0,0:0:0:0:
448,192,50543,1,0,0:0:0:0:
192,192,50715,1,0,0:0:0:0:
64,192,50715,1,0,0:0:0:0:
448,192,50888,1,0,0:0:0:0:
64,192,50888,1,0,0:0:0:0:
192,192,50974,1,0,0:0:0:0:
64,192,51060,1,0,0:0:0:0:
320,192,51060,1,0,0:0:0:0:
448,192,51146,1,0,0:0:0:0:
320,192,51233,1,0,0:0:0:0:
192,192,51233,1,0,0:0:0:0:
448,192,51319,1,0,0:0:0:0:
192,192,51405,1,0,0:0:0:0:
64,192,51405,1,0,0:0:0:0:
320,192,51491,1,0,0:0:0:0:
448,192,51578,1,0,0:0:0:0:
64,192,51578,1,0,0:0:0:0:
320,192,51664,1,0,0:0:0:0:
448,192,51750,1,0,0:0:0:0:
192,192,51750,1,0,0:0:0:0:
64,192,51750,1,0,0:0:0:0:
192,192,51922,1,0,0:0:0:0:
320,192,51922,1,0,0:0:0:0:
448,192,51922,1,0,0:0:0:0:
64,192,52095,1,0,0:0:0:0:
320,192,52095,1,0,0:0:0:0:
192,192,52181,1,0,0:0:0:0:
448,192,52267,1,0,0:0:0:0:
320,192,52267,1,0,0:0:0:0:
64,192,52267,1,0,0:0:0:0:
64,192,52440,1,0,0:0:0:0:
192,192,52440,1,0,0:0:0:0:
448,192,52440,1,0,0:0:0:0:
448,192,52612,1,0,0:0:0:0:
320,192,52612,1,0,0:0:0:0:
192,192,52612,1,0,0:0:0:0:
64,192,52784,1,0,0:0:0:0:
192,192,52784,1,0,0:0:0:0:
320,192,52784,1,0,0:0:0:0:
448,192,52957,1,0,0:0:0:0:
64,192,52957,1,0,0:0:0:0:
320,192,53043,1,0,0:0:0:0:
448,192,53129,1,0,0:0:0:0:
192,192,53129,1,0,0:0:0:0:
64,192,53129,1,0,0:0:0:0:
192,192,53302,1,0,0:0:0:0:
320,192,53302,1,0,0:0:0:0:
448,192,53302,1,0,0:0:0:0:
64,192,53474,1,0,0:0:0:0:
192,192,53474,1,0,0:0:0:0:
320,192,53474,1,0,0:0:0:0:
64,192,53646,1,0,0:0:0:0:
448,192,53646,1,0,0:0:0:0:
320,192,53733,1,0,0:0:0:0:
192,192,53819,1,0,0:0:0:0:
448,192,53819,1,0,0:0:0:0:
64,192,53905,1,0,0:0:0:0:
320,192,53991,1,0,0:0:0:0:
448,192,53991,1,0,0:0:0:0:
192,192,54164,1,0,0:0:0:0:
320,192,54164,1,0,0:0:0:0:
320,192,54336,1,0,0:0:0:0:
448,192,54336,1,0,0:0:0:0:
64,192,54336,1,0,0:0:0:0:
192,192,54509,1,0,0:0:0:0:
448,192,54509,1,0,0:0:0:0:
64,192,54681,1,0,0:0:0:0:
192,192,54681,1,0,0:0:0:0:
320,192,54681,1,0,0:0:0:0:
448,192,54853,1,0,0:0:0:0:
320,192,54853,1,0,0:0:0:0:
64,192,54940,1,0,0:0:0:0:
448,192,55026,1,0,0:0:0:0:
192,192,55026,1,0,0:0:0:0:
320,192,55026,1,0,0:0:0:0:
64,192,55198,1,0,0:0:0:0:
192,192,55198,1,0,0:0:0:0:
448,192,55371,1,0,0:0:0:0:
320,192,55371,1,0,0:0:0:0:
64,192,55371,1,0,0:0:0:0:
192,192,55543,1,0,0:0:0:0:
320,192,55543,1,0,0:0:0:0:
64,192,55715,1,0,0:0:0:0:
192,192,55715,1,0,0:0:0:0:
448,192,55802,1,0,0:0:0:0:
320,192,55888,1,0,0:0:0:0:
192,192,55888,1,0,0:0:0:0:
64,192,55888,1,0,0:0:0:0:
448,192,56060,1,0,0:0:0:0:
320,192,56060,1,0,0:0:0:0:
64,192,56146,1,0,0:0:0:0:
192,192,56233,1,0,0:0:0:0:
448,192,56233,1,0,0:0:0:0:
320,192,56319,1,0,0:0:0:0:
64,192,56405,1,0,0:0:0:0:
192,192,56405,1,0,0:0:0:0:
320,192,56491,1,0,0:0:0:0:
64,192,56577,1,0,0:0:0:0:
448,192,56577,128,0,56750:0:0:0:0:
320,192,56750,128,0,56922:0:0:0:0:
64,192,56922,128,0,57267:0:0:0:0:
448,192,57095,1,0,0:0:0:0:
448,192,57267,128,0,58474:0:0:0:0:
192,192,57267,128,0,57957:0:0:0:0:
320,192,57267,1,0,0:0:0:0:
320,192,57784,1,0,0:0:0:0:
64,192,57871,1,0,0:0:0:0:
320,192,57957,128,0,58302:0:0:0:0:
64,192,58129,1,0,0:0:0:0:
192,192,58302,128,0,59336:0:0:0:0:
64,192,58474,1,0,0:0:0:0:
320,192,58474,1,0,0:0:0:0:
320,192,58819,1,0,0:0:0:0:
64,192,58905,1,0,0:0:0:0:
448,192,58991,1,0,0:0:0:0:
320,192,59077,1,0,0:0:0:0:
64,192,59077,1,0,0:0:0:0:
448,192,59164,1,0,0:0:0:0:
64,192,59336,128,0,59509:0:0:0:0:
320,192,59336,1,0,0:0:0:0:
64,192,59595,128,0,59767:0:0:0:0:
320,192,59595,1,0,0:0:0:0:
448,192,59595,1,0,0:0:0:0:
64,192,59853,128,0,60026:0:0:0:0:
192,192,59853,1,0,0:0:0:0:
320,192,60026,1,0,0:0:0:0:
448,192,60026,1,0,0:0:0:0:
192,192,60026,128,0,60629:0:0:0:0:
448,192,60543,1,0,0:0:0:0:
192,192,60715,128,0,60974:0:0:0:0:
64,192,60715,1,0,0:0:0:0:
320,192,60974,1,0,0:0:0:0:
192,192,61060,128,0,61233:0:0:0:0:
448,192,61233,128,0,62095:0:0:0:0:
320,192,61233,1,0,0:0:0:0:
192,192,61405,1,0,0:0:0:0:
64,192,61405,1,0,0:0:0:0:
64,192,61750,128,0,61922:0:0:0:0:
192,192,61750,1,0,0:0:0:0:
320,192,61836,1,0,0:0:0:0:
192,192,61922,1,0,0:0:0:0:
320,192,62009,1,0,0:0:0:0:
64,192,62095,128,0,62267:0:0:0:0:
192,192,62095,1,0,0:0:0:0:
448,192,62181,1,0,0:0:0:0:
192,192,62353,1,0,0:0:0:0:
448,192,62440,128,0,62612:0:0:0:0:
64,192,62440,128,0,62612:0:0:0:0:
320,192,62440,1,0,0:0:0:0:
192,192,62526,1,0,0:0:0:0:
192,192,62698,1,0,0:0:0:0:
64,192,62784,1,0,0:0:0:0:
448,192,62784,1,0,0:0:0:0:
320,192,62784,128,0,63474:0:0:0:0:
64,192,62957,1,0,0:0:0:0:
192,192,63129,1,0,0:0:0:0:
448,192,63129,1,0,0:0:0:0:
64,192,63302,1,0,0:0:0:0:
192,192,63474,128,0,63819:0:0:0:0:
448,192,63474,1,0,0:0:0:0:
64,192,63646,1,0,0:0:0:0:
448,192,63905,1,0,0:0:0:0:
320,192,63991,128,0,64681:0:0:0:0:
192,192,63991,1,0,0:0:0:0:
64,192,64336,128,0,64422:0:0:0:0:
192,192,64336,1,0,0:0:0:0:
448,192,64422,1,0,0:0:0:0:
64,192,64509,128,0,64595:0:0:0:0:
192,192,64509,1,0,0:0:0:0:
448,192,64595,1,0,0:0:0:0:
64,192,64681,128,0,64767:0:0:0:0:
192,192,64681,1,0,0:0:0:0:
448,192,64767,1,0,0:0:0:0:
64,192,64853,128,0,65112:0:0:0:0:
320,192,64853,1,0,0:0:0:0:
192,192,64853,1,0,0:0:0:0:
448,192,65112,1,0,0:0:0:0:
320,192,65112,1,0,0:0:0:0:
64,192,65198,128,0,65371:0:0:0:0:
320,192,65371,128,0,65543:0:0:0:0:
192,192,65371,1,0,0:0:0:0:
192,192,65543,128,0,66060:0:0:0:0:
64,192,65715,1,0,0:0:0:0:
448,192,65888,1,0,0:0:0:0:
320,192,66060,1,0,0:0:0:0:
192,192,66233,128,0,66577:0:0:0:0:
64,192,66233,1,0,0:0:0:0:
320,192,66491,1,0,0:0:0:0:
64,192,66750,128,0,66836:0:0:0:0:
192,192,66750,1,0,0:0:0:0:
64,192,66922,128,0,67957:0:0:0:0:
320,192,66922,1,0,0:0:0:0:
448,192,66922,1,0,0:0:0:0:
192,192,67267,1,0,0:0:0:0:
448,192,67353,1,0,0:0:0:0:
320,192,67440,1,0,0:0:0:0:
192,192,67526,1,0,0:0:0:0:
320,192,67612,1,0,0:0:0:0:
448,192,67612,1,0,0:0:0:0:
192,192,67698,1,0,0:0:0:0:
320,192,67871,1,0,0:0:0:0:
192,192,67957,1,0,0:0:0:0:
448,192,68129,1,0,0:0:0:0:
320,192,68129,1,0,0:0:0:0:
192,192,68215,1,0,0:0:0:0:
320,192,68302,1,0,0:0:0:0:
448,192,68302,128,0,68474:0:0:0:0:
64,192,68302,128,0,68560:0:0:0:0:
320,192,68474,128,0,68646:0:0:0:0:
192,192,68646,128,0,68819:0:0:0:0:
64,192,68646,128,0,68905:0:0:0:0:
320,192,68819,128,0,68991:0:0:0:0:
448,192,68991,128,0,69509:0:0:0:0:
64,192,68991,128,0,69509:0:0:0:0:
192,192,68991,1,0,0:0:0:0:
64,192,69681,1,0,0:0:0:0:
192,192,69681,1,0,0:0:0:0:
448,192,69681,128,0,69853:0:0:0:0:
192,192,69853,1,0,0:0:0:0:
320,192,69853,128,0,70026:0:0:0:0:
64,192,70026,1,0,0:0:0:0:
448,192,70026,128,0,70198:0:0:0:0:
192,192,70198,1,0,0:0:0:0:
320,192,70198,128,0,70371:0:0:0:0:
64,192,70284,1,0,0:0:0:0:
192,192,70371,1,0,0:0:0:0:
448,192,70371,128,0,70543:0:0:0:0:
64,192,70543,1,0,0:0:0:0:
320,192,70543,128,0,70715:0:0:0:0:
448,192,70715,1,0,0:0:0:0:
192,192,70715,128,0,70888:0:0:0:0:
64,192,70888,128,0,71060:0:0:0:0:
320,192,70888,1,0,0:0:0:0:
448,192,71060,128,0,71233:0:0:0:0:
192,192,71060,1,0,0:0:0:0:
320,192,71233,128,0,71405:0:0:0:0:
64,192,71233,1,0,0:0:0:0:
192,192,71405,128,0,71577:0:0:0:0:
448,192,71405,1,0,0:0:0:0:
64,192,71577,128,0,71664:0:0:0:0:
320,192,71577,1,0,0:0:0:0:
64,192,71750,128,0,71922:0:0:0:0:
192,192,71750,1,0,0:0:0:0:
192,192,71922,128,0,72095:0:0:0:0:
320,192,71922,1,0,0:0:0:0:
448,192,72009,1,0,0:0:0:0:
320,192,72095,128,0,72267:0:0:0:0:
64,192,72095,1,0,0:0:0:0:
448,192,72267,128,0,72353:0:0:0:0:
192,192,72267,1,0,0:0:0:0:
448,192,72440,128,0,72612:0:0:0:0:
320,192,72440,1,0,0:0:0:0:
320,192,72612,128,0,72784:0:0:0:0:
64,192,72612,1,0,0:0:0:0:
192,192,72784,128,0,72957:0:0:0:0:
448,192,72784,1,0,0:0:0:0:
64,192,72957,128,0,73043:0:0:0:0:
320,192,72957,1,0,0:0:0:0:
448,192,73043,1,0,0:0:0:0:
64,192,73129,128,0,73302:0:0:0:0:
192,192,73129,1,0,0:0:0:0:
192,192,73302,128,0,73474:0:0:0:0:
320,192,73302,1,0,0:0:0:0:
320,192,73474,128,0,73646:0:0:0:0:
448,192,73474,1,0,0:0:0:0:
448,192,73646,128,0,73819:0:0:0:0:
64,192,73646,1,0,0:0:0:0:
64,192,73819,128,0,73991:0:0:0:0:
192,192,73819,1,0,0:0:0:0:
192,192,73991,128,0,74164:0:0:0:0:
320,192,73991,1,0,0:0:0:0:
320,192,74164,128,0,74336:0:0:0:0:
64,192,74164,1,0,0:0:0:0:
448,192,74336,128,0,74509:0:0:0:0:
192,192,74336,1,0,0:0:0:0:
64,192,74509,128,0,75198:0:0:0:0:
192,192,74509,1,0,0:0:0:0:
320,192,74595,1,0,0:0:0:0:
448,192,74681,1,0,0:0:0:0:
192,192,74681,1,0,0:0:0:0:
320,192,74853,1,0,0:0:0:0:
448,192,74940,1,0,0:0:0:0:
192,192,75026,1,0,0:0:0:0:
320,192,75026,1,0,0:0:0:0:
448,192,75112,1,0,0:0:0:0:
192,192,75198,1,0,0:0:0:0:
448,192,75371,1,0,0:0:0:0:
320,192,75371,1,0,0:0:0:0:
64,192,75371,1,0,0:0:0:0:
192,192,75543,1,0,0:0:0:0:
64,192,75543,1,0,0:0:0:0:
448,192,75629,1,0,0:0:0:0:
320,192,75629,1,0,0:0:0:0:
192,192,75715,1,0,0:0:0:0:
64,192,75715,1,0,0:0:0:0:
192,192,75888,1,0,0:0:0:0:
320,192,75888,1,0,0:0:0:0:
64,192,76060,1,0,0:0:0:0:
448,192,76060,1,0,0:0:0:0:
192,192,76146,1,0,0:0:0:0:
320,192,76146,1,0,0:0:0:0:
448,192,76233,1,0,0:0:0:0:
64,192,76233,1,0,0:0:0:0:
192,192,76319,1,0,0:0:0:0:
320,192,76319,1,0,0:0:0:0:
448,192,76405,1,0,0:0:0:0:
64,192,76405,1,0,0:0:0:0:
64,192,76577,1,0,0:0:0:0:
320,192,76577,1,0,0:0:0:0:
448,192,76750,1,0,0:0:0:0:
320,192,76750,1,0,0:0:0:0:
64,192,76922,1,0,0:0:0:0:
192,192,76922,1,0,0:0:0:0:
448,192,77009,1,0,0:0:0:0:
320,192,77009,1,0,0:0:0:0:
64,192,77095,1,0,0:0:0:0:
192,192,77095,1,0,0:0:0:0:
448,192,77181,1,0,0:0:0:0:
320,192,77181,1,0,0:0:0:0:
192,192,77267,1,0,0:0:0:0:
64,192,77267,1,0,0:0:0:0:
448,192,77440,1,0,0:0:0:0:
320,192,77440,1,0,0:0:0:0:
192,192,77612,1,0,0:0:0:0:
320,192,77612,1,0,0:0:0:0:
192,192,77784,1,0,0:0:0:0:
320,192,77784,1,0,0:0:0:0:
64,192,77871,1,0,0:0:0:0:
448,192,77871,1,0,0:0:0:0:
320,192,77957,1,0,0:0:0:0:
192,192,77957,1,0,0:0:0:0:
64,192,78043,1,0,0:0:0:0:
448,192,78043,1,0,0:0:0:0:
320,192,78129,1,0,0:0:0:0:
192,192,78129,1,0,0:0:0:0:
64,192,78302,1,0,0:0:0:0:
192,192,78302,1,0,0:0:0:0:
448,192,78388,1,0,0:0:0:0:
320,192,78388,1,0,0:0:0:0:
192,192,78474,1,0,0:0:0:0:
64,192,78474,1,0,0:0:0:0:
320,192,78560,1,0,0:0:0:0:
448,192,78560,1,0,0:0:0:0:
192,192,78819,1,0,0:0:0:0:
64,192,78819,1,0,0:0:0:0:
320,192,78905,1,0,0:0:0:0:
448,192,78905,1,0,0:0:0:0:
192,192,78991,1,0,0:0:0:0:
64,192,78991,1,0,0:0:0:0:
320,192,79077,1,0,0:0:0:0:
448,192,79077,1,0,0:0:0:0:
192,192,79164,1,0,0:0:0:0:
64,192,79164,1,0,0:0:0:0:
320,192,79250,1,0,0:0:0:0:
448,192,79250,1,0,0:0:0:0:
64,192,79336,1,0,0:0:0:0:
192,192,79336,1,0,0:0:0:0:
448,192,79681,1,0,0:0:0:0:
320,192,79681,1,0,0:0:0:0:
448,192,79767,1,0,0:0:0:0:
320,192,79767,1,0,0:0:0:0:
192,192,79853,1,0,0:0:0:0:
64,192,79853,1,0,0:0:0:0:
192,192,80026,1,0,0:0:0:0:
64,192,80026,1,0,0:0:0:0:
448,192,80198,1,0,0:0:0:0:
320,192,80198,1,0,0:0:0:0:
448,192,80284,1,0,0:0:0:0:
320,192,80284,1,0,0:0:0:0:
64,192,80371,1,0,0:0:0:0:
192,192,80371,1,0,0:0:0:0:
448,192,80543,1,0,0:0:0:0:
320,192,80629,1,0,0:0:0:0:
192,192,80715,1,0,0:0:0:0:
64,192,80715,1,0,0:0:0:0:
64,192,81060,1,0,0:0:0:0:
192,192,81060,1,0,0:0:0:0:
320,192,81060,1,0,0:0:0:0:
448,192,81233,1,0,0:0:0:0:
64,192,81405,1,0,0:0:0:0:
320,192,81405,1,0,0:0:0:0:
448,192,81405,1,0,0:0:0:0:
64,192,81750,1,0,0:0:0:0:
192,192,81750,1,0,0:0:0:0:
448,192,81750,1,0,0:0:0:0:
320,192,81922,1,0,0:0:0:0:
64,192,82095,1,0,0:0:0:0:
192,192,82095,1,0,0:0:0:0:
320,192,82095,1,0,0:0:0:0:
448,192,82440,1,0,0:0:0:0:
192,192,82440,1,0,0:0:0:0:
320,192,82440,1,0,0:0:0:0:
64,192,82612,1,0,0:0:0:0:
192,192,82784,1,0,0:0:0:0:
320,192,82784,1,0,0:0:0:0:
64,192,82784,1,0,0:0:0:0:
448,192,83129,1,0,0:0:0:0:
192,192,83129,1,0,0:0:0:0:
64,192,83129,1,0,0:0:0:0:
320,192,83302,1,0,0:0:0:0:
192,192,83474,1,0,0:0:0:0:
320,192,83474,1,0,0:0:0:0:
448,192,83474,1,0,0:0:0:0:
64,192,83819,1,0,0:0:0:0:
192,192,83819,1,0,0:0:0:0:
320,192,83819,1,0,0:0:0:0:
448,192,83991,1,0,0:0:0:0:
64,192,84164,1,0,0:0:0:0:
320,192,84164,1,0,0:0:0:0:
448,192,84164,1,0,0:0:0:0:
64,192,84508,1,0,0:0:0:0:
192,192,84508,1,0,0:0:0:0:
320,192,84508,1,0,0:0:0:0:
320,192,84681,1,0,0:0:0:0:
448,192,84853,1,0,0:0:0:0:
192,192,84853,1,0,0:0:0:0:
64,192,84853,1,0,0:0:0:0:
64,192,85198,1,0,0:0:0:0:
192,192,85198,1,0,0:0:0:0:
448,192,85198,1,0,0:0:0:0:
192,192,85371,1,0,0:0:0:0:
448,192,85543,1,0,0:0:0:0:
320,192,85543,1,0,0:0:0:0:
64,192,85543,1,0,0:0:0:0:
448,192,85888,1,0,0:0:0:0:
320,192,85974,1,0,0:0:0:0:
192,192,86060,1,0,0:0:0:0:
64,192,86146,1,0,0:0:0:0:
192,192,86233,1,0,0:0:0:0:
320,192,86233,1,0,0:0:0:0:
448,192,86233,1,0,0:0:0:0:
64,192,86405,1,0,0:0:0:0:
192,192,86491,1,0,0:0:0:0:
448,192,86577,1,0,0:0:0:0:
320,192,86577,1,0,0:0:0:0:
192,192,86750,1,0,0:0:0:0:
448,192,86836,1,0,0:0:0:0:
320,192,86922,1,0,0:0:0:0:
192,192,86922,1,0,0:0:0:0:
64,192,87008,1,0,0:0:0:0:
448,192,87095,1,0,0:0:0:0:
320,192,87181,1,0,0:0:0:0:
192,192,87267,1,0,0:0:0:0:
64,192,87353,1,0,0:0:0:0:
320,192,87440,1,0,0:0:0:0:
192,192,87526,1,0,0:0:0:0:
64,192,87612,1,0,0:0:0:0:
320,192,87612,1,0,0:0:0:0:
64,192,87871,1,0,0:0:0:0:
192,192,87957,1,0,0:0:0:0:
320,192,88043,1,0,0:0:0:0:
448,192,88129,1,0,0:0:0:0:
320,192,88215,1,0,0:0:0:0:
192,192,88302,1,0,0:0:0:0:
64,192,88388,1,0,0:0:0:0:
448,192,88474,1,0,0:0:0:0:
320,192,88560,1,0,0:0:0:0:
64,192,88646,1,0,0:0:0:0:
192,192,88733,1,0,0:0:0:0:
320,192,88819,1,0,0:0:0:0:
448,192,88819,1,0,0:0:0:0:
64,192,88991,1,0,0:0:0:0:
192,192,88991,1,0,0:0:0:0:
320,192,88991,1,0,0:0:0:0:
448,192,89164,1,0,0:0:0:0:
320,192,89250,1,0,0:0:0:0:
192,192,89336,1,0,0:0:0:0:
64,192,89422,1,0,0:0:0:0:
448,192,89508,1,0,0:0:0:0:
320,192,89595,1,0,0:0:0:0:
64,192,89681,128,0,89853:0:0:0:0:
320,192,89681,128,0,89767:0:0:0:0:
448,192,89681,1,0,0:0:0:0:
64,192,89940,128,0,90112:0:0:0:0:
320,192,89940,128,0,90026:0:0:0:0:
192,192,89940,1,0,0:0:0:0:
64,192,90198,128,0,90371:0:0:0:0:
320,192,90198,128,0,90284:0:0:0:0:
448,192,90198,1,0,0:0:0:0:
448,192,90371,1,0,0:0:0:0:
320,192,90371,128,0,90888:0:0:0:0:
192,192,90371,128,0,90457:0:0:0:0:
192,192,90543,128,0,90629:0:0:0:0:
192,192,90715,128,0,90802:0:0:0:0:
64,192,90715,1,0,0:0:0:0:
192,192,90888,128,0,91060:0:0:0:0:
448,192,90888,128,0,90974:0:0:0:0:
64,192,91060,128,0,91577:0:0:0:0:
448,192,91060,128,0,91146:0:0:0:0:
448,192,91233,128,0,91319:0:0:0:0:
320,192,91233,1,0,0:0:0:0:
448,192,91405,128,0,91491:0:0:0:0:
192,192,91405,1,0,0:0:0:0:
448,192,91577,128,0,91664:0:0:0:0:
320,192,91577,1,0,0:0:0:0:
192,192,91750,1,0,0:0:0:0:
64,192,91750,1,0,0:0:0:0:
448,192,91750,1,0,0:0:0:0:
320,192,91922,1,0,0:0:0:0:
192,192,91922,1,0,0:0:0:0:
64,192,92095,1,0,0:0:0:0:
448,192,92095,1,0,0:0:0:0:
320,192,92181,1,0,0:0:0:0:
192,192,92181,1,0,0:0:0:0:
64,192,92267,1,0,0:0:0:0:
448,192,92267,1,0,0:0:0:0:
64,192,92440,1,0,0:0:0:0:
320,192,92440,1,0,0:0:0:0:
192,192,92612,1,0,0:0:0:0:
448,192,92612,1,0,0:0:0:0:
320,192,92698,1,0,0:0:0:0:
448,192,92698,1,0,0:0:0:0:
64,192,92871,1,0,0:0:0:0:
320,192,92871,1,0,0:0:0:0:
192,192,92957,1,0,0:0:0:0:
448,192,92957,1,0,0:0:0:0:
64,192,93043,1,0,0:0:0:0:
320,192,93043,1,0,0:0:0:0:
192,192,93129,1,0,0:0:0:0:
448,192,93129,1,0,0:0:0:0:
64,192,93302,1,0,0:0:0:0:
320,192,93302,1,0,0:0:0:0:
192,192,93474,1,0,0:0:0:0:
320,192,93474,1,0,0:0:0:0:
64,192,93560,1,0,0:0:0:0:
192,192,93560,1,0,0:0:0:0:
448,192,93646,1,0,0:0:0:0:
320,192,93646,1,0,0:0:0:0:
64,192,93819,1,0,0:0:0:0:
448,192,93819,1,0,0:0:0:0:
64,192,93991,1,0,0:0:0:0:
192,192,93991,1,0,0:0:0:0:
448,192,94077,1,0,0:0:0:0:
320,192,94164,1,0,0:0:0:0:
192,192,94164,1,0,0:0:0:0:
64,192,94250,1,0,0:0:0:0:
448,192,94336,1,0,0:0:0:0:
320,192,94336,1,0,0:0:0:0:
64,192,94508,1,0,0:0:0:0:
192,192,94508,1,0,0:0:0:0:
448,192,94508,1,0,0:0:0:0:
320,192,94681,1,0,0:0:0:0:
448,192,94681,1,0,0:0:0:0:
64,192,94853,1,0,0:0:0:0:
192,192,94853,1,0,0:0:0:0:
448,192,94940,1,0,0:0:0:0:
320,192,94940,1,0,0:0:0:0:
320,192,95026,1,0,0:0:0:0:
192,192,95026,1,0,0:0:0:0:
64,192,95198,1,0,0:0:0:0:
448,192,95198,1,0,0:0:0:0:
64,192,95371,1,0,0:0:0:0:
192,192,95371,1,0,0:0:0:0:
320,192,95457,1,0,0:0:0:0:
448,192,95457,1,0,0:0:0:0:
64,192,95629,1,0,0:0:0:0:
448,192,95629,1,0,0:0:0:0:
320,192,95715,1,0,0:0:0:0:
192,192,95715,1,0,0:0:0:0:
64,192,95888,1,0,0:0:0:0:
448,192,95888,1,0,0:0:0:0:
320,192,96060,1,0,0:0:0:0:
448,192,96060,1,0,0:0:0:0:
192,192,96146,1,0,0:0:0:0:
64,192,96146,1,0,0:0:0:0:
448,192,96319,1,0,0:0:0:0:
320,192,96319,1,0,0:0:0:0:
192,192,96405,1,0,0:0:0:0:
64,192,96405,1,0,0:0:0:0:
192,192,96577,1,0,0:0:0:0:
448,192,96577,1,0,0:0:0:0:
64,192,96750,1,0,0:0:0:0:
320,192,96750,1,0,0:0:0:0:
192,192,96836,1,0,0:0:0:0:
448,192,96836,1,0,0:0:0:0:
192,192,97008,1,0,0:0:0:0:
320,192,97008,1,0,0:0:0:0:
448,192,97095,1,0,0:0:0:0:
64,192,97095,1,0,0:0:0:0:
64,192,97267,128,0,97440:0:0:0:0:
320,192,97267,1,0,0:0:0:0:
448,192,97440,1,0,0:0:0:0:
192,192,97440,1,0,0:0:0:0:
64,192,97526,128,0,97698:0:0:0:0:
320,192,97612,1,0,0:0:0:0:
448,192,97698,1,0,0:0:0:0:
192,192,97784,128,0,97957:0:0:0:0:
64,192,97784,1,0,0:0:0:0:
320,192,97957,128,0,98215:0:0:0:0:
448,192,97957,1,0,0:0:0:0:
192,192,98129,1,0,0:0:0:0:
448,192,98215,1,0,0:0:0:0:
320,192,98302,128,0,98646:0:0:0:0:
448,192,98388,1,0,0:0:0:0:
192,192,98474,1,0,0:0:0:0:
64,192,98560,1,0,0:0:0:0:
448,192,98646,128,0,98905:0:0:0:0:
192,192,98646,1,0,0:0:0:0:
320,192,98819,1,0,0:0:0:0:
64,192,98905,128,0,99164:0:0:0:0:
192,192,98991,1,0,0:0:0:0:
448,192,99077,1,0,0:0:0:0:
320,192,99164,128,0,99336:0:0:0:0:
192,192,99164,1,0,0:0:0:0:
192,192,99336,128,0,99681:0:0:0:0:
448,192,99336,1,0,0:0:0:0:
64,192,99508,1,0,0:0:0:0:
320,192,99508,1,0,0:0:0:0:
448,192,99681,1,0,0:0:0:0:
320,192,99681,1,0,0:0:0:0:
64,192,99767,1,0,0:0:0:0:
192,192,99853,1,0,0:0:0:0:
448,192,99940,1,0,0:0:0:0:
192,192,100026,1,0,0:0:0:0:
64,192,100026,128,0,100198:0:0:0:0:
320,192,100026,1,0,0:0:0:0:
448,192,100112,1,0,0:0:0:0:
192,192,100198,1,0,0:0:0:0:
448,192,100284,128,0,100457:0:0:0:0:
320,192,100284,1,0,0:0:0:0:
64,192,100371,1,0,0:0:0:0:
192,192,100371,1,0,0:0:0:0:
320,192,100457,1,0,0:0:0:0:
448,192,100543,128,0,100629:0:0:0:0:
192,192,100543,1,0,0:0:0:0:
64,192,100629,1,0,0:0:0:0:
64,192,100715,128,0,100802:0:0:0:0:
320,192,100715,1,0,0:0:0:0:
448,192,100802,1,0,0:0:0:0:
64,192,100888,128,0,101060:0:0:0:0:
192,192,100888,1,0,0:0:0:0:
320,192,100974,1,0,0:0:0:0:
192,192,101060,1,0,0:0:0:0:
448,192,101146,1,0,0:0:0:0:
64,192,101233,128,0,101405:0:0:0:0:
192,192,101233,1,0,0:0:0:0:
320,192,101319,1,0,0:0:0:0:
192,192,101405,128,0,101577:0:0:0:0:
448,192,101405,1,0,0:0:0:0:
64,192,101491,1,0,0:0:0:0:
320,192,101577,128,0,101664:0:0:0:0:
448,192,101577,1,0,0:0:0:0:
64,192,101664,1,0,0:0:0:0:
448,192,101750,1,0,0:0:0:0:
320,192,101836,1,0,0:0:0:0:
448,192,101922,128,0,102095:0:0:0:0:
192,192,101922,1,0,0:0:0:0:
64,192,102008,1,0,0:0:0:0:
320,192,102095,128,0,102612:0:0:0:0:
192,192,102095,1,0,0:0:0:0:
448,192,102267,1,0,0:0:0:0:
64,192,102440,1,0,0:0:0:0:
192,192,102526,1,0,0:0:0:0:
448,192,102612,1,0,0:0:0:0:
64,192,102612,1,0,0:0:0:0:
192,192,102698,1,0,0:0:0:0:
320,192,102784,1,0,0:0:0:0:
448,192,102784,128,0,102957:0:0:0:0:
64,192,102957,128,0,103129:0:0:0:0:
192,192,102957,1,0,0:0:0:0:
448,192,103129,128,0,103302:0:0:0:0:
320,192,103129,1,0,0:0:0:0:
64,192,103302,128,0,103474:0:0:0:0:
320,192,103302,1,0,0:0:0:0:
192,192,103388,1,0,0:0:0:0:
320,192,103474,128,0,103646:0:0:0:0:
448,192,103474,1,0,0:0:0:0:
64,192,103646,128,0,103819:0:0:0:0:
192,192,103646,1,0,0:0:0:0:
448,192,103819,128,0,103991:0:0:0:0:
320,192,103819,1,0,0:0:0:0:
320,192,103991,128,0,104164:0:0:0:0:
64,192,103991,1,0,0:0:0:0:
192,192,104164,128,0,104336:0:0:0:0:
448,192,104164,1,0,0:0:0:0:
64,192,104336,128,0,104508:0:0:0:0:
320,192,104336,1,0,0:0:0:0:
448,192,104508,128,0,104681:0:0:0:0:
192,192,104508,1,0,0:0:0:0:
320,192,104681,128,0,104853:0:0:0:0:
64,192,104681,1,0,0:0:0:0:
192,192,104853,128,0,105026:0:0:0:0:
448,192,104853,1,0,0:0:0:0:
64,192,105026,128,0,105198:0:0:0:0:
448,192,105026,1,0,0:0:0:0:
320,192,105112,1,0,0:0:0:0:
192,192,105198,128,0,105371:0:0:0:0:
448,192,105198,1,0,0:0:0:0:
320,192,105371,128,0,105543:0:0:0:0:
64,192,105371,1,0,0:0:0:0:
448,192,105543,128,0,105715:0:0:0:0:
192,192,105543,1,0,0:0:0:0:
320,192,105715,128,0,105888:0:0:0:0:
64,192,105715,1,0,0:0:0:0:
64,192,105888,128,0,106060:0:0:0:0:
448,192,105888,1,0,0:0:0:0:
192,192,106060,128,0,106233:0:0:0:0:
448,192,106060,1,0,0:0:0:0:
320,192,106146,1,0,0:0:0:0:
448,192,106233,128,0,106405:0:0:0:0:
64,192,106233,1,0,0:0:0:0:
320,192,106405,128,0,106577:0:0:0:0:
192,192,106405,1,0,0:0:0:0:
64,192,106577,128,0,106750:0:0:0:0:
448,192,106577,1,0,0:0:0:0:
192,192,106750,128,0,106922:0:0:0:0:
320,192,106750,1,0,0:0:0:0:
320,192,106922,128,0,107095:0:0:0:0:
64,192,106922,1,0,0:0:0:0:
192,192,107095,128,0,107267:0:0:0:0:
448,192,107095,1,0,0:0:0:0:
64,192,107267,128,0,107440:0:0:0:0:
320,192,107267,1,0,0:0:0:0:
448,192,107440,128,0,107612:0:0:0:0:
192,192,107440,1,0,0:0:0:0:
320,192,107612,128,0,107784:0:0:0:0:
64,192,107612,1,0,0:0:0:0:
192,192,107784,128,0,107957:0:0:0:0:
448,192,107784,1,0,0:0:0:0:
64,192,107957,128,0,108129:0:0:0:0:
320,192,107957,1,0,0:0:0:0:
448,192,108043,1,0,0:0:0:0:
192,192,108129,128,0,108302:0:0:0:0:
320,192,108129,1,0,0:0:0:0:
64,192,108215,1,0,0:0:0:0:
448,192,108302,1,0,0:0:0:0:
320,192,108302,1,0,0:0:0:0:
64,192,108474,1,0,0:0:0:0:
192,192,108474,1,0,0:0:0:0:
448,192,108474,1,0,0:0:0:0:
320,192,108646,1,0,0:0:0:0:
192,192,108733,1,0,0:0:0:0:
448,192,108819,1,0,0:0:0:0:
64,192,108819,1,0,0:0:0:0:
192,192,108991,1,0,0:0:0:0:
320,192,108991,1,0,0:0:0:0:
64,192,109164,1,0,0:0:0:0:
448,192,109164,1,0,0:0:0:0:
320,192,109250,1,0,0:0:0:0:
448,192,109336,1,0,0:0:0:0:
192,192,109422,1,0,0:0:0:0:
64,192,109508,1,0,0:0:0:0:
320,192,109508,1,0,0:0:0:0:
448,192,109681,1,0,0:0:0:0:
192,192,109681,1,0,0:0:0:0:
320,192,109853,1,0,0:0:0:0:
64,192,110026,1,0,0:0:0:0:
192,192,110026,1,0,0:0:0:0:
320,192,110112,1,0,0:0:0:0:
448,192,110198,1,0,0:0:0:0:
192,192,110198,1,0,0:0:0:0:
64,192,110284,1,0,0:0:0:0:
192,192,110371,1,0,0:0:0:0:
448,192,110543,1,0,0:0:0:0:
320,192,110543,1,0,0:0:0:0:
64,192,110715,1,0,0:0:0:0:
192,192,110715,1,0,0:0:0:0:
448,192,110888,1,0,0:0:0:0:
320,192,110888,1,0,0:0:0:0:
192,192,110974,1,0,0:0:0:0:
64,192,111060,1,0,0:0:0:0:
448,192,111060,1,0,0:0:0:0:
192,192,111233,1,0,0:0:0:0:
320,192,111233,1,0,0:0:0:0:
448,192,111405,1,0,0:0:0:0:
320,192,111491,1,0,0:0:0:0:
64,192,111577,1,0,0:0:0:0:
192,192,111577,1,0,0:0:0:0:
448,192,111750,1,0,0:0:0:0:
320,192,111750,1,0,0:0:0:0:
64,192,111922,1,0,0:0:0:0:
448,192,111922,1,0,0:0:0:0:
320,192,112008,1,0,0:0:0:0:
192,192,112095,1,0,0:0:0:0:
64,192,112095,1,0,0:0:0:0:
320,192,112181,1,0,0:0:0:0:
192,192,112267,1,0,0:0:0:0:
448,192,112267,1,0,0:0:0:0:
64,192,112439,1,0,0:0:0:0:
320,192,112439,1,0,0:0:0:0:
192,192,112612,1,0,0:0:0:0:
448,192,112612,1,0,0:0:0:0:
320,192,112698,1,0,0:0:0:0:
192,192,112871,1,0,0:0:0:0:
64,192,112957,1,0,0:0:0:0:
320,192,112957,1,0,0:0:0:0:
448,192,113043,1,0,0:0:0:0:
320,192,113129,1,0,0:0:0:0:
192,192,113129,1,0,0:0:0:0:
64,192,113302,1,0,0:0:0:0:
192,192,113302,1,0,0:0:0:0:
448,192,113388,1,0,0:0:0:0:
320,192,113474,1,0,0:0:0:0:
192,192,113560,1,0,0:0:0:0:
64,192,113646,1,0,0:0:0:0:
320,192,113733,1,0,0:0:0:0:
448,192,113819,1,0,0:0:0:0:
192,192,113819,128,0,114508:0:0:0:0:
320,192,113819,128,0,113991:0:0:0:0:
64,192,113991,128,0,114164:0:0:0:0:
320,192,114164,128,0,114336:0:0:0:0:
448,192,114336,128,0,114508:0:0:0:0:
64,192,114422,1,0,0:0:0:0:
64,192,114508,128,0,114681:0:0:0:0:
320,192,114508,1,0,0:0:0:0:
320,192,114681,128,0,115026:0:0:0:0:
448,192,114767,1,0,0:0:0:0:
192,192,115026,128,0,115198:0:0:0:0:
448,192,115026,1,0,0:0:0:0:
448,192,115198,128,0,115543:0:0:0:0:
64,192,115198,128,0,115371:0:0:0:0:
192,192,115371,128,0,115543:0:0:0:0:
320,192,115371,1,0,0:0:0:0:
64,192,115543,128,0,115715:0:0:0:0:
320,192,115543,1,0,0:0:0:0:
448,192,115715,128,0,115888:0:0:0:0:
192,192,115715,1,0,0:0:0:0:
192,192,115888,128,0,116233:0:0:0:0:
320,192,115888,128,0,116060:0:0:0:0:
448,192,116060,128,0,116233:0:0:0:0:
64,192,116146,1,0,0:0:0:0:
64,192,116233,128,0,116577:0:0:0:0:
320,192,116233,128,0,116577:0:0:0:0:
192,192,116577,128,0,118733:0:0:0:0:
448,192,116577,1,0,0:0:0:0:
64,192,116750,1,0,0:0:0:0:
448,192,116750,1,0,0:0:0:0:
320,192,116922,1,0,0:0:0:0:
64,192,116922,1,0,0:0:0:0:
448,192,117095,1,0,0:0:0:0:
320,192,117095,1,0,0:0:0:0:
64,192,117267,1,0,0:0:0:0:
320,192,117267,1,0,0:0:0:0:
448,192,117439,1,0,0:0:0:0:
64,192,117439,1,0,0:0:0:0:
320,192,117612,1,0,0:0:0:0:
448,192,117612,1,0,0:0:0:0:
64,192,117784,1,0,0:0:0:0:
320,192,117784,1,0,0:0:0:0:
320,192,117957,1,0,0:0:0:0:
64,192,117957,1,0,0:0:0:0:
448,192,117957,1,0,0:0:0:0:
448,192,118129,1,0,0:0:0:0:
64,192,118129,1,0,0:0:0:0:
320,192,118302,1,0,0:0:0:0:
448,192,118302,1,0,0:0:0:0:
64,192,118474,1,0,0:0:0:0:
320,192,118474,1,0,0:0:0:0:
448,192,118646,1,0,0:0:0:0:
64,192,118646,1,0,0:0:0:0:
320,192,118646,1,0,0:0:0:0:
448,192,118819,1,0,0:0:0:0:
64,192,118819,1,0,0:0:0:0:
192,192,118991,1,0,0:0:0:0:
448,192,118991,1,0,0:0:0:0:
64,192,119164,1,0,0:0:0:0:
320,192,119164,1,0,0:0:0:0:
448,192,119336,1,0,0:0:0:0:
192,192,119336,1,0,0:0:0:0:
64,192,119336,1,0,0:0:0:0:
192,192,119508,1,0,0:0:0:0:
448,192,119508,1,0,0:0:0:0:
64,192,119681,1,0,0:0:0:0:
320,192,119681,1,0,0:0:0:0:
448,192,119853,1,0,0:0:0:0:
320,192,119853,1,0,0:0:0:0:
64,192,120026,1,0,0:0:0:0:
448,192,120026,1,0,0:0:0:0:
192,192,120198,1,0,0:0:0:0:
320,192,120198,1,0,0:0:0:0:
448,192,120371,1,0,0:0:0:0:
320,192,120371,1,0,0:0:0:0:
64,192,120543,1,0,0:0:0:0:
448,192,120543,1,0,0:0:0:0:
64,192,120715,1,0,0:0:0:0:
192,192,120715,1,0,0:0:0:0:
320,192,120715,1,0,0:0:0:0:
448,192,120888,1,0,0:0:0:0:
192,192,120888,1,0,0:0:0:0:
320,192,121060,1,0,0:0:0:0:
64,192,121060,1,0,0:0:0:0:
320,192,121233,1,0,0:0:0:0:
192,192,121233,1,0,0:0:0:0:
448,192,121405,1,0,0:0:0:0:
64,192,121405,1,0,0:0:0:0:
192,192,121405,1,0,0:0:0:0:
192,192,121577,1,0,0:0:0:0:
320,192,121577,1,0,0:0:0:0:
448,192,121750,1,0,0:0:0:0:
320,192,121750,1,0,0:0:0:0:
192,192,121922,1,0,0:0:0:0:
64,192,121922,1,0,0:0:0:0:
448,192,122095,1,0,0:0:0:0:
320,192,122095,1,0,0:0:0:0:
64,192,122095,1,0,0:0:0:0:
192,192,122181,1,0,0:0:0:0:
448,192,122267,1,0,0:0:0:0:
320,192,122267,1,0,0:0:0:0:
64,192,122353,1,0,0:0:0:0:
192,192,122439,1,0,0:0:0:0:
320,192,122439,1,0,0:0:0:0:
448,192,122526,1,0,0:0:0:0:
64,192,122612,1,0,0:0:0:0:
192,192,122612,1,0,0:0:0:0:
320,192,122698,1,0,0:0:0:0:
448,192,122784,1,0,0:0:0:0:
64,192,122784,1,0,0:0:0:0:
192,192,122871,1,0,0:0:0:0:
320,192,122957,1,0,0:0:0:0:
448,192,122957,1,0,0:0:0:0:
64,192,123043,1,0,0:0:0:0:
192,192,123129,1,0,0:0:0:0:
320,192,123129,1,0,0:0:0:0:
448,192,123215,1,0,0:0:0:0:
64,192,123302,1,0,0:0:0:0:
192,192,123302,1,0,0:0:0:0:
448,192,123388,1,0,0:0:0:0:
64,192,123474,1,0,0:0:0:0:
192,192,123474,1,0,0:0:0:0:
320,192,123474,1,0,0:0:0:0:
448,192,123560,1,0,0:0:0:0:
64,192,123646,1,0,0:0:0:0:
320,192,123646,1,0,0:0:0:0:
192,192,123733,1,0,0:0:0:0:
448,192,123819,1,0,0:0:0:0:
64,192,123819,1,0,0:0:0:0:
320,192,123905,1,0,0:0:0:0:
448,192,123991,1,0,0:0:0:0:
192,192,123991,1,0,0:0:0:0:
64,192,124077,1,0,0:0:0:0:
448,192,124164,1,0,0:0:0:0:
320,192,124164,1,0,0:0:0:0:
192,192,124164,1,0,0:0:0:0:
64,192,124250,1,0,0:0:0:0:
320,192,124336,1,0,0:0:0:0:
192,192,124336,1,0,0:0:0:0:
448,192,124422,1,0,0:0:0:0:
192,192,124508,1,0,0:0:0:0:
64,192,124508,1,0,0:0:0:0:
320,192,124595,1,0,0:0:0:0:
448,192,124681,1,0,0:0:0:0:
64,192,124681,1,0,0:0:0:0:
192,192,124767,1,0,0:0:0:0:
448,192,124853,1,0,0:0:0:0:
320,192,124853,1,0,0:0:0:0:
64,192,124853,1,0,0:0:0:0:
192,192,124939,1,0,0:0:0:0:
320,192,125026,1,0,0:0:0:0:
448,192,125026,1,0,0:0:0:0:
192,192,125112,1,0,0:0:0:0:
64,192,125198,1,0,0:0:0:0:
320,192,125198,1,0,0:0:0:0:
448,192,125284,1,0,0:0:0:0:
64,192,125371,1,0,0:0:0:0:
192,192,125371,1,0,0:0:0:0:
320,192,125457,1,0,0:0:0:0:
448,192,125543,1,0,0:0:0:0:
192,192,125543,1,0,0:0:0:0:
320,192,125629,1,0,0:0:0:0:
64,192,125715,1,0,0:0:0:0:
448,192,125715,1,0,0:0:0:0:
192,192,125802,1,0,0:0:0:0:
448,192,125888,1,0,0:0:0:0:
320,192,125888,1,0,0:0:0:0:
64,192,125974,1,0,0:0:0:0:
192,192,126060,1,0,0:0:0:0:
320,192,126060,1,0,0:0:0:0:
448,192,126146,1,0,0:0:0:0:
320,192,126233,1,0,0:0:0:0:
192,192,126233,1,0,0:0:0:0:
64,192,126233,1,0,0:0:0:0:
448,192,126319,1,0,0:0:0:0:
320,192,126405,1,0,0:0:0:0:
64,192,126405,1,0,0:0:0:0:
192,192,126491,1,0,0:0:0:0:
448,192,126577,1,0,0:0:0:0:
320,192,126577,1,0,0:0:0:0:
64,192,126664,1,0,0:0:0:0:
192,192,126750,1,0,0:0:0:0:
448,192,126750,1,0,0:0:0:0:
320,192,126836,1,0,0:0:0:0:
64,192,126922,1,0,0:0:0:0:
192,192,126922,1,0,0:0:0:0:
448,192,127095,1,0,0:0:0:0:
320,192,127095,1,0,0:0:0:0:
192,192,127267,1,0,0:0:0:0:
64,192,127267,1,0,0:0:0:0:
320,192,127353,1,0,0:0:0:0:
448,192,127353,1,0,0:0:0:0:
192,192,127439,1,0,0:0:0:0:
64,192,127439,1,0,0:0:0:0:
320,192,127526,1,0,0:0:0:0:
448,192,127526,1,0,0:0:0:0:
64,192,127612,128,0,127784:0:0:0:0:
192,192,127612,1,0,0:0:0:0:
192,192,127784,128,0,127957:0:0:0:0:
448,192,127957,128,0,128129:0:0:0:0:
320,192,128129,128,0,128302:0:0:0:0:
64,192,128129,1,0,0:0:0:0:
448,192,128302,128,0,128388:0:0:0:0:
192,192,128302,1,0,0:0:0:0:
448,192,128474,128,0,128646:0:0:0:0:
320,192,128646,128,0,128819:0:0:0:0:
64,192,128819,128,0,128991:0:0:0:0:
320,192,128991,128,0,129164:0:0:0:0:
448,192,128991,1,0,0:0:0:0:
64,192,129164,128,0,129336:0:0:0:0:
192,192,129336,128,0,129508:0:0:0:0:
448,192,129508,128,0,129681:0:0:0:0:
320,192,129508,1,0,0:0:0:0:
320,192,129681,128,0,129853:0:0:0:0:
192,192,129681,1,0,0:0:0:0:
192,192,129853,128,0,130026:0:0:0:0:
64,192,130026,128,0,130198:0:0:0:0:
448,192,130026,1,0,0:0:0:0:
64,192,130371,128,0,130414:0:0:0:0:
192,192,130371,128,0,130414:0:0:0:0:
192,192,130543,128,0,130586:0:0:0:0:
320,192,130543,128,0,130586:0:0:0:0:
320,192,130715,128,0,130758:0:0:0:0:
448,192,130715,128,0,130758:0:0:0:0:
320,192,130888,128,0,130931:0:0:0:0:
192,192,130888,128,0,130931:0:0:0:0:
192,192,131060,128,0,131103:0:0:0:0:
64,192,131060,128,0,131103:0:0:0:0:
192,192,131233,128,0,131276:0:0:0:0:
320,192,131233,128,0,131276:0:0:0:0:
192,192,131405,128,0,131448:0:0:0:0:
64,192,131405,128,0,131448:0:0:0:0:
192,192,131577,128,0,131621:0:0:0:0:
320,192,131577,128,0,131621:0:0:0:0:
64,192,131664,1,0,0:0:0:0:
320,192,131750,128,0,131793:0:0:0:0:
448,192,131750,128,0,131793:0:0:0:0:
320,192,131922,128,0,131965:0:0:0:0:
192,192,131922,128,0,131965:0:0:0:0:
192,192,132095,128,0,132138:0:0:0:0:
64,192,132095,128,0,132138:0:0:0:0:
192,192,132267,128,0,132310:0:0:0:0:
320,192,132267,128,0,132310:0:0:0:0:
448,192,132439,128,0,132483:0:0:0:0:
320,192,132439,128,0,132483:0:0:0:0:
320,192,132612,128,0,132655:0:0:0:0:
192,192,132612,128,0,132655:0:0:0:0:
448,192,132698,1,0,0:0:0:0:
192,192,132784,128,0,132827:0:0:0:0:
64,192,132784,128,0,132827:0:0:0:0:
320,192,132957,1,0,0:0:0:0:
64,192,133129,128,0,133215:0:0:0:0:
192,192,133129,128,0,133215:0:0:0:0:
192,192,133302,128,0,133388:0:0:0:0:
320,192,133302,128,0,133388:0:0:0:0:
64,192,133474,128,0,133560:0:0:0:0:
192,192,133474,128,0,133560:0:0:0:0:
448,192,133560,1,0,0:0:0:0:
448,192,133646,128,0,133733:0:0:0:0:
320,192,133646,128,0,133733:0:0:0:0:
64,192,133733,1,0,0:0:0:0:
320,192,133819,128,0,133905:0:0:0:0:
192,192,133819,128,0,133905:0:0:0:0:
64,192,133991,128,0,134077:0:0:0:0:
192,192,133991,128,0,134077:0:0:0:0:
320,192,134164,128,0,134250:0:0:0:0:
192,192,134164,128,0,134250:0:0:0:0:
448,192,134250,1,0,0:0:0:0:
192,192,134336,128,0,134422:0:0:0:0:
64,192,134336,128,0,134422:0:0:0:0:
320,192,134422,1,0,0:0:0:0:
448,192,134508,128,0,134595:0:0:0:0:
320,192,134508,128,0,134595:0:0:0:0:
64,192,134681,128,0,134767:0:0:0:0:
192,192,134681,128,0,134767:0:0:0:0:
192,192,134853,128,0,134939:0:0:0:0:
320,192,134853,128,0,134939:0:0:0:0:
448,192,135026,128,0,135112:0:0:0:0:
320,192,135026,128,0,135112:0:0:0:0:
64,192,135112,1,0,0:0:0:0:
320,192,135198,128,0,135284:0:0:0:0:
192,192,135198,128,0,135284:0:0:0:0:
448,192,135370,128,0,135457:0:0:0:0:
320,192,135370,128,0,135457:0:0:0:0:
192,192,135543,128,0,135715:0:0:0:0:
64,192,135543,128,0,135715:0:0:0:0:
64,192,135888,128,0,135974:0:0:0:0:
192,192,135888,128,0,135974:0:0:0:0:
192,192,136060,128,0,136146:0:0:0:0:
448,192,136060,128,0,136146:0:0:0:0:
448,192,136233,128,0,136319:0:0:0:0:
320,192,136233,128,0,136319:0:0:0:0:
192,192,136319,1,0,0:0:0:0:
64,192,136405,128,0,136491:0:0:0:0:
320,192,136405,128,0,136491:0:0:0:0:
448,192,136491,1,0,0:0:0:0:
64,192,136577,128,0,136664:0:0:0:0:
192,192,136577,128,0,136664:0:0:0:0:
448,192,136750,128,0,136836:0:0:0:0:
192,192,136750,128,0,136836:0:0:0:0:
64,192,136922,128,0,137008:0:0:0:0:
320,192,136922,128,0,137008:0:0:0:0:
64,192,137095,128,0,137181:0:0:0:0:
192,192,137095,128,0,137181:0:0:0:0:
448,192,137267,128,0,137353:0:0:0:0:
320,192,137267,128,0,137353:0:0:0:0:
64,192,137439,128,0,137526:0:0:0:0:
448,192,137439,128,0,137526:0:0:0:0:
192,192,137612,128,0,137698:0:0:0:0:
320,192,137612,128,0,137698:0:0:0:0:
64,192,137784,128,0,137870:0:0:0:0:
192,192,137784,128,0,137870:0:0:0:0:
448,192,137957,128,0,138043:0:0:0:0:
192,192,137957,128,0,138043:0:0:0:0:
320,192,138129,128,0,138215:0:0:0:0:
64,192,138129,128,0,138215:0:0:0:0:
192,192,138302,128,0,138560:0:0:0:0:
64,192,138302,128,0,138560:0:0:0:0:
448,192,138474,1,0,0:0:0:0:
320,192,138560,1,0,0:0:0:0:
192,192,138646,128,0,139336:0:0:0:0:
320,192,138646,128,0,139336:0:0:0:0:
448,192,139164,1,0,0:0:0:0:
64,192,139250,1,0,0:0:0:0:
448,192,139336,128,0,139853:0:0:0:0:
64,192,139508,1,0,0:0:0:0:
192,192,139681,1,0,0:0:0:0:
320,192,139681,1,0,0:0:0:0:
64,192,139767,1,0,0:0:0:0:
192,192,139853,1,0,0:0:0:0:
320,192,139853,128,0,140715:0:0:0:0:
448,192,140198,1,0,0:0:0:0:
192,192,140284,1,0,0:0:0:0:
64,192,140370,1,0,0:0:0:0:
192,192,140457,1,0,0:0:0:0:
448,192,140543,1,0,0:0:0:0:
64,192,140715,128,0,140888:0:0:0:0:
192,192,140715,1,0,0:0:0:0:
64,192,140974,128,0,141146:0:0:0:0:
448,192,140974,1,0,0:0:0:0:
192,192,141060,128,0,141233:0:0:0:0:
64,192,141233,128,0,141405:0:0:0:0:
320,192,141233,1,0,0:0:0:0:
320,192,141405,128,0,141922:0:0:0:0:
448,192,141405,128,0,141922:0:0:0:0:
64,192,141922,1,0,0:0:0:0:
320,192,142095,128,0,142439:0:0:0:0:
448,192,142095,128,0,142267:0:0:0:0:
192,192,142353,128,0,142526:0:0:0:0:
64,192,142353,1,0,0:0:0:0:
448,192,142612,128,0,143474:0:0:0:0:
64,192,142612,128,0,142698:0:0:0:0:
320,192,142612,1,0,0:0:0:0:
192,192,142784,128,0,143474:0:0:0:0:
64,192,142784,1,0,0:0:0:0:
64,192,142957,1,0,0:0:0:0:
320,192,143043,1,0,0:0:0:0:
64,192,143129,1,0,0:0:0:0:
320,192,143215,1,0,0:0:0:0:
64,192,143302,1,0,0:0:0:0:
320,192,143474,128,0,143991:0:0:0:0:
64,192,143560,1,0,0:0:0:0:
192,192,143733,1,0,0:0:0:0:
448,192,143819,128,0,144164:0:0:0:0:
64,192,143819,1,0,0:0:0:0:
192,192,144077,1,0,0:0:0:0:
320,192,144164,128,0,144853:0:0:0:0:
64,192,144164,1,0,0:0:0:0:
192,192,144508,1,0,0:0:0:0:
448,192,144681,1,0,0:0:0:0:
64,192,144853,128,0,145370:0:0:0:0:
192,192,144853,1,0,0:0:0:0:
320,192,145026,1,0,0:0:0:0:
448,192,145026,1,0,0:0:0:0:
448,192,145284,1,0,0:0:0:0:
192,192,145370,128,0,146233:0:0:0:0:
320,192,145370,1,0,0:0:0:0:
64,192,145715,1,0,0:0:0:0:
320,192,145802,1,0,0:0:0:0:
64,192,145888,128,0,146060:0:0:0:0:
448,192,145888,1,0,0:0:0:0:
320,192,145974,1,0,0:0:0:0:
448,192,146060,1,0,0:0:0:0:
320,192,146146,1,0,0:0:0:0:
64,192,146233,128,0,146405:0:0:0:0:
448,192,146233,128,0,146405:0:0:0:0:
448,192,146491,128,0,146664:0:0:0:0:
192,192,146491,1,0,0:0:0:0:
64,192,146577,128,0,146750:0:0:0:0:
448,192,146750,128,0,146836:0:0:0:0:
320,192,146750,128,0,146836:0:0:0:0:
192,192,146922,128,0,147267:0:0:0:0:
64,192,146922,1,0,0:0:0:0:
320,192,146922,128,0,147267:0:0:0:0:
448,192,147095,1,0,0:0:0:0:
64,192,147267,1,0,0:0:0:0:
320,192,147439,1,0,0:0:0:0:
192,192,147612,128,0,148302:0:0:0:0:
320,192,147612,128,0,148302:0:0:0:0:
448,192,147870,1,0,0:0:0:0:
64,192,148129,1,0,0:0:0:0:
64,192,148302,128,0,149508:0:0:0:0:
448,192,148302,128,0,149508:0:0:0:0:
320,192,148474,1,0,0:0:0:0:
192,192,148560,1,0,0:0:0:0:
320,192,148646,1,0,0:0:0:0:
192,192,148733,1,0,0:0:0:0:
320,192,148819,1,0,0:0:0:0:
192,192,148905,1,0,0:0:0:0:
320,192,148991,1,0,0:0:0:0:
192,192,149077,1,0,0:0:0:0:
320,192,149250,1,0,0:0:0:0:
192,192,149336,1,0,0:0:0:0:
320,192,149422,1,0,0:0:0:0:
192,192,149508,1,0,0:0:0:0:
320,192,149595,1,0,0:0:0:0:
64,192,149681,1,0,0:0:0:0:
448,192,149681,128,0,149853:0:0:0:0:
320,192,149853,128,0,150026:0:0:0:0:
192,192,150026,128,0,150198:0:0:0:0:
448,192,150112,1,0,0:0:0:0:
64,192,150198,128,0,150370:0:0:0:0:
448,192,150370,128,0,150888:0:0:0:0:
320,192,150370,1,0,0:0:0:0:
448,192,151060,128,0,151233:0:0:0:0:
64,192,151060,1,0,0:0:0:0:
320,192,151233,128,0,151405:0:0:0:0:
192,192,151233,1,0,0:0:0:0:
192,192,151405,128,0,151577:0:0:0:0:
448,192,151405,1,0,0:0:0:0:
64,192,151577,128,0,151664:0:0:0:0:
448,192,151577,1,0,0:0:0:0:
320,192,151664,1,0,0:0:0:0:
64,192,151750,128,0,151922:0:0:0:0:
192,192,151750,1,0,0:0:0:0:
192,192,151922,128,0,152095:0:0:0:0:
448,192,151922,1,0,0:0:0:0:
320,192,152095,128,0,152267:0:0:0:0:
64,192,152095,1,0,0:0:0:0:
448,192,152267,128,0,152353:0:0:0:0:
192,192,152267,1,0,0:0:0:0:
448,192,152439,128,0,152612:0:0:0:0:
320,192,152439,1,0,0:0:0:0:
320,192,152612,128,0,152784:0:0:0:0:
64,192,152612,1,0,0:0:0:0:
192,192,152784,128,0,152957:0:0:0:0:
448,192,152784,1,0,0:0:0:0:
64,192,152957,128,0,153043:0:0:0:0:
320,192,152957,1,0,0:0:0:0:
64,192,153129,128,0,153302:0:0:0:0:
192,192,153129,1,0,0:0:0:0:
192,192,153302,128,0,153474:0:0:0:0:
448,192,153388,1,0,0:0:0:0:
320,192,153474,128,0,153646:0:0:0:0:
64,192,153474,1,0,0:0:0:0:
448,192,153646,128,0,153733:0:0:0:0:
192,192,153646,1,0,0:0:0:0:
448,192,153819,128,0,153991:0:0:0:0:
320,192,153819,1,0,0:0:0:0:
320,192,153991,128,0,154164:0:0:0:0:
64,192,153991,1,0,0:0:0:0:
192,192,154164,128,0,154336:0:0:0:0:
448,192,154164,1,0,0:0:0:0:
64,192,154336,128,0,154422:0:0:0:0:
320,192,154336,1,0,0:0:0:0:
448,192,154422,1,0,0:0:0:0:
64,192,154508,128,0,154681:0:0:0:0:
192,192,154508,1,0,0:0:0:0:
192,192,154681,128,0,154853:0:0:0:0:
320,192,154681,1,0,0:0:0:0:
320,192,154853,128,0,155026:0:0:0:0:
64,192,154853,1,0,0:0:0:0:
448,192,155026,128,0,155198:0:0:0:0:
192,192,155026,1,0,0:0:0:0:
64,192,155198,128,0,155370:0:0:0:0:
320,192,155198,1,0,0:0:0:0:
192,192,155370,128,0,155543:0:0:0:0:
448,192,155370,1,0,0:0:0:0:
320,192,155543,128,0,155715:0:0:0:0:
64,192,155543,1,0,0:0:0:0:
64,192,155715,128,0,155888:0:0:0:0:
448,192,155715,1,0,0:0:0:0:
192,192,155888,128,0,156577:0:0:0:0:
320,192,155888,1,0,0:0:0:0:
448,192,155974,1,0,0:0:0:0:
64,192,156060,1,0,0:0:0:0:
320,192,156060,1,0,0:0:0:0:
448,192,156233,1,0,0:0:0:0:
64,192,156319,1,0,0:0:0:0:
320,192,156405,1,0,0:0:0:0:
448,192,156405,1,0,0:0:0:0:
64,192,156491,1,0,0:0:0:0:
320,192,156577,1,0,0:0:0:0:
448,192,156750,1,0,0:0:0:0:
64,192,156750,1,0,0:0:0:0:
64,192,156922,1,0,0:0:0:0:
192,192,156922,1,0,0:0:0:0:
448,192,157008,1,0,0:0:0:0:
320,192,157008,1,0,0:0:0:0:
192,192,157095,1,0,0:0:0:0:
64,192,157095,1,0,0:0:0:0:
448,192,157267,1,0,0:0:0:0:
64,192,157267,1,0,0:0:0:0:
320,192,157439,1,0,0:0:0:0:
448,192,157439,1,0,0:0:0:0:
192,192,157526,1,0,0:0:0:0:
64,192,157526,1,0,0:0:0:0:
320,192,157612,1,0,0:0:0:0:
448,192,157612,1,0,0:0:0:0:
192,192,157698,1,0,0:0:0:0:
64,192,157698,1,0,0:0:0:0:
448,192,157784,1,0,0:0:0:0:
320,192,157784,1,0,0:0:0:0:
448,192,157957,1,0,0:0:0:0:
64,192,157957,1,0,0:0:0:0:
64,192,158129,1,0,0:0:0:0:
192,192,158129,1,0,0:0:0:0:
192,192,158302,1,0,0:0:0:0:
320,192,158302,1,0,0:0:0:0:
448,192,158388,1,0,0:0:0:0:
64,192,158388,1,0,0:0:0:0:
192,192,158474,1,0,0:0:0:0:
320,192,158474,1,0,0:0:0:0:
64,192,158560,1,0,0:0:0:0:
448,192,158560,1,0,0:0:0:0:
320,192,158646,1,0,0:0:0:0:
192,192,158646,1,0,0:0:0:0:
448,192,158819,1,0,0:0:0:0:
192,192,158819,1,0,0:0:0:0:
320,192,158991,1,0,0:0:0:0:
64,192,158991,1,0,0:0:0:0:
64,192,159164,1,0,0:0:0:0:
448,192,159164,1,0,0:0:0:0:
320,192,159250,1,0,0:0:0:0:
192,192,159250,1,0,0:0:0:0:
448,192,159336,1,0,0:0:0:0:
64,192,159336,1,0,0:0:0:0:
192,192,159422,1,0,0:0:0:0:
320,192,159422,1,0,0:0:0:0:
448,192,159508,1,0,0:0:0:0:
64,192,159508,1,0,0:0:0:0:
448,192,159681,1,0,0:0:0:0:
320,192,159681,1,0,0:0:0:0:
192,192,159767,1,0,0:0:0:0:
64,192,159767,1,0,0:0:0:0:
320,192,159853,1,0,0:0:0:0:
448,192,159853,1,0,0:0:0:0:
192,192,159939,1,0,0:0:0:0:
64,192,159939,1,0,0:0:0:0:
320,192,160026,1,0,0:0:0:0:
448,192,160026,1,0,0:0:0:0:
64,192,160112,1,0,0:0:0:0:
192,192,160112,1,0,0:0:0:0:
320,192,160198,1,0,0:0:0:0:
448,192,160198,1,0,0:0:0:0:
192,192,160284,1,0,0:0:0:0:
64,192,160284,1,0,0:0:0:0:
320,192,160370,1,0,0:0:0:0:
448,192,160370,1,0,0:0:0:0:
192,192,160457,1,0,0:0:0:0:
64,192,160457,1,0,0:0:0:0:
320,192,160543,1,0,0:0:0:0:
448,192,160543,1,0,0:0:0:0:
64,192,160715,1,0,0:0:0:0:
448,192,160715,1,0,0:0:0:0:
192,192,160888,1,0,0:0:0:0:
320,192,160974,1,0,0:0:0:0:
448,192,161060,1,0,0:0:0:0:
64,192,161060,1,0,0:0:0:0:
192,192,161146,1,0,0:0:0:0:
320,192,161233,1,0,0:0:0:0:
448,192,161405,1,0,0:0:0:0:
320,192,161491,1,0,0:0:0:0:
64,192,161577,1,0,0:0:0:0:
192,192,161577,1,0,0:0:0:0:
320,192,161664,1,0,0:0:0:0:
192,192,161750,1,0,0:0:0:0:
448,192,161922,1,0,0:0:0:0:
320,192,162008,1,0,0:0:0:0:
192,192,162095,1,0,0:0:0:0:
64,192,162095,1,0,0:0:0:0:
448,192,162095,1,0,0:0:0:0:
64,192,162439,1,0,0:0:0:0:
192,192,162439,1,0,0:0:0:0:
320,192,162439,1,0,0:0:0:0:
64,192,162612,1,0,0:0:0:0:
192,192,162784,1,0,0:0:0:0:
320,192,162784,1,0,0:0:0:0:
448,192,162784,1,0,0:0:0:0:
448,192,163129,1,0,0:0:0:0:
64,192,163129,1,0,0:0:0:0:
192,192,163129,1,0,0:0:0:0:
448,192,163301,1,0,0:0:0:0:
320,192,163474,1,0,0:0:0:0:
192,192,163474,1,0,0:0:0:0:
64,192,163474,1,0,0:0:0:0:
192,192,163819,1,0,0:0:0:0:
64,192,163819,1,0,0:0:0:0:
320,192,163819,1,0,0:0:0:0:
192,192,163991,1,0,0:0:0:0:
448,192,164164,1,0,0:0:0:0:
320,192,164164,1,0,0:0:0:0:
64,192,164164,1,0,0:0:0:0:
192,192,164508,1,0,0:0:0:0:
320,192,164508,1,0,0:0:0:0:
448,192,164508,1,0,0:0:0:0:
192,192,164681,1,0,0:0:0:0:
64,192,164853,1,0,0:0:0:0:
320,192,164853,1,0,0:0:0:0:
448,192,164853,1,0,0:0:0:0:
64,192,165198,1,0,0:0:0:0:
192,192,165198,1,0,0:0:0:0:
448,192,165198,1,0,0:0:0:0:
192,192,165370,1,0,0:0:0:0:
64,192,165543,1,0,0:0:0:0:
320,192,165543,1,0,0:0:0:0:
448,192,165543,1,0,0:0:0:0:
64,192,165888,1,0,0:0:0:0:
192,192,165888,1,0,0:0:0:0:
320,192,165888,1,0,0:0:0:0:
64,192,166060,1,0,0:0:0:0:
448,192,166233,1,0,0:0:0:0:
320,192,166233,1,0,0:0:0:0:
64,192,166233,1,0,0:0:0:0:
448,192,166577,1,0,0:0:0:0:
64,192,166577,1,0,0:0:0:0:
192,192,166577,1,0,0:0:0:0:
448,192,166750,1,0,0:0:0:0:
320,192,166922,1,0,0:0:0:0:
192,192,166922,1,0,0:0:0:0:
64,192,166922,1,0,0:0:0:0:
64,192,167267,1,0,0:0:0:0:
448,192,167353,1,0,0:0:0:0:
192,192,167439,1,0,0:0:0:0:
320,192,167526,1,0,0:0:0:0:
448,192,167612,1,0,0:0:0:0:
192,192,167612,1,0,0:0:0:0:
64,192,167612,1,0,0:0:0:0:
320,192,167784,1,0,0:0:0:0:
192,192,167870,1,0,0:0:0:0:
448,192,167957,1,0,0:0:0:0:
320,192,167957,1,0,0:0:0:0:
192,192,168043,1,0,0:0:0:0:
64,192,168129,1,0,0:0:0:0:
192,192,168215,1,0,0:0:0:0:
320,192,168301,1,0,0:0:0:0:
448,192,168301,1,0,0:0:0:0:
192,192,168388,1,0,0:0:0:0:
448,192,168474,1,0,0:0:0:0:
320,192,168560,1,0,0:0:0:0:
192,192,168646,1,0,0:0:0:0:
64,192,168733,1,0,0:0:0:0:
448,192,168819,1,0,0:0:0:0:
192,192,168991,1,0,0:0:0:0:
64,192,168991,1,0,0:0:0:0:
64,192,169164,1,0,0:0:0:0:
320,192,169250,1,0,0:0:0:0:
192,192,169336,1,0,0:0:0:0:
448,192,169336,1,0,0:0:0:0:
320,192,169422,1,0,0:0:0:0:
64,192,169508,1,0,0:0:0:0:
192,192,169595,1,0,0:0:0:0:
448,192,169681,1,0,0:0:0:0:
320,192,169681,1,0,0:0:0:0:
64,192,169767,1,0,0:0:0:0:
448,192,169853,1,0,0:0:0:0:
192,192,170026,1,0,0:0:0:0:
320,192,170112,1,0,0:0:0:0:
448,192,170198,1,0,0:0:0:0:
64,192,170198,1,0,0:0:0:0:
192,192,170370,1,0,0:0:0:0:
320,192,170370,1,0,0:0:0:0:
64,192,170370,128,0,170715:0:0:0:0:
448,192,170543,1,0,0:0:0:0:
320,192,170629,1,0,0:0:0:0:
192,192,170715,1,0,0:0:0:0:
64,192,170888,1,0,0:0:0:0:
192,192,170974,1,0,0:0:0:0:
64,192,171060,128,0,171233:0:0:0:0:
320,192,171060,128,0,171146:0:0:0:0:
448,192,171060,1,0,0:0:0:0:
64,192,171319,128,0,171491:0:0:0:0:
320,192,171319,128,0,171405:0:0:0:0:
192,192,171319,1,0,0:0:0:0:
64,192,171577,128,0,171664:0:0:0:0:
320,192,171577,128,0,171664:0:0:0:0:
448,192,171577,1,0,0:0:0:0:
448,192,171750,128,0,172095:0:0:0:0:
192,192,171750,128,0,171836:0:0:0:0:
64,192,171750,1,0,0:0:0:0:
192,192,171922,128,0,172008:0:0:0:0:
192,192,172095,128,0,172181:0:0:0:0:
320,192,172267,128,0,172439:0:0:0:0:
192,192,172267,128,0,172353:0:0:0:0:
192,192,172439,128,0,172784:0:0:0:0:
448,192,172439,128,0,172526:0:0:0:0:
64,192,172439,1,0,0:0:0:0:
448,192,172612,128,0,172698:0:0:0:0:
320,192,172612,1,0,0:0:0:0:
448,192,172784,128,0,172870:0:0:0:0:
64,192,172784,1,0,0:0:0:0:
448,192,172957,128,0,173043:0:0:0:0:
320,192,172957,1,0,0:0:0:0:
192,192,173129,1,0,0:0:0:0:
64,192,173129,1,0,0:0:0:0:
320,192,173129,1,0,0:0:0:0:
448,192,173301,1,0,0:0:0:0:
320,192,173301,1,0,0:0:0:0:
64,192,173474,1,0,0:0:0:0:
192,192,173474,1,0,0:0:0:0:
448,192,173560,1,0,0:0:0:0:
320,192,173560,1,0,0:0:0:0:
192,192,173646,1,0,0:0:0:0:
64,192,173646,1,0,0:0:0:0:
192,192,173819,1,0,0:0:0:0:
448,192,173819,1,0,0:0:0:0:
320,192,173991,1,0,0:0:0:0:
192,192,173991,1,0,0:0:0:0:
64,192,174077,1,0,0:0:0:0:
448,192,174077,1,0,0:0:0:0:
320,192,174164,1,0,0:0:0:0:
192,192,174164,1,0,0:0:0:0:
64,192,174250,1,0,0:0:0:0:
448,192,174250,1,0,0:0:0:0:
320,192,174336,1,0,0:0:0:0:
192,192,174336,1,0,0:0:0:0:
448,192,174422,1,0,0:0:0:0:
64,192,174422,1,0,0:0:0:0:
192,192,174508,1,0,0:0:0:0:
320,192,174508,1,0,0:0:0:0:
64,192,174681,1,0,0:0:0:0:
448,192,174681,1,0,0:0:0:0:
192,192,174767,1,0,0:0:0:0:
320,192,174853,1,0,0:0:0:0:
448,192,174853,1,0,0:0:0:0:
192,192,174939,1,0,0:0:0:0:
64,192,175026,1,0,0:0:0:0:
320,192,175026,1,0,0:0:0:0:
192,192,175198,1,0,0:0:0:0:
448,192,175198,1,0,0:0:0:0:
320,192,175370,1,0,0:0:0:0:
64,192,175370,1,0,0:0:0:0:
448,192,175543,1,0,0:0:0:0:
192,192,175543,1,0,0:0:0:0:
320,192,175629,1,0,0:0:0:0:
192,192,175715,1,0,0:0:0:0:
64,192,175715,1,0,0:0:0:0:
320,192,175888,1,0,0:0:0:0:
448,192,175888,1,0,0:0:0:0:
192,192,176060,1,0,0:0:0:0:
448,192,176060,1,0,0:0:0:0:
64,192,176233,1,0,0:0:0:0:
320,192,176233,1,0,0:0:0:0:
448,192,176319,1,0,0:0:0:0:
192,192,176319,1,0,0:0:0:0:
320,192,176405,1,0,0:0:0:0:
64,192,176405,1,0,0:0:0:0:
320,192,176577,1,0,0:0:0:0:
448,192,176577,1,0,0:0:0:0:
448,192,176750,1,0,0:0:0:0:
192,192,176750,1,0,0:0:0:0:
320,192,176836,1,0,0:0:0:0:
64,192,176836,1,0,0:0:0:0:
64,192,177008,1,0,0:0:0:0:
320,192,177008,1,0,0:0:0:0:
192,192,177095,1,0,0:0:0:0:
448,192,177095,1,0,0:0:0:0:
64,192,177267,1,0,0:0:0:0:
192,192,177267,1,0,0:0:0:0:
448,192,177267,1,0,0:0:0:0:
320,192,177439,1,0,0:0:0:0:
192,192,177439,1,0,0:0:0:0:
448,192,177526,1,0,0:0:0:0:
64,192,177698,1,0,0:0:0:0:
192,192,177784,1,0,0:0:0:0:
320,192,177784,1,0,0:0:0:0:
448,192,177957,1,0,0:0:0:0:
64,192,177957,1,0,0:0:0:0:
320,192,178129,1,0,0:0:0:0:
448,192,178129,1,0,0:0:0:0:
64,192,178215,1,0,0:0:0:0:
192,192,178215,1,0,0:0:0:0:
448,192,178301,1,0,0:0:0:0:
192,192,178388,1,0,0:0:0:0:
64,192,178388,1,0,0:0:0:0:
320,192,178474,1,0,0:0:0:0:
448,192,178474,1,0,0:0:0:0:
64,192,178646,128,0,178819:0:0:0:0:
192,192,178646,1,0,0:0:0:0:
448,192,178819,1,0,0:0:0:0:
64,192,178905,128,0,179077:0:0:0:0:
192,192,178991,1,0,0:0:0:0:
320,192,178991,1,0,0:0:0:0:
448,192,179077,1,0,0:0:0:0:
192,192,179164,128,0,179336:0:0:0:0:
320,192,179164,1,0,0:0:0:0:
320,192,179336,128,0,179508:0:0:0:0:
64,192,179336,1,0,0:0:0:0:
448,192,179508,1,0,0:0:0:0:
320,192,179595,128,0,179939:0:0:0:0:
192,192,179595,1,0,0:0:0:0:
448,192,179767,1,0,0:0:0:0:
64,192,179853,1,0,0:0:0:0:
448,192,179939,128,0,180112:0:0:0:0:
192,192,179939,1,0,0:0:0:0:
64,192,180026,1,0,0:0:0:0:
64,192,180198,128,0,180543:0:0:0:0:
192,192,180198,1,0,0:0:0:0:
448,192,180370,1,0,0:0:0:0:
320,192,180370,1,0,0:0:0:0:
192,192,180457,1,0,0:0:0:0:
448,192,180543,128,0,180715:0:0:0:0:
320,192,180543,1,0,0:0:0:0:
320,192,180715,128,0,181060:0:0:0:0:
64,192,180715,1,0,0:0:0:0:
192,192,180888,1,0,0:0:0:0:
448,192,181060,1,0,0:0:0:0:
64,192,181060,1,0,0:0:0:0:
192,192,181146,1,0,0:0:0:0:
448,192,181233,1,0,0:0:0:0:
320,192,181319,1,0,0:0:0:0:
64,192,181405,128,0,181577:0:0:0:0:
192,192,181405,1,0,0:0:0:0:
448,192,181491,1,0,0:0:0:0:
320,192,181577,1,0,0:0:0:0:
448,192,181664,128,0,181836:0:0:0:0:
192,192,181664,1,0,0:0:0:0:
64,192,181750,1,0,0:0:0:0:
320,192,181836,1,0,0:0:0:0:
448,192,181922,128,0,182095:0:0:0:0:
192,192,181922,1,0,0:0:0:0:
320,192,182008,1,0,0:0:0:0:
64,192,182095,128,0,182353:0:0:0:0:
192,192,182095,1,0,0:0:0:0:
320,192,182181,1,0,0:0:0:0:
448,192,182267,1,0,0:0:0:0:
192,192,182353,1,0,0:0:0:0:
64,192,182439,128,0,182698:0:0:0:0:
448,192,182439,1,0,0:0:0:0:
320,192,182526,1,0,0:0:0:0:
192,192,182612,1,0,0:0:0:0:
448,192,182698,1,0,0:0:0:0:
192,192,182784,128,0,183043:0:0:0:0:
64,192,183043,1,0,0:0:0:0:
192,192,183129,128,0,183388:0:0:0:0:
320,192,183129,1,0,0:0:0:0:
448,192,183301,1,0,0:0:0:0:
64,192,183388,1,0,0:0:0:0:
320,192,183474,128,0,183646:0:0:0:0:
192,192,183474,1,0,0:0:0:0:
448,192,183560,1,0,0:0:0:0:
192,192,183646,1,0,0:0:0:0:
64,192,183733,1,0,0:0:0:0:
320,192,183733,128,0,183991:0:0:0:0:
448,192,183819,1,0,0:0:0:0:
192,192,183905,1,0,0:0:0:0:
448,192,183991,128,0,186405:0:0:0:0:
64,192,183991,1,0,0:0:0:0:
320,192,184164,1,0,0:0:0:0:
64,192,184336,1,0,0:0:0:0:
192,192,184508,1,0,0:0:0:0:
320,192,184508,1,0,0:0:0:0:
320,192,184681,1,0,0:0:0:0:
192,192,184853,1,0,0:0:0:0:
64,192,184853,1,0,0:0:0:0:
64,192,185026,1,0,0:0:0:0:
320,192,185198,1,0,0:0:0:0:
192,192,185198,1,0,0:0:0:0:
320,192,185370,1,0,0:0:0:0:
192,192,185457,1,0,0:0:0:0:
64,192,185543,1,0,0:0:0:0:
320,192,185543,1,0,0:0:0:0:
64,192,185715,1,0,0:0:0:0:
192,192,185888,1,0,0:0:0:0:
320,192,185888,1,0,0:0:0:0:
64,192,186060,1,0,0:0:0:0:
320,192,186233,128,0,186577:0:0:0:0:
192,192,186233,1,0,0:0:0:0:
64,192,186577,1,0,0:0:0:0:
192,192,186577,128,0,186750:0:0:0:0:
64,192,186750,128,0,186922:0:0:0:0:
448,192,186922,1,0,0:0:0:0:
320,192,186922,1,0,0:0:0:0:
192,192,186922,128,0,187526:0:0:0:0:
64,192,187095,1,0,0:0:0:0:
320,192,187181,1,0,0:0:0:0:
448,192,187267,1,0,0:0:0:0:
64,192,187353,1,0,0:0:0:0:
320,192,187439,1,0,0:0:0:0:
448,192,187526,1,0,0:0:0:0:
192,192,187612,128,0,187957:0:0:0:0:
64,192,187612,1,0,0:0:0:0:
320,192,187698,1,0,0:0:0:0:
448,192,187784,1,0,0:0:0:0:
64,192,187870,1,0,0:0:0:0:
320,192,187957,128,0,188043:0:0:0:0:
448,192,188043,128,0,188301:0:0:0:0:
64,192,188215,1,0,0:0:0:0:
320,192,188301,128,0,188646:0:0:0:0:
192,192,188301,1,0,0:0:0:0:
448,192,188388,1,0,0:0:0:0:
64,192,188474,1,0,0:0:0:0:
192,192,188560,1,0,0:0:0:0:
448,192,188646,128,0,188819:0:0:0:0:
64,192,188732,1,0,0:0:0:0:
320,192,188819,128,0,188905:0:0:0:0:
192,192,188819,1,0,0:0:0:0:
64,192,188905,128,0,188991:0:0:0:0:
448,192,188905,1,0,0:0:0:0:
192,192,188991,128,0,189681:0:0:0:0:
320,192,189077,1,0,0:0:0:0:
64,192,189164,1,0,0:0:0:0:
320,192,189250,1,0,0:0:0:0:
448,192,189336,1,0,0:0:0:0:
64,192,189422,1,0,0:0:0:0:
448,192,189508,1,0,0:0:0:0:
64,192,189595,1,0,0:0:0:0:
320,192,189659,1,0,0:0:0:0:
448,192,189681,1,0,0:0:0:0:
320,192,189832,1,0,0:0:0:0:
448,192,189853,1,0,0:0:0:0:
192,192,189853,1,0,0:0:0:0:
320,192,190004,1,0,0:0:0:0:
448,192,190026,1,0,0:0:0:0:
64,192,190026,1,0,0:0:0:0:
192,192,190112,1,0,0:0:0:0:
320,192,190176,1,0,0:0:0:0:
448,192,190198,1,0,0:0:0:0:
64,192,190198,1,0,0:0:0:0:
64,192,190370,128,0,190457:0:0:0:0:
192,192,190370,1,0,0:0:0:0:
64,192,190543,128,0,190629:0:0:0:0:
320,192,190543,1,0,0:0:0:0:
192,192,190715,128,0,190801:0:0:0:0:
448,192,190715,1,0,0:0:0:0:
192,192,190888,128,0,190974:0:0:0:0:
64,192,190888,1,0,0:0:0:0:
448,192,190974,1,0,0:0:0:0:
320,192,191060,128,0,191146:0:0:0:0:
192,192,191060,1,0,0:0:0:0:
320,192,191232,128,0,191319:0:0:0:0:
64,192,191232,1,0,0:0:0:0:
448,192,191405,128,0,191491:0:0:0:0:
192,192,191405,1,0,0:0:0:0:
448,192,191577,128,0,191664:0:0:0:0:
320,192,191577,1,0,0:0:0:0:
192,192,191664,1,0,0:0:0:0:
320,192,191750,1,0,0:0:0:0:
64,192,191750,1,0,0:0:0:0:
448,192,191836,1,0,0:0:0:0:
192,192,191836,1,0,0:0:0:0:
320,192,191922,128,0,192008:0:0:0:0:
64,192,191922,1,0,0:0:0:0:
192,192,192095,128,0,192181:0:0:0:0:
448,192,192095,1,0,0:0:0:0:
64,192,192267,128,0,192353:0:0:0:0:
320,192,192267,1,0,0:0:0:0:
448,192,192439,128,0,193129:0:0:0:0:
192,192,192439,1,0,0:0:0:0:
320,192,192612,1,0,0:0:0:0:
64,192,192612,1,0,0:0:0:0:
64,192,192784,1,0,0:0:0:0:
192,192,192870,1,0,0:0:0:0:
320,192,192957,1,0,0:0:0:0:
320,192,193129,128,0,193215:0:0:0:0:
64,192,193129,1,0,0:0:0:0:
320,192,193301,128,0,193388:0:0:0:0:
192,192,193301,1,0,0:0:0:0:
448,192,193474,128,0,193560:0:0:0:0:
64,192,193474,1,0,0:0:0:0:
448,192,193646,128,0,193732:0:0:0:0:
320,192,193646,1,0,0:0:0:0:
192,192,193732,1,0,0:0:0:0:
320,192,193819,128,0,193905:0:0:0:0:
64,192,193819,1,0,0:0:0:0:
320,192,193991,128,0,194077:0:0:0:0:
448,192,193991,1,0,0:0:0:0:
192,192,194164,128,0,194250:0:0:0:0:
64,192,194164,1,0,0:0:0:0:
192,192,194336,128,0,194422:0:0:0:0:
320,192,194336,1,0,0:0:0:0:
448,192,194422,1,0,0:0:0:0:
64,192,194508,128,0,194595:0:0:0:0:
192,192,194595,1,0,0:0:0:0:
64,192,194681,128,0,194767:0:0:0:0:
320,192,194681,1,0,0:0:0:0:
448,192,194853,128,0,194939:0:0:0:0:
192,192,194853,1,0,0:0:0:0:
448,192,195026,128,0,195112:0:0:0:0:
320,192,195026,1,0,0:0:0:0:
64,192,195198,128,0,195543:0:0:0:0:
192,192,195198,1,0,0:0:0:0:
320,192,195370,1,0,0:0:0:0:
448,192,195543,1,0,0:0:0:0:
320,192,195543,1,0,0:0:0:0:
64,192,195629,1,0,0:0:0:0:
192,192,195715,1,0,0:0:0:0:
448,192,195888,128,0,196232:0:0:0:0:
320,192,195888,1,0,0:0:0:0:
64,192,196060,1,0,0:0:0:0:
320,192,196232,128,0,196405:0:0:0:0:
64,192,196232,1,0,0:0:0:0:
192,192,196405,128,0,196577:0:0:0:0:
448,192,196405,1,0,0:0:0:0:
320,192,196491,1,0,0:0:0:0:
64,192,196577,128,0,196664:0:0:0:0:
448,192,196577,1,0,0:0:0:0:
320,192,196750,1,0,0:0:0:0:
448,192,196836,128,0,197095:0:0:0:0:
64,192,196922,1,0,0:0:0:0:
192,192,196922,1,0,0:0:0:0:
320,192,197095,128,0,197267:0:0:0:0:
192,192,197095,1,0,0:0:0:0:
64,192,197181,1,0,0:0:0:0:
192,192,197267,128,0,197612:0:0:0:0:
448,192,197267,1,0,0:0:0:0:
320,192,197353,1,0,0:0:0:0:
64,192,197439,1,0,0:0:0:0:
64,192,197612,128,0,197957:0:0:0:0:
320,192,197612,1,0,0:0:0:0:
192,192,197784,1,0,0:0:0:0:
192,192,197957,128,0,198301:0:0:0:0:
448,192,197957,1,0,0:0:0:0:
320,192,198043,1,0,0:0:0:0:
64,192,198129,1,0,0:0:0:0:
448,192,198301,1,0,0:0:0:0:
320,192,198388,1,0,0:0:0:0:
64,192,198474,1,0,0:0:0:0:
448,192,198474,1,0,0:0:0:0:
192,192,198560,1,0,0:0:0:0:
320,192,198646,1,0,0:0:0:0:
64,192,198646,1,0,0:0:0:0:
192,192,198732,1,0,0:0:0:0:
448,192,198819,1,0,0:0:0:0:
192,192,198905,1,0,0:0:0:0:
64,192,198991,1,0,0:0:0:0:
320,192,199077,1,0,0:0:0:0:
192,192,199164,1,0,0:0:0:0:
448,192,199164,1,0,0:0:0:0:
320,192,199250,1,0,0:0:0:0:
448,192,199336,1,0,0:0:0:0:
192,192,199336,128,0,199595:0:0:0:0:
64,192,199422,1,0,0:0:0:0:
320,192,199508,1,0,0:0:0:0:
192,192,199681,128,0,199767:0:0:0:0:
448,192,199681,1,0,0:0:0:0:
320,192,199767,1,0,0:0:0:0:
192,192,199853,128,0,200026:0:0:0:0:
64,192,199853,1,0,0:0:0:0:
448,192,199939,1,0,0:0:0:0:
448,192,200026,128,0,200370:0:0:0:0:
320,192,200026,1,0,0:0:0:0:
64,192,200112,1,0,0:0:0:0:
192,192,200198,1,0,0:0:0:0:
64,192,200284,1,0,0:0:0:0:
320,192,200370,128,0,200543:0:0:0:0:
192,192,200370,1,0,0:0:0:0:
448,192,200457,1,0,0:0:0:0:
64,192,200543,128,0,200715:0:0:0:0:
192,192,200543,1,0,0:0:0:0:
320,192,200629,1,0,0:0:0:0:
192,192,200715,128,0,201060:0:0:0:0:
448,192,200715,1,0,0:0:0:0:
320,192,200888,1,0,0:0:0:0:
64,192,201060,1,0,0:0:0:0:
192,192,201146,1,0,0:0:0:0:
320,192,201232,1,0,0:0:0:0:
448,192,201405,128,0,201664:0:0:0:0:
64,192,201405,1,0,0:0:0:0:
192,192,201577,1,0,0:0:0:0:
320,192,201664,128,0,201922:0:0:0:0:
64,192,201750,1,0,0:0:0:0:
192,192,201922,128,0,202095:0:0:0:0:
448,192,201922,1,0,0:0:0:0:
64,192,202008,1,0,0:0:0:0:
320,192,202095,128,0,202353:0:0:0:0:
448,192,202095,1,0,0:0:0:0:
192,192,202267,1,0,0:0:0:0:
192,192,202439,128,0,202698:0:0:0:0:
64,192,202439,1,0,0:0:0:0:
448,192,202612,1,0,0:0:0:0:
320,192,202698,1,0,0:0:0:0:
64,192,202784,128,0,203129:0:0:0:0:
192,192,202784,1,0,0:0:0:0:
320,192,202870,1,0,0:0:0:0:
448,192,202957,1,0,0:0:0:0:
448,192,203129,128,0,203474:0:0:0:0:
320,192,203129,1,0,0:0:0:0:
192,192,203301,1,0,0:0:0:0:
192,192,203474,128,0,203991:0:0:0:0:
64,192,203474,1,0,0:0:0:0:
320,192,203560,1,0,0:0:0:0:
448,192,203646,1,0,0:0:0:0:
64,192,203819,1,0,0:0:0:0:
320,192,203905,1,0,0:0:0:0:
64,192,203991,1,0,0:0:0:0:
448,192,203991,1,0,0:0:0:0:
192,192,204077,1,0,0:0:0:0:
320,192,204164,1,0,0:0:0:0:
448,192,204164,1,0,0:0:0:0:
64,192,204250,1,0,0:0:0:0:
192,192,204336,1,0,0:0:0:0:
448,192,204422,1,0,0:0:0:0:
320,192,204508,1,0,0:0:0:0:
192,192,204681,128,0,204853:0:0:0:0:
64,192,204681,1,0,0:0:0:0:
448,192,204767,1,0,0:0:0:0:
320,192,204853,128,0,205026:0:0:0:0:
64,192,204853,1,0,0:0:0:0:
192,192,204939,1,0,0:0:0:0:
448,192,205026,1,0,0:0:0:0:
192,192,205112,1,0,0:0:0:0:
64,192,205198,1,0,0:0:0:0:
320,192,205284,1,0,0:0:0:0:
192,192,205370,128,0,205543:0:0:0:0:
64,192,205370,1,0,0:0:0:0:
320,192,205457,1,0,0:0:0:0:
448,192,205543,128,0,205888:0:0:0:0:
64,192,205543,1,0,0:0:0:0:
192,192,205629,1,0,0:0:0:0:
320,192,205715,1,0,0:0:0:0:
64,192,205888,128,0,206060:0:0:0:0:
192,192,205888,1,0,0:0:0:0:
192,192,206060,128,0,206232:0:0:0:0:
320,192,206060,1,0,0:0:0:0:
320,192,206232,128,0,207612:0:0:0:0:
448,192,206232,128,0,207957:0:0:0:0:
64,192,207612,1,0,0:0:0:0:
192,192,207784,1,0,0:0:0:0:
64,192,207957,1,0,0:0:0:0:
448,192,208129,1,0,0:0:0:0:
64,192,208474,1,0,0:0:0:0:
448,192,208646,1,0,0:0:0:0:
192,192,208819,1,0,0:0:0:0:
64,192,208991,1,0,0:0:0:0:
320,192,208991,1,0,0:0:0:0:
192,192,209336,1,0,0:0:0:0:
64,192,209508,1,0,0:0:0:0:
448,192,209681,1,0,0:0:0:0:
320,192,209853,1,0,0:0:0:0:
192,192,210026,1,0,0:0:0:0:
64,192,210198,1,0,0:0:0:0:
64,192,211060,1,0,0:0:0:0:
448,192,211232,1,0,0:0:0:0:
320,192,211405,1,0,0:0:0:0:
64,192,211577,1,0,0:0:0:0:
192,192,211750,1,0,0:0:0:0:
64,192,212095,1,0,0:0:0:0:
192,192,212439,1,0,0:0:0:0:
320,192,212612,1,0,0:0:0:0:
448,192,212784,1,0,0:0:0:0:
64,192,212957,1,0,0:0:0:0:
192,192,213301,1,0,0:0:0:0:
320,192,213474,1,0,0:0:0:0:
448,192,213646,1,0,0:0:0:0:
64,192,213819,1,0,0:0:0:0:
448,192,213991,1,0,0:0:0:0:
192,192,214164,1,0,0:0:0:0:
64,192,214508,1,0,0:0:0:0:
192,192,214508,1,0,0:0:0:0:
320,192,214681,1,0,0:0:0:0:
64,192,214853,1,0,0:0:0:0:
448,192,215026,1,0,0:0:0:0:
64,192,215370,1,0,0:0:0:0:
192,192,215543,1,0,0:0:0:0:
320,192,215715,1,0,0:0:0:0:
448,192,215888,1,0,0:0:0:0:
64,192,216060,1,0,0:0:0:0:
192,192,216232,1,0,0:0:0:0:
64,192,216319,1,0,0:0:0:0:
320,192,216405,1,0,0:0:0:0:
192,192,216750,1,0,0:0:0:0:
320,192,216922,1,0,0:0:0:0:
448,192,217095,1,0,0:0:0:0:
448,192,217267,128,0,217353:0:0:0:0:
64,192,217267,128,0,217612:0:0:0:0:
320,192,217353,128,0,217439:0:0:0:0:
448,192,217439,128,0,217526:0:0:0:0:
320,192,217526,128,0,217612:0:0:0:0:
192,192,217612,128,0,217698:0:0:0:0:
448,192,217612,128,0,217957:0:0:0:0:
320,192,217698,128,0,217784:0:0:0:0:
192,192,217784,128,0,217870:0:0:0:0:
64,192,217784,128,0,217957:0:0:0:0:
320,192,217870,128,0,217957:0:0:0:0:
192,192,217957,128,0,218043:0:0:0:0:
64,192,218043,128,0,218129:0:0:0:0:
192,192,218129,128,0,218215:0:0:0:0:
320,192,218129,128,0,218301:0:0:0:0:
64,192,218215,128,0,218301:0:0:0:0:
448,192,218301,128,0,218388:0:0:0:0:
192,192,218301,128,0,218646:0:0:0:0:
320,192,218388,128,0,218474:0:0:0:0:
448,192,218474,128,0,218560:0:0:0:0:
320,192,218560,128,0,218646:0:0:0:0:
64,192,218646,1,0,0:0:0:0:
448,192,218819,1,0,0:0:0:0:
192,192,218819,1,0,0:0:0:0:
64,192,218819,1,0,0:0:0:0:
192,192,218991,1,0,0:0:0:0:
320,192,218991,1,0,0:0:0:0:
64,192,219077,1,0,0:0:0:0:
320,192,219163,1,0,0:0:0:0:
448,192,219163,1,0,0:0:0:0:
192,192,219163,1,0,0:0:0:0:
64,192,219336,1,0,0:0:0:0:
448,192,219336,1,0,0:0:0:0:
320,192,219336,1,0,0:0:0:0:
192,192,219508,1,0,0:0:0:0:
320,192,219508,1,0,0:0:0:0:
64,192,219595,1,0,0:0:0:0:
448,192,219595,1,0,0:0:0:0:
64,192,219767,1,0,0:0:0:0:
192,192,219767,1,0,0:0:0:0:
320,192,219853,1,0,0:0:0:0:
448,192,219853,1,0,0:0:0:0:
192,192,219939,1,0,0:0:0:0:
64,192,220026,1,0,0:0:0:0:
320,192,220026,1,0,0:0:0:0:
448,192,220026,1,0,0:0:0:0:
320,192,220198,1,0,0:0:0:0:
192,192,220198,1,0,0:0:0:0:
64,192,220370,1,0,0:0:0:0:
448,192,220370,1,0,0:0:0:0:
192,192,220457,1,0,0:0:0:0:
64,192,220543,1,0,0:0:0:0:
320,192,220543,1,0,0:0:0:0:
448,192,220543,1,0,0:0:0:0:
192,192,220715,1,0,0:0:0:0:
320,192,220715,1,0,0:0:0:0:
448,192,220888,1,0,0:0:0:0:
192,192,220888,1,0,0:0:0:0:
64,192,220888,1,0,0:0:0:0:
448,192,221060,1,0,0:0:0:0:
320,192,221060,1,0,0:0:0:0:
64,192,221146,1,0,0:0:0:0:
192,192,221146,1,0,0:0:0:0:
320,192,221232,1,0,0:0:0:0:
448,192,221232,1,0,0:0:0:0:
64,192,221405,1,0,0:0:0:0:
320,192,221405,1,0,0:0:0:0:
192,192,221405,1,0,0:0:0:0:
448,192,221577,1,0,0:0:0:0:
192,192,221577,1,0,0:0:0:0:
64,192,221750,1,0,0:0:0:0:
320,192,221750,1,0,0:0:0:0:
192,192,221836,1,0,0:0:0:0:
448,192,221922,1,0,0:0:0:0:
320,192,221922,1,0,0:0:0:0:
64,192,221922,1,0,0:0:0:0:
192,192,222095,1,0,0:0:0:0:
448,192,222095,1,0,0:0:0:0:
320,192,222267,1,0,0:0:0:0:
192,192,222267,1,0,0:0:0:0:
64,192,222353,1,0,0:0:0:0:
448,192,222353,1,0,0:0:0:0:
448,192,222526,1,0,0:0:0:0:
64,192,222526,1,0,0:0:0:0:
192,192,222612,1,0,0:0:0:0:
320,192,222612,1,0,0:0:0:0:
64,192,222784,1,0,0:0:0:0:
448,192,222784,1,0,0:0:0:0:
320,192,222784,1,0,0:0:0:0:
64,192,222957,1,0,0:0:0:0:
192,192,222957,1,0,0:0:0:0:
448,192,223043,1,0,0:0:0:0:
320,192,223043,1,0,0:0:0:0:
448,192,223215,1,0,0:0:0:0:
320,192,223215,1,0,0:0:0:0:
192,192,223301,1,0,0:0:0:0:
64,192,223301,1,0,0:0:0:0:
448,192,223474,1,0,0:0:0:0:
192,192,223474,1,0,0:0:0:0:
64,192,223474,1,0,0:0:0:0:
64,192,223646,1,0,0:0:0:0:
448,192,223646,1,0,0:0:0:0:
320,192,223732,1,0,0:0:0:0:
192,192,223732,1,0,0:0:0:0:
192,192,223905,1,0,0:0:0:0:
320,192,223905,1,0,0:0:0:0:
448,192,223991,1,0,0:0:0:0:
64,192,223991,1,0,0:0:0:0:
64,192,224163,128,0,224336:0:0:0:0:
192,192,224163,1,0,0:0:0:0:
448,192,224336,1,0,0:0:0:0:
64,192,224422,128,0,224595:0:0:0:0:
320,192,224508,1,0,0:0:0:0:
192,192,224508,1,0,0:0:0:0:
448,192,224595,1,0,0:0:0:0:
64,192,224681,128,0,224853:0:0:0:0:
320,192,224681,1,0,0:0:0:0:
192,192,224853,128,0,225112:0:0:0:0:
320,192,224853,1,0,0:0:0:0:
448,192,225026,1,0,0:0:0:0:
320,192,225112,1,0,0:0:0:0:
192,192,225198,128,0,225543:0:0:0:0:
64,192,225284,1,0,0:0:0:0:
320,192,225370,1,0,0:0:0:0:
64,192,225457,1,0,0:0:0:0:
448,192,225543,128,0,225888:0:0:0:0:
320,192,225543,1,0,0:0:0:0:
192,192,225715,1,0,0:0:0:0:
64,192,225801,128,0,226060:0:0:0:0:
320,192,225888,1,0,0:0:0:0:
192,192,225974,1,0,0:0:0:0:
320,192,226060,128,0,226232:0:0:0:0:
448,192,226060,1,0,0:0:0:0:
192,192,226232,128,0,226577:0:0:0:0:
64,192,226232,1,0,0:0:0:0:
320,192,226405,1,0,0:0:0:0:
64,192,226577,1,0,0:0:0:0:
320,192,226663,1,0,0:0:0:0:
448,192,226750,1,0,0:0:0:0:
192,192,226836,1,0,0:0:0:0:
64,192,226922,128,0,227267:0:0:0:0:
320,192,226922,1,0,0:0:0:0:
448,192,226922,1,0,0:0:0:0:
192,192,227008,1,0,0:0:0:0:
448,192,227095,1,0,0:0:0:0:
320,192,227181,1,0,0:0:0:0:
448,192,227267,128,0,227353:0:0:0:0:
192,192,227267,1,0,0:0:0:0:
64,192,227353,1,0,0:0:0:0:
448,192,227439,128,0,227526:0:0:0:0:
192,192,227439,1,0,0:0:0:0:
320,192,227526,1,0,0:0:0:0:
64,192,227612,128,0,227784:0:0:0:0:
192,192,227612,1,0,0:0:0:0:
320,192,227698,1,0,0:0:0:0:
64,192,227870,128,0,228043:0:0:0:0:
448,192,227870,1,0,0:0:0:0:
320,192,227957,1,0,0:0:0:0:
192,192,228043,1,0,0:0:0:0:
64,192,228129,128,0,228301:0:0:0:0:
448,192,228129,1,0,0:0:0:0:
320,192,228215,1,0,0:0:0:0:
192,192,228301,128,0,228474:0:0:0:0:
448,192,228301,1,0,0:0:0:0:
64,192,228474,1,0,0:0:0:0:
192,192,228560,128,0,228732:0:0:0:0:
448,192,228560,1,0,0:0:0:0:
320,192,228646,1,0,0:0:0:0:
448,192,228819,128,0,228991:0:0:0:0:
320,192,228819,1,0,0:0:0:0:
64,192,228905,1,0,0:0:0:0:
192,192,228991,128,0,229163:0:0:0:0:
320,192,228991,1,0,0:0:0:0:
192,192,229336,128,0,229681:0:0:0:0:
64,192,229336,1,0,0:0:0:0:
448,192,229422,1,0,0:0:0:0:
320,192,229508,1,0,0:0:0:0:
320,192,229681,128,0,230715:0:0:0:0:
64,192,229681,1,0,0:0:0:0:
448,192,229767,1,0,0:0:0:0:
192,192,229853,1,0,0:0:0:0:
64,192,230026,1,0,0:0:0:0:
192,192,230112,1,0,0:0:0:0:
448,192,230198,1,0,0:0:0:0:
64,192,230198,1,0,0:0:0:0:
192,192,230284,1,0,0:0:0:0:
448,192,230370,1,0,0:0:0:0:
64,192,230457,1,0,0:0:0:0:
448,192,230543,1,0,0:0:0:0:
192,192,230629,1,0,0:0:0:0:
64,192,230715,1,0,0:0:0:0:
448,192,230801,1,0,0:0:0:0:
192,192,230888,1,0,0:0:0:0:
64,192,230974,1,0,0:0:0:0:
320,192,231060,128,0,231405:0:0:0:0:
448,192,231060,128,0,231405:0:0:0:0:
448,192,231577,128,0,231663:0:0:0:0:
192,192,231577,128,0,231663:0:0:0:0:
320,192,231577,1,0,0:0:0:0:
64,192,231663,1,0,0:0:0:0:
192,192,231750,128,0,231922:0:0:0:0:
320,192,231750,128,0,231922:0:0:0:0:
448,192,231750,1,0,0:0:0:0:
64,192,232095,128,0,232439:0:0:0:0:
448,192,232095,128,0,232439:0:0:0:0:
192,192,232439,128,0,234336:0:0:0:0:
320,192,232439,128,0,233819:0:0:0:0:
448,192,232612,1,0,0:0:0:0:
64,192,232612,1,0,0:0:0:0:
64,192,232784,1,0,0:0:0:0:
448,192,232784,1,0,0:0:0:0:
64,192,232957,1,0,0:0:0:0:
448,192,232957,1,0,0:0:0:0:
448,192,233129,1,0,0:0:0:0:
64,192,233129,1,0,0:0:0:0:
64,192,233301,1,0,0:0:0:0:
448,192,233301,1,0,0:0:0:0:
448,192,233474,1,0,0:0:0:0:
64,192,233474,1,0,0:0:0:0:
64,192,233646,1,0,0:0:0:0:
448,192,233646,1,0,0:0:0:0:
448,192,233819,1,0,0:0:0:0:
64,192,233819,1,0,0:0:0:0:
320,192,233991,1,0,0:0:0:0:
448,192,233991,1,0,0:0:0:0:
64,192,234163,1,0,0:0:0:0:
320,192,234163,1,0,0:0:0:0:
448,192,234336,1,0,0:0:0:0:
64,192,234336,1,0,0:0:0:0:
320,192,234508,1,0,0:0:0:0:
448,192,234508,1,0,0:0:0:0:
192,192,234508,1,0,0:0:0:0:
64,192,234681,1,0,0:0:0:0:
320,192,234681,1,0,0:0:0:0:
448,192,234853,1,0,0:0:0:0:
192,192,234853,1,0,0:0:0:0:
64,192,235026,1,0,0:0:0:0:
192,192,235026,1,0,0:0:0:0:
448,192,235198,1,0,0:0:0:0:
320,192,235198,1,0,0:0:0:0:
64,192,235198,1,0,0:0:0:0:
192,192,235370,1,0,0:0:0:0:
320,192,235370,1,0,0:0:0:0:
64,192,235543,1,0,0:0:0:0:
448,192,235543,1,0,0:0:0:0:
448,192,235715,1,0,0:0:0:0:
320,192,235715,1,0,0:0:0:0:
64,192,235888,1,0,0:0:0:0:
192,192,235888,1,0,0:0:0:0:
448,192,236060,1,0,0:0:0:0:
192,192,236060,1,0,0:0:0:0:
64,192,236232,1,0,0:0:0:0:
448,192,236232,1,0,0:0:0:0:
320,192,236405,1,0,0:0:0:0:
192,192,236405,1,0,0:0:0:0:
64,192,236577,1,0,0:0:0:0:
192,192,236577,1,0,0:0:0:0:
448,192,236577,1,0,0:0:0:0:
448,192,236750,1,0,0:0:0:0:
320,192,236750,1,0,0:0:0:0:
64,192,236922,1,0,0:0:0:0:
320,192,236922,1,0,0:0:0:0:
448,192,237095,1,0,0:0:0:0:
192,192,237095,1,0,0:0:0:0:
64,192,237267,1,0,0:0:0:0:
192,192,237267,1,0,0:0:0:0:
448,192,237267,1,0,0:0:0:0:
64,192,237439,1,0,0:0:0:0:
320,192,237439,1,0,0:0:0:0:
192,192,237612,1,0,0:0:0:0:
320,192,237612,1,0,0:0:0:0:
448,192,237612,1,0,0:0:0:0:
64,192,237784,1,0,0:0:0:0:
192,192,237784,1,0,0:0:0:0:
320,192,237784,1,0,0:0:0:0:
448,192,237957,1,0,0:0:0:0:
192,192,237957,1,0,0:0:0:0:
64,192,237957,1,0,0:0:0:0:
320,192,238043,1,0,0:0:0:0:
448,192,238129,1,0,0:0:0:0:
64,192,238129,1,0,0:0:0:0:
192,192,238215,1,0,0:0:0:0:
320,192,238301,1,0,0:0:0:0:
448,192,238301,1,0,0:0:0:0:
192,192,238388,1,0,0:0:0:0:
64,192,238474,1,0,0:0:0:0:
320,192,238474,1,0,0:0:0:0:
448,192,238560,1,0,0:0:0:0:
192,192,238646,1,0,0:0:0:0:
320,192,238646,1,0,0:0:0:0:
64,192,238732,1,0,0:0:0:0:
448,192,238819,1,0,0:0:0:0:
192,192,238819,1,0,0:0:0:0:
320,192,238905,1,0,0:0:0:0:
64,192,238991,1,0,0:0:0:0:
448,192,238991,1,0,0:0:0:0:
192,192,239077,1,0,0:0:0:0:
64,192,239163,1,0,0:0:0:0:
320,192,239163,1,0,0:0:0:0:
448,192,239250,1,0,0:0:0:0:
320,192,239336,1,0,0:0:0:0:
192,192,239336,1,0,0:0:0:0:
64,192,239336,1,0,0:0:0:0:
448,192,239422,1,0,0:0:0:0:
192,192,239508,1,0,0:0:0:0:
320,192,239508,1,0,0:0:0:0:
64,192,239595,1,0,0:0:0:0:
448,192,239681,1,0,0:0:0:0:
192,192,239681,1,0,0:0:0:0:
320,192,239767,1,0,0:0:0:0:
64,192,239853,1,0,0:0:0:0:
448,192,239853,1,0,0:0:0:0:
192,192,239939,1,0,0:0:0:0:
320,192,240026,1,0,0:0:0:0:
448,192,240026,1,0,0:0:0:0:
64,192,240026,1,0,0:0:0:0:
192,192,240112,1,0,0:0:0:0:
320,192,240198,1,0,0:0:0:0:
64,192,240198,1,0,0:0:0:0:
448,192,240284,1,0,0:0:0:0:
192,192,240370,1,0,0:0:0:0:
320,192,240370,1,0,0:0:0:0:
64,192,240457,1,0,0:0:0:0:
448,192,240543,1,0,0:0:0:0:
192,192,240543,1,0,0:0:0:0:
320,192,240629,1,0,0:0:0:0:
64,192,240715,1,0,0:0:0:0:
192,192,240715,1,0,0:0:0:0:
448,192,240715,1,0,0:0:0:0:
320,192,240801,1,0,0:0:0:0:
448,192,240888,1,0,0:0:0:0:
64,192,240888,1,0,0:0:0:0:
192,192,240974,1,0,0:0:0:0:
320,192,241060,1,0,0:0:0:0:
64,192,241060,1,0,0:0:0:0:
448,192,241146,1,0,0:0:0:0:
320,192,241232,1,0,0:0:0:0:
192,192,241232,1,0,0:0:0:0:
64,192,241319,1,0,0:0:0:0:
448,192,241405,1,0,0:0:0:0:
320,192,241405,1,0,0:0:0:0:
192,192,241491,1,0,0:0:0:0:
64,192,241577,1,0,0:0:0:0:
448,192,241577,1,0,0:0:0:0:
320,192,241663,1,0,0:0:0:0:
448,192,241750,1,0,0:0:0:0:
192,192,241750,1,0,0:0:0:0:
64,192,241836,1,0,0:0:0:0:
320,192,241922,1,0,0:0:0:0:
192,192,241922,1,0,0:0:0:0:
448,192,242008,1,0,0:0:0:0:
64,192,242095,1,0,0:0:0:0:
192,192,242095,1,0,0:0:0:0:
320,192,242095,1,0,0:0:0:0:
448,192,242181,1,0,0:0:0:0:
64,192,242267,1,0,0:0:0:0:
320,192,242267,1,0,0:0:0:0:
192,192,242353,1,0,0:0:0:0:
448,192,242439,1,0,0:0:0:0:
320,192,242439,1,0,0:0:0:0:
64,192,242526,1,0,0:0:0:0:
448,192,242612,1,0,0:0:0:0:
192,192,242612,1,0,0:0:0:0:
320,192,242698,1,0,0:0:0:0:
64,192,242784,128,0,243129:0:0:0:0:
192,192,242784,1,0,0:0:0:0:
448,192,242784,1,0,0:0:0:0:
192,192,243129,128,0,243301:0:0:0:0:
448,192,243301,128,0,243474:0:0:0:0:
320,192,243301,1,0,0:0:0:0:
192,192,243388,1,0,0:0:0:0:
320,192,243474,128,0,243560:0:0:0:0:
64,192,243474,1,0,0:0:0:0:
448,192,243646,1,0,0:0:0:0:
64,192,243819,1,0,0:0:0:0:
320,192,243991,1,0,0:0:0:0:
448,192,244163,1,0,0:0:0:0:
64,192,244336,1,0,0:0:0:0:
192,192,244422,1,0,0:0:0:0:
64,192,244508,1,0,0:0:0:0:
448,192,244681,1,0,0:0:0:0:
64,192,244853,128,0,245112:0:0:0:0:
192,192,244853,128,0,245112:0:0:0:0:
448,192,244853,128,0,245112:0:0:0:0:
192,192,245198,128,0,245457:0:0:0:0:
320,192,245198,128,0,245457:0:0:0:0:
448,192,245198,128,0,245457:0:0:0:0:
64,192,245543,128,0,245974:0:0:0:0:
192,192,245543,128,0,247612:0:0:0:0:
320,192,245543,128,0,247612:0:0:0:0:
448,192,245543,128,0,247612:0:0:0:0:
