osu file format v14

[General]
AudioFilename: audio.mp3
AudioLeadIn: 0
PreviewTime: 69599
Countdown: 1
SampleSet: None
StackLeniency: 0.4
Mode: 0
LetterboxInBreaks: 0
WidescreenStoryboard: 0

[Editor]
Bookmarks: 2099,13133,18651,24168,35202,46237,57271,60030,62788,68306,69685,80720,86237,91754,102788,109685,113823,116582,122099,127616,138651,144168,149685,151064,162099,167616,173133,181409,184168,189685,195202,200720,203478,206237,217271,218651,226926,229685,232444,237961,243478,244857
DistanceSpacing: 0.5
BeatDivisor: 4
GridSize: 32
TimelineZoom: 2.3

[Metadata]
Title:Danzai No Honoo To Koibito-Tachi No Rondo
TitleUnicode:断罪の焔と恋人たちの輪舞曲
Artist:Imperial Circus Dead Decadence
ArtistUnicode:Imperial Circus Dead Decadence
Creator:Gottagof4st
Version:Piercing Pain
Source:osu!
Tags:Mun ggf gottagofast icdd egg and cheese featured artist mappers guild hakura
BeatmapID:2012740
BeatmapSetID:961431

[Difficulty]
HPDrainRate:5
CircleSize:4
OverallDifficulty:8.5
ApproachRate:9.3
SliderMultiplier:1.7
SliderTickRate:1

[Events]
//Background and Video events
0,0,"bg.jpg",0,0
//Break Periods
2,206437,216717
//Storyboard Layer 0 (Background)
//Storyboard Layer 1 (Fail)
//Storyboard Layer 2 (Pass)
//Storyboard Layer 3 (Foreground)
//Storyboard Sound Samples

[TimingPoints]
720,344.827586206897,4,3,1,50,1,0
2099,-125,4,3,1,50,0,0
4771,-125,4,3,1,5,0,0
4857,-125,4,3,1,50,0,0
10288,-125,4,3,1,5,0,0
10374,-125,4,3,1,50,0,0
13133,-76.9230769230769,4,3,1,80,0,0
24168,-76.9230769230769,4,3,1,70,0,0
26840,-76.9230769230769,4,3,1,5,0,0
26926,-76.9230769230769,4,3,1,70,0,0
32357,-76.9230769230769,4,3,1,5,0,0
32443,-76.9230769230769,4,3,1,90,0,0
34857,-125,4,3,1,90,0,0
35202,-76.9230769230769,4,3,1,90,0,0
46237,-76.9230769230769,4,3,1,70,0,0
56926,-90.9090909090909,4,3,1,100,0,0
57271,-76.9230769230769,4,3,1,100,0,0
60030,-100,4,3,1,100,0,0
68995,-500,4,3,1,100,0,0
69685,-62.5,4,3,1,100,0,1
79340,-71.4285714285714,4,3,1,100,0,1
80720,-71.4285714285714,4,3,1,80,0,0
86237,-71.4285714285714,4,3,1,80,0,0
91754,-71.4285714285714,4,3,1,90,0,1
102788,-83.3333333333333,4,3,1,80,0,0
108306,-76.9230769230769,4,3,1,90,0,0
116582,-76.9230769230769,4,3,1,100,0,0
127616,-111.111111111111,4,3,1,70,0,0
141409,-99.9999999999999,4,3,1,70,0,0
150375,-500,4,3,1,80,0,0
151064,-62.5,4,3,1,100,0,1
160720,-71.4285714285714,4,3,1,100,0,0
167616,-71.4285714285714,4,3,1,80,0,0
173133,-71.4285714285714,4,3,1,90,0,0
186237,-66.6666666666667,4,3,1,90,0,0
188306,-83.3333333333333,4,3,1,90,0,0
189685,-66.6666666666667,4,3,1,100,0,0
195202,-66.6666666666667,4,3,1,100,0,1
197961,-76.9230769230769,4,3,1,100,0,1
200720,-66.6666666666667,4,3,1,100,0,1
206237,-66.6666666666667,4,3,1,100,0,0
209340,-333.333333333333,4,3,1,100,0,0
217271,-142.857142857143,4,2,1,40,0,0
218651,-71.4285714285714,4,3,1,100,0,1
231064,-200,4,3,1,100,0,1
232444,-76.9230769230769,4,3,1,100,0,0
243047,-76.9230769230769,4,2,1,5,0,0
243133,-76.9230769230769,4,3,1,100,0,0
244857,-66.6666666666667,4,3,1,80,0,0
245116,-66.6666666666667,4,3,1,5,0,0
245202,-66.6666666666667,4,3,1,80,0,0
245461,-66.6666666666667,4,3,1,5,0,0
245547,-62.5,4,3,1,80,0,0
245892,-62.5,4,2,1,40,0,0

[Colours]
Combo1 : 255,200,34
Combo2 : 240,170,38
Combo3 : 156,46,216
Combo4 : 40,174,225

[HitObjects]
57,49,2099,6,0,L|147:46,1,68,8|0,0:0|0:0,0:0:0:0:
176,137,2444,2,0,L|108:134,1,68,0|0,0:0|0:0,0:0:0:0:
54,200,2788,1,0,0:0:0:0:
121,265,2961,1,0,0:0:0:0:
121,265,3047,1,0,0:0:0:0:
121,265,3133,1,0,0:0:0:0:
63,330,3306,1,0,0:0:0:0:
223,354,3478,6,0,L|213:209,2,136,8|0|0,0:0|0:0|0:0,0:0:0:0:
223,354,4513,2,0,P|270:339|321:346,1,102,0|0,0:0|2:0,0:0:0:0:
351,368,4857,6,0,L|341:268,1,68,8|0,0:0|0:0,0:0:0:0:
461,232,5202,2,0,L|451:332,1,68,0|0,0:0|0:0,0:0:0:0:
370,210,5547,1,0,0:0:0:0:
431,134,5720,1,0,0:0:0:0:
431,134,5806,1,0,0:0:0:0:
431,134,5892,1,0,0:0:0:0:
345,64,6064,1,0,0:0:0:0:
236,177,6237,6,0,L|246:326,2,136,8|0|8,0:0|0:0|0:0,0:0:0:0:
142,32,7271,1,0,0:0:0:0:
111,190,7616,6,0,P|119:157|110:123,1,68,8|0,0:0|0:0,0:0:0:0:
20,130,7961,2,0,P|12:163|21:197,1,68,0|0,0:0|0:0,0:0:0:0:
66,266,8306,1,0,0:0:0:0:
23,344,8478,1,0,0:0:0:0:
23,344,8564,1,0,0:0:0:0:
23,344,8651,1,0,0:0:0:0:
107,378,8823,1,0,0:0:0:0:
229,308,8995,6,0,L|378:325,2,136,8|0|0,0:0|0:0|0:0,0:0:0:0:
229,308,10030,2,0,P|248:269|255:201,1,102,8|0,0:0|2:0,0:0:0:0:
240,182,10375,6,0,L|330:188,1,68,8|0,0:0|0:0,0:0:0:0:
459,125,10720,2,0,L|369:131,1,68,0|0,0:0|0:0,0:0:0:0:
304,70,11064,1,0,0:0:0:0:
225,16,11237,1,2,0:0:0:0:
204,18,11323,1,2,0:0:0:0:
183,20,11409,1,2,0:0:0:0:
162,22,11495,1,2,0:0:0:0:
141,24,11582,1,0,0:0:0:0:
56,112,11754,5,0,0:0:0:0:
58,139,11840,1,0,0:0:0:0:
60,166,11926,1,0,0:0:0:0:
62,193,12013,1,0,0:0:0:0:
49,217,12099,2,0,L|3:214,3,34,0|0|0|0,0:0|0:0|0:0|0:0,0:0:0:0:
121,289,12444,5,0,0:0:0:0:
143,274,12530,1,0,0:0:0:0:
168,265,12616,1,0,0:0:0:0:
195,262,12702,1,0,0:0:0:0:
216,278,12788,2,0,L|228:329,3,34,0|0|0|0,0:0|0:0|0:0|0:0,0:0:0:0:
286,213,13133,6,0,L|400:219,1,110.499994941712,8|0,0:0|0:0,0:0:0:0:
291,118,13478,1,2,0:0:0:0:
353,316,13651,1,0,0:0:0:0:
441,101,13823,1,2,0:0:0:0:
262,216,13996,1,0,0:0:0:0:
241,218,14082,1,0,0:0:0:0:
220,220,14168,1,2,0:0:0:0:
362,47,14340,1,0,0:0:0:0:
474,253,14513,6,0,P|480:313|479:363,1,110.499994941712,2|0,0:0|0:0,0:0:0:0:
220,220,14857,2,0,P|214:160|215:110,1,110.499994941712,2|0,0:0|0:0,0:0:0:0:
362,47,15202,1,2,0:0:0:0:
273,297,15375,1,0,0:0:0:0:
119,95,15547,2,0,P|62:86|3:104,1,110.499994941712,2|0,0:0|0:0,0:0:0:0:
61,304,15892,6,0,L|67:190,1,110.499994941712,8|0,0:0|0:0,0:0:0:0:
191,34,16237,1,2,0:0:0:0:
41,204,16410,1,0,0:0:0:0:
252,110,16582,1,2,0:0:0:0:
20,34,16755,1,0,0:0:0:0:
18,55,16841,1,0,0:0:0:0:
16,76,16927,1,2,0:0:0:0:
151,232,17099,1,0,0:0:0:0:
282,28,17272,6,0,P|342:22|392:23,1,110.499994941712,2|0,0:0|0:0,0:0:0:0:
261,236,17616,2,0,P|201:230|151:231,1,110.499994941712,2|0,0:0|0:0,0:0:0:0:
336,102,17961,1,2,0:0:0:0:
127,247,18134,1,0,0:0:0:0:
337,285,18306,2,0,P|352:230|333:178,1,110.499994941712,2|2,0:0|0:0,0:0:0:0:
166,115,18651,6,0,B|141:111|141:111|105:117,3,55.2499974708558,2|0|2|0,0:0|0:0|0:0|0:0,0:0:0:0:
3,204,18995,2,0,B|28:200|28:200|64:206,3,55.2499974708558,2|0|2|0,0:0|0:0|0:0|0:0,0:0:0:0:
66,335,19340,1,2,0:0:0:0:
92,343,19426,1,0,0:0:0:0:
119,348,19512,1,2,0:0:0:0:
146,345,19598,1,0,0:0:0:0:
173,338,19684,1,2,0:0:0:0:
199,330,19771,1,0,0:0:0:0:
227,327,19857,1,2,0:0:0:0:
254,331,19943,1,0,0:0:0:0:
281,338,20030,6,0,L|276:279,3,55.2499974708558,2|0|2|0,0:0|0:0|0:0|0:0,0:0:0:0:
376,192,20375,2,0,L|371:251,3,55.2499974708558,2|0|2|0,0:0|0:0|0:0|0:0,0:0:0:0:
472,367,20720,2,0,L|461:302,1,55.2499974708558,2|0,0:0|0:0,0:0:0:0:
360,174,20892,2,0,L|355:233,1,55.2499974708558,2|0,0:0|0:0,0:0:0:0:
512,95,21064,1,2,0:0:0:0:
472,93,21151,1,0,0:0:0:0:
433,91,21237,1,2,0:0:0:0:
394,90,21323,1,0,0:0:0:0:
355,89,21409,6,0,P|347:59|344:26,3,55.2499974708558,2|0|2|0,0:0|0:0|0:0|0:0,0:0:0:0:
230,158,21754,2,0,P|238:188|241:221,3,55.2499974708558,2|0|2|0,0:0|0:0|0:0|0:0,0:0:0:0:
168,33,22099,2,0,L|90:41,1,55.2499974708558,2|0,0:0|0:0,0:0:0:0:
17,171,22271,1,2,0:0:0:0:
17,171,22357,1,0,0:0:0:0:
17,171,22444,2,0,L|95:179,3,55.2499974708558,2|0|2|0,0:0|0:0|0:0|0:0,0:0:0:0:
61,318,22788,5,2,0:0:0:0:
88,319,22874,1,0,0:0:0:0:
115,315,22960,1,2,0:0:0:0:
141,306,23046,1,0,0:0:0:0:
164,291,23132,1,2,0:0:0:0:
184,271,23219,1,0,0:0:0:0:
199,248,23305,1,2,0:0:0:0:
208,222,23391,1,0,0:0:0:0:
212,195,23477,1,0,0:0:0:0:
210,167,23563,1,0,0:0:0:0:
202,141,23651,6,0,P|193:108|191:82,1,55.2499974708558,0|0,1:0|0:0,0:0:0:0:
71,176,23823,2,0,P|68:210|61:235,1,55.2499974708558,0|0,1:0|3:0,0:0:0:0:
213,291,23995,1,0,1:0:0:0:
232,302,24082,1,0,1:0:0:0:
251,311,24168,6,0,L|377:299,1,110.499994941712,10|2,0:0|0:0,0:0:0:0:
417,154,24513,1,0,0:0:0:0:
410,180,24599,1,0,0:0:0:0:
410,207,24685,1,2,0:0:0:0:
510,370,24857,2,0,B|520:318|520:318|504:262,1,110.499994941712,0|2,0:0|0:0,0:0:0:0:
430,126,25202,1,0,0:0:0:0:
285,338,25375,1,2,0:0:0:0:
285,338,25461,1,0,0:0:0:0:
285,338,25547,6,0,P|230:348|172:347,1,110.499994941712,8|2,0:0|0:0,0:0:0:0:
114,145,25892,1,0,0:0:0:0:
229,212,26064,1,2,0:0:0:0:
225,239,26151,1,0,0:0:0:0:
220,265,26237,1,0,0:0:0:0:
32,210,26409,1,2,0:0:0:0:
212,54,26582,2,0,B|239:96|239:96|227:222,1,165.749992412568,0|0,0:0|2:0,0:0:0:0:
225,239,26926,6,0,L|351:227,1,110.499994941712,0|2,0:0|0:0,0:0:0:0:
468,103,27271,1,0,0:0:0:0:
441,96,27357,1,0,0:0:0:0:
413,99,27443,1,2,0:0:0:0:
449,300,27615,2,0,B|457:244|457:244|445:190,1,110.499994941712,0|2,0:0|0:0,0:0:0:0:
331,334,27960,1,0,0:0:0:0:
209,151,28132,1,2,0:0:0:0:
209,151,28219,1,0,0:0:0:0:
209,151,28305,6,0,P|196:90|191:30,1,110.499994941712,0|2,0:0|0:0,0:0:0:0:
320,152,28650,1,0,0:0:0:0:
60,121,28822,1,2,0:0:0:0:
60,121,28909,1,0,0:0:0:0:
60,121,28995,1,0,0:0:0:0:
36,135,29081,1,0,0:0:0:0:
18,156,29167,1,2,0:0:0:0:
7,181,29253,1,0,0:0:0:0:
5,209,29339,1,0,0:0:0:0:
10,236,29426,1,0,0:0:0:0:
23,260,29512,1,2,0:0:0:0:
43,279,29598,1,2,0:0:0:0:
67,289,29685,6,0,L|193:277,1,110.499994941712,8|2,0:0|0:0,0:0:0:0:
296,101,30030,1,0,0:0:0:0:
296,101,30116,1,0,0:0:0:0:
296,101,30202,1,2,0:0:0:0:
403,313,30374,2,0,P|412:263|393:205,1,110.499994941712,0|2,0:0|0:0,0:0:0:0:
211,175,30719,1,0,0:0:0:0:
344,362,30891,1,2,0:0:0:0:
344,362,30978,1,0,0:0:0:0:
344,362,31064,6,0,L|465:370,1,110.499994941712,0|2,0:0|0:0,0:0:0:0:
305,185,31409,1,0,0:0:0:0:
211,319,31581,1,2,0:0:0:0:
206,346,31668,1,0,0:0:0:0:
202,373,31754,1,0,0:0:0:0:
53,218,31926,1,2,0:0:0:0:
215,113,32099,2,0,B|186:143|186:143|57:120,1,165.749992412568,0|0,0:0|2:0,0:0:0:0:
28,110,32444,6,0,L|16:-16,1,110.499994941712,0|2,0:0|0:0,0:0:0:0:
224,59,32788,1,0,0:0:0:0:
219,86,32875,1,0,0:0:0:0:
215,113,32961,1,2,0:0:0:0:
53,218,33133,2,0,L|41:92,1,110.499994941712,0|2,0:0|0:0,0:0:0:0:
165,277,33478,1,0,0:0:0:0:
322,115,33650,1,2,0:0:0:0:
322,115,33737,1,0,0:0:0:0:
322,115,33823,6,0,P|271:102|213:113,1,110.499994941712,2|0,0:0|0:0,0:0:0:0:
219,134,34082,1,0,0:0:0:0:
223,155,34168,1,0,0:0:0:0:
227,176,34254,1,0,0:0:0:0:
231,197,34340,1,2,0:0:0:0:
235,218,34426,1,2,0:0:0:0:
239,239,34513,5,0,0:0:0:0:
313,288,34685,1,0,0:0:0:0:
383,231,34858,2,0,L|466:235,1,68,2|0,0:0|0:0,0:0:0:0:
464,242,35116,1,0,0:0:0:0:
479,254,35202,6,0,L|489:368,1,110.499994941712,8|0,0:0|0:0,0:0:0:0:
421,156,35547,1,2,0:0:0:0:
313,288,35720,1,0,0:0:0:0:
352,97,35892,1,2,0:0:0:0:
406,319,36065,1,0,0:0:0:0:
408,340,36151,1,0,0:0:0:0:
410,361,36237,1,2,0:0:0:0:
296,169,36409,1,0,0:0:0:0:
201,358,36582,6,0,P|141:345|91:338,1,110.499994941712,2|0,0:0|0:0,0:0:0:0:
296,169,36926,2,0,P|356:156|406:149,1,110.499994941712,2|0,0:0|0:0,0:0:0:0:
219,106,37271,1,2,0:0:0:0:
172,268,37444,1,0,0:0:0:0:
64,59,37616,2,0,P|26:90|15:153,1,110.499994941712,2|0,0:0|0:0,0:0:0:0:
172,268,37961,6,0,L|286:274,1,110.499994941712,10|0,0:0|0:0,0:0:0:0:
93,136,38306,1,2,0:0:0:0:
92,338,38479,1,0,0:0:0:0:
191,127,38651,1,2,0:0:0:0:
25,266,38824,1,0,0:0:0:0:
20,244,38910,1,0,0:0:0:0:
26,223,38996,1,2,0:0:0:0:
178,361,39168,1,0,0:0:0:0:
215,110,39341,6,0,P|222:57|227:-1,1,110.499994941712,2|0,0:0|0:0,0:0:0:0:
13,147,39685,2,0,P|68:151|122:158,1,110.499994941712,2|0,0:0|0:0,0:0:0:0:
241,266,40030,1,2,0:0:0:0:
328,140,40203,1,0,0:0:0:0:
503,268,40375,2,0,P|449:256|387:256,1,110.499994941712,2|0,0:0|0:0,0:0:0:0:
234,297,40720,6,0,B|230:323|230:323|232:358,3,55.2499974708558,10|0|2|0,0:0|0:0|0:0|0:0,0:0:0:0:
325,194,41064,2,0,B|329:168|329:168|327:133,3,55.2499974708558,2|0|2|0,0:0|0:0|0:0|0:0,0:0:0:0:
165,262,41409,1,2,0:0:0:0:
130,258,41495,1,0,0:0:0:0:
97,269,41581,1,2,0:0:0:0:
63,271,41667,1,0,0:0:0:0:
32,258,41753,1,2,0:0:0:0:
11,231,41840,1,0,0:0:0:0:
4,197,41926,1,2,0:0:0:0:
13,164,42012,1,0,0:0:0:0:
33,136,42099,6,0,L|28:77,3,55.2499974708558,10|0|2|0,0:0|0:0|0:0|0:0,0:0:0:0:
132,8,42444,2,0,L|127:67,3,55.2499974708558,2|0|2|0,0:0|0:0|0:0|0:0,0:0:0:0:
218,180,42788,2,0,L|213:121,1,55.2499974708558,2|0,0:0|0:0,0:0:0:0:
317,52,42961,2,0,L|312:111,1,55.2499974708558,2|0,0:0|0:0,0:0:0:0:
351,245,43133,1,2,0:0:0:0:
388,256,43220,1,0,0:0:0:0:
426,254,43306,1,2,0:0:0:0:
461,239,43392,1,0,0:0:0:0:
486,209,43478,6,0,L|480:149,3,55.2499974708558,10|0|2|0,0:0|0:0|0:0|0:0,0:0:0:0:
296,22,43823,1,2,0:0:0:0:
291,49,43909,1,0,0:0:0:0:
286,76,43995,1,2,0:0:0:0:
281,103,44082,1,0,0:0:0:0:
277,130,44168,2,0,L|336:125,1,55.2499974708558,2|0,0:0|0:0,0:0:0:0:
198,208,44340,2,0,L|139:203,1,55.2499974708558,2|0,0:0|0:0,0:0:0:0:
309,148,44513,2,0,L|368:143,1,55.2499974708558,2|0,0:0|0:0,0:0:0:0:
182,234,44685,2,0,L|123:229,1,55.2499974708558,2|0,0:0|0:0,0:0:0:0:
15,37,44857,5,10,0:0:0:0:
39,20,44943,1,0,0:0:0:0:
67,10,45029,1,2,0:0:0:0:
96,10,45115,1,0,0:0:0:0:
122,24,45201,1,2,0:0:0:0:
139,47,45288,1,0,0:0:0:0:
145,76,45374,1,2,0:0:0:0:
139,105,45460,1,0,0:0:0:0:
124,130,45546,5,2,0:0:0:0:
64,291,45719,1,2,0:0:0:0:
210,187,45891,1,2,0:0:0:0:
90,312,46063,1,2,0:0:0:0:
90,312,46150,1,0,0:0:0:0:
90,312,46237,6,0,L|216:300,1,110.499994941712,8|2,0:0|0:0,0:0:0:0:
358,203,46582,1,0,0:0:0:0:
366,229,46668,1,0,0:0:0:0:
363,256,46754,1,2,0:0:0:0:
162,220,46926,2,0,L|288:232,1,110.499994941712,0|2,0:0|0:0,0:0:0:0:
360,358,47271,1,0,0:0:0:0:
475,147,47443,1,2,0:0:0:0:
475,147,47530,1,0,0:0:0:0:
475,147,47616,6,0,P|457:200|450:264,1,110.499994941712,0|2,0:0|0:0,0:0:0:0:
366,71,47961,1,0,0:0:0:0:
278,228,48133,1,2,0:0:0:0:
256,209,48220,1,0,0:0:0:0:
244,183,48306,1,0,0:0:0:0:
240,155,48392,1,0,0:0:0:0:
243,127,48478,1,2,0:0:0:0:
113,0,48651,2,0,P|129:49|131:116,1,110.499994941712,0|2,0:0|0:0,0:0:0:0:
0,269,48995,6,0,L|115:260,1,110.499994941712,0|2,0:0|0:0,0:0:0:0:
231,127,49340,1,0,0:0:0:0:
231,127,49426,1,0,0:0:0:0:
231,127,49512,1,2,0:0:0:0:
190,310,49684,2,0,P|199:249|172:189,1,110.499994941712,0|2,0:0|0:0,0:0:0:0:
5,186,50029,1,0,0:0:0:0:
140,364,50201,1,2,0:0:0:0:
140,364,50288,1,0,0:0:0:0:
140,364,50374,6,0,L|261:356,1,110.499994941712,0|2,0:0|0:0,0:0:0:0:
328,218,50719,1,0,0:0:0:0:
459,330,50891,1,2,0:0:0:0:
459,330,50978,1,0,0:0:0:0:
459,330,51064,2,0,B|463:359|463:359|456:399,3,55.2499974708558,0|0|2|0,0:0|0:0|0:0|0:0,0:0:0:0:
436,300,51409,1,0,0:0:0:0:
438,272,51495,1,0,0:0:0:0:
440,244,51582,1,2,0:0:0:0:
442,216,51668,1,0,0:0:0:0:
444,189,51754,6,0,P|419:143|372:103,1,110.499994941712,4|2,0:2|0:0,0:0:0:0:
219,110,52099,1,0,0:0:0:0:
219,110,52185,1,0,0:0:0:0:
219,110,52271,1,2,0:0:0:0:
308,311,52444,2,0,P|335:266|346:205,1,110.499994941712,0|2,0:0|0:0,0:0:0:0:
219,110,52788,1,0,0:0:0:0:
104,298,52960,1,2,0:0:0:0:
104,298,53047,1,0,0:0:0:0:
104,298,53133,6,0,L|225:306,1,110.499994941712,0|2,0:0|0:0,0:0:0:0:
46,198,53478,1,0,0:0:0:0:
219,110,53651,1,2,0:0:0:0:
230,84,53737,1,0,0:0:0:0:
233,56,53823,1,0,0:0:0:0:
227,28,53909,1,0,0:0:0:0:
211,4,53995,1,2,0:0:0:0:
33,59,54168,2,0,L|153:65,1,110.499994941712,0|2,0:0|0:0,0:0:0:0:
301,177,54513,6,0,B|262:180|262:180|236:189|236:189|191:192,1,110.499994941712,0|2,0:0|0:0,0:0:0:0:
393,207,54858,1,0,0:0:0:0:
397,179,54944,1,0,0:0:0:0:
393,151,55030,1,2,0:0:0:0:
276,264,55202,2,0,L|286:374,1,110.499994941712,0|2,0:0|0:0,0:0:0:0:
192,191,55547,1,0,0:0:0:0:
110,362,55719,1,2,0:0:0:0:
110,362,55806,1,0,0:0:0:0:
110,362,55892,6,0,P|47:377|0:363,1,110.499994941712,0|2,0:0|0:0,0:0:0:0:
0,342,56151,1,0,0:0:0:0:
1,315,56237,1,0,0:0:0:0:
2,288,56323,1,0,0:0:0:0:
3,261,56409,1,2,0:0:0:0:
4,234,56495,1,0,0:0:0:0:
5,207,56582,5,0,0:0:0:0:
173,120,56754,1,0,0:0:0:0:
276,264,56927,2,0,P|321:275|367:264,1,93.5000028533936,4|0,0:2|0:0,0:0:0:0:
424,216,57185,1,0,0:0:0:0:
424,216,57271,6,0,L|418:330,1,110.499994941712,8|0,0:0|0:0,0:0:0:0:
36,22,57788,5,0,0:0:0:0:
36,22,57875,1,0,0:0:0:0:
36,22,57961,1,8,0:0:0:0:
13,113,58133,1,0,0:0:0:0:
135,80,58306,1,0,0:0:0:0:
64,240,58478,5,8,0:0:0:0:
68,244,58909,1,0,0:0:0:0:
68,244,58995,2,0,L|61:299,1,55.2499974708558
141,158,59340,5,0,0:0:0:0:
284,185,59599,1,0,0:0:0:0:
427,212,59857,1,0,0:0:0:0:
503,282,60030,2,0,P|464:240|459:131,1,170,4|0,0:1|0:0,0:0:0:0:
512,3,60547,1,0,0:0:0:0:
442,116,60720,5,8,0:0:0:0:
310,98,60978,1,0,0:0:0:0:
178,80,61237,1,0,0:0:0:0:
129,12,61409,2,0,P|152:61|146:101,1,85,2|0,0:0|0:0,0:0:0:0:
36,153,61754,1,2,0:0:0:0:
30,177,61840,1,2,0:0:0:0:
27,202,61926,1,2,0:0:0:0:
28,227,62013,1,2,0:0:0:0:
32,252,62099,5,0,0:0:0:0:
32,252,62185,1,0,0:0:0:0:
168,209,62357,1,0,0:0:0:0:
168,209,62444,2,0,L|215:202,1,42.5,0|0,0:0|0:0,0:0:0:0:
152,319,62616,2,0,L|105:312,1,42.5,0|0,0:0|0:0,0:0:0:0:
243,382,62788,5,0,0:0:0:0:
231,284,62961,1,0,0:0:0:0:
329,272,63133,1,0,0:0:0:0:
341,370,63306,1,0,0:0:0:0:
231,284,63478,5,4,0:2:0:0:
391,201,63651,1,2,0:0:0:0:
395,205,63909,1,0,0:0:0:0:
395,205,63995,2,0,B|396:87|396:87|424:149,1,170,0|2,0:0|0:0,0:0:0:0:
460,269,64513,5,0,0:0:0:0:
460,269,64599,1,0,0:0:0:0:
460,269,64685,2,0,L|471:331,2,42.5,0|0|0,0:0|0:0|0:0,0:0:0:0:
328,299,65116,1,0,0:0:0:0:
203,327,65375,1,0,0:0:0:0:
90,357,65547,6,0,L|94:241,1,85,4|2,0:2|0:0,0:0:0:0:
17,137,65892,2,0,P|51:166|95:165,1,85,0|0,0:0|0:0,0:0:0:0:
182,41,66237,5,2,0:0:0:0:
328,56,66495,1,2,0:0:0:0:
471,72,66754,1,2,0:0:0:0:
308,40,66926,6,0,P|275:116|309:191,1,170,8|2,0:0|0:0,0:0:0:0:
335,209,67357,1,2,0:0:0:0:
335,209,67444,2,0,L|385:203,3,42.5,0|0|0|0,0:0|0:0|0:0|0:0,0:0:0:0:
261,285,67875,2,0,L|211:278,1,42.5,0|0,0:0|0:0,0:0:0:0:
89,324,68133,1,2,0:0:0:0:
92,345,68220,1,2,0:0:0:0:
95,365,68306,5,2,0:0:0:0:
3,271,68478,1,0,0:0:0:0:
68,172,68651,1,0,0:0:0:0:
6,62,68823,1,0,0:0:0:0:
33,88,68995,6,0,L|85:88,1,51,0|0,0:0|0:0,0:0:0:0:
84,88,69685,6,0,B|131:78|131:78|171:87|171:87|220:80,1,136,2|0,0:0|0:0,0:0:0:0:
401,181,70030,2,0,B|354:171|354:171|314:180|314:180|265:173,1,136,2|0,0:0|0:0,0:0:0:0:
242,170,70288,1,0,0:0:0:0:
242,170,70375,1,2,0:0:0:0:
405,39,70547,1,0,0:0:0:0:
354,249,70720,2,0,P|345:311|346:389,1,136,2|0,0:0|0:0,0:0:0:0:
311,102,71064,5,2,0:0:0:0:
219,252,71237,1,0,0:0:0:0:
217,80,71409,1,2,0:0:0:0:
215,273,71582,1,0,0:0:0:0:
450,110,71754,5,2,0:0:0:0:
159,146,71926,1,0,0:0:0:0:
132,141,72012,1,0,0:0:0:0:
106,137,72099,1,2,0:0:0:0:
354,249,72271,1,0,0:0:0:0:
362,17,72444,6,0,B|316:70|316:70|344:282,1,272,2|2,0:0|0:0,0:0:0:0:
164,353,72961,1,0,0:0:0:0:
164,353,73047,1,0,0:0:0:0:
164,353,73133,2,0,P|187:283|201:223,1,136,2|0,0:0|0:0,0:0:0:0:
5,59,73478,2,0,P|28:129|42:189,1,136,2|0,0:0|0:0,0:0:0:0:
9,372,73823,5,2,0:0:0:0:
225,237,73995,1,0,0:0:0:0:
0,353,74168,1,2,0:0:0:0:
245,254,74340,1,0,0:0:0:0:
84,160,74513,5,0,0:0:0:0:
56,159,74599,1,0,0:0:0:0:
29,164,74685,1,2,0:0:0:0:
205,11,74857,1,0,0:0:0:0:
236,26,74943,1,0,0:0:0:0:
269,34,75029,1,0,0:0:0:0:
304,36,75116,1,0,0:0:0:0:
338,33,75202,6,0,B|382:25|382:25|473:39,1,136,0|2,0:0|0:0,0:0:0:0:
388,201,75547,1,0,0:0:0:0:
385,168,75633,1,0,0:0:0:0:
382,134,75720,1,2,0:0:0:0:
456,296,75892,2,0,P|384:314|321:297,1,136,0|2,0:0|0:0,0:0:0:0:
267,248,76151,1,0,0:0:0:0:
233,253,76237,1,0,0:0:0:0:
199,258,76323,1,0,0:0:0:0:
165,263,76409,1,2,0:0:0:0:
38,350,76582,5,0,0:0:0:0:
111,137,76754,1,2,0:0:0:0:
255,363,76926,1,0,0:0:0:0:
289,368,77012,1,0,0:0:0:0:
323,373,77098,1,2,0:0:0:0:
357,378,77184,1,0,0:0:0:0:
390,384,77271,2,0,B|403:338|403:338|397:306|397:306|411:244,1,136,0|2,0:0|0:0,0:0:0:0:
247,115,77616,2,0,B|260:161|260:161|254:193|254:193|268:255,1,136,0|2,0:0|0:0,0:0:0:0:
255,283,77875,1,0,0:0:0:0:
255,283,77961,6,0,L|181:280,1,68,0|0,0:0|0:0,0:0:0:0:
341,196,78133,1,0,0:0:0:0:
119,89,78306,1,0,0:0:0:0:
137,125,78392,1,0,0:0:0:0:
173,145,78478,1,0,0:0:0:0:
214,140,78564,1,0,0:0:0:0:
247,115,78651,1,4,0:2:0:0:
263,76,78737,1,0,0:0:0:0:
294,48,78823,1,0,0:0:0:0:
333,32,78909,1,0,0:0:0:0:
374,33,78995,1,0,0:0:0:0:
413,48,79082,1,0,0:0:0:0:
444,74,79168,1,0,0:0:0:0:
457,112,79254,1,0,0:0:0:0:
449,153,79340,6,0,L|327:157,1,118.999996368408,8|0,0:0|0:0,0:0:0:0:
207,247,79685,1,0,1:0:0:0:
207,247,79771,1,0,1:0:0:0:
207,247,79857,1,0,0:0:0:0:
478,175,80030,2,0,L|356:170,1,118.999996368408,0|0,0:0|1:0,0:0:0:0:
330,157,80288,1,0,1:0:0:0:
330,157,80375,1,0,0:0:0:0:
430,316,80547,1,0,0:0:0:0:
433,339,80633,1,0,0:0:0:0:
435,362,80720,5,0,1:0:0:0:
298,354,81409,1,0,1:0:0:0:
159,342,82099,1,0,1:0:0:0:
20,332,82788,1,0,1:0:0:0:
4,354,83478,5,0,1:0:0:0:
159,342,84167,1,0,1:0:0:0:
314,330,84857,1,0,1:0:0:0:
469,318,85546,1,0,1:0:0:0:
469,318,85892,5,2,0:0:0:0:
468,295,85978,1,2,0:0:0:0:
467,272,86064,1,2,0:0:0:0:
466,248,86151,1,2,0:0:0:0:
465,225,86237,6,0,L|337:219,1,118.999996368408,8|2,0:0|0:0,0:0:0:0:
324,221,86495,1,2,0:0:0:0:
324,221,86582,1,0,0:0:0:0:
199,151,86754,1,0,0:0:0:0:
198,128,86840,1,0,0:0:0:0:
206,106,86926,2,0,L|288:98,1,59.4999981842042,0|0,0:0|0:0,0:0:0:0:
141,214,87099,2,0,L|59:206,1,59.4999981842042,2|0,0:0|0:0,0:0:0:0:
208,272,87271,1,0,0:0:0:0:
213,296,87357,1,0,0:0:0:0:
212,321,87444,1,0,0:0:0:0:
91,367,87616,5,8,0:0:0:0:
63,189,87875,1,2,0:0:0:0:
63,189,87961,1,2,0:0:0:0:
74,162,88047,1,2,0:0:0:0:
80,134,88133,1,2,0:0:0:0:
81,104,88220,1,0,0:0:0:0:
74,76,88306,2,0,L|8:71,1,59.4999981842042,0|0,0:0|0:0,0:0:0:0:
181,4,88478,1,2,0:0:0:0:
273,93,88651,1,0,0:0:0:0:
278,117,88737,1,0,0:0:0:0:
277,142,88824,1,2,0:0:0:0:
403,0,88995,6,0,L|422:138,1,118.999996368408,8|0,0:0|0:0,0:0:0:0:
428,158,89254,1,0,0:0:0:0:
428,158,89340,1,0,0:0:0:0:
508,4,89513,2,0,L|502:63,1,59.4999981842042,0|0,0:0|0:0,0:0:0:0:
472,238,89685,5,0,0:0:0:0:
277,142,89944,1,0,0:0:0:0:
105,241,90202,1,0,0:0:0:0:
151,58,90375,5,0,0:0:0:0:
174,157,90547,1,0,0:0:0:0:
169,37,90720,1,0,0:0:0:0:
157,170,90892,1,0,0:0:0:0:
292,59,91064,5,0,0:0:0:0:
67,141,91237,1,0,0:0:0:0:
262,251,91409,1,0,0:0:0:0:
88,61,91582,1,0,0:0:0:0:
204,336,91754,6,0,P|259:354|326:331,1,118.999996368408,8|2,0:0|0:0,0:0:0:0:
403,172,92099,1,0,0:0:0:0:
403,172,92185,1,0,0:0:0:0:
403,172,92271,1,2,0:0:0:0:
203,150,92444,2,0,P|221:202|263:252,1,118.999996368408,0|2,0:0|0:0,0:0:0:0:
344,272,92702,2,0,P|362:219|404:169,1,118.999996368408,0|0,0:0|0:0,0:0:0:0:
482,220,92961,1,2,0:0:0:0:
482,220,93047,1,0,0:0:0:0:
482,220,93133,6,0,L|475:80,1,118.999996368408,0|2,0:0|0:0,0:0:0:0:
325,26,93478,1,0,0:0:0:0:
321,55,93564,1,0,0:0:0:0:
324,83,93650,1,2,0:0:0:0:
261,250,93823,2,0,P|242:197|200:147,1,118.999996368408,0|2,0:0|0:0,0:0:0:0:
169,134,94082,1,0,0:0:0:0:
139,136,94168,1,0,0:0:0:0:
109,139,94254,1,0,0:0:0:0:
79,142,94340,1,2,0:0:0:0:
0,301,94513,6,0,B|46:289|46:289|120:299,1,118.999996368408,0|2,0:0|0:0,0:0:0:0:
155,363,94771,2,0,B|201:375|201:375|275:365,1,118.999996368408,0|0,0:0|0:0,0:0:0:0:
318,302,95030,2,0,P|347:296|396:297,1,59.4999981842042,2|0,0:0|0:0,0:0:0:0:
430,351,95202,2,0,P|412:292|431:236,1,118.999996368408,0|2,0:0|0:0,0:0:0:0:
490,197,95461,2,0,P|508:138|489:82,1,118.999996368408,0|0,0:0|0:0,0:0:0:0:
428,34,95719,2,0,L|350:31,1,59.4999981842042,2|0,0:0|0:0,0:0:0:0:
220,0,95892,6,0,B|240:37|240:37|225:116,1,118.999996368408,0|2,0:0|0:0,0:0:0:0:
220,149,96151,1,0,0:0:0:0:
220,149,96237,1,0,0:0:0:0:
49,73,96409,1,2,0:0:0:0:
79,74,96495,1,0,0:0:0:0:
109,76,96582,1,0,0:0:0:0:
220,149,96754,2,0,L|161:153,1,59.4999981842042,2|0,0:0|0:0,0:0:0:0:
34,216,96926,2,0,L|93:220,1,59.4999981842042,0|0,0:0|0:0,0:0:0:0:
201,259,97099,1,2,0:0:0:0:
18,367,97271,6,0,P|75:383|133:366,1,118.999996368408,0|2,0:0|0:0,0:0:0:0:
217,219,97616,1,0,0:0:0:0:
228,246,97702,1,0,0:0:0:0:
235,274,97788,1,2,0:0:0:0:
384,383,97961,2,0,P|390:327|413:254,1,118.999996368408,0|2,0:0|0:0,0:0:0:0:
474,227,98220,2,0,P|468:171|445:98,1,118.999996368408,0|0,0:0|0:0,0:0:0:0:
383,59,98478,1,2,0:0:0:0:
383,59,98564,1,0,0:0:0:0:
383,59,98650,6,0,B|338:61|338:61|311:69|311:69|241:71,1,118.999996368408,0|2,0:0|0:0,0:0:0:0:
151,38,98995,1,0,0:0:0:0:
151,38,99081,1,0,0:0:0:0:
151,38,99167,1,2,0:0:0:0:
315,148,99340,2,0,B|270:150|270:150|243:158|243:158|173:160,1,118.999996368408,0|2,0:0|0:0,0:0:0:0:
180,183,99599,1,0,0:0:0:0:
177,212,99685,1,0,0:0:0:0:
175,241,99771,1,0,0:0:0:0:
173,270,99857,1,2,0:0:0:0:
169,299,99944,1,0,0:0:0:0:
153,330,100030,6,0,B|122:336|122:336|87:327,3,59.4999981842042,2|0|2|0,0:0|0:0|0:0|0:0,0:0:0:0:
253,257,100375,2,0,B|284:251|284:251|319:260,3,59.4999981842042,2|0|2|0,0:0|0:0|0:0|0:0,0:0:0:0:
86,290,100720,1,2,0:0:0:0:
48,261,100806,1,0,0:0:0:0:
24,226,100892,1,2,0:0:0:0:
11,182,100978,1,0,0:0:0:0:
13,137,101064,1,2,0:0:0:0:
29,97,101151,1,0,0:0:0:0:
59,62,101237,1,2,0:0:0:0:
96,39,101323,1,0,0:0:0:0:
135,28,101409,6,0,B|164:52|164:52|249:38,1,118.999996368408,4|0,0:2|0:0,0:0:0:0:
274,21,101668,1,0,0:0:0:0:
275,21,101754,1,0,0:0:0:0:
342,193,101926,1,0,0:0:0:0:
342,193,102013,1,0,0:0:0:0:
342,193,102099,2,0,P|327:132|343:75,1,118.999996368408,0|2,0:0|0:0,0:0:0:0:
486,15,102444,1,0,0:0:0:0:
497,42,102530,1,0,0:0:0:0:
492,71,102616,1,2,0:0:0:0:
325,213,102788,6,0,L|444:207,1,101.999996887207,2|0,0:0|0:0,0:0:0:0:
300,350,103133,1,2,0:0:0:0:
215,162,103306,1,0,0:0:0:0:
215,162,103392,1,0,0:0:0:0:
215,162,103478,2,0,L|96:156,1,101.999996887207,2|0,0:0|0:0,0:0:0:0:
320,242,103823,2,0,L|439:236,1,101.999996887207,2|0,0:0|0:0,0:0:0:0:
216,342,104168,6,0,P|176:310|126:308,1,101.999996887207,2|0,0:0|0:0,0:0:0:0:
77,367,104426,2,0,P|84:317|61:272,1,101.999996887207,0|0,0:0|0:0,0:0:0:0:
0,235,104685,2,0,L|76:231,1,50.9999984436036,0|0,0:0|0:0,0:0:0:0:
160,160,104857,1,2,0:0:0:0:
33,77,105030,1,0,0:0:0:0:
33,77,105116,1,0,0:0:0:0:
33,77,105202,1,2,0:0:0:0:
50,232,105375,1,0,0:0:0:0:
139,63,105547,6,0,B|166:51|166:51|239:61,1,101.999996887207,2|0,0:0|0:0,0:0:0:0:
330,187,105892,1,2,0:0:0:0:
410,5,106064,1,0,0:0:0:0:
410,5,106151,1,0,0:0:0:0:
410,5,106237,2,0,L|408:125,1,101.999996887207,2|0,0:0|0:0,0:0:0:0:
454,167,106495,2,0,L|456:287,1,101.999996887207,0|0,0:0|0:0,0:0:0:0:
391,309,106754,2,0,L|338:303,1,50.9999984436036,2|0,0:0|0:0,0:0:0:0:
228,195,106926,6,0,L|331:186,1,101.999996887207,2|0,0:0|0:0,0:0:0:0:
275,359,107271,1,2,0:0:0:0:
115,257,107444,1,0,0:0:0:0:
115,257,107616,2,0,P|92:306|77:357,1,101.999996887207,2|0,0:0|0:0,0:0:0:0:
52,147,107961,2,0,P|29:97|0:53,1,101.999996887207,2|0,0:0|0:0,0:0:0:0:
68,7,108220,1,0,0:0:0:0:
68,7,108306,6,0,P|118:22|180:24,1,110.499994941712,0|2,0:0|0:0,0:0:0:0:
234,82,108564,2,0,P|284:67|346:65,1,110.499994941712,0|0,0:0|0:0,0:0:0:0:
413,104,108823,2,0,L|407:185,1,55.2499974708558,2|0,0:0|0:0,0:0:0:0:
489,54,108995,1,0,0:0:0:0:
331,144,109168,1,2,0:0:0:0:
319,175,109254,1,0,0:0:0:0:
317,208,109340,1,0,0:0:0:0:
324,240,109426,1,0,0:0:0:0:
341,268,109513,1,2,0:0:0:0:
496,170,109685,6,0,L|505:294,2,110.499994941712,0|2|0,0:0|0:0|0:0,0:0:0:0:
415,322,110202,1,2,0:0:0:0:
415,322,110288,1,0,0:0:0:0:
415,322,110375,1,0,0:0:0:0:
319,175,110547,1,2,0:0:0:0:
496,170,110720,1,0,0:0:0:0:
315,292,110892,1,2,0:0:0:0:
315,292,110978,1,0,0:0:0:0:
315,292,111064,6,0,B|273:294|273:294|246:305|246:305|201:305,1,110.499994941712,0|2,0:0|0:0,0:0:0:0:
189,108,111409,1,0,0:0:0:0:
189,108,111495,1,0,0:0:0:0:
189,108,111582,2,0,P|211:160|231:238,1,110.499994941712,2|0,0:0|0:0,0:0:0:0:
30,377,111926,1,2,0:0:0:0:
10,350,112013,1,0,0:0:0:0:
1,317,112099,1,0,0:0:0:0:
5,284,112185,1,0,0:0:0:0:
16,253,112271,1,2,0:0:0:0:
189,108,112444,5,4,0:1:0:0:
105,307,112616,2,0,P|119:336|126:369,1,55.2499974708558,2|0,0:0|0:0,0:0:0:0:
263,179,112788,1,0,0:0:0:0:
263,179,112875,1,0,0:0:0:0:
263,179,112961,2,0,P|249:208|242:241,1,55.2499974708558,2|0,0:0|0:0,0:0:0:0:
360,351,113133,2,0,P|422:366|487:370,1,110.499994941712,0|2,0:0|0:0,0:0:0:0:
297,88,113478,2,0,P|233:95|171:113,1,110.499994941712,0|2,0:0|0:0,0:0:0:0:
140,170,113737,1,0,0:0:0:0:
140,170,113823,5,4,0:2:0:0:
457,24,114340,1,0,0:0:0:0:
457,24,114426,1,0,0:0:0:0:
457,24,114513,1,2,0:0:0:0:
328,110,114771,1,0,0:0:0:0:
196,24,115030,1,2,0:0:0:0:
211,216,115202,5,0,0:0:0:0:
266,52,115375,1,0,0:0:0:0:
310,261,115547,5,0,0:0:0:0:
279,35,115720,1,0,0:0:0:0:
141,141,115892,5,2,0:0:0:0:
407,148,116064,1,0,0:0:0:0:
407,148,116151,1,0,0:0:0:0:
407,148,116237,1,2,0:0:0:0:
55,98,116582,6,0,B|41:131|41:131|54:208,1,110.499994941712,2|0,0:0|0:0,0:0:0:0:
212,313,116927,1,2,0:0:0:0:
157,118,117100,1,0,0:0:0:0:
115,348,117272,1,2,0:0:0:0:
278,217,117445,1,0,0:0:0:0:
286,185,117531,1,0,0:0:0:0:
276,153,117617,1,2,0:0:0:0:
204,340,117789,1,0,0:0:0:0:
349,248,117962,6,0,B|385:234|385:234|456:245,1,110.499994941712,2|0,0:0|0:0,0:0:0:0:
199,183,118306,2,0,B|163:169|163:169|92:180,1,110.499994941712,2|0,0:0|0:0,0:0:0:0:
215,91,118651,1,2,0:0:0:0:
287,312,118824,1,0,0:0:0:0:
408,152,118996,2,0,P|419:100|395:39,1,110.499994941712,2|0,0:0|0:0,0:0:0:0:
215,91,119341,6,0,L|329:97,1,110.499994941712,2|0,0:0|0:0,0:0:0:0:
159,10,119686,1,2,0:0:0:0:
199,183,119857,1,0,0:0:0:0:
71,28,120031,1,2,0:0:0:0:
20,194,120202,1,0,0:0:0:0:
12,226,120288,1,0,0:0:0:0:
21,257,120375,1,2,0:0:0:0:
129,104,120548,1,0,0:0:0:0:
260,256,120721,6,0,P|278:310|268:361,1,110.499994941712,2|0,0:0|0:0,0:0:0:0:
21,257,121064,2,0,P|3:203|13:152,1,110.499994941712,2|0,0:0|0:0,0:0:0:0:
139,300,121410,1,2,0:0:0:0:
213,96,121583,1,0,0:0:0:0:
320,309,121755,2,0,L|437:319,1,110.499994941712,2|0,0:0|0:0,0:0:0:0:
490,215,122100,6,0,B|497:187|497:187|489:153,3,55.2499974708558,2|0|2|0,0:0|0:0|0:0|0:0,0:0:0:0:
430,318,122444,2,0,B|423:346|423:346|431:380,3,55.2499974708558,2|0|2|0,0:0|0:0|0:0|0:0,0:0:0:0:
344,216,122788,1,2,0:0:0:0:
313,201,122875,1,0,0:0:0:0:
279,199,122961,1,2,0:0:0:0:
246,207,123047,1,0,0:0:0:0:
220,228,123133,1,2,0:0:0:0:
205,258,123220,1,0,0:0:0:0:
200,290,123306,1,2,0:0:0:0:
207,322,123392,1,0,0:0:0:0:
219,352,123478,6,0,L|285:358,3,55.2499974708558,2|0|2|0,0:0|0:0|0:0|0:0,0:0:0:0:
102,310,123823,2,0,L|36:316,3,55.2499974708558,2|0|2|0,0:0|0:0|0:0|0:0,0:0:0:0:
220,228,124168,2,0,L|286:234,1,55.2499974708558,2|0,0:0|0:0,0:0:0:0:
97,163,124340,2,0,L|31:169,1,55.2499974708558,2|0,0:0|0:0,0:0:0:0:
243,101,124513,1,2,0:0:0:0:
256,70,124600,1,0,0:0:0:0:
254,36,124686,1,2,0:0:0:0:
234,9,124772,1,0,0:0:0:0:
202,0,124858,6,0,B|172:6|172:6|134:5,3,55.2499974708558,2|0|2|0,0:0|0:0|0:0|0:0,0:0:0:0:
292,77,125202,2,0,B|322:83|322:83|360:82,3,55.2499974708558,2|0|2|0,0:0|0:0|0:0|0:0,0:0:0:0:
173,156,125548,2,0,P|170:185|173:215,1,55.2499974708558,2|0,0:0|0:0,0:0:0:0:
293,291,125720,1,2,0:0:0:0:
293,291,125806,1,0,0:0:0:0:
293,291,125892,2,0,P|296:320|293:350,3,55.2499974708558,2|0|2|0,0:0|0:0|0:0|0:0,0:0:0:0:
172,210,126237,5,2,0:0:0:0:
135,191,126323,1,0,0:0:0:0:
94,189,126409,1,2,0:0:0:0:
56,204,126495,1,0,0:0:0:0:
27,233,126581,1,2,0:0:0:0:
13,272,126668,1,0,0:0:0:0:
16,313,126754,1,2,0:0:0:0:
35,349,126840,1,0,0:0:0:0:
68,374,126926,5,2,0:0:0:0:
172,210,127100,1,2,0:0:0:0:
13,272,127271,1,0,0:0:0:0:
207,323,127444,1,0,0:0:0:0:
67,168,127616,5,4,0:1:0:0:
67,168,128133,1,0,0:0:0:0:
186,78,128306,2,0,L|267:79,1,76.4999976654053,2|0,0:0|0:0,0:0:0:0:
13,272,128995,5,0,0:0:0:0:
13,272,129513,1,0,0:0:0:0:
150,193,129685,2,0,L|231:192,1,76.4999976654053,2|0,0:0|0:0,0:0:0:0:
322,219,130030,2,0,L|241:218,1,76.4999976654053,0|0,0:0|0:0,0:0:0:0:
148,353,130375,5,0,0:0:0:0:
148,353,130892,1,0,0:0:0:0:
68,200,131064,2,0,P|55:163|54:125,1,76.4999976654053,2|0,0:0|0:0,0:0:0:0:
237,309,131582,5,0,0:0:0:0:
237,309,131668,1,0,0:0:0:0:
237,309,131754,1,0,0:0:0:0:
237,309,132271,1,0,0:0:0:0:
358,208,132444,2,0,L|439:202,1,76.4999976654053,2|0,0:0|0:0,0:0:0:0:
466,203,132702,1,0,0:0:0:0:
466,203,132788,1,2,0:0:0:0:
392,302,132961,1,0,0:0:0:0:
306,121,133133,5,4,0:2:0:0:
220,43,133478,1,0,0:0:0:0:
208,44,133564,1,0,0:0:0:0:
196,45,133651,1,0,0:0:0:0:
184,46,133737,1,0,0:0:0:0:
172,47,133823,1,2,0:0:0:0:
70,166,134168,1,0,0:0:0:0:
58,165,134254,1,0,0:0:0:0:
46,164,134341,1,0,0:0:0:0:
34,163,134427,1,0,0:0:0:0:
22,162,134513,1,0,0:0:0:0:
123,0,135030,5,0,0:0:0:0:
123,0,135116,1,0,0:0:0:0:
123,0,135202,2,0,P|140:51|143:78,1,76.4999976654053,2|0,0:0|0:0,0:0:0:0:
70,166,135547,2,0,P|53:217|50:244,1,76.4999976654053,0|0,0:0|0:0,0:0:0:0:
134,364,135892,5,4,0:2:0:0:
230,275,136237,1,0,0:0:0:0:
242,276,136323,1,0,0:0:0:0:
254,277,136410,1,0,0:0:0:0:
266,278,136496,1,0,0:0:0:0:
279,279,136582,1,2,0:0:0:0:
134,364,137099,5,0,0:0:0:0:
230,275,137271,1,0,0:0:0:0:
401,369,137616,1,0,0:0:0:0:
472,86,137961,5,2,0:0:0:0:
460,192,138133,1,0,0:0:0:0:
354,180,138306,1,0,0:0:0:0:
366,74,138478,5,2,0:0:0:0:
366,74,138564,1,2,0:0:0:0:
366,74,138651,2,0,B|335:86|335:86|286:77,1,76.4999976654053
28,357,139168,5,0,0:0:0:0:
28,357,139255,1,0,0:0:0:0:
28,357,139341,1,2,0:0:0:0:
67,277,139513,1,0,0:0:0:0:
140,384,139686,1,0,0:0:0:0:
222,226,139858,5,4,0:1:0:0:
226,230,140289,1,0,0:0:0:0:
226,230,140375,2,0,L|220:281,1,38.2499988327027,0|2,0:0|0:0,0:0:0:0:
318,211,140720,5,0,0:0:0:0:
170,156,140978,1,0,0:0:0:0:
22,101,141237,1,0,0:0:0:0:
145,153,141410,2,0,B|184:122|184:122|178:58|178:58|227:22,1,170,0|0,0:0|0:0,0:0:0:0:
376,12,141927,1,2,0:0:0:0:
261,95,142100,5,8,0:0:0:0:
325,223,142358,1,0,0:0:0:0:
389,351,142616,1,0,0:0:0:0:
346,206,142789,2,0,P|387:198|431:210,1,85,4|0,0:2|0:0,0:0:0:0:
299,333,143133,1,2,0:0:0:0:
275,342,143220,1,2,0:0:0:0:
250,347,143306,1,0,0:0:0:0:
224,344,143392,1,0,0:0:0:0:
199,338,143478,5,8,0:0:0:0:
199,338,143564,1,0,0:0:0:0:
251,249,143737,1,0,0:0:0:0:
251,249,143824,2,0,L|298:242,1,42.5,0|0,0:0|0:0,0:0:0:0:
101,316,143996,2,0,L|54:309,1,42.5,0|0,0:0|0:0,0:0:0:0:
155,218,144168,5,4,0:2:0:0:
187,134,144341,1,0,0:0:0:0:
100,84,144513,1,0,0:0:0:0:
132,0,144686,1,0,0:0:0:0:
26,133,144858,5,2,0:0:0:0:
264,92,145031,1,2,0:0:0:0:
268,97,145289,1,0,0:0:0:0:
268,97,145375,2,0,B|278:46|260:13|260:13|291:38|340:29,1,170,4|0,0:2|0:0,0:0:0:0:
464,0,145893,5,2,0:0:0:0:
464,0,145979,1,2,0:0:0:0:
464,0,146064,1,0,0:0:0:0:
327,37,146237,5,8,0:0:0:0:
370,185,146495,1,0,0:0:0:0:
413,333,146754,1,0,0:0:0:0:
363,179,146927,6,0,P|317:169|279:179,1,85,0|2,0:0|0:0,0:0:0:0:
196,241,147271,1,0,0:0:0:0:
121,188,147444,1,0,0:0:0:0:
7,280,147617,5,10,0:0:0:0:
140,164,147875,1,2,0:0:0:0:
273,48,148133,1,0,0:0:0:0:
121,188,148306,2,0,B|94:237|94:237|121:347,1,170,4|2,0:1|0:0,0:0:0:0:
150,363,148737,1,2,0:0:0:0:
162,363,148823,1,0,0:0:0:0:
174,363,148909,1,0,0:0:0:0:
186,363,148995,1,0,0:0:0:0:
198,363,149082,1,0,0:0:0:0:
292,299,149254,5,0,0:0:0:0:
292,299,149340,2,0,P|287:270|279:246,1,42.5,0|0,0:0|0:0,0:0:0:0:
391,357,149513,1,2,0:0:0:0:
389,368,149600,1,2,0:0:0:0:
386,381,149685,5,2,0:0:0:0:
455,245,149858,1,0,0:0:0:0:
348,148,150030,1,0,0:0:0:0:
417,12,150203,1,0,0:0:0:0:
439,27,150375,2,0,L|443:82,1,51,4|0,0:2|0:0,0:0:0:0:
442,77,151064,6,0,B|400:56|400:56|306:69,1,136,2|0,0:0|0:0,0:0:0:0:
151,227,151409,2,0,B|193:248|193:248|287:235,1,136,2|0,0:0|0:0,0:0:0:0:
316,232,151667,1,0,0:0:0:0:
316,232,151754,1,2,0:0:0:0:
232,37,151926,1,0,0:0:0:0:
79,165,152099,2,0,P|52:223|72:293,1,136,2|0,0:0|0:0,0:0:0:0:
215,153,152443,5,2,0:0:0:0:
157,367,152616,1,0,0:0:0:0:
128,88,152788,1,2,0:0:0:0:
263,329,152961,1,0,0:0:0:0:
49,138,153133,5,2,0:0:0:0:
281,235,153305,1,0,0:0:0:0:
308,230,153391,1,0,0:0:0:0:
334,226,153478,1,2,0:0:0:0:
69,289,153650,1,0,0:0:0:0:
186,36,153823,6,0,B|141:94|141:94|191:286,1,272,2|2,0:0|0:0,0:0:0:0:
464,226,154340,1,0,0:0:0:0:
464,226,154426,1,0,0:0:0:0:
464,226,154512,2,0,P|398:209|332:226,1,136,2|0,0:0|0:0,0:0:0:0:
186,36,154857,2,0,P|252:53|318:36,1,136,2|0,0:0|0:0,0:0:0:0:
111,103,155202,5,2,0:0:0:0:
289,139,155374,1,0,0:0:0:0:
70,201,155547,1,2,0:0:0:0:
333,225,155719,1,0,0:0:0:0:
140,359,155892,5,0,0:0:0:0:
143,333,155978,1,0,0:0:0:0:
144,306,156064,1,2,0:0:0:0:
289,139,156237,1,0,0:0:0:0:
292,165,156323,1,0,0:0:0:0:
295,191,156409,1,2,0:0:0:0:
299,217,156495,1,0,0:0:0:0:
303,244,156582,6,0,B|340:274|340:274|448:256,1,136,0|2,0:0|0:0,0:0:0:0:
360,56,156926,1,0,0:0:0:0:
360,56,157012,1,0,0:0:0:0:
360,56,157099,1,2,0:0:0:0:
184,215,157271,2,0,P|118:233|53:217,1,136,0|2,0:0|0:0,0:0:0:0:
22,147,157530,1,0,0:0:0:0:
27,113,157616,1,0,0:0:0:0:
32,79,157702,1,0,0:0:0:0:
37,45,157788,1,2,0:0:0:0:
75,233,157961,5,0,0:0:0:0:
146,15,158133,1,2,0:0:0:0:
255,214,158305,1,0,0:0:0:0:
286,188,158391,1,0,0:0:0:0:
303,151,158477,1,2,0:0:0:0:
302,110,158563,1,0,0:0:0:0:
285,72,158651,2,0,P|327:137|387:155,1,136,0|2,0:0|0:0,0:0:0:0:
512,0,158995,2,0,P|434:3|389:46,1,136,0|2,0:0|0:0,0:0:0:0:
401,125,159254,1,0,0:0:0:0:
401,125,159340,6,0,L|404:199,1,68,8|0,0:0|0:0,0:0:0:0:
477,308,159512,1,2,0:0:0:0:
325,202,159685,5,8,0:0:0:0:
279,196,159771,1,0,0:0:0:0:
235,211,159857,1,0,0:0:0:0:
205,245,159943,1,0,0:0:0:0:
190,288,160029,1,4,0:2:0:0:
170,330,160116,1,0,0:0:0:0:
130,351,160202,1,0,0:0:0:0:
84,352,160288,1,0,0:0:0:0:
40,337,160374,1,0,0:0:0:0:
9,304,160460,1,0,0:0:0:0:
0,259,160547,1,0,0:0:0:0:
13,213,160633,1,0,0:0:0:0:
42,184,160719,6,0,P|51:123|46:43,1,136,8|0,0:0|0:0,0:0:0:0:
198,44,161064,1,2,0:0:0:0:
197,27,161150,1,2,0:0:0:0:
195,10,161236,1,0,0:0:0:0:
325,202,161409,2,0,P|316:147|321:74,1,118.999996368408,0|2,0:0|0:0,0:0:0:0:
329,59,161667,1,2,0:0:0:0:
329,59,161754,1,0,0:0:0:0:
487,63,161926,1,0,0:0:0:0:
484,40,162012,1,0,0:0:0:0:
482,17,162099,5,4,0:2:0:0:
329,59,162788,1,4,0:2:0:0:
288,212,163478,1,4,0:2:0:0:
400,324,164168,1,4,0:2:0:0:
417,343,164857,5,4,0:2:0:0:
369,167,165546,1,4,0:2:0:0:
194,120,166236,1,4,0:2:0:0:
66,248,166926,1,4,0:2:0:0:
66,248,167271,5,2,0:0:0:0:
67,271,167357,1,2,0:0:0:0:
68,294,167443,1,2,0:0:0:0:
69,318,167530,1,2,0:0:0:0:
70,341,167616,6,0,L|198:347,1,118.999996368408,0|2,0:0|0:0,0:0:0:0:
220,352,167874,1,2,0:0:0:0:
220,352,167961,1,0,0:0:0:0:
353,280,168133,1,0,0:0:0:0:
376,277,168219,1,0,0:0:0:0:
399,273,168305,2,0,L|481:281,1,59.4999981842042,0|0,0:0|0:0,0:0:0:0:
348,162,168478,2,0,L|423:127,1,59.4999981842042,0|0,0:0|0:0,0:0:0:0:
270,49,168650,1,0,0:0:0:0:
261,71,168736,1,0,0:0:0:0:
253,93,168823,1,0,0:0:0:0:
153,0,168995,5,0,0:0:0:0:
12,145,169254,1,2,0:0:0:0:
12,145,169340,1,2,0:0:0:0:
39,134,169426,1,2,0:0:0:0:
67,128,169512,1,0,0:0:0:0:
97,127,169599,1,0,0:0:0:0:
125,134,169685,2,0,L|130:200,1,59.4999981842042,0|0,0:0|0:0,0:0:0:0:
80,363,169857,1,2,0:0:0:0:
224,205,170030,1,0,0:0:0:0:
224,205,170116,1,0,0:0:0:0:
224,205,170202,1,2,0:0:0:0:
363,384,170374,6,0,P|359:320|340:267,1,118.999996368408,4|2,0:2|0:0,0:0:0:0:
322,241,170633,1,0,0:0:0:0:
322,241,170719,1,0,0:0:0:0:
484,147,170892,1,0,0:0:0:0:
494,174,170978,1,0,0:0:0:0:
490,203,171064,5,8,0:0:0:0:
295,156,171323,1,0,0:0:0:0:
100,109,171582,1,0,0:0:0:0:
252,45,171754,5,0,0:0:0:0:
216,215,171926,1,0,0:0:0:0:
239,30,172099,1,0,0:0:0:0:
229,235,172271,1,0,0:0:0:0:
152,22,172443,5,0,0:0:0:0:
321,169,172616,1,0,0:0:0:0:
74,115,172788,1,0,0:0:0:0:
351,70,172961,1,0,0:0:0:0:
154,296,173133,6,0,P|132:242|149:186,1,118.999996368408,4|2,0:2|0:0,0:0:0:0:
261,54,173478,1,0,0:0:0:0:
261,54,173564,1,0,0:0:0:0:
261,54,173650,1,2,0:0:0:0:
442,162,173823,2,0,B|392:162|392:162|375:168|375:168|325:168,1,118.999996368408,0|2,0:0|0:0,0:0:0:0:
249,173,174082,2,0,B|199:173|199:173|182:167|182:167|132:167,1,118.999996368408,0|0,0:0|0:0,0:0:0:0:
64,117,174340,1,2,0:0:0:0:
64,117,174426,1,0,0:0:0:0:
64,117,174512,6,0,P|85:174|86:231,1,118.999996368408,0|2,0:0|0:0,0:0:0:0:
19,384,174857,1,0,0:0:0:0:
5,357,174943,1,0,0:0:0:0:
12,328,175029,1,2,0:0:0:0:
184,248,175202,2,0,L|302:251,1,118.999996368408,0|2,0:0|0:0,0:0:0:0:
336,271,175461,1,0,0:0:0:0:
385,271,175547,1,0,0:0:0:0:
435,272,175633,1,0,0:0:0:0:
487,273,175720,1,2,0:0:0:0:
483,88,175892,6,0,P|433:65|366:68,1,118.999996368408,0|2,0:0|0:0,0:0:0:0:
298,20,176151,2,0,P|248:43|181:40,1,118.999996368408,0|0,0:0|0:0,0:0:0:0:
129,100,176409,2,0,P|93:88|51:97,1,59.4999981842042,2|0,0:0|0:0,0:0:0:0:
6,142,176582,1,0,0:0:0:0:
168,244,176754,1,2,0:0:0:0:
168,244,176840,2,0,P|175:274|178:321,1,59.4999981842042,0|0,0:0|0:0,0:0:0:0:
6,379,177013,1,0,0:0:0:0:
6,379,177099,2,0,P|9:347|22:303,1,59.4999981842042,2|0,0:0|0:0,0:0:0:0:
151,223,177271,6,0,L|292:219,1,118.999996368408,0|2,0:0|0:0,0:0:0:0:
305,221,177530,1,0,0:0:0:0:
305,221,177616,1,0,0:0:0:0:
470,296,177788,1,0,0:0:0:0:
465,325,177874,1,0,0:0:0:0:
460,354,177961,1,2,0:0:0:0:
296,300,178133,1,2,0:0:0:0:
296,300,178219,2,0,L|301:241,1,59.4999981842042,0|0,0:0|0:0,0:0:0:0:
432,154,178392,1,0,0:0:0:0:
432,154,178478,2,0,L|437:213,1,59.4999981842042,2|0,0:0|0:0,0:0:0:0:
226,126,178650,6,0,P|285:136|356:124,1,118.999996368408,0|2,0:0|0:0,0:0:0:0:
402,0,178995,1,0,0:0:0:0:
402,0,179081,1,0,0:0:0:0:
402,0,179167,1,2,0:0:0:0:
155,73,179340,2,0,B|138:132|138:132|157:193,1,118.999996368408,0|2,0:0|0:0,0:0:0:0:
224,219,179599,2,0,B|241:278|241:278|222:339,1,118.999996368408,0|0,0:0|0:0,0:0:0:0:
162,384,179857,1,2,0:0:0:0:
162,384,179943,1,0,0:0:0:0:
162,384,180029,6,0,L|283:383,1,118.999996368408,0|2,0:0|0:0,0:0:0:0:
454,303,180374,1,0,0:0:0:0:
483,306,180461,1,0,0:0:0:0:
512,309,180547,1,2,0:0:0:0:
342,215,180719,2,0,L|208:219,1,118.999996368408,0|2,0:0|0:0,0:0:0:0:
196,187,180978,1,0,0:0:0:0:
197,157,181064,1,0,0:0:0:0:
198,127,181151,1,0,0:0:0:0:
200,97,181237,1,0,0:0:0:0:
299,19,181409,6,0,L|361:27,3,59.4999981842042,2|0|2|0,0:0|0:0|0:0|0:0,0:0:0:0:
200,97,181754,2,0,L|138:105,3,59.4999981842042,2|0|2|0,0:0|0:0|0:0|0:0,0:0:0:0:
91,21,182099,1,2,0:0:0:0:
64,56,182185,1,0,0:0:0:0:
48,98,182271,1,2,0:0:0:0:
57,141,182357,1,0,0:0:0:0:
84,176,182443,1,2,0:0:0:0:
114,208,182530,1,0,0:0:0:0:
134,248,182616,1,2,0:0:0:0:
139,292,182702,1,0,0:0:0:0:
130,336,182788,6,0,P|185:307|252:304,1,118.999996368408,2|0,0:0|0:0,0:0:0:0:
261,309,183047,1,0,0:0:0:0:
275,321,183133,1,0,0:0:0:0:
377,230,183305,1,0,0:0:0:0:
353,211,183392,1,0,0:0:0:0:
335,187,183478,2,0,P|321:126|333:67,1,118.999996368408,0|0,0:0|0:0,0:0:0:0:
498,23,183823,1,0,0:0:0:0:
512,61,183909,1,0,0:0:0:0:
503,101,183995,1,2,0:0:0:0:
318,45,184168,5,10,0:0:0:0:
276,20,184254,1,0,0:0:0:0:
228,17,184340,1,0,0:0:0:0:
185,38,184426,1,0,0:0:0:0:
156,75,184512,1,0,0:0:0:0:
147,122,184599,1,0,0:0:0:0:
161,168,184685,1,0,0:0:0:0:
194,201,184771,1,0,0:0:0:0:
229,229,184857,5,8,0:0:0:0:
237,181,184943,1,0,0:0:0:0:
223,135,185029,1,0,0:0:0:0:
189,102,185115,1,0,0:0:0:0:
144,87,185201,1,0,0:0:0:0:
96,95,185288,1,0,0:0:0:0:
59,124,185374,1,0,0:0:0:0:
39,166,185460,1,0,0:0:0:0:
48,210,185547,5,8,0:0:0:0:
93,213,185633,1,0,0:0:0:0:
137,200,185719,1,0,0:0:0:0:
174,173,185805,1,0,0:0:0:0:
207,140,185891,1,0,0:0:0:0:
240,108,185978,1,0,0:0:0:0:
278,82,186064,1,0,0:0:0:0:
322,69,186150,1,0,0:0:0:0:
358,71,186237,6,0,L|369:209,1,127.500004863739,0|0,0:0|0:0,0:0:0:0:
439,225,186495,2,0,L|428:363,1,127.500004863739,0|0,0:0|0:0,0:0:0:0:
350,382,186754,2,0,P|313:387|275:381,1,63.7500024318696,0|0,0:0|0:0,0:0:0:0:
172,203,186926,6,0,B|193:246|193:246|182:339,1,127.500004863739,0|2,0:0|0:0,0:0:0:0:
157,360,187185,1,0,0:0:0:0:
157,360,187271,2,0,L|84:351,1,63.7500024318696,0|0,0:0|0:0,0:0:0:0:
10,198,187444,1,2,0:0:0:0:
10,198,187530,1,0,0:0:0:0:
10,198,187616,2,0,L|83:189,1,63.7500024318696,0|0,0:0|0:0,0:0:0:0:
256,251,187788,2,0,L|183:242,1,63.7500024318696,2|0,0:0|0:0,0:0:0:0:
95,93,187961,1,0,0:0:0:0:
95,93,188047,1,0,0:0:0:0:
277,65,188220,1,0,0:0:0:0:
277,65,188306,6,0,L|281:128,3,50.9999984436036,8|0|0|0,0:0|0:0|0:0|0:0,0:0:0:0:
396,103,188651,2,0,L|392:166,3,50.9999984436036,0|0|0|0,0:0|0:0|0:0|0:0,0:0:0:0:
297,216,188995,2,0,L|301:279,3,50.9999984436036,0|0|0|0,0:0|0:0|0:0|0:0,0:0:0:0:
448,383,189340,5,2,0:0:0:0:
466,352,189426,1,2,0:0:0:0:
473,316,189513,1,2,0:0:0:0:
468,280,189599,1,2,0:0:0:0:
447,240,189685,5,4,0:2:0:0:
361,359,189857,1,2,0:0:0:0:
283,184,190030,1,0,0:0:0:0:
283,184,190116,1,0,0:0:0:0:
283,184,190202,1,2,0:0:0:0:
180,379,190375,1,0,0:0:0:0:
196,208,190547,1,2,0:0:0:0:
42,126,190720,1,0,0:0:0:0:
78,298,190892,1,2,0:0:0:0:
78,298,190978,1,0,0:0:0:0:
78,298,191064,5,0,0:0:0:0:
141,95,191237,1,2,0:0:0:0:
203,287,191409,1,0,0:0:0:0:
227,44,191582,1,2,0:0:0:0:
261,28,191668,1,0,0:0:0:0:
298,21,191754,1,0,0:0:0:0:
335,27,191840,1,0,0:0:0:0:
370,40,191926,1,2,0:0:0:0:
512,209,192099,1,0,0:0:0:0:
297,120,192271,1,2,0:0:0:0:
497,328,192444,6,0,P|421:356|361:360,1,127.500004863739,0|2,0:0|0:0,0:0:0:0:
217,205,192788,1,0,0:0:0:0:
253,193,192875,1,0,0:0:0:0:
289,203,192961,1,2,0:0:0:0:
128,363,193133,2,0,B|110:326|110:326|124:233,1,127.500004863739,0|2,0:0|0:0,0:0:0:0:
221,98,193478,1,0,0:0:0:0:
257,313,193651,1,2,0:0:0:0:
257,313,193737,1,0,0:0:0:0:
257,313,193823,5,0,0:0:0:0:
56,187,193995,1,2,0:0:0:0:
300,215,194168,1,0,0:0:0:0:
72,310,194340,1,2,0:0:0:0:
72,310,194426,2,0,L|78:379,1,63.7500024318696,0|0,0:0|0:0,0:0:0:0:
184,179,194599,1,0,0:0:0:0:
184,179,194685,2,0,L|178:248,1,63.7500024318696,2|0,0:0|0:0,0:0:0:0:
82,86,194857,1,4,0:2:0:0:
162,335,195030,1,0,0:0:0:0:
288,57,195202,6,0,P|349:39|417:43,1,127.500004863739,4|2,0:2|0:0,0:0:0:0:
378,241,195547,1,0,0:0:0:0:
371,203,195633,1,0,0:0:0:0:
365,164,195720,1,2,0:0:0:0:
502,320,195892,2,0,B|449:324|449:324|433:318|433:318|376:323,1,127.500004863739,0|2,0:0|0:0,0:0:0:0:
312,371,196151,2,0,B|259:367|259:367|243:373|243:373|186:368,1,127.500004863739,0|0,0:0|0:0,0:0:0:0:
112,306,196409,1,2,0:0:0:0:
103,268,196495,1,0,0:0:0:0:
106,229,196582,6,0,P|126:307|112:361,1,127.500004863739,0|2,0:0|0:0,0:0:0:0:
15,361,196840,2,0,P|-5:283|9:229,1,127.500004863739,0|0,0:0|0:0,0:0:0:0:
54,157,197099,1,2,0:0:0:0:
69,122,197185,1,0,0:0:0:0:
73,84,197271,1,0,0:0:0:0:
60,47,197357,1,0,0:0:0:0:
36,16,197444,1,2,0:0:0:0:
213,123,197616,2,0,B|196:158|196:158|207:261,1,127.500004863739,0|2,0:0|0:0,0:0:0:0:
404,326,197961,5,0,0:0:0:0:
425,327,198047,1,0,0:0:0:0:
446,328,198133,1,2,0:0:0:0:
347,167,198306,1,0,0:0:0:0:
314,173,198392,1,0,0:0:0:0:
281,179,198478,1,2,0:0:0:0:
453,236,198651,1,0,0:0:0:0:
474,197,198737,1,0,0:0:0:0:
479,153,198823,1,2,0:0:0:0:
464,111,198909,1,0,0:0:0:0:
436,76,198995,2,0,L|363:74,3,55.2499974708558,0|0|2|0,0:0|0:0|0:0|0:0,0:0:0:0:
251,21,199340,5,0,0:0:0:0:
216,64,199426,1,0,0:0:0:0:
209,118,199512,1,2,0:0:0:0:
230,168,199598,1,0,0:0:0:0:
271,204,199684,1,0,0:0:0:0:
304,248,199771,1,0,0:0:0:0:
317,301,199857,1,2,0:0:0:0:
301,353,199943,1,0,0:0:0:0:
275,378,200030,5,0,0:0:0:0:
243,317,200116,1,0,0:0:0:0:
249,249,200202,1,2,0:0:0:0:
292,197,200288,1,0,0:0:0:0:
357,176,200374,1,0,0:0:0:0:
423,195,200461,1,0,0:0:0:0:
467,246,200547,1,2,0:0:0:0:
476,314,200633,1,0,0:0:0:0:
433,381,200720,6,0,L|293:379,1,127.500004863739,4|0,0:2|0:0,0:0:0:0:
157,160,201064,1,0,0:0:0:0:
162,204,201151,1,0,0:0:0:0:
167,247,201237,1,2,0:0:0:0:
43,374,201409,2,0,B|25:340|25:340|38:249,1,127.500004863739,0|2,0:0|0:0,0:0:0:0:
6,182,201668,2,0,B|24:148|24:148|11:57,1,127.500004863739,0|0,0:0|0:0,0:0:0:0:
81,10,201926,1,2,0:0:0:0:
131,2,202013,1,0,0:0:0:0:
181,11,202099,6,0,P|220:29|324:24,1,127.500004863739,0|2,0:0|0:0,0:0:0:0:
480,190,202444,2,0,P|441:171|336:176,1,127.500004863739,0|2,0:0|0:0,0:0:0:0:
321,203,202702,1,0,0:0:0:0:
319,241,202788,1,0,0:0:0:0:
318,279,202875,1,0,0:0:0:0:
317,317,202961,1,2,0:0:0:0:
230,144,203133,1,0,0:0:0:0:
154,352,203306,1,2,0:0:0:0:
60,164,203478,5,0,0:0:0:0:
60,164,203565,1,0,0:0:0:0:
60,164,203651,2,0,L|49:234,1,63.7500024318696,2|0,0:0|0:0,0:0:0:0:
178,358,203823,2,0,L|167:288,1,63.7500024318696,0|0,0:0|0:0,0:0:0:0:
158,83,203995,5,2,0:0:0:0:
158,83,204082,1,0,0:0:0:0:
158,83,204168,2,0,L|147:153,1,63.7500024318696,0|0,0:0|0:0,0:0:0:0:
285,370,204340,2,0,L|274:300,1,63.7500024318696,2|0,0:0|0:0,0:0:0:0:
304,85,204513,1,0,0:0:0:0:
459,364,204685,1,2,0:0:0:0:
459,364,204771,1,0,0:0:0:0:
459,364,204857,6,0,L|527:369,1,63.7500024318696,0|0,0:0|0:0,0:0:0:0:
299,295,205030,2,0,L|231:300,1,63.7500024318696,2|0,0:0|0:0,0:0:0:0:
373,360,205202,5,0,0:0:0:0:
385,305,205288,1,0,0:0:0:0:
370,253,205374,1,2,0:0:0:0:
331,212,205460,1,0,0:0:0:0:
318,159,205546,1,0,0:0:0:0:
338,108,205633,1,0,0:0:0:0:
379,70,205719,1,2,0:0:0:0:
432,59,205805,1,0,0:0:0:0:
484,79,205891,5,0,0:0:0:0:
484,98,205978,1,0,0:0:0:0:
485,117,206064,1,2,0:0:0:0:
485,136,206151,1,0,0:0:0:0:
486,156,206237,5,0,0:0:0:0:
46,9,217271,5,2,0:0:0:0:
43,28,217357,1,0,0:0:0:0:
40,47,217444,1,0,0:0:0:0:
38,66,217530,1,0,0:0:0:0:
49,91,217616,5,2,0:0:0:0:
46,110,217702,1,0,0:0:0:0:
44,129,217789,1,0,0:0:0:0:
41,149,217875,1,0,0:0:0:0:
52,173,217961,5,2,0:0:0:0:
49,192,218047,1,0,0:0:0:0:
46,211,218134,1,0,0:0:0:0:
44,230,218220,1,0,0:0:0:0:
55,255,218306,5,2,0:0:0:0:
52,274,218392,1,0,0:0:0:0:
50,293,218479,1,0,0:0:0:0:
47,313,218565,1,0,0:0:0:0:
68,350,218651,6,0,B|105:333|105:333|191:348,1,118.999996368408,0|2,0:0|0:0,0:0:0:0:
355,384,218996,1,0,0:0:0:0:
369,358,219082,1,0,0:0:0:0:
371,328,219168,1,2,0:0:0:0:
274,178,219341,2,0,L|262:301,1,118.999996368408,0|2,0:0|0:0,0:0:0:0:
182,346,219599,2,0,L|170:223,1,118.999996368408,0|0,0:0|0:0,0:0:0:0:
117,155,219858,1,2,0:0:0:0:
117,155,219944,1,0,0:0:0:0:
117,155,220030,6,0,P|62:146|-2:161,1,118.999996368408,0|2,0:0|0:0,0:0:0:0:
92,330,220375,1,0,0:0:0:0:
93,301,220461,1,0,0:0:0:0:
95,272,220547,1,2,0:0:0:0:
219,104,220720,2,0,P|274:95|338:110,1,118.999996368408,0|2,0:0|0:0,0:0:0:0:
353,132,220979,1,0,0:0:0:0:
355,166,221065,1,0,0:0:0:0:
358,201,221151,1,0,0:0:0:0:
362,235,221237,1,2,0:0:0:0:
210,373,221410,6,0,B|208:253,1,118.999996368408,0|2,0:0|0:0,0:0:0:0:
257,204,221668,2,0,B|154:265,1,118.999996368408
89,229,221926,2,0,P|61:221|10:220,1,59.4999981842042,2|0,0:0|0:0,0:0:0:0:
2,122,222099,2,0,B|41:135|41:135|122:121,1,118.999996368408,0|2,0:0|0:0,0:0:0:0:
169,63,222357,2,0,B|208:50|208:50|289:64,1,118.999996368408,0|0,0:0|0:0,0:0:0:0:
341,122,222616,2,0,B|372:125|372:125|404:121,1,59.4999981842042,2|0,0:0|0:0,0:0:0:0:
458,71,222789,6,0,P|434:129|453:187,1,118.999996368408,0|0,0:0|0:0,0:0:0:0:
469,208,223048,1,0,0:0:0:0:
469,208,223134,1,0,0:0:0:0:
392,343,223306,1,2,0:0:0:0:
362,342,223392,1,0,0:0:0:0:
332,340,223479,1,0,0:0:0:0:
257,204,223651,2,0,L|198:208,1,59.4999981842042,2|0,0:0|0:0,0:0:0:0:
142,359,223823,2,0,L|83:355,1,59.4999981842042,0|0,0:0|0:0,0:0:0:0:
9,230,223996,1,2,0:0:0:0:
212,226,224168,6,0,P|228:169|211:111,1,118.999996368408,4|2,0:1|0:0,0:0:0:0:
56,64,224513,1,0,0:0:0:0:
82,78,224599,1,0,0:0:0:0:
111,82,224685,1,2,0:0:0:0:
265,19,224858,2,0,P|322:5|385:22,1,118.999996368408,0|2,0:0|0:0,0:0:0:0:
438,74,225116,2,0,P|452:131|435:194,1,118.999996368408,0|0,0:0|0:0,0:0:0:0:
385,244,225375,1,2,0:0:0:0:
385,244,225461,1,0,0:0:0:0:
385,244,225547,6,0,B|430:242|430:242|457:234|457:234|527:232,1,118.999996368408,0|2,0:0|0:0,0:0:0:0:
323,130,225892,1,0,0:0:0:0:
323,130,225978,1,0,0:0:0:0:
323,130,226064,1,2,0:0:0:0:
300,352,226237,2,0,B|255:350|255:350|228:342|228:342|158:340,1,118.999996368408,0|2,0:0|0:0,0:0:0:0:
122,268,226496,1,0,0:0:0:0:
93,260,226582,1,0,0:0:0:0:
64,267,226668,1,0,0:0:0:0:
44,289,226754,1,0,0:0:0:0:
34,317,226841,1,0,0:0:0:0:
34,347,226927,6,0,B|65:353|65:353|100:344,3,59.4999981842042,2|0|2|0,0:0|0:0|0:0|0:0,0:0:0:0:
141,246,227272,2,0,B|172:240|172:240|207:249,3,59.4999981842042,2|0|2|0,0:0|0:0|0:0|0:0,0:0:0:0:
44,201,227616,1,2,0:0:0:0:
28,167,227702,1,0,0:0:0:0:
25,130,227788,1,2,0:0:0:0:
36,95,227874,1,0,0:0:0:0:
60,66,227960,1,2,0:0:0:0:
92,48,228047,1,0,0:0:0:0:
128,43,228133,1,2,0:0:0:0:
164,52,228219,1,0,0:0:0:0:
194,73,228306,6,0,B|226:93|226:93|321:70,1,118.999996368408,10|0,0:0|0:0,0:0:0:0:
336,65,228564,1,0,0:0:0:0:
336,65,228651,1,0,0:0:0:0:
405,246,228823,1,0,0:0:0:0:
405,246,228910,1,0,0:0:0:0:
405,246,228996,2,0,P|390:185|406:128,1,118.999996368408,8|0,0:0|0:0,0:0:0:0:
272,288,229341,1,0,0:0:0:0:
283,315,229427,1,0,0:0:0:0:
278,344,229513,1,2,0:0:0:0:
126,173,229685,5,0,0:0:0:0:
68,185,229771,1,0,0:0:0:0:
28,228,229857,1,0,0:0:0:0:
20,286,229943,1,0,0:0:0:0:
45,339,230029,1,0,0:0:0:0:
96,368,230116,1,0,0:0:0:0:
155,363,230202,1,0,0:0:0:0:
200,325,230288,1,0,0:0:0:0:
203,269,230375,5,0,0:0:0:0:
232,286,230461,1,0,0:0:0:0:
263,298,230547,1,0,0:0:0:0:
297,299,230633,1,0,0:0:0:0:
329,288,230719,1,0,0:0:0:0:
362,280,230806,1,0,0:0:0:0:
396,282,230892,1,0,0:0:0:0:
428,293,230978,1,0,0:0:0:0:
454,309,231064,6,0,B|456:266|442:245|442:245|456:213|449:175,1,127.5,0|2,0:0|0:0,0:0:0:0:
450,184,231668,1,2,0:0:0:0:
450,184,231754,1,2,0:0:0:0:
219,31,232099,5,0,0:0:0:0:
86,355,232444,6,0,P|73:297|85:246,1,110.499994941712,10|0,0:0|0:0,0:0:0:0:
267,123,232789,1,2,0:0:0:0:
156,298,232962,1,0,0:0:0:0:
103,79,233134,1,2,0:0:0:0:
265,246,233307,1,0,0:0:0:0:
267,274,233393,1,0,0:0:0:0:
270,301,233479,1,2,0:0:0:0:
176,154,233651,1,0,0:0:0:0:
355,80,233824,6,0,B|393:66|393:66|465:75,1,110.499994941712,10|0,0:0|0:0,0:0:0:0:
265,246,234168,2,0,B|227:232|227:232|155:241,1,110.499994941712,2|0,0:0|0:0,0:0:0:0:
349,177,234513,1,10,0:0:0:0:
92,190,234686,1,0,0:0:0:0:
275,0,234858,2,0,P|284:57|266:116,1,110.499994941712,2|0,0:0|0:0,0:0:0:0:
68,46,235203,6,0,L|182:52,1,110.499994941712,10|0,0:0|0:0,0:0:0:0:
10,139,235548,1,2,0:0:0:0:
216,197,235721,1,0,0:0:0:0:
62,24,235893,1,2,0:0:0:0:
138,238,236064,1,0,0:0:0:0:
140,259,236152,1,0,0:0:0:0:
142,280,236238,1,2,0:0:0:0:
178,51,236410,1,0,0:0:0:0:
282,262,236583,6,0,P|338:276|388:263,1,110.499994941712,10|0,0:0|0:0,0:0:0:0:
385,70,236926,2,0,P|344:111|331:161,1,110.499994941712,2|0,0:0|0:0,0:0:0:0:
463,285,237272,1,2,0:0:0:0:
312,82,237445,1,0,0:0:0:0:
185,272,237617,2,0,P|176:316|180:400,1,110.499994941712,2|0,0:0|0:0,0:0:0:0:
119,208,237961,6,0,B|94:204|58:210,3,55.2499974708558,10|0|2|0,0:0|0:0|0:0|0:0,0:0:0:0:
5,124,238305,2,0,B|30:120|66:126,3,55.2499974708558,2|0|2|0,0:0|0:0|0:0|0:0,0:0:0:0:
87,28,238650,1,2,0:0:0:0:
113,20,238736,1,0,0:0:0:0:
140,15,238822,1,2,0:0:0:0:
167,18,238908,1,0,0:0:0:0:
194,25,238994,1,2,0:0:0:0:
220,33,239081,1,0,0:0:0:0:
248,36,239167,1,2,0:0:0:0:
275,32,239253,1,0,0:0:0:0:
302,25,239340,6,0,B|305:52|305:52|297:84,3,55.2499974708558,2|0|2|0,0:0|0:0|0:0|0:0,0:0:0:0:
227,132,239685,2,0,B|224:159|224:159|232:191,3,55.2499974708558,2|0|2|0,0:0|0:0|0:0|0:0,0:0:0:0:
324,23,240030,2,0,B|327:50|327:50|319:82,1,55.2499974708558,2|0,0:0|0:0,0:0:0:0:
213,129,240202,2,0,B|210:156|210:156|218:188,1,55.2499974708558,2|0,0:0|0:0,0:0:0:0:
355,274,240375,1,2,0:0:0:0:
367,245,240461,1,0,0:0:0:0:
375,214,240547,1,2,0:0:0:0:
374,182,240633,1,0,0:0:0:0:
370,151,240720,6,0,L|294:157,3,55.2499974708558,2|0|2|0,0:0|0:0|0:0|0:0,0:0:0:0:
247,277,241064,2,0,L|171:270,3,55.2499974708558,2|0|2|0,0:0|0:0|0:0|0:0,0:0:0:0:
359,130,241409,2,0,L|281:138,1,55.2499974708558,2|0,0:0|0:0,0:0:0:0:
156,191,241581,1,2,0:0:0:0:
156,191,241667,1,0,0:0:0:0:
156,191,241754,2,0,L|80:184,3,55.2499974708558,2|0|2|0,0:0|0:0|0:0|0:0,0:0:0:0:
169,313,242099,5,2,0:0:0:0:
208,299,242185,1,0,0:0:0:0:
240,274,242271,1,2,0:0:0:0:
262,239,242357,1,0,0:0:0:0:
271,199,242443,1,2,0:0:0:0:
266,158,242530,1,0,0:0:0:0:
248,121,242616,1,2,0:0:0:0:
219,92,242702,1,0,0:0:0:0:
181,75,242788,6,0,B|152:66|120:68|120:68|84:79|84:79|49:68|15:73,1,165.749992412568,2|0,0:0|0:0,0:0:0:0:
5,101,243133,2,0,L|8:161,1,55.2499974708558,0|0,0:0|0:0,0:0:0:0:
92,287,243306,2,0,L|95:227,1,55.2499974708558,0|0,0:0|0:0,0:0:0:0:
210,57,243478,5,4,0:2:0:0:
210,57,244857,6,0,P|281:111|281:212,1,191.250007295609,4|0,0:2|2:0,0:0:0:0:
247,272,245202,6,0,P|258:183|345:133,1,191.250007295609,4|0,0:2|2:0,0:0:0:0:
413,132,245547,6,0,P|330:166|209:54,1,272,4|0,0:2|2:0,0:0:0:0:
