osu file format v14

[General]
AudioFilename: audio.mp3
AudioLeadIn: 0
PreviewTime: 192554
Countdown: 0
SampleSet: None
StackLeniency: 0.7
Mode: 0
LetterboxInBreaks: 0
WidescreenStoryboard: 1

[Editor]
DistanceSpacing: 1.5
BeatDivisor: 4
GridSize: 32
TimelineZoom: 5.199998

[Metadata]
Title:Chinurareta Shuren ni Fukeru Houmura
TitleUnicode:血塗られた醜聯に耽る葬ら
Artist:Imperial Circus Dead Decadence
ArtistUnicode:Imperial Circus Dead Decadence
Creator:yShadowXOP_
Version:The Sadness Of The Heart That Once Was Merry
Source:
Tags:symphonic death black metal gothic rock 狂おしく咲いた凄惨な骸は奏で、愛おしく裂いた少女は聖餐の詞を謳う
BeatmapID:1538375
BeatmapSetID:553100

[Difficulty]
HPDrainRate:6.3
CircleSize:4
OverallDifficulty:8.7
ApproachRate:9.8
SliderMultiplier:1.9
SliderTickRate:1

[Events]
//Background and Video events
0,0,"BG2.png",0,0
//Break Periods
2,44925,49127
2,251105,252227
2,383656,392777
//Storyboard Layer 0 (Background)
//Storyboard Layer 1 (Fail)
//Storyboard Layer 2 (Pass)
//Storyboard Layer 3 (Foreground)
//Storyboard Sound Samples

[TimingPoints]
418,461.538461538462,4,3,2,55,1,0
418,-133.333333333333,4,3,2,55,0,0
14187,-66.6666666666667,4,3,1,50,0,0
14264,-133.333333333333,4,3,1,50,0,0
15187,-100,4,3,1,40,0,0
44725,-100,4,3,1,60,0,0
49606,300,4,2,1,75,1,0
49606,-100,4,2,1,75,0,0
49806,-100,4,2,1,5,0,0
49906,-100,4,2,1,70,0,0
53956,-100,4,2,1,80,0,0
54406,-100,4,2,1,90,0,0
54481,-100,4,2,1,80,0,0
55456,-100,4,2,1,50,0,0
55606,-100,4,2,1,90,0,0
55681,-100,4,2,1,80,0,0
56656,-100,4,2,1,50,0,0
56806,-100,4,2,1,90,0,0
56881,-100,4,2,1,80,0,0
57856,-100,4,2,1,50,0,0
58006,-100,4,2,1,75,0,0
59206,-80,4,1,2,85,0,1
77206,-80,4,1,2,85,0,0
79531,-80,4,1,2,5,0,0
79606,-100,4,2,1,40,0,0
80806,-100,4,2,1,75,0,0
104806,-125,4,2,1,50,0,0
113806,-100,4,2,1,50,0,0
114406,-111.111111111111,4,2,1,75,0,0
116206,-111.111111111111,4,2,3,100,0,0
116281,-111.111111111111,4,2,1,75,0,0
119806,-111.111111111111,4,2,3,100,0,0
119881,-111.111111111111,4,2,1,75,0,0
123406,-111.111111111111,4,2,3,100,0,0
123481,-111.111111111111,4,2,1,75,0,0
128806,-100,4,2,1,75,0,0
152806,-125,4,2,1,50,0,0
161806,-100,4,2,1,50,0,0
162406,-111.111111111111,4,2,1,75,0,0
164206,-111.111111111111,4,2,3,100,0,0
164281,-111.111111111111,4,2,1,75,0,0
167806,-111.111111111111,4,2,3,100,0,0
167881,-111.111111111111,4,2,1,75,0,0
171406,-111.111111111111,4,2,3,100,0,0
171481,-111.111111111111,4,2,1,75,0,0
173431,-111.111111111111,4,2,1,5,0,0
173506,-111.111111111111,4,2,1,75,0,0
176806,-111.111111111111,4,2,1,80,0,0
183106,-111.111111111111,4,2,1,50,0,0
184006,-111.111111111111,4,2,1,75,0,0
189406,-111.111111111111,4,1,1,75,0,0
192706,300,4,1,1,90,1,0
192706,-86.9565217391304,4,1,1,90,0,1
202306,-76.9230769230769,4,1,1,90,0,1
202531,-76.9230769230769,4,1,1,20,0,1
202606,-86.9565217391304,4,1,1,90,0,1
211906,-133.333333333333,4,2,4,60,0,0
219106,-133.333333333333,4,2,1,60,0,0
228706,-166.666666666667,4,3,1,50,0,0
231106,-80,4,1,1,75,0,1
235906,-80,4,3,1,75,0,1
239506,-100,4,2,1,75,0,0
239806,-133.333333333333,4,2,1,75,0,0
240106,-153.846153846154,4,2,1,75,0,0
240406,-181.818181818182,4,2,1,75,0,0
240706,-90.9090909090909,4,1,1,75,0,1
249106,-90.9090909090909,4,3,1,50,0,1
250306,-100,4,2,1,60,0,0
250906,-133.333333333333,4,2,1,20,0,0
252706,375,4,2,1,80,1,0
252706,-133.333333333333,4,2,4,20,0,0
255706,-133.333333333333,4,2,4,23,0,0
258706,-133.333333333333,4,2,4,26,0,0
261706,-133.333333333333,4,2,4,30,0,0
263206,-133.333333333333,4,2,4,70,0,0
263768,-100,4,3,1,60,0,0
274456,-100,4,1,1,40,0,0
274737,-100,4,1,1,5,0,0
274831,-100,4,1,1,43,0,0
275112,-100,4,1,1,5,0,0
275206,-100,4,1,1,46,0,0
275487,-100,4,1,1,5,0,0
275581,-100,4,1,1,49,0,0
275862,-100,4,1,1,5,0,0
275956,-100,4,1,1,52,0,0
276237,-100,4,1,1,5,0,0
276331,-100,4,1,1,55,0,0
276612,-100,4,1,1,5,0,0
276706,-83.3333333333333,4,3,1,70,0,0
277831,-90.9090909090909,4,3,1,70,0,0
282706,-71.4285714285714,4,3,1,75,0,0
287206,-76.9230769230769,4,3,1,72,0,0
287956,300,4,2,1,80,1,0
287956,-76.9230769230769,4,2,1,25,0,0
288556,300,4,2,1,80,1,0
288556,-100,4,3,1,75,0,0
298156,-80,4,1,2,85,0,1
316156,-100,4,2,1,75,0,0
318481,-100,4,2,1,5,0,0
318556,-100,4,2,1,60,0,0
319756,-100,4,2,1,75,0,0
343756,-133.333333333333,4,2,1,50,0,0
352756,-133.333333333333,4,3,7,50,0,0
352831,-133.333333333333,4,2,1,50,0,0
353056,-133.333333333333,4,2,1,30,0,0
353281,-133.333333333333,4,2,1,5,0,0
353356,-100,4,2,1,75,0,0
381256,300,4,2,1,75,1,0
381256,-100,4,2,1,75,0,0
393256,-166.666666666667,4,2,5,70,0,0
402706,-100,4,2,1,50,0,0
407656,-100,4,2,1,60,0,0
412456,-111.111111111111,4,2,1,60,0,0
412756,-111.111111111111,4,2,1,5,0,0
412906,-111.111111111111,4,2,1,60,0,0
413506,-111.111111111111,4,2,1,5,0,0
413656,-111.111111111111,4,2,1,60,0,0
414106,-111.111111111111,4,2,1,5,0,0
414256,-111.111111111111,4,2,1,60,0,0
418906,-111.111111111111,4,2,1,5,0,0
419056,-111.111111111111,4,2,1,60,0,0
419506,-111.111111111111,4,2,1,5,0,0
419656,-111.111111111111,4,2,1,60,0,0
420106,-111.111111111111,4,2,1,5,0,0
420256,-111.111111111111,4,2,1,70,0,0
422056,-80,4,1,1,75,0,1
426856,-83.3333333333333,4,3,1,75,0,1
430456,-100,4,1,1,75,0,0
430756,-133.333333333333,4,1,1,75,0,0
431056,-153.846153846154,4,1,1,75,0,0
431356,-181.818181818182,4,1,1,75,0,0
431656,-83.3333333333333,4,1,1,75,0,1
441256,-66.6666666666667,4,1,1,85,0,0
445756,-100,4,1,1,85,0,0
446056,-90.9090909090909,4,2,1,75,0,0
450856,-83.3333333333333,4,3,1,75,0,1
460456,-90.9090909090909,4,2,1,90,0,1
461206,-95.2380952380952,4,2,1,5,0,0

[Colours]
Combo1 : 159,149,147
Combo2 : 255,119,122
Combo3 : 209,209,209
SliderTrackOverride : 205,205,205
SliderBorder : 206,238,244

[HitObjects]
112,248,418,6,0,B|160:244|160:244|195:259|195:259|264:253,1,142.500005435944,2|0,0:0|0:0,0:0:0:0:
312,176,1341,2,0,L|316:28,1,142.500005435944
212,176,2264,2,0,L|215:318,1,142.500005435944
352,236,3187,1,0,0:0:0:0:
392,108,3648,2,0,L|396:60,2,47.5000018119813
312,64,4110,6,0,P|243:43|164:88,1,142.500005435944
244,256,5033,2,0,B|240:207|240:207|255:172|255:172|249:103,1,142.500005435944
180,176,5956,2,0,P|244:202|311:181,1,142.500005435944
392,80,6879,1,0,0:0:0:0:
368,260,7341,2,0,L|372:332,2,47.5000018119813
316,188,7802,6,0,P|340:148|304:56,1,142.500005435944
124,136,8725,2,0,L|292:124,1,142.500005435944
428,244,9648,2,0,L|272:240,1,142.500005435944
164,276,10571,1,0,0:0:0:0:
132,152,11033,2,0,L|96:112,2,47.5000018119813
212,100,11494,6,0,P|280:72|340:120,1,142.500005435944
456,180,12418,2,0,B|384:152|384:208|300:176,1,142.500005435944
128,280,13341,2,0,B|200:252|200:308|284:276,1,142.500005435944
388,300,14187,6,0,L|440:296,1,47.5000018119813,2|2,0:0|0:0,0:0:0:0:
463,274,14302,2,0,L|455:174,1,95.0000036239625
408,60,14725,5,8,0:0:0:0:
244,56,14879,1,8,0:0:0:0:
436,32,15033,1,8,0:0:0:0:
264,140,15187,1,14,0:0:0:0:
148,184,15648,6,0,L|68:180,2,63.3333333333333,8|2|2,0:0|0:0|0:0,0:0:0:0:
260,192,16110,1,8,0:0:0:0:
368,184,16571,6,0,L|440:180,2,63.3333333333333,8|2|2,0:0|0:0|0:0,0:0:0:0:
260,192,17033,1,8,0:0:0:0:
124,60,17494,6,0,P|160:44|188:44,1,63.3333333333333,8|2,0:0|0:0,0:0:0:0:
276,108,17802,1,2,0:0:0:0:
184,184,17956,2,0,L|176:108,1,63.3333333333333,8|2,0:0|0:0,0:0:0:0:
276,108,18264,1,2,0:0:0:0:
184,184,18418,5,8,0:0:0:0:
304,240,18571,1,8,0:0:0:0:
224,332,18706,2,0,L|216:304,1,23.75
184,184,18879,1,8,0:0:0:0:
353,122,19341,6,0,P|358:84|353:52,2,63.3333333333333,8|2|2,0:0|0:0|0:0,0:0:0:0:
284,208,19802,1,8,0:0:0:0:
216,284,20264,6,0,P|210:321|215:353,2,63.3333333333333,8|2|2,0:0|0:0|0:0,0:0:0:0:
284,208,20725,1,8,0:0:0:0:
184,112,21187,6,0,P|145:102|118:107,1,63.3333333333333,8|2,0:0|0:0,0:0:0:0:
52,184,21495,1,2,0:0:0:0:
196,216,21648,2,0,P|167:188|141:179,1,63.3333333333333,8|2,0:0|0:0,0:0:0:0:
52,184,21956,1,2,0:0:0:0:
196,216,22110,5,8,0:0:0:0:
64,276,22264,1,8,0:0:0:0:
156,364,22399,2,0,L|164:336,1,23.75
196,216,22572,1,8,0:0:0:0:
320,144,23033,6,8,L|267:108,2,63.3333333333333,8|2|2,0:0|0:0|0:0,0:0:0:0:
212,200,23494,1,8,0:0:0:0:
104,256,23956,6,8,L|156:291,2,63.3333333333333,8|2|2,0:0|0:0|0:0,0:0:0:0:
212,200,24417,1,8,0:0:0:0:
316,112,24879,6,0,P|355:102|382:107,1,63.3333333333333,8|2,0:0|0:0,0:0:0:0:
480,160,25187,1,2,0:0:0:0:
392,232,25340,2,0,P|364:203|355:177,1,63.3333333333333,8|2,0:0|0:0,0:0:0:0:
480,160,25648,1,2,0:0:0:0:
392,232,25802,5,8,0:0:0:0:
252,193,25956,1,8,0:0:0:0:
266,319,26091,2,0,L|290:302,1,23.75
392,232,26264,1,8,0:0:0:0:
327,87,26725,6,0,L|377:8,2,63.3333333333333,8|2|2,0:0|0:0|0:0,0:0:0:0:
253,196,27187,1,8,0:0:0:0:
198,309,27648,6,0,L|160:384,2,63.3333333333333,8|2|2,0:0|0:0|0:0,0:0:0:0:
253,196,28110,1,8,0:0:0:0:
124,196,28571,6,0,P|114:157|119:130,1,63.3333333333333,8|2,0:0|0:0,0:0:0:0:
180,280,28879,1,2,0:0:0:0:
212,176,29033,2,0,P|229:139|250:122,1,63.3333333333333,8|2,0:0|0:0,0:0:0:0:
180,280,29340,1,2,0:0:0:0:
212,176,29494,5,8,0:0:0:0:
173,316,29648,1,8,0:0:0:0:
308,320,29783,2,0,L|291:296,1,23.75
212,176,29956,1,8,0:0:0:0:
300,120,30418,6,0,L|380:116,1,63.3333333333333,8|8,0:0|0:0,0:0:0:0:
440,188,30725,1,8,0:0:0:0:
296,104,30879,1,8,0:0:0:0:
188,216,31341,6,0,L|108:220,1,63.3333333333333,8|8,0:0|0:0,0:0:0:0:
48,148,31648,1,8,0:0:0:0:
192,232,31802,1,8,0:0:0:0:
360,64,32264,6,0,P|399:54|426:59,1,63.3333333333333,8|2,0:0|0:0,0:0:0:0:
252,96,32571,1,2,0:0:0:0:
368,172,32726,2,0,P|404:189|421:210,1,63.3333333333333,8|2,0:0|0:0,0:0:0:0:
252,96,33032,1,2,0:0:0:0:
368,172,33187,5,8,0:0:0:0:
232,104,33341,1,8,0:0:0:0:
224,264,33476,2,0,L|248:247,1,23.75
368,172,33649,1,8,0:0:0:0:
208,120,34110,6,0,P|171:115|129:130,1,63.3333333333333,8|8,0:0|0:0,0:0:0:0:
48,248,34417,1,8,0:0:0:0:
172,188,34571,1,8,0:0:0:0:
284,296,35033,6,0,P|322:302|364:287,1,63.3333333333333,8|8,0:0|0:0,0:0:0:0:
444,168,35340,1,8,0:0:0:0:
320,228,35494,1,8,0:0:0:0:
156,112,35956,6,0,P|146:151|151:178,1,63.3333333333333,8|2,0:0|0:0,0:0:0:0:
172,288,36264,1,2,0:0:0:0:
284,180,36418,2,0,P|252:157|225:153,1,63.3333333333333,8|2,0:0|0:0,0:0:0:0:
172,288,36724,1,2,0:0:0:0:
284,180,36879,5,8,0:0:0:0:
172,288,37033,1,8,0:0:0:0:
300,364,37168,2,0,L|298:334,1,23.75
284,180,37341,1,8,0:0:0:0:
328,68,37802,6,0,P|292:56|256:56,1,63.3333333333333,8|2,0:0|0:0,0:0:0:0:
128,128,38110,1,2,0:0:0:0:
256,40,38264,1,8,0:0:0:0:
240,232,38725,6,0,P|276:244|312:244,1,63.3333333333333,8|2,0:0|0:0,0:0:0:0:
440,172,39033,1,2,0:0:0:0:
312,260,39187,1,8,0:0:0:0:
180,192,39648,6,0,L|176:96,1,63.3333333333333,8|0,0:0|0:0,0:0:0:0:
272,44,39956,1,2,0:0:0:0:
276,196,40110,2,0,L|212:193,1,63.3333333333333,8|0,0:0|0:0,0:0:0:0:
272,44,40418,1,2,0:0:0:0:
276,196,40571,5,8,0:0:0:0:
396,108,40725,1,8,0:0:0:0:
268,4,40860,2,0,L|270:34,1,23.75
276,196,41033,1,8,0:0:0:0:
305,110,41494,6,0,L|396:106,1,63.3333333333333,8|8,0:0|0:0,0:0:0:0:
464,187,41801,1,8,0:0:0:0:
301,92,41955,1,8,0:0:0:0:
179,219,42417,6,0,L|88:223,1,63.3333333333333,8|8,0:0|0:0,0:0:0:0:
20,142,42724,1,8,0:0:0:0:
183,237,42878,1,8,0:0:0:0:
84,200,43341,5,8,0:0:0:0:
244,164,43494,1,8,0:0:0:0:
164,324,43648,1,8,0:0:0:0:
156,120,43802,5,8,0:0:0:0:
276,264,43956,1,8,0:0:0:0:
324,24,44091,2,8,L|308:48,1,23.75
152,208,44264,5,8,0:0:0:0:
344,168,44418,1,8,0:0:0:0:
156,32,44552,2,8,L|168:56,1,23.75
276,264,44725,1,4,0:1:0:0:
136,236,49606,6,0,B|188:232|188:232|212:248|212:248|276:244,1,126.666666666667
368,280,49906,6,0,L|404:310,3,47.5,2|0|0|0,0:3|0:3|0:3|0:3,0:3:0:0:
382,253,50207,2,0,L|426:269,3,47.5,2|0|0|0,0:3|0:0|0:0|0:0,0:0:0:0:
386,221,50506,2,0,L|433:220,3,47.5,2|0|0|0,0:3|0:0|0:0|0:0,0:0:0:0:
336,108,50806,6,0,L|313:48,3,47.5,2|0|0|0,0:3|0:0|0:0|0:0,0:0:0:0:
289,119,51106,2,0,L|288:54,3,47.5,2|0|0|0,0:3|0:0|0:0|0:0,0:0:0:0:
241,112,51406,2,0,L|263:51,3,47.5,2|0|0|0,0:3|0:0|0:0|0:0,0:0:0:0:
199,90,51706,2,0,L|240:40,3,47.5,2|0|0|0,0:3|0:3|0:3|0:3,0:3:0:0:
144,224,52006,6,0,L|94:265,3,47.5,2|0|0|0,0:3|0:3|0:3|0:3,0:3:0:0:
161,260,52306,2,0,L|129:316,3,47.5,2|0|0|0,0:3|0:3|0:3|0:3,0:3:0:0:
190,288,52606,2,0,L|179:351,3,47.5,2|0|0|0,0:3|0:3|0:3|0:3,0:3:0:0:
227,304,52906,2,0,L|238:368,3,47.5,2|0|0|0,0:3|0:3|0:3|0:3,0:3:0:0:
368,256,53206,6,0,L|431:245,3,47.5,2|0|0|0,0:3|0:3|0:3|0:3,0:3:0:0:
383,213,53506,2,0,L|439:181,3,47.5,2|0|0|0,0:3|0:3|0:3|0:3,0:3:0:0:
382,168,53806,2,0,L|424:119,1,47.5,2|0,0:3|0:3,0:3:0:0:
256,192,53956,6,0,L|243:151,1,31.6666666666667,8|8,0:0|0:0,0:0:0:0:
216,72,54106,1,8,0:0:0:0:
256,192,54406,5,4,0:0:0:0:
256,192,54481,12,0,55456,0:0:0:0:
256,192,55606,5,4,0:0:0:0:
256,192,55681,12,0,56656,0:0:0:0:
256,192,56806,5,4,0:0:0:0:
256,192,56881,12,0,57856,0:0:0:0:
192,232,58006,6,0,L|172:284,3,47.5,8|0|0|0,0:0|0:0|0:0|0:0,0:0:0:0:
205,248,58306,2,0,L|200:303,3,47.5
228,260,58606,2,0,L|238:314,1,47.5
280,260,58756,2,0,L|307:307,1,47.5
56,112,58906,1,8,0:0:0:0:
72,124,59206,5,12,0:0:0:0:
94,151,59281,1,0,0:0:0:0:
125,171,59356,1,0,0:0:0:0:
161,177,59431,1,0,0:0:0:0:
197,171,59506,1,10,0:0:0:0:
230,153,59581,1,0,0:0:0:0:
253,126,59656,1,0,0:0:0:0:
284,104,59731,1,0,0:0:0:0:
317,89,59806,1,8,0:0:0:0:
354,88,59881,1,0,0:0:0:0:
388,101,59956,1,0,0:0:0:0:
415,126,60031,1,0,0:0:0:0:
431,159,60106,1,10,0:0:0:0:
433,195,60181,1,0,0:0:0:0:
422,230,60256,1,0,0:0:0:0:
399,259,60331,1,0,0:0:0:0:
364,276,60406,5,12,0:0:0:0:
322,284,60481,1,0,0:0:0:0:
283,277,60556,1,0,0:0:0:0:
248,256,60631,1,0,0:0:0:0:
222,222,60706,1,10,0:0:0:0:
216,184,60781,1,0,0:0:0:0:
219,146,60856,1,0,0:0:0:0:
208,105,60931,1,0,0:0:0:0:
179,76,61006,1,8,0:0:0:0:
141,63,61081,1,0,0:0:0:0:
100,72,61156,1,0,0:0:0:0:
71,99,61231,1,0,0:0:0:0:
60,139,61306,1,10,0:0:0:0:
68,176,61381,1,0,0:0:0:0:
91,209,61456,1,0,0:0:0:0:
123,234,61531,1,0,0:0:0:0:
164,240,61606,5,12,0:0:0:0:
208,236,61681,1,0,0:0:0:0:
248,214,61756,1,0,0:0:0:0:
278,183,61831,1,0,0:0:0:0:
305,150,61906,1,10,0:0:0:0:
341,124,61981,1,0,0:0:0:0:
385,120,62056,1,0,0:0:0:0:
426,135,62131,1,0,0:0:0:0:
456,169,62206,1,8,0:0:0:0:
464,214,62281,1,0,0:0:0:0:
453,257,62356,1,0,0:0:0:0:
418,285,62431,1,0,0:0:0:0:
377,302,62506,1,10,0:0:0:0:
332,306,62581,1,0,0:0:0:0:
290,288,62656,1,0,0:0:0:0:
258,260,62731,1,0,0:0:0:0:
240,224,62806,6,0,L|248:160,3,59.375,12|0|0|0,0:0|0:0|0:0|0:0,0:0:0:0:
156,284,63106,2,0,L|163:342,3,59.375,12|0|0|0,0:0|0:0|0:0|0:0,0:0:0:0:
60,212,63406,2,0,P|27:206|-24:223,3,59.375,12|0|0|0,0:0|0:0|0:0|0:0,0:0:0:0:
188,164,63706,2,0,P|220:169|272:153,3,59.375,12|0|0|0,0:0|0:0|0:0|0:0,0:0:0:0:
88,101,64006,5,12,0:0:0:0:
61,131,64081,1,0,0:0:0:0:
53,172,64156,1,0,0:0:0:0:
60,212,64231,1,0,0:0:0:0:
82,242,64306,1,10,0:0:0:0:
118,260,64381,1,0,0:0:0:0:
157,269,64456,1,0,0:0:0:0:
197,258,64531,1,0,0:0:0:0:
228,237,64606,1,8,0:0:0:0:
250,203,64681,1,0,0:0:0:0:
275,171,64756,1,0,0:0:0:0:
304,141,64831,1,0,0:0:0:0:
347,131,64906,1,10,0:0:0:0:
385,140,64981,1,0,0:0:0:0:
420,165,65056,1,0,0:0:0:0:
432,209,65131,1,0,0:0:0:0:
424,253,65206,5,12,0:0:0:0:
382,273,65281,1,0,0:0:0:0:
336,277,65356,1,0,0:0:0:0:
296,254,65431,1,0,0:0:0:0:
268,226,65506,1,10,0:0:0:0:
262,179,65581,1,0,0:0:0:0:
275,135,65656,1,0,0:0:0:0:
312,108,65731,1,0,0:0:0:0:
360,100,65806,1,8,0:0:0:0:
403,114,65881,1,0,0:0:0:0:
433,151,65956,1,0,0:0:0:0:
447,197,66031,1,0,0:0:0:0:
439,244,66106,1,10,0:0:0:0:
409,282,66181,1,0,0:0:0:0:
366,305,66256,1,0,0:0:0:0:
319,306,66331,1,0,0:0:0:0:
272,296,66406,5,12,0:0:0:0:
242,255,66481,1,0,0:0:0:0:
239,206,66556,1,0,0:0:0:0:
250,159,66631,1,0,0:0:0:0:
260,110,66706,1,10,0:0:0:0:
256,62,66781,1,0,0:0:0:0:
227,23,66856,1,0,0:0:0:0:
180,10,66931,1,0,0:0:0:0:
132,30,67006,1,8,0:0:0:0:
110,75,67081,1,0,0:0:0:0:
124,123,67156,1,0,0:0:0:0:
147,164,67231,1,0,0:0:0:0:
159,209,67306,1,10,0:0:0:0:
147,257,67381,1,0,0:0:0:0:
105,286,67456,1,0,0:0:0:0:
55,280,67531,1,0,0:0:0:0:
8,256,67606,6,0,L|0:197,3,59.375,12|0|0|0,0:0|0:0|0:0|0:0,0:0:0:0:
56,96,67906,2,0,L|96:52,3,59.375,12|0|0|0,0:0|0:0|0:0|0:0,0:0:0:0:
220,32,68206,2,0,L|279:34,3,59.375,12|0|0|0,0:0|0:0|0:0|0:0,0:0:0:0:
372,96,68506,2,0,L|407:143,3,59.375,12|0|0|0,0:0|0:0|0:0|0:0,0:0:0:0:
500,208,68806,5,12,0:0:0:0:
459,185,68881,1,0,0:0:0:0:
413,177,68956,1,0,0:0:0:0:
368,183,69031,1,0,0:0:0:0:
326,203,69106,1,10,0:0:0:0:
285,218,69181,1,0,0:0:0:0:
241,231,69256,1,0,0:0:0:0:
199,218,69331,1,0,0:0:0:0:
166,191,69406,1,8,0:0:0:0:
152,148,69481,1,0,0:0:0:0:
156,96,69556,1,0,0:0:0:0:
190,57,69631,1,0,0:0:0:0:
238,38,69706,1,10,0:0:0:0:
290,44,69781,1,0,0:0:0:0:
333,72,69856,1,0,0:0:0:0:
359,117,69931,1,0,0:0:0:0:
359,166,70006,5,12,0:0:0:0:
332,206,70081,1,0,0:0:0:0:
285,218,70156,1,0,0:0:0:0:
238,201,70231,1,0,0:0:0:0:
211,161,70306,1,10,0:0:0:0:
189,114,70381,1,0,0:0:0:0:
148,87,70456,1,0,0:0:0:0:
99,89,70531,1,0,0:0:0:0:
60,115,70606,1,8,0:0:0:0:
52,168,70681,1,0,0:0:0:0:
83,212,70756,1,0,0:0:0:0:
136,226,70831,1,0,0:0:0:0:
188,217,70906,1,10,0:0:0:0:
239,220,70981,1,0,0:0:0:0:
279,258,71056,1,0,0:0:0:0:
284,313,71131,1,0,0:0:0:0:
256,356,71206,5,12,0:0:0:0:
226,314,71281,1,0,0:0:0:0:
223,264,71356,1,0,0:0:0:0:
233,216,71431,1,0,0:0:0:0:
244,166,71506,1,10,0:0:0:0:
240,117,71581,1,0,0:0:0:0:
210,77,71656,1,0,0:0:0:0:
162,64,71731,1,0,0:0:0:0:
113,78,71806,1,8,0:0:0:0:
81,121,71881,1,0,0:0:0:0:
88,174,71956,1,0,0:0:0:0:
129,208,72031,1,0,0:0:0:0:
178,221,72106,1,10,0:0:0:0:
226,211,72181,1,0,0:0:0:0:
263,181,72256,1,0,0:0:0:0:
289,139,72331,1,0,0:0:0:0:
292,88,72406,6,0,P|231:84|212:92,3,59.375,12|0|0|0,0:0|0:0|0:0|0:0,0:0:0:0:
148,172,72706,2,0,P|148:240|156:259,3,59.375,12|0|0|0,0:0|0:0|0:0|0:0,0:0:0:0:
220,324,73006,2,0,P|280:327|299:319,3,59.375,12|0|0|0,0:0|0:0|0:0|0:0,0:0:0:0:
348,232,73306,2,0,P|351:171|343:152,3,59.375,12|0|0|0,0:0|0:0|0:0|0:0,0:0:0:0:
464,344,73606,5,12,0:0:0:0:
418,318,73681,1,0,0:0:0:0:
368,309,73756,1,0,0:0:0:0:
318,316,73831,1,0,0:0:0:0:
272,338,73906,1,10,0:0:0:0:
227,355,73981,1,0,0:0:0:0:
179,369,74056,1,0,0:0:0:0:
132,355,74131,1,0,0:0:0:0:
96,325,74206,1,8,0:0:0:0:
84,276,74281,1,0,0:0:0:0:
88,224,74356,1,0,0:0:0:0:
122,185,74431,1,0,0:0:0:0:
170,166,74506,1,10,0:0:0:0:
222,172,74581,1,0,0:0:0:0:
265,200,74656,1,0,0:0:0:0:
291,245,74731,1,0,0:0:0:0:
288,300,74806,5,12,0:0:0:0:
253,335,74881,1,0,0:0:0:0:
206,351,74956,1,0,0:0:0:0:
157,339,75031,1,0,0:0:0:0:
121,306,75106,1,10,0:0:0:0:
107,258,75181,1,0,0:0:0:0:
117,210,75256,1,0,0:0:0:0:
154,183,75331,1,0,0:0:0:0:
204,168,75406,1,8,0:0:0:0:
252,174,75481,1,0,0:0:0:0:
296,200,75556,1,0,0:0:0:0:
344,225,75631,1,0,0:0:0:0:
388,218,75706,1,10,0:0:0:0:
429,192,75781,1,0,0:0:0:0:
453,152,75856,1,0,0:0:0:0:
457,105,75931,1,0,0:0:0:0:
432,58,76006,5,6,0:0:0:0:
371,49,76081,1,0,0:0:0:0:
323,79,76156,1,0,0:0:0:0:
292,130,76231,1,0,0:0:0:0:
260,182,76306,1,6,0:0:0:0:
202,201,76381,1,0,0:0:0:0:
147,192,76456,1,0,0:0:0:0:
110,149,76531,1,0,0:0:0:0:
118,91,76606,1,6,0:0:0:0:
173,66,76681,1,0,0:0:0:0:
235,79,76756,1,0,0:0:0:0:
275,127,76831,1,0,0:0:0:0:
312,172,76906,1,6,0:0:0:0:
368,198,76981,1,0,0:0:0:0:
432,190,77056,1,0,0:0:0:0:
478,146,77131,1,0,0:0:0:0:
495,86,77206,5,14,0:0:0:0:
256,192,77281,12,8,79531,0:2:0:0:
132,248,79606,5,4,0:1:0:0:
292,196,79906,1,4,0:1:0:0:
40,160,80206,1,0,3:0:0:0:
43,179,80281,1,0,3:0:0:0:
45,198,80356,1,0,3:0:0:0:
48,217,80431,1,0,3:0:0:0:
50,236,80506,1,0,3:0:0:0:
53,255,80581,1,0,3:0:0:0:
55,274,80656,1,0,3:0:0:0:
58,293,80731,1,0,3:0:0:0:
60,308,80806,6,0,L|172:296,1,95,6|0,0:0|0:0,0:0:0:0:
272,288,81106,1,8,0:0:0:0:
200,160,81256,1,0,0:0:0:0:
180,336,81406,1,2,0:0:0:0:
180,336,81481,1,0,0:0:0:0:
180,336,81556,1,0,0:0:0:0:
300,196,81706,1,8,0:0:0:0:
108,216,81856,1,0,0:0:0:0:
296,172,82006,6,0,P|352:160|408:160,1,95,2|0,0:0|0:0,0:0:0:0:
204,248,82306,2,0,P|148:240|95:220,1,95,8|0,0:0|0:0,0:0:0:0:
88,84,82606,1,2,0:0:0:0:
16,224,82756,1,0,0:0:0:0:
180,148,82906,1,8,0:0:0:0:
180,148,82981,1,0,0:0:0:0:
180,148,83056,1,0,0:0:0:0:
24,136,83206,6,0,L|16:28,1,95,6|0,0:3|0:0,0:0:0:0:
36,12,83431,1,0,0:0:0:0:
36,12,83506,2,2,P|88:0|140:20,1,95,8|0,0:0|0:0,0:0:0:0:
212,92,83806,1,2,0:0:0:0:
104,156,83956,1,0,0:0:0:0:
248,208,84106,2,0,L|239:109,1,95,8|0,0:0|0:0,0:0:0:0:
312,296,84406,5,0,0:0:0:0:
132,212,84556,1,0,0:0:0:0:
332,264,84706,1,8,0:0:0:0:
104,304,84856,1,0,0:0:0:0:
344,240,85006,2,0,P|400:247|453:267,1,95,2|0,0:0|0:0,0:0:0:0:
232,168,85306,1,8,0:0:0:0:
232,168,85381,1,0,0:0:0:0:
232,168,85456,1,0,0:0:0:0:
364,136,85606,6,0,L|372:28,1,95,6|0,0:3|0:0,0:0:0:0:
352,12,85831,1,0,0:0:0:0:
352,12,85906,2,2,P|300:0|248:20,1,95,8|0,0:0|0:0,0:0:0:0:
160,112,86206,1,0,0:0:0:0:
160,112,86281,1,0,0:0:0:0:
160,112,86356,1,0,0:0:0:0:
288,200,86506,1,8,0:0:0:0:
224,8,86656,1,0,0:0:0:0:
128,172,86806,6,0,L|32:160,1,95,2|0,0:0|0:0,0:0:0:0:
288,240,87106,2,0,L|384:228,1,95,8|0,0:0|0:0,0:0:0:0:
128,312,87406,2,0,L|32:300,1,95,2|0,0:0|0:0,0:0:0:0:
280,360,87706,1,8,0:0:0:0:
280,360,87781,1,0,0:0:0:0:
280,360,87856,1,0,0:0:0:0:
112,192,88006,6,0,P|124:240|120:304,1,95,4|0,0:1|0:0,0:0:0:0:
265,224,88306,2,0,P|270:175|296:116,1,95,8|0,0:0|0:0,0:0:0:0:
176,40,88606,1,2,0:0:0:0:
176,40,88681,1,0,0:0:0:0:
176,40,88756,1,0,0:0:0:0:
248,232,88906,1,8,0:0:0:0:
88,108,89056,1,0,0:0:0:0:
256,56,89206,6,0,P|305:71|345:106,1,95,6|0,0:0|0:0,0:0:0:0:
294,269,89506,2,0,P|303:223|329:183,1,95,8|0,0:0|0:0,0:0:0:0:
506,117,89806,2,0,P|457:136|404:135,1,95,2|0,0:0|0:0,0:0:0:0:
212,176,90106,1,8,0:0:0:0:
336,68,90256,1,0,0:0:0:0:
404,344,90406,6,0,L|472:336,3,47.5,4|0|0|0,0:0|0:0|0:0|0:0,0:0:0:0:
308,288,90706,2,0,L|260:293,3,47.5,8|0|0|0,0:0|0:0|0:0|0:0,0:0:0:0:
408,236,91006,1,8,0:0:0:0:
415,204,91081,1,0,0:0:0:0:
411,172,91156,1,0,0:0:0:0:
396,144,91231,1,0,0:0:0:0:
374,120,91306,1,8,0:0:0:0:
341,106,91381,1,0,0:0:0:0:
305,106,91456,1,0,0:0:0:0:
273,118,91531,1,0,0:0:0:0:
240,132,91606,5,12,0:0:0:0:
194,140,91681,1,0,0:0:0:0:
148,134,91756,1,0,0:0:0:0:
106,115,91831,1,0,0:0:0:0:
72,83,91906,1,8,0:0:0:0:
49,43,91981,1,0,0:0:0:0:
70,1,92056,1,0,0:0:0:0:
117,3,92131,1,0,0:0:0:0:
152,36,92206,1,8,0:0:0:0:
158,81,92281,1,0,0:0:0:0:
141,124,92356,1,0,0:0:0:0:
120,161,92431,1,0,0:0:0:0:
106,200,92506,1,8,0:0:0:0:
95,244,92581,1,0,0:0:0:0:
108,288,92656,1,0,0:0:0:0:
140,320,92731,1,0,0:0:0:0:
184,332,92806,6,0,L|280:324,1,95,6|0,0:0|0:0,0:0:0:0:
376,280,93106,1,8,0:0:0:0:
256,176,93256,1,0,0:0:0:0:
424,180,93406,1,2,0:0:0:0:
424,180,93481,1,0,0:0:0:0:
424,180,93556,1,0,0:0:0:0:
276,288,93706,1,8,0:0:0:0:
472,272,93856,1,0,0:0:0:0:
244,180,94006,6,0,L|136:196,1,95,2|0,0:0|0:0,0:0:0:0:
384,96,94306,2,0,L|492:112,1,95,8|0,0:0|0:0,0:0:0:0:
268,52,94606,1,2,0:0:0:0:
328,228,94756,1,0,0:0:0:0:
396,20,94906,1,8,0:0:0:0:
396,20,94981,1,0,0:0:0:0:
396,20,95056,1,0,0:0:0:0:
224,152,95206,6,0,L|232:268,1,95,6|0,0:0|0:0,0:0:0:0:
112,80,95506,1,8,0:0:0:0:
276,72,95656,1,0,0:0:0:0:
96,176,95806,1,2,0:0:0:0:
180,20,95956,1,0,0:0:0:0:
320,176,96106,2,0,L|220:164,1,95,8|0,0:0|0:0,0:0:0:0:
360,296,96406,5,2,0:0:0:0:
360,296,96481,1,0,0:0:0:0:
360,296,96556,1,0,0:0:0:0:
400,112,96706,1,8,0:0:0:0:
248,232,96856,1,0,0:0:0:0:
444,208,97006,1,2,0:0:0:0:
268,112,97156,1,0,0:0:0:0:
360,296,97306,1,8,0:0:0:0:
360,296,97381,1,0,0:0:0:0:
360,296,97456,1,0,0:0:0:0:
268,112,97606,6,0,P|217:104|151:120,1,95,6|0,0:0|0:0,0:0:0:0:
64,156,97906,1,8,0:0:0:0:
180,248,98056,1,0,0:0:0:0:
152,48,98206,1,2,0:0:0:0:
88,256,98356,1,0,0:0:0:0:
64,112,98506,2,0,L|184:108,1,95,8|0,0:0|0:0,0:0:0:0:
348,236,98806,6,0,L|228:240,1,95,2|0,0:0|0:0,0:0:0:0:
144,304,99106,1,8,0:0:0:0:
192,148,99256,1,0,0:0:0:0:
344,320,99406,2,0,L|249:326,1,95,2|0,0:0|0:0,0:0:0:0:
392,196,99706,2,0,L|487:202,1,95,8|0,0:0|0:0,0:0:0:0:
280,160,100006,6,0,L|274:65,1,95,6|0,0:0|0:0,0:0:0:0:
436,36,100306,1,8,0:0:0:0:
384,168,100456,2,0,P|330:174|290:167,1,95,0|2,0:0|0:0,0:0:0:0:
472,112,100756,1,0,0:0:0:0:
408,292,100906,1,8,0:0:0:0:
336,88,101056,1,0,0:0:0:0:
304,284,101206,6,0,L|404:280,1,95,6|0,0:0|0:0,0:0:0:0:
236,152,101506,1,8,0:0:0:0:
176,280,101656,2,0,L|188:388,1,95,0|2,0:0|0:0,0:0:0:0:
240,156,101956,1,0,0:0:0:0:
380,264,102106,1,8,0:0:0:0:
240,156,102256,1,0,0:0:0:0:
96,288,102406,5,6,0:0:0:0:
71,252,102481,1,0,0:0:0:0:
63,210,102556,1,2,0:0:0:0:
73,168,102631,1,0,0:0:0:0:
100,134,102706,1,2,0:0:0:0:
138,114,102781,1,0,0:0:0:0:
181,112,102856,1,2,0:0:0:0:
221,122,102931,1,0,0:0:0:0:
250,149,103006,1,2,0:0:0:0:
284,173,103081,1,0,0:0:0:0:
311,205,103156,1,2,0:0:0:0:
345,229,103231,1,0,0:0:0:0:
386,232,103306,1,2,0:0:0:0:
424,216,103381,1,0,0:0:0:0:
450,184,103456,1,2,0:0:0:0:
457,142,103531,1,0,0:0:0:0:
444,105,103606,5,2,0:0:0:0:
407,91,103681,1,0,0:0:0:0:
363,92,103756,1,2,0:0:0:0:
326,111,103831,1,0,0:0:0:0:
298,144,103906,1,2,0:0:0:0:
287,186,103981,1,0,0:0:0:0:
266,223,104056,1,2,0:0:0:0:
235,253,104131,1,0,0:0:0:0:
194,266,104206,1,2,0:0:0:0:
151,261,104281,1,0,0:0:0:0:
114,239,104356,1,2,0:0:0:0:
89,203,104431,1,0,0:0:0:0:
85,161,104506,1,2,0:0:0:0:
93,121,104581,1,0,0:0:0:0:
119,86,104656,1,2,0:0:0:0:
158,68,104731,1,0,0:0:0:0:
196,60,104806,6,0,L|280:68,1,76,4|0,0:0|0:0,0:0:0:0:
420,140,105106,2,0,L|336:148,1,76,2|0,0:0|0:0,0:0:0:0:
208,204,105406,1,8,0:0:0:0:
320,144,105556,1,8,0:0:0:0:
288,296,105706,1,8,0:0:0:0:
104,304,106006,6,0,L|108:220,1,76,6|0,0:0|0:0,0:0:0:0:
200,144,106456,1,0,0:0:0:0:
200,144,106606,2,0,L|274:144,1,38
328,76,106756,2,0,L|254:76,1,38
180,40,106906,6,0,L|208:-16,4,38,4|0|0|0|0,0:0|0:0|0:0|0:0|0:0,0:0:0:0:
128,140,107356,6,0,L|90:103,1,38,2|0,0:3|0:0,0:0:0:0:
233,175,107506,2,0,L|275:205,1,38,2|0,0:3|0:0,0:0:0:0:
115,160,107656,6,0,L|63:146,1,38,2|0,0:3|0:0,0:0:0:0:
238,144,107806,2,0,L|289:149,1,38,2|0,0:3|0:0,0:0:0:0:
114,180,107956,6,0,L|61:185,1,38,2|0,0:3|0:0,0:0:0:0:
236,116,108106,2,0,L|285:103,1,38,2|0,0:3|0:0,0:0:0:0:
125,205,108256,6,0,L|77:227,1,38,2|0,0:3|0:0,0:0:0:0:
240,216,108406,5,2,0:0:0:0:
348,300,108556,2,0,L|428:304,1,76,8|0,0:0|0:0,0:0:0:0:
240,216,108856,1,2,0:0:0:0:
352,284,109006,2,0,L|432:288,1,76,8|0,0:0|0:0,0:0:0:0:
224,304,109306,2,0,L|144:308,1,76,2|8,0:0|0:0,0:0:0:0:
76,212,109606,5,0,0:0:0:0:
74,182,109681,1,0,0:0:0:0:
82,155,109756,1,0,0:0:0:0:
100,132,109831,1,0,0:0:0:0:
125,116,109906,1,0,0:0:0:0:
153,111,109981,1,0,0:0:0:0:
182,116,110056,1,0,0:0:0:0:
207,131,110131,1,0,0:0:0:0:
225,154,110206,1,0,0:0:0:0:
238,174,110281,1,0,0:0:0:0:
256,197,110356,1,0,0:0:0:0:
281,212,110431,1,0,0:0:0:0:
309,216,110506,1,0,0:0:0:0:
338,212,110581,1,0,0:0:0:0:
363,196,110656,1,0,0:0:0:0:
381,173,110731,1,0,0:0:0:0:
390,145,110806,5,0,0:0:0:0:
392,116,110881,1,0,0:0:0:0:
388,88,110956,2,0,L|327:82,1,38,4|0,0:0|0:0,0:0:0:0:
260,148,111106,2,0,L|200:152,3,38,4|0|0|0,0:0|0:0|0:0|0:0,0:0:0:0:
384,208,111406,2,0,L|444:212,3,38,4|0|0|0,0:0|0:0|0:0|0:0,0:0:0:0:
248,256,111706,2,0,L|188:260,3,38,4|0|0|0,0:0|0:0|0:0|0:0,0:0:0:0:
352,352,112006,1,0,0:0:0:0:
302,138,112306,6,0,P|256:112|216:102,1,76,8|0,0:0|0:0,0:0:0:0:
138,102,112606,1,8,0:0:0:0:
70,150,112756,1,0,0:0:0:0:
66,234,112906,1,8,0:0:0:0:
130,286,113056,1,0,0:0:0:0:
246,230,113206,5,12,0:0:0:0:
108,136,113656,5,2,0:0:0:0:
66,234,113806,2,0,P|60:196|86:140,1,95
180,56,114106,1,2,0:0:0:0:
213,38,114181,1,2,0:0:0:0:
251,37,114256,1,2,0:0:0:0:
286,51,114331,1,2,0:0:0:0:
312,72,114406,6,0,P|320:124|304:172,1,85.4999973907472,4|0,0:0|0:0,0:0:0:0:
416,76,114706,2,0,P|408:128|424:176,1,85.4999973907472,2|0,0:0|0:0,0:0:0:0:
472,260,115006,2,0,P|420:268|372:252,1,85.4999973907472,2|0,0:0|0:0,0:0:0:0:
260,340,115306,2,0,P|312:332|360:348,1,85.4999973907472,2|0,0:0|0:0,0:0:0:0:
156,260,115606,6,0,L|160:348,1,85.4999973907472,2|0,0:0|0:0,0:0:0:0:
64,168,115906,2,0,L|60:256,1,85.4999973907472,2|0,0:0|0:0,0:0:0:0:
141,89,116206,2,0,L|157:281,1,170.999994781494,2|2,0:0|0:0,0:0:0:0:
292,168,116656,1,0,0:0:0:0:
292,168,116806,6,0,L|384:172,1,85.4999973907472,2|0,0:0|0:0,0:0:0:0:
141,89,117106,2,0,L|49:93,1,85.4999973907472,2|0,0:0|0:0,0:0:0:0:
286,85,117406,2,0,P|298:133|290:173,1,85.4999973907472,2|0,0:0|0:0,0:0:0:0:
164,212,117706,2,0,P|152:260|160:300,1,85.4999973907472,2|0,0:0|0:0,0:0:0:0:
368,356,118006,6,0,P|392:308|364:188,1,170.999994781494,6|2,0:0|0:0,0:0:0:0:
428,104,118456,1,0,0:0:0:0:
428,104,118606,2,0,P|460:136|472:192,1,85.4999973907472,2|0,0:0|0:0,0:0:0:0:
286,85,118906,2,0,P|313:49|367:30,1,85.4999973907472,2|0,0:0|0:0,0:0:0:0:
206,172,119206,6,0,B|255:199|255:199|386:196,1,170.999994781494,2|2,0:0|0:0,0:0:0:0:
104,128,119656,1,0,0:0:0:0:
104,128,119806,2,0,L|104:220,1,85.4999973907472,2|0,0:0|0:0,0:0:0:0:
212,344,120106,1,2,0:0:0:0:
212,344,120256,1,0,0:0:0:0:
296,280,120406,6,0,P|344:268|380:276,1,85.4999973907472,2|0,0:0|0:0,0:0:0:0:
212,344,120706,1,2,0:0:0:0:
96,280,120856,1,2,0:0:0:0:
208,258,121006,2,0,L|212:358,1,85.4999973907472,2|2,0:0|0:0,0:0:0:0:
176,116,121306,1,2,0:0:0:0:
176,116,121456,1,0,0:0:0:0:
176,116,121606,6,0,P|228:104|276:116,1,85.4999973907472,6|0,0:0|0:0,0:0:0:0:
356,252,121906,2,0,P|304:238|267:205,1,85.4999973907472,2|0,0:0|0:0,0:0:0:0:
472,176,122206,2,0,L|476:268,1,85.4999973907472,2|0,0:0|0:0,0:0:0:0:
320,128,122506,2,0,L|324:36,1,85.4999973907472,2|0,0:0|0:0,0:0:0:0:
247,177,122806,6,0,P|322:212|396:176,1,170.999994781494,2|2,0:0|0:0,0:0:0:0:
320,128,123256,1,0,0:0:0:0:
232,192,123406,2,0,P|224:244|228:280,1,85.4999973907472,2|0,0:0|0:0,0:0:0:0:
124,344,123706,2,0,P|132:292|128:256,1,85.4999973907472,2|0,0:0|0:0,0:0:0:0:
0,188,124006,6,0,L|92:180,1,85.4999973907472,2|0,0:0|0:0,0:0:0:0:
228,96,124306,2,0,L|142:88,1,85.4999973907472,2|0,0:0|0:0,0:0:0:0:
240,224,124606,1,2,0:0:0:0:
240,224,124756,1,0,0:0:0:0:
148,288,124906,2,0,B|136:232|136:232|156:132,1,128.249996086121,2|0,0:0|0:0,0:0:0:0:
173,136,125206,6,0,P|233:172|329:148,1,170.999994781494,6|2,0:0|0:0,0:0:0:0:
248,88,125656,1,0,0:0:0:0:
152,152,125806,2,0,P|140:196|148:248,1,85.4999973907472,2|0,0:0|0:0,0:0:0:0:
288,288,126106,2,0,P|262:250|217:223,1,85.4999973907472,2|0,0:0|0:0,0:0:0:0:
112,320,126406,6,0,L|204:312,1,85.4999973907472,2|0,0:0|0:0,0:0:0:0:
373,295,126706,2,0,L|281:287,1,85.4999973907472,2|0,0:0|0:0,0:0:0:0:
72,236,127006,2,0,L|164:228,1,85.4999973907472,2|0,0:0|0:0,0:0:0:0:
408,212,127306,2,0,L|316:204,1,85.4999973907472,2|0,0:0|0:0,0:0:0:0:
200,152,127606,5,0,0:0:0:0:
276,16,127756,1,0,0:0:0:0:
156,64,127906,2,0,P|108:56|68:56,1,85.4999973907472,2|0,0:0|0:0,0:0:0:0:
296,104,128206,2,0,P|344:96|384:96,1,85.4999973907472,2|0,0:0|0:0,0:0:0:0:
152,164,128506,1,2,0:0:0:0:
300,236,128656,1,0,0:0:0:0:
300,236,128731,1,0,0:0:0:0:
300,236,128806,6,0,L|296:132,1,95,6|0,0:1|0:0,0:0:0:0:
416,96,129106,1,10,0:0:0:0:
316,236,129256,1,0,0:0:0:0:
476,200,129406,1,2,0:0:0:0:
476,200,129481,1,0,0:0:0:0:
476,200,129556,1,0,0:0:0:0:
296,141,129706,2,0,P|252:133|200:133,1,95,10|0,0:0|0:0,0:0:0:0:
92,296,130006,6,0,P|90:234|110:193,1,95,2|0,0:0|0:0,0:0:0:0:
259,222,130306,2,0,P|206:253|161:257,1,95,10|0,0:0|0:0,0:0:0:0:
107,116,130606,2,0,P|160:145|186:182,1,95,2|0,0:0|0:0,0:0:0:0:
229,336,130906,1,8,0:0:0:0:
229,336,130981,1,0,0:0:0:0:
229,336,131056,1,0,0:0:0:0:
332,248,131206,6,0,L|432:252,1,95,6|0,0:0|0:0,0:0:0:0:
224,160,131506,2,0,L|124:164,1,95,10|0,0:0|0:0,0:0:0:0:
312,108,131806,1,2,0:0:0:0:
332,248,131956,1,0,0:0:0:0:
232,68,132106,1,8,0:0:0:0:
392,144,132256,1,0,0:0:0:0:
228,268,132406,6,0,L|224:164,1,95,2|0,0:0|0:0,0:0:0:0:
344,48,132706,2,0,L|340:152,1,95,8|0,0:0|0:0,0:0:0:0:
404,300,133006,1,2,0:0:0:0:
440,164,133156,1,0,0:0:0:0:
336,228,133306,2,0,L|237:234,1,95,8|0,0:0|0:0,0:0:0:0:
144,64,133606,6,0,L|149:158,1,95,6|0,0:0|0:0,0:0:0:0:
152,308,133906,1,8,0:0:0:0:
252,172,134056,1,0,0:0:0:0:
48,224,134206,1,2,0:0:0:0:
48,224,134281,1,0,0:0:0:0:
48,224,134356,1,0,0:0:0:0:
180,124,134506,1,8,0:0:0:0:
136,336,134656,1,0,0:0:0:0:
76,72,134806,5,2,0:0:0:0:
296,68,134956,1,0,0:0:0:0:
91,173,135106,5,10,0:0:0:0:
316,66,135256,1,0,0:0:0:0:
129,259,135406,5,2,0:0:0:0:
336,64,135556,1,0,0:0:0:0:
196,332,135706,5,10,0:0:0:0:
229,329,135781,1,0,0:0:0:0:
262,326,135856,1,0,0:0:0:0:
295,323,135931,1,0,0:0:0:0:
328,320,136006,6,0,L|436:308,1,95,6|0,0:0|0:0,0:0:0:0:
512,224,136306,1,8,0:0:0:0:
392,140,136456,2,0,L|408:252,1,95,0|2,0:0|0:0,0:0:0:0:
512,224,136756,1,0,0:0:0:0:
368,140,136906,1,8,0:0:0:0:
512,80,137056,1,0,0:0:0:0:
312,32,137206,6,0,L|204:44,1,95,6|0,0:0|0:0,0:0:0:0:
104,128,137506,1,8,0:0:0:0:
220,224,137656,2,0,L|224:104,1,95,0|2,0:0|0:0,0:0:0:0:
104,128,137956,1,0,0:0:0:0:
72,300,138106,1,8,0:0:0:0:
220,224,138256,1,0,0:0:0:0:
52,200,138406,6,0,L|-12:208,3,47.5,4|0|0|0,0:0|0:0|0:0|0:0,0:0:0:0:
176,244,138706,2,0,L|240:252,3,47.5,8|0|0|0,0:0|0:0|0:0|0:0,0:0:0:0:
80,311,139006,1,8,0:0:0:0:
47,300,139081,1,0,0:0:0:0:
22,279,139156,1,0,0:0:0:0:
4,253,139231,1,0,0:0:0:0:
0,219,139306,1,8,0:0:0:0:
0,184,139381,1,0,0:0:0:0:
17,151,139456,1,0,0:0:0:0:
44,128,139531,1,0,0:0:0:0:
80,116,139606,5,14,0:0:0:0:
126,111,139681,1,0,0:0:0:0:
170,127,139756,1,0,0:0:0:0:
202,162,139831,1,0,0:0:0:0:
226,200,139906,1,10,0:0:0:0:
263,226,139981,1,0,0:0:0:0:
309,236,140056,1,0,0:0:0:0:
354,224,140131,1,0,0:0:0:0:
384,188,140206,1,8,0:0:0:0:
356,144,140281,1,0,0:0:0:0:
311,122,140356,1,0,0:0:0:0:
261,127,140431,1,0,0:0:0:0:
217,146,140506,1,8,0:0:0:0:
166,153,140581,1,0,0:0:0:0:
120,131,140656,1,0,0:0:0:0:
93,90,140731,1,0,0:0:0:0:
104,44,140806,6,0,L|204:36,1,95,4|0,0:0|0:0,0:0:0:0:
352,52,141106,1,8,0:0:0:0:
240,168,141256,1,0,0:0:0:0:
424,168,141406,1,2,0:0:0:0:
424,168,141481,1,0,0:0:0:0:
424,168,141556,1,0,0:0:0:0:
248,48,141706,2,0,L|240:172,1,95,8|0,0:0|0:0,0:0:0:0:
328,272,142006,5,2,0:0:0:0:
328,272,142081,1,0,0:0:0:0:
328,272,142156,1,0,0:0:0:0:
144,196,142306,2,0,L|248:188,1,95,8|0,0:0|0:0,0:0:0:0:
88,288,142606,1,2,0:0:0:0:
72,108,142756,1,0,0:0:0:0:
204,280,142906,1,8,0:0:0:0:
204,280,142981,1,0,0:0:0:0:
204,280,143056,1,0,0:0:0:0:
236,80,143206,6,0,P|292:72|332:84,1,95,6|0,0:0|0:0,0:0:0:0:
420,248,143506,2,0,P|380:206|367:167,1,95,8|0,0:0|0:0,0:0:0:0:
440,68,143806,1,2,0:0:0:0:
440,68,143881,1,0,0:0:0:0:
440,68,143956,1,0,0:0:0:0:
240,168,144106,2,0,L|334:164,1,95,8|0,0:0|0:0,0:0:0:0:
216,308,144406,6,0,L|108:304,1,95,2|0,0:0|0:0,0:0:0:0:
48,196,144706,1,8,0:0:0:0:
16,344,144856,1,0,0:0:0:0:
156,220,145006,1,2,0:0:0:0:
0,116,145156,1,0,0:0:0:0:
84,308,145306,1,8,0:0:0:0:
84,308,145381,1,0,0:0:0:0:
84,308,145456,1,0,0:0:0:0:
120,132,145606,6,0,L|112:28,1,95,4|0,0:1|0:0,0:0:0:0:
248,224,145906,2,0,L|256:120,1,95,8|0,0:0|0:0,0:0:0:0:
120,284,146206,1,2,0:0:0:0:
120,284,146281,1,0,0:0:0:0:
120,284,146356,1,0,0:0:0:0:
288,220,146506,1,8,0:0:0:0:
128,128,146656,1,0,0:0:0:0:
212,360,146806,2,0,L|208:265,1,95,2|0,0:0|0:0,0:0:0:0:
320,148,147106,6,0,P|268:140|215:153,1,95,8|0,0:0|0:0,0:0:0:0:
408,240,147406,2,0,P|457:229|503:198,1,95,2|0,0:0|0:0,0:0:0:0:
452,56,147706,1,8,0:0:0:0:
452,56,147781,1,0,0:0:0:0:
452,56,147856,1,0,0:0:0:0:
280,84,148006,6,0,L|176:80,1,95,4|0,0:1|0:0,0:0:0:0:
64,200,148306,1,8,0:0:0:0:
88,40,148456,1,0,0:0:0:0:
152,200,148606,2,0,P|135:247|92:282,1,95,2|0,0:0|0:0,0:0:0:0:
252,112,148906,2,0,P|301:102|353:122,1,95,8|0,0:0|0:0,0:0:0:0:
400,280,149206,5,0,0:0:0:0:
388,100,149356,1,0,0:0:0:0:
288,272,149506,2,0,L|296:172,1,95,8|0,0:0|0:0,0:0:0:0:
144,24,149806,2,0,L|152:124,1,95,2|0,0:0|0:0,0:0:0:0:
172,264,150106,1,8,0:0:0:0:
276,64,150256,1,0,0:0:0:0:
172,184,150406,6,0,L|148:268,1,47.5,4|0,0:0|0:0,0:0:0:0:
64,244,150556,1,2,0:0:0:0:
64,289,150631,1,0,0:0:0:0:
90,319,150706,1,2,0:0:0:0:
128,335,150781,1,0,0:0:0:0:
169,333,150856,1,2,0:0:0:0:
205,312,150931,1,0,0:0:0:0:
229,277,151006,1,2,0:0:0:0:
261,252,151081,1,0,0:0:0:0:
302,244,151156,1,2,0:0:0:0:
342,254,151231,1,0,0:0:0:0:
372,281,151306,1,2,0:0:0:0:
410,300,151381,1,0,0:0:0:0:
446,287,151456,1,2,0:0:0:0:
464,251,151531,1,0,0:0:0:0:
466,210,151606,5,6,0:0:0:0:
439,178,151681,1,0,0:0:0:0:
395,173,151756,1,2,0:0:0:0:
358,196,151831,1,0,0:0:0:0:
335,232,151906,1,2,0:0:0:0:
323,275,151981,1,0,0:0:0:0:
292,307,152056,1,2,0:0:0:0:
250,319,152131,1,0,0:0:0:0:
207,309,152206,1,2,0:0:0:0:
174,280,152281,1,0,0:0:0:0:
159,239,152356,1,0,0:0:0:0:
166,196,152431,1,0,0:0:0:0:
188,157,152506,1,2,0:0:0:0:
195,114,152581,1,0,0:0:0:0:
176,73,152656,1,2,0:0:0:0:
138,52,152731,1,0,0:0:0:0:
96,44,152806,6,0,P|52:40|8:60,1,76,14|0,0:0|0:0,0:0:0:0:
212,118,153106,2,0,P|256:114|295:86,1,76
348,8,153406,5,8,0:0:0:0:
376,160,153556,1,8,0:0:0:0:
472,32,153706,1,8,0:0:0:0:
268,144,154006,6,0,L|280:232,1,76,4|0,0:0|0:0,0:0:0:0:
364,340,154456,1,0,0:0:0:0:
364,340,154606,2,0,L|402:336,1,38
312,272,154756,2,0,L|270:280,1,38
212,344,154906,6,0,L|236:384,4,38
120,320,155356,6,0,L|82:326,1,38,2|0,0:3|0:0,0:0:0:0:
184,240,155506,2,0,L|221:246,1,38,2|0,0:3|0:0,0:0:0:0:
92,240,155656,6,0,L|54:246,1,38,2|0,0:3|0:0,0:0:0:0:
192,160,155806,2,0,L|229:166,1,38,2|0,0:3|0:0,0:0:0:0:
72,156,155956,6,0,L|34:162,1,38,2|0,0:3|0:0,0:0:0:0:
204,76,156106,2,0,L|241:82,1,38,2|0,0:3|0:0,0:0:0:0:
52,80,156256,6,0,L|14:86,1,38,2|0,0:3|0:0,0:0:0:0:
168,0,156406,5,0,0:0:0:0:
296,92,156556,2,0,L|288:172,1,76,8|0,0:0|0:0,0:0:0:0:
168,0,156856,1,0,0:0:0:0:
320,96,157006,2,0,L|312:176,1,76,8|0,0:0|0:0,0:0:0:0:
232,332,157306,2,0,L|224:252,1,76,0|8,0:0|0:0,0:0:0:0:
76,212,157606,5,0,0:0:0:0:
74,182,157681,1,0,0:0:0:0:
82,155,157756,1,0,0:0:0:0:
100,132,157831,1,0,0:0:0:0:
125,116,157906,1,0,0:0:0:0:
153,111,157981,1,0,0:0:0:0:
182,116,158056,1,0,0:0:0:0:
207,131,158131,1,0,0:0:0:0:
225,154,158206,1,0,0:0:0:0:
238,174,158281,1,0,0:0:0:0:
256,197,158356,1,0,0:0:0:0:
281,212,158431,1,0,0:0:0:0:
309,216,158506,1,0,0:0:0:0:
338,212,158581,1,0,0:0:0:0:
363,196,158656,1,0,0:0:0:0:
381,173,158731,1,0,0:0:0:0:
390,145,158806,5,0,0:0:0:0:
392,116,158881,1,0,0:0:0:0:
388,88,158956,2,0,L|327:82,1,38,4|0,0:0|0:0,0:0:0:0:
260,148,159106,2,0,L|200:152,3,38,4|0|0|0,0:0|0:0|0:0|0:0,0:0:0:0:
384,208,159406,2,0,L|444:212,3,38,4|0|0|0,0:0|0:0|0:0|0:0,0:0:0:0:
248,256,159706,2,0,L|188:260,3,38,4|0|0|0,0:0|0:0|0:0|0:0,0:0:0:0:
352,352,160006,5,4,0:0:0:0:
152,140,160306,6,0,P|198:114|238:104,1,76,8|0,0:0|0:0,0:0:0:0:
316,104,160606,1,8,0:0:0:0:
384,152,160756,1,0,0:0:0:0:
388,236,160906,1,8,0:0:0:0:
324,288,161056,1,0,0:0:0:0:
208,232,161206,5,12,0:0:0:0:
104,188,161656,5,2,0:0:0:0:
84,76,161806,2,0,P|75:127|79:175,1,95
136,300,162106,1,2,0:0:0:0:
164,323,162181,1,2,0:0:0:0:
200,329,162256,1,2,0:0:0:0:
238,322,162331,1,2,0:0:0:0:
276,304,162406,6,0,L|360:292,1,85.4999973907472,4|0,0:0|0:0,0:0:0:0:
448,148,162706,2,0,L|460:232,1,85.4999973907472,2|0,0:0|0:0,0:0:0:0:
280,288,163006,2,0,L|364:276,1,85.4999973907472,2|0,0:0|0:0,0:0:0:0:
460,148,163306,2,0,L|472:232,1,85.4999973907472,2|0,0:0|0:0,0:0:0:0:
300,56,163606,6,0,P|259:66|216:65,1,85.4999973907472,2|0,0:0|0:0,0:0:0:0:
375,124,163906,2,0,P|417:115|460:116,1,85.4999973907472,2|0,0:0|0:0,0:0:0:0:
306,208,164206,2,0,P|271:148|324:37,1,170.999994781494,2|2,0:0|0:0,0:0:0:0:
168,88,164656,1,0,0:0:0:0:
168,88,164806,6,0,P|184:136|184:192,1,85.4999973907472,2|0,0:0|0:0,0:0:0:0:
306,208,165106,2,0,P|290:256|290:312,1,85.4999973907472,2|0,0:0|0:0,0:0:0:0:
399,343,165406,2,0,L|491:331,1,85.4999973907472,2|0,0:0|0:0,0:0:0:0:
204,264,165706,2,0,L|108:260,1,85.4999973907472,2|0,0:0|0:0,0:0:0:0:
229,361,166006,6,0,L|409:341,1,170.999994781494,6|2,0:0|0:0,0:0:0:0:
456,264,166456,1,0,0:0:0:0:
456,264,166606,2,0,L|444:179,1,85.4999973907472,2|0,0:0|0:0,0:0:0:0:
388,96,166906,1,2,0:0:0:0:
292,156,167056,1,0,0:0:0:0:
360,20,167206,6,0,P|401:18|441:34,1,85.4999973907472,2|0,0:0|0:0,0:0:0:0:
292,156,167506,2,0,P|249:157|209:141,1,85.4999973907472,2|0,0:0|0:0,0:0:0:0:
116,4,167806,2,0,L|120:100,1,85.4999973907472,2|0,0:0|0:0,0:0:0:0:
128,228,168106,1,2,0:0:0:0:
210,141,168256,1,0,0:0:0:0:
128,228,168406,6,0,L|36:216,1,85.4999973907472,2|0,0:0|0:0,0:0:0:0:
252,172,168706,1,2,0:0:0:0:
252,172,168856,1,2,0:0:0:0:
117,143,169006,2,0,L|129:235,1,85.4999973907472,2|2,0:0|0:0,0:0:0:0:
196,32,169306,1,2,0:0:0:0:
196,32,169456,1,0,0:0:0:0:
196,32,169606,6,0,P|248:38|289:66,1,85.4999973907472,6|0,0:0|0:0,0:0:0:0:
318,221,169906,2,0,P|273:190|250:146,1,85.4999973907472,2|0,0:0|0:0,0:0:0:0:
420,176,170206,2,0,L|424:268,1,85.4999973907472,2|0,0:0|0:0,0:0:0:0:
324,108,170506,2,0,L|328:15,1,85.4999973907472,2|0,0:0|0:0,0:0:0:0:
440,176,170806,6,0,L|444:360,1,170.999994781494,2|2,0:0|0:0,0:0:0:0:
328,248,171256,1,0,0:0:0:0:
276,348,171406,2,0,L|380:352,1,85.4999973907472,2|0,0:0|0:0,0:0:0:0:
196,256,171706,2,0,L|110:259,1,85.4999973907472
0,172,172006,6,0,L|92:164,1,85.4999973907472,2|0,0:0|0:0,0:0:0:0:
228,80,172306,2,0,L|142:72,1,85.4999973907472,2|0,0:0|0:0,0:0:0:0:
168,192,172606,1,2,0:0:0:0:
168,192,172756,1,0,0:0:0:0:
88,40,172906,1,0,0:0:0:0:
88,40,173206,6,0,L|96:172,1,128.249996086121,4|0,0:1|0:0,0:0:0:0:
116,200,173506,2,0,P|155:181|200:173,1,85.4999973907472,2|0,0:0|0:0,0:0:0:0:
340,112,173806,2,0,P|295:108|254:92,1,85.4999973907472,2|0,0:0|0:0,0:0:0:0:
113,156,174106,2,0,P|157:159|198:175,1,85.4999973907472,2|0,0:0|0:0,0:0:0:0:
300,256,174406,6,0,L|400:248,1,85.4999973907472
224,320,174706,2,0,L|124:312,1,85.4999973907472,2|0,0:0|0:0,0:0:0:0:
68,248,175006,2,0,L|64:152,1,85.4999973907472,2|0,0:0|0:0,0:0:0:0:
204,176,175306,2,0,L|127:117,1,85.4999973907472,2|0,0:0|0:0,0:0:0:0:
240,24,175606,6,0,L|146:44,1,85.4999973907472,2|0,0:0|0:0,0:0:0:0:
312,88,175906,2,0,L|332:181,1,85.4999973907472,2|0,0:0|0:0,0:0:0:0:
368,12,176206,2,0,L|461:32,1,85.4999973907472,2|0,0:0|0:0,0:0:0:0:
496,144,176506,1,0,0:0:0:0:
388,184,176656,1,0,0:0:0:0:
388,184,176731,1,0,0:0:0:0:
388,184,176806,6,0,L|396:92,1,85.4999973907472,6|0,0:0|0:0,0:0:0:0:
324,244,177106,2,0,P|364:268|420:264,1,85.4999973907472,2|0,0:0|0:0,0:0:0:0:
252,160,177406,2,0,P|205:159|158:190,1,85.4999973907472,2|0,0:0|0:0,0:0:0:0:
108,272,177706,1,6,0:0:0:0:
140,156,177856,1,0,0:0:0:0:
232,320,178006,6,0,L|224:224,1,85.4999973907472,2|0,0:0|0:0,0:0:0:0:
336,136,178306,2,0,L|328:232,1,85.4999973907472,2|0,0:0|0:0,0:0:0:0:
268,24,178606,1,6,0:0:0:0:
240,144,178756,1,0,0:0:0:0:
421,138,178906,6,0,L|305:134,1,85.4999973907472,2|0,0:0|0:0,0:0:0:0:
316,136,179131,1,0,0:0:0:0:
316,136,179206,2,0,L|205:171,1,85.4999973907472,2|0,0:0|0:0,0:0:0:0:
112,224,179506,1,2,0:0:0:0:
200,304,179656,1,0,0:0:0:0:
188,188,179806,2,0,P|155:155|102:143,1,85.4999973907472,2|0,0:0|0:0,0:0:0:0:
280,264,180106,2,0,P|325:268|373:243,1,85.4999973907472,2|0,0:0|0:0,0:0:0:0:
404,140,180406,5,6,0:0:0:0:
304,64,180556,1,0,0:0:0:0:
404,56,180706,2,0,P|448:67|488:118,1,85.4999973907472,2|0,0:0|0:0,0:0:0:0:
312,144,181006,2,0,P|270:137|236:112,1,85.4999973907472,2|0,0:0|0:0,0:0:0:0:
132,68,181306,1,6,0:0:0:0:
244,16,181456,1,0,0:0:0:0:
112,104,181606,6,0,P|102:158|113:197,1,85.4999973907472,2|0,0:0|0:0,0:0:0:0:
260,124,181906,2,0,P|262:68|244:32,1,85.4999973907472,2|0,0:0|0:0,0:0:0:0:
180,148,182206,2,0,B|228:140|228:140|272:152|272:152|336:136|336:136|404:136|404:136|440:156|440:156|398:153|398:153|348:164,1,341.999989562989,6|0,0:0|0:0,0:0:0:0:
304,240,182956,5,0,0:0:0:0:
356,108,183106,2,0,L|348:40,2,56.9999982604981,4|0|0,0:0|0:0|0:0,0:0:0:0:
253,71,183406,2,0,P|225:74|180:112,1,85.4999973907472,4|0,0:0|0:0,0:0:0:0:
364,108,183706,2,0,L|356:8,1,85.4999973907472,2|0,0:0|0:0,0:0:0:0:
280,232,184006,6,0,L|286:317,1,85.4999973907472,6|0,0:0|0:0,0:0:0:0:
188,204,184306,1,2,0:0:0:0:
232,124,184456,1,0,0:0:0:0:
152,196,184606,1,2,0:0:0:0:
260,120,184756,1,0,0:0:0:0:
124,180,184906,2,0,L|38:187,1,85.4999973907472,6|0,0:0|0:0,0:0:0:0:
176,108,185206,5,2,0:0:0:0:
252,200,185356,1,0,0:0:0:0:
192,76,185506,1,2,0:0:0:0:
232,228,185656,1,0,0:0:0:0:
216,56,185806,2,0,L|301:48,1,85.4999973907472,6|0,0:0|0:0,0:0:0:0:
424,136,186106,1,2,0:0:0:0:
372,16,186256,1,0,0:0:0:0:
316,160,186406,2,0,L|308:68,1,85.4999973907472,2|0,0:0|0:0,0:0:0:0:
278,235,186706,6,0,P|319:244|360:232,1,85.4999973907472,2|0,0:0|0:0,0:0:0:0:
420,136,187006,1,2,0:0:0:0:
496,248,187156,1,0,0:0:0:0:
376,336,187306,2,0,L|372:250,1,85.4999973907472,2|0,0:0|0:0,0:0:0:0:
416,116,187606,6,0,B|370:95|370:95|292:105,1,128.249996086121,6|0,0:0|0:0,0:0:0:0:
264,120,187907,2,0,P|264:162|283:199,1,85.4999973907472,2|0,0:0|0:0,0:0:0:0:
176,320,188206,2,0,P|191:271|183:228,1,85.4999973907472,2|0,0:0|0:0,0:0:0:0:
88,192,188506,1,4,0:0:0:0:
176,76,188656,1,0,0:0:0:0:
56,200,188806,6,0,L|64:300,1,85.4999973907472,2|0,0:0|0:0,0:0:0:0:
200,164,189106,2,0,L|192:64,1,85.4999973907472,2|0,0:0|0:0,0:0:0:0:
244,320,189406,5,8,0:0:0:0:
477,278,189556,1,8,0:0:0:0:
214,203,189706,5,8,0:0:0:0:
473,294,189856,1,8,0:0:0:0:
277,86,190006,5,8,0:0:0:0:
469,315,190156,1,8,0:0:0:0:
396,28,190306,5,12,0:0:0:0:
256,192,190906,12,0,192556,0:0:0:0:
64,192,192706,6,0,L|80:308,1,109.250002083778,4|8,0:1|0:0,0:0:0:0:
260,36,193006,2,0,L|244:152,1,109.250002083778,0|8,0:0|0:0,0:0:0:0:
224,312,193306,1,0,0:0:0:0:
128,104,193456,1,8,0:0:0:0:
336,200,193606,1,0,0:0:0:0:
336,200,193681,1,0,0:0:0:0:
336,200,193756,1,8,0:0:0:0:
128,104,193906,6,0,L|136:240,1,109.250002083778,0|8,0:0|0:0,0:0:0:0:
288,336,194206,2,0,L|296:200,1,109.250002083778,0|8,0:0|0:0,0:0:0:0:
300,40,194506,1,0,0:0:0:0:
160,184,194656,1,8,0:0:0:0:
412,148,194806,1,0,0:0:0:0:
412,148,194881,1,0,0:0:0:0:
412,148,194956,1,8,0:0:0:0:
168,168,195106,6,0,L|52:180,1,109.250002083778,0|8,0:0|0:0,0:0:0:0:
296,168,195406,1,0,0:0:0:0:
176,48,195556,2,0,L|67:36,1,109.250002083778,8|0,0:0|0:0,0:0:0:0:
384,132,195856,1,8,0:0:0:0:
168,168,196006,1,0,0:0:0:0:
328,4,196156,1,8,0:0:0:0:
364,216,196306,6,0,L|352:328,1,109.250002083778,0|8,0:0|0:0,0:0:0:0:
276,124,196606,1,0,0:0:0:0:
456,104,196756,1,8,0:0:0:0:
232,236,196906,2,0,P|288:216|348:216,1,109.250002083778,0|8,0:0|0:0,0:0:0:0:
476,88,197206,2,0,P|416:87|360:67,1,109.250002083778,0|8,0:0|0:0,0:0:0:0:
208,16,197506,6,0,B|160:124|260:116|208:236,1,218.500004167557
48,212,197956,2,0,P|100:176|156:176,1,109.250002083778,8|0,0:0|0:0,0:0:0:0:
280,276,198256,1,8,0:0:0:0:
128,360,198406,2,0,L|124:248,1,109.250002083778,0|8,0:0|0:0,0:0:0:0:
309,112,198706,6,0,L|200:116,1,109.250002083778,0|8,0:0|0:0,0:0:0:0:
452,180,199006,1,0,0:0:0:0:
384,40,199156,1,8,0:0:0:0:
356,240,199306,1,0,0:0:0:0:
480,80,199456,1,8,0:0:0:0:
264,128,199606,1,0,0:0:0:0:
504,64,199756,1,8,0:0:0:0:
308,211,199906,6,0,L|187:203,1,109.250002083778,4|8,0:2|0:0,0:0:0:0:
44,192,200206,1,0,0:0:0:0:
188,320,200356,1,8,0:0:0:0:
254,204,200506,2,0,L|314:212,3,54.6250010418892,8|0|0|0,0:3|0:0|0:0|0:0,0:0:0:0:
108,136,200806,2,0,L|48:144,3,54.6250010418892,8|0|0|0,0:3|0:0|0:0|0:0,0:0:0:0:
216,64,201106,5,8,0:3:0:0:
251,60,201181,1,0,0:0:0:0:
288,55,201256,1,0,0:0:0:0:
324,47,201331,1,0,0:0:0:0:
352,44,201406,2,0,L|348:116,1,54.6250010418892,8|0,0:3|0:0,0:0:0:0:
268,224,201556,1,0,0:0:0:0:
232,232,201631,1,0,0:0:0:0:
204,236,201706,2,0,L|208:168,1,54.6250010418892,8|0,0:3|0:0,0:0:0:0:
376,48,201856,1,0,0:0:0:0:
375,85,201931,1,0,0:0:0:0:
374,123,202006,1,8,0:3:0:0:
374,161,202081,1,0,0:0:0:0:
373,199,202156,1,0,0:0:0:0:
372,237,202231,1,0,0:0:0:0:
368,272,202306,6,0,B|304:312|244:308|244:308|268:280|264:240,1,185.249991519928,4|0,0:1|0:0,0:0:0:0:
256,232,202606,1,0,0:0:0:0:
252,212,202681,1,0,0:0:0:0:
249,193,202756,1,8,0:0:0:0:
64,280,202906,1,0,0:0:0:0:
184,100,203056,1,8,0:0:0:0:
156,352,203206,1,0,0:0:0:0:
156,352,203281,1,0,0:0:0:0:
156,352,203356,1,8,0:0:0:0:
68,160,203506,6,0,L|60:40,1,109.250002083778,0|8,0:0|0:0,0:0:0:0:
192,200,203806,1,0,0:0:0:0:
184,40,203956,2,0,P|128:28|76:48,1,109.250002083778,8|0,0:0|0:0,0:0:0:0:
192,200,204256,1,8,0:0:0:0:
320,64,204406,1,0,0:0:0:0:
320,64,204481,1,0,0:0:0:0:
320,64,204556,1,8,0:0:0:0:
400,200,204706,6,0,B|324:192|324:192|276:232|276:232|180:224,1,218.500004167557
352,384,205156,2,0,L|344:276,1,109.250002083778,8|0,0:0|0:0,0:0:0:0:
244,124,205456,1,8,0:0:0:0:
239,327,205606,1,0,0:0:0:0:
239,327,205681,1,0,0:0:0:0:
239,327,205756,1,8,0:0:0:0:
132,160,205906,6,0,L|124:36,1,109.250002083778,0|8,0:0|0:0,0:0:0:0:
236,280,206206,1,0,0:0:0:0:
56,224,206356,1,8,0:0:0:0:
264,160,206506,2,0,L|156:152,1,109.250002083778,0|8,0:0|0:0,0:0:0:0:
64,316,206806,2,0,L|173:308,1,109.250002083778,0|8,0:0|0:0,0:0:0:0:
336,308,207106,6,0,B|384:200|284:208|336:88,1,218.500004167557,4|0,0:3|0:0,0:0:0:0:
496,192,207556,2,0,P|444:156|388:156,1,109.250002083778,8|0,0:0|0:0,0:0:0:0:
264,256,207856,1,8,0:0:0:0:
416,340,208006,2,0,L|420:228,1,109.250002083778,0|8,0:0|0:0,0:0:0:0:
192,120,208306,6,0,L|301:116,1,109.250002083778,0|8,0:0|0:0,0:0:0:0:
100,196,208606,1,0,0:0:0:0:
116,28,208756,1,8,0:0:0:0:
192,240,208906,1,0,0:0:0:0:
16,100,209056,1,8,0:0:0:0:
60,284,209206,2,0,L|176:280,1,109.250002083778,0|8,0:0|0:0,0:0:0:0:
372,176,209506,6,0,L|256:172,1,109.250002083778,0|8,0:0|0:0,0:0:0:0:
88,136,209806,1,0,0:0:0:0:
228,8,209956,1,8,0:0:0:0:
181,189,210106,2,0,L|184:244,3,54.6250010418892,8|0|0|0,0:3|0:0|0:0|0:0,0:0:0:0:
279,352,210406,2,0,L|282:298,3,54.6250010418892,8|0|0|0,0:3|0:0|0:0|0:0,0:0:0:0:
404,244,210706,5,8,0:3:0:0:
404,244,210781,1,0,0:0:0:0:
404,244,210856,2,0,P|361:214|326:203,1,54.6250010418892
392,116,211006,2,0,P|341:129|310:149,1,54.6250010418892,8|0,0:3|0:0,0:0:0:0:
296,40,211156,2,0,P|273:87|269:123,1,54.6250010418892
232,232,211306,5,2,0:3:0:0:
179,137,211456,1,2,0:3:0:0:
286,132,211606,1,2,0:3:0:0:
232,232,211756,1,2,0:3:0:0:
140,80,211906,2,0,L|232:72,1,71.2500027179719,4|0,0:1|0:0,0:0:0:0:
396,196,212206,6,0,P|408:236|408:276,1,71.2500027179719
332,244,212506,2,0,P|322:284|302:319,1,71.2500027179719,8|0,0:0|0:0,0:0:0:0:
252,256,212806,2,0,P|218:280|180:294,1,71.2500027179719
112,260,213106,6,0,P|70:209|93:133,1,142.500005435944
178,92,213556,1,2,0:0:0:0:
216,197,213706,2,0,P|159:195|121:180,1,71.2500027179719,8|0,0:0|0:0,0:0:0:0:
276,136,214006,2,0,P|322:135|359:150,1,71.2500027179719,2|0,0:0|0:0,0:0:0:0:
392,212,214231,1,0,0:0:0:0:
392,212,214306,6,0,P|424:151|387:72,2,142.500005435944,2|0|8,0:0|0:0|0:0,0:0:0:0:
344,300,215206,2,0,L|340:360,2,47.5000018119813
276,240,215506,6,0,L|217:185,1,71.2500027179719
157,244,215806,2,0,L|133:167,1,71.2500027179719,0|2,0:0|0:0,0:0:0:0:
52,188,216106,2,0,L|90:42,1,142.500005435944,8|0,0:0|0:0,0:0:0:0:
88,50,216706,6,0,B|160:20|160:84|252:48,1,142.500005435944,4|0,0:0|0:0,0:0:0:0:
320,40,217156,1,2,0:0:0:0:
320,40,217306,1,8,0:0:0:0:
228,160,217606,2,0,L|224:84,1,71.2500027179719,0|2,0:0|0:0,0:0:0:0:
160,204,217906,6,0,P|200:236|296:212,1,142.500005435944,2|0,0:0|0:0,0:0:0:0:
320,136,218356,1,2,0:0:0:0:
224,88,218506,2,0,L|228:160,1,71.2500027179719,8|0,0:0|0:0,0:0:0:0:
336,236,218806,2,0,L|339:164,1,71.2500027179719
412,88,219106,6,0,P|453:82|503:113,2,71.2500027179719,2|0|2,0:3|0:0|0:3,0:0:0:0:
320,136,219556,1,0,0:0:0:0:
444,168,219706,2,0,P|479:191|498:246,2,71.2500027179719,8|2|0,0:0|0:3|0:0,0:0:0:0:
404,248,220306,6,0,P|354:289|329:295,1,71.2500027179719,2|0,0:3|0:0,0:0:0:0:
252,292,220606,2,0,P|192:264|176:244,1,71.2500027179719,2|2,0:3|0:0,0:0:0:0:
136,180,220906,2,0,P|142:114|156:92,1,71.2500027179719,8|2,0:0|0:0,0:0:0:0:
204,36,221206,1,2,0:3:0:0:
252,260,221506,6,0,P|185:224|284:93,1,285.000010871888,4|8,0:0|0:0,0:0:0:0:
384,152,222406,1,0,0:0:0:0:
255,174,222556,1,0,0:0:0:0:
192,304,222706,6,0,B|268:320|316:248|316:248|360:324|448:312,1,285.000010871888,0|8,0:0|0:0,0:0:0:0:
512,232,223606,1,0,0:0:0:0:
432,136,223756,1,0,0:0:0:0:
512,232,223906,6,0,P|456:260|368:232,2,142.500005435944,0|2|8,0:0|0:3|0:0,0:0:0:0:
432,136,224806,6,0,L|440:204,2,47.5000018119813,2|0|0,0:0|0:0|0:0,0:0:0:0:
352,80,225106,6,0,B|280:52|228:112|228:112|164:176|64:116,1,285.000010871888,0|8,0:0|0:0,0:0:0:0:
144,60,226006,1,0,0:0:0:0:
191,181,226156,1,0,0:0:0:0:
71,210,226306,6,0,P|26:173|151:65,1,285.000010871888,4|8,0:0|0:0,0:0:0:0:
191,181,227206,1,0,0:0:0:0:
96,132,227356,1,0,0:0:0:0:
191,181,227506,6,0,L|263:180,2,71.2500027179719
280,104,227956,2,0,L|352:103,2,71.2500027179719,0|8|0,0:0|0:0|0:0,0:0:0:0:
379,31,228406,2,0,L|451:30,1,71.2500027179719
461,162,228706,6,0,P|486:93|449:29,1,151.999995361328
328,108,229306,2,0,L|403:100,2,75.9999976806641,8|0|0,0:0|0:0|0:0,0:0:0:0:
160,92,229906,6,0,P|156:68|160:44,2,37.9999988403321,2|0|0,0:0|0:0|0:0,0:0:0:0:
212,204,230206,2,0,P|193:188|181:167,2,37.9999988403321,2|0|0,0:0|0:0|0:0,0:0:0:0:
344,232,230506,2,0,P|320:236|296:231,2,37.9999988403321,2|0|0,0:0|0:0|0:0,0:0:0:0:
448,144,230806,2,0,P|435:164|417:180,2,37.9999988403321,2|0|0,0:0|0:0|0:0,0:0:0:0:
304,36,231106,6,0,L|296:124,3,59.375,12|0|0|0,0:0|0:0|0:0|0:0,0:0:0:0:
200,180,231406,2,0,L|194:120,3,59.375,8|0|0|0,0:0|0:0|0:0|0:0,0:0:0:0:
272,244,231706,1,8,0:0:0:0:
290,253,231781,1,0,0:0:0:0:
308,260,231856,1,0,0:0:0:0:
326,269,231931,1,0,0:0:0:0:
340,276,232006,6,0,L|400:268,1,59.375,14|0,0:0|0:0,0:0:0:0:
476,160,232156,1,0,0:0:0:0:
490,145,232231,1,0,0:0:0:0:
500,128,232306,6,0,L|440:114,1,59.375,14|0,0:0|0:0,0:0:0:0:
336,84,232456,1,0,0:0:0:0:
291,61,232531,1,0,0:0:0:0:
241,62,232606,1,8,0:0:0:0:
198,88,232681,1,0,0:0:0:0:
161,121,232756,1,0,0:0:0:0:
118,143,232831,1,0,0:0:0:0:
68,141,232906,1,8,0:0:0:0:
25,115,232981,1,0,0:0:0:0:
38,72,233056,1,0,0:0:0:0:
83,53,233131,1,0,0:0:0:0:
128,74,233206,1,8,0:0:0:0:
161,105,233281,1,0,0:0:0:0:
206,123,233356,1,0,0:0:0:0:
251,103,233431,1,0,0:0:0:0:
288,72,233506,6,0,L|276:8,3,59.375,8|0|0|0,0:0|0:0|0:0|0:0,0:0:0:0:
356,180,233806,2,0,L|344:244,3,59.375,8|0|0|0,0:0|0:0|0:0|0:0,0:0:0:0:
376,64,234106,6,0,L|364:0,3,59.375,8|0|0|0,0:0|0:0|0:0|0:0,0:0:0:0:
432,216,234406,2,0,L|420:280,3,59.375,8|0|0|0,0:0|0:0|0:0|0:0,0:0:0:0:
376,64,234706,6,0,L|316:67,3,59.375,8|0|0|0,0:0|0:0|0:0|0:0,0:0:0:0:
248,188,235006,2,0,L|307:191,3,59.375,8|0|0|0,0:0|0:0|0:0|0:0,0:0:0:0:
100,184,235306,1,8,0:0:0:0:
62,156,235381,1,0,0:0:0:0:
47,112,235456,1,0,0:0:0:0:
57,66,235531,1,0,0:0:0:0:
91,34,235606,1,8,0:0:0:0:
137,25,235681,1,0,0:0:0:0:
176,44,235756,2,0,L|165:102,1,59.375
284,124,235906,5,8,0:0:0:0:
277,174,235981,1,0,0:0:0:0:
251,217,236056,1,2,0:0:0:0:
210,246,236131,1,0,0:0:0:0:
160,256,236206,1,8,0:0:0:0:
111,245,236281,1,0,0:0:0:0:
76,212,236356,1,2,0:0:0:0:
60,164,236431,1,0,0:0:0:0:
76,116,236506,1,8,0:0:0:0:
116,84,236581,1,0,0:0:0:0:
168,84,236656,1,2,0:0:0:0:
212,108,236731,1,0,0:0:0:0:
253,141,236806,1,8,0:0:0:0:
304,154,236881,1,0,0:0:0:0:
356,145,236956,1,2,0:0:0:0:
399,114,237031,1,0,0:0:0:0:
436,80,237106,5,8,0:0:0:0:
388,68,237181,1,0,0:0:0:0:
340,90,237256,1,2,0:0:0:0:
307,132,237331,1,0,0:0:0:0:
297,184,237406,1,8,0:0:0:0:
313,234,237481,1,0,0:0:0:0:
329,283,237556,1,2,0:0:0:0:
313,335,237631,1,0,0:0:0:0:
273,371,237706,1,8,0:0:0:0:
219,381,237781,1,0,0:0:0:0:
168,362,237856,1,2,0:0:0:0:
135,319,237931,1,0,0:0:0:0:
137,271,238006,1,8,0:0:0:0:
175,232,238081,1,0,0:0:0:0:
227,217,238156,1,2,0:0:0:0:
280,231,238231,1,0,0:0:0:0:
328,260,238306,5,8,0:0:0:0:
380,276,238381,1,0,0:0:0:0:
434,260,238456,1,2,0:0:0:0:
470,215,238531,1,0,0:0:0:0:
475,160,238606,1,8,0:0:0:0:
448,111,238681,1,0,0:0:0:0:
398,85,238756,1,2,0:0:0:0:
342,92,238831,1,0,0:0:0:0:
293,113,238906,1,8,0:0:0:0:
264,162,238981,1,0,0:0:0:0:
216,191,239056,1,2,0:0:0:0:
159,193,239131,1,0,0:0:0:0:
108,169,239206,1,8,0:0:0:0:
75,123,239281,1,0,0:0:0:0:
68,67,239356,1,2,0:0:0:0:
89,14,239431,1,0,0:0:0:0:
136,4,239506,6,0,L|184:8,3,47.5,4|0|0|0,0:0|0:0|0:0|0:0,0:0:0:0:
52,84,239806,2,0,L|56:124,3,35.625001358986,4|0|0|0,0:0|0:0|0:0|0:0,0:0:0:0:
152,180,240106,2,0,L|160:128,3,30.8749985866547,4|0|0|0,0:0|0:0|0:0|0:0,0:0:0:0:
196,288,240406,1,2,0:0:0:0:
226,302,240481,1,0,0:0:0:0:
260,304,240556,1,0,0:0:0:0:
292,293,240631,1,0,0:0:0:0:
316,276,240706,6,0,L|304:168,1,104.500003189087,12|0,0:0|0:0,0:0:0:0:
288,24,241006,1,8,0:0:0:0:
152,212,241156,1,0,0:0:0:0:
376,120,241306,1,8,0:0:0:0:
376,120,241381,1,0,0:0:0:0:
376,120,241456,1,0,0:0:0:0:
120,120,241606,1,8,0:0:0:0:
392,236,241756,1,0,0:0:0:0:
168,312,241906,5,8,0:0:0:0:
256,60,242056,1,0,0:0:0:0:
120,196,242206,2,0,L|128:300,1,104.500003189087,8|0,0:0|0:0,0:0:0:0:
352,208,242506,2,0,L|360:104,1,104.500003189087,8|0,0:0|0:0,0:0:0:0:
256,324,242806,1,8,0:0:0:0:
256,324,242881,1,0,0:0:0:0:
256,324,242956,1,0,0:0:0:0:
152,84,243106,5,8,0:0:0:0:
356,232,243256,1,0,0:0:0:0:
96,200,243406,1,8,0:0:0:0:
252,352,243556,1,0,0:0:0:0:
368,200,243706,2,0,L|472:208,1,104.500003189087,8|0,0:0|0:0,0:0:0:0:
216,60,244006,2,0,L|112:68,1,104.500003189087,8|0,0:0|0:0,0:0:0:0:
344,301,244306,6,0,P|360:249|368:197,1,104.500003189087,8|0,0:0|0:0,0:0:0:0:
132,132,244606,2,0,P|175:164|221:190,1,104.500003189087,8|0,0:0|0:0,0:0:0:0:
408,72,244906,1,8,0:0:0:0:
172,52,245056,1,0,0:0:0:0:
367,199,245206,1,8,0:0:0:0:
367,199,245281,1,0,0:0:0:0:
367,199,245356,1,0,0:0:0:0:
168,268,245506,5,12,0:0:0:0:
256,88,245656,1,0,0:0:0:0:
232,348,245806,1,8,0:0:0:0:
240,56,245956,1,0,0:0:0:0:
348,232,246106,2,0,B|340:336,1,104.500003189087,8|0,0:0|0:0,0:0:0:0:
152,180,246406,2,0,B|144:76,1,104.500003189087,8|0,0:0|0:0,0:0:0:0:
220,272,246706,5,12,0:0:0:0:
344,96,246856,1,0,0:0:0:0:
120,108,247006,2,0,L|-4:124,1,104.500003189087,8|0,0:0|0:0,0:0:0:0:
240,280,247306,2,0,L|364:264,1,104.500003189087,8|0,0:0|0:0,0:0:0:0:
480,172,247606,2,0,L|428:166,1,52.2500015945435,8|0,0:0|0:0,0:0:0:0:
228,136,247756,1,2,0:0:0:0:
400,40,247906,6,0,L|408:156,1,104.500003189087,12|0,0:0|0:0,0:0:0:0:
412,328,248206,1,8,0:0:0:0:
240,160,248356,1,0,0:0:0:0:
480,208,248506,1,8,0:0:0:0:
480,208,248581,1,0,0:0:0:0:
480,208,248656,1,0,0:0:0:0:
256,76,248806,2,0,L|136:88,1,104.500003189087,8|0,0:0|0:0,0:0:0:0:
60,164,249106,6,0,L|71:216,3,52.2500015945435
168,312,249406,2,0,L|178:260,3,52.2500015945435
44,168,249706,2,0,L|54:219,3,52.2500015945435
180,320,250006,2,0,L|190:268,3,52.2500015945435
24,152,250306,6,0,B|69:131|117:159|117:159|173:191|272:164|288:60|220:-12|140:40|144:76,1,380,4|8,0:1|0:0,0:0:0:0:
64,136,252706,5,2,0:0:0:0:
152,76,252893,1,2,0:0:0:0:
152,184,253081,1,2,0:0:0:0:
86,109,253268,5,2,0:0:0:0:
189,82,253455,1,2,0:0:0:0:
152,184,253643,1,2,0:0:0:0:
116,91,253831,5,2,0:0:0:0:
222,100,254018,1,2,0:0:0:0:
152,184,254206,1,2,0:0:0:0:
150,85,254393,5,2,0:0:0:0:
246,129,254580,1,2,0:0:0:0:
152,184,254768,1,2,0:0:0:0:
184,91,254956,5,2,0:0:0:0:
259,165,255143,1,2,0:0:0:0:
403,41,255706,5,2,0:0:0:0:
371,149,255893,1,2,0:0:0:0:
259,165,256081,1,2,0:0:0:0:
436,97,256268,5,2,0:0:0:0:
369,188,256455,1,2,0:0:0:0:
259,165,256643,1,2,0:0:0:0:
448,161,256831,5,2,0:0:0:0:
354,224,257018,1,2,0:0:0:0:
259,165,257206,1,2,0:0:0:0:
437,225,257393,5,2,0:0:0:0:
328,253,257580,1,2,0:0:0:0:
259,165,257768,1,2,0:0:0:0:
405,282,257956,5,2,0:0:0:0:
293,272,258143,1,2,0:0:0:0:
96,334,258706,5,2,0:0:0:0:
44,207,258893,1,2,0:0:0:0:
186,206,259081,1,2,0:0:0:0:
46,276,259268,5,2,0:0:0:0:
59,139,259455,1,2,0:0:0:0:
185,206,259643,1,2,0:0:0:0:
30,201,259831,5,2,0:0:0:0:
105,86,260018,1,2,0:0:0:0:
186,205,260206,1,2,0:0:0:0:
49,130,260393,5,2,0:0:0:0:
169,61,260580,1,2,0:0:0:0:
186,205,260768,1,2,0:0:0:0:
101,75,260956,5,2,0:0:0:0:
239,71,261143,1,2,0:0:0:0:
247,287,261706,5,2,0:0:0:0:
171,183,261893,1,2,0:0:0:0:
239,71,262081,1,2,0:0:0:0:
107,242,262268,5,2,0:0:0:0:
115,113,262455,1,2,0:0:0:0:
239,71,262643,1,2,0:0:0:0:
28,118,262831,5,2,0:0:0:0:
117,24,263018,1,2,0:0:0:0:
239,71,263206,1,6,0:1:0:0:
276,196,263768,5,2,0:2:0:0:
304,300,263956,2,0,P|308:252|296:198,1,95,8|2,0:2|0:2,0:0:0:0:
180,96,264331,1,2,0:0:0:0:
180,96,264424,1,2,0:0:0:0:
180,96,264518,2,0,L|176:156,1,47.5,2|0,0:2|0:0,0:0:0:0:
183,288,264706,5,4,0:2:0:0:
219,310,264799,1,0,0:0:0:0:
263,314,264893,1,2,0:2:0:0:
304,300,264987,1,8,0:0:0:0:
337,270,265081,1,0,0:0:0:0:
353,230,265174,1,2,0:2:0:0:
348,185,265269,1,2,0:2:0:0:
323,149,265362,1,2,0:2:0:0:
284,127,265456,1,8,0:1:0:0:
241,124,265550,1,0,0:0:0:0:
200,141,265643,1,2,0:2:0:0:
183,182,265737,1,2,0:2:0:0:
196,224,265831,1,2,0:0:0:0:
231,249,265924,1,2,0:2:0:0:
275,247,266018,1,2,0:2:0:0:
310,221,266112,1,8,0:1:0:0:
344,191,266206,5,2,0:2:0:0:
386,183,266299,1,0,0:0:0:0:
427,199,266393,1,2,0:2:0:0:
454,233,266487,1,2,0:2:0:0:
460,275,266581,1,2,0:2:0:0:
442,316,266674,1,2,0:2:0:0:
406,340,266768,1,2,0:2:0:0:
316,228,266956,5,0,0:0:0:0:
316,228,267049,1,0,0:0:0:0:
316,228,267143,1,0,0:0:0:0:
192,80,267331,1,0,0:0:0:0:
152,64,267424,1,0,0:0:0:0:
113,49,267518,1,0,0:0:0:0:
73,63,267612,1,0,0:0:0:0:
33,77,267706,5,4,0:0:0:0:
168,168,267893,2,0,L|112:172,2,47.5
196,204,268174,1,0,0:0:0:0:
209,249,268268,1,0,0:0:0:0:
201,295,268362,1,0,0:0:0:0:
172,332,268456,2,0,L|48:328,1,95
8,256,268737,1,0,0:0:0:0:
8,256,268831,2,0,L|4:188,3,47.5,4|0|0|0,0:0|0:0|0:0|0:0,0:0:0:0:
84,136,269206,6,0,L|148:140,3,47.5
220,64,269581,2,0,L|284:68,3,47.5
336,132,269956,6,0,L|340:200,1,47.5
408,224,270143,2,0,L|404:292,1,47.5
480,312,270331,2,0,L|476:364,3,47.5
472,152,270706,5,12,0:0:0:0:
320,84,270893,1,0,0:0:0:0:
320,84,270986,1,0,0:0:0:0:
232,232,271174,1,0,0:0:0:0:
185,240,271267,1,0,0:0:0:0:
141,224,271361,1,0,0:0:0:0:
112,187,271455,1,0,0:0:0:0:
196,72,271643,5,0,0:0:0:0:
196,72,271737,1,0,0:0:0:0:
112,187,271924,2,0,L|44:199,2,47.5
185,240,272206,6,0,L|189:312,3,47.5
244,164,272581,2,0,L|290:155,1,47.5
400,212,272768,1,0,0:0:0:0:
320,64,272956,1,0,0:0:0:0:
320,64,273049,1,0,0:0:0:0:
320,64,273143,1,0,0:0:0:0:
308,276,273331,1,0,0:0:0:0:
308,276,273424,1,0,0:0:0:0:
308,276,273518,1,0,0:0:0:0:
424,124,273706,5,8,0:0:0:0:
308,276,274081,2,0,L|304:323,2,47.5
124,336,274456,6,0,L|68:308,3,47.5,0|0|0|0,0:0|0:0|0:0|0:0,0:0:0:0:
200,288,274831,6,0,L|256:316,3,47.5,0|0|0|0,0:0|0:0|0:0|0:0,0:0:0:0:
164,196,275206,6,0,L|108:168,3,47.5,0|0|0|0,0:0|0:0|0:0|0:0,0:0:0:0:
280,164,275581,6,0,L|336:192,3,47.5,0|0|0|0,0:0|0:0|0:0|0:0,0:0:0:0:
236,60,275956,6,0,L|193:38,3,47.5,0|0|0|0,0:0|0:0|0:0|0:0,0:0:0:0:
380,128,276331,6,0,L|372:176,3,47.5
480,208,276706,6,0,B|416:208|380:128|380:128|308:200|236:168|236:168|176:136|96:172,1,398.999987823487,6|0,0:0|0:0,0:0:0:0:
48,168,277456,1,8,0:0:0:0:
24,206,277549,1,0,0:0:0:0:
19,251,277643,1,0,0:0:0:0:
36,293,277737,1,0,0:0:0:0:
64,328,277831,2,0,B|116:348|148:332|148:332|192:308|244:340,1,156.750004783631,8|0,0:0|0:0,0:0:0:0:
360,344,278206,5,8,0:0:0:0:
386,305,278299,1,0,0:0:0:0:
383,258,278393,1,0,0:0:0:0:
353,222,278487,1,0,0:0:0:0:
296,192,278581,5,8,0:0:0:0:
266,156,278674,1,0,0:0:0:0:
263,109,278768,1,0,0:0:0:0:
289,70,278862,1,0,0:0:0:0:
336,36,278956,5,8,0:0:0:0:
300,6,279049,1,0,0:0:0:0:
253,3,279143,1,0,0:0:0:0:
214,29,279237,1,0,0:0:0:0:
180,72,279331,5,8,0:0:0:0:
144,102,279424,1,0,0:0:0:0:
97,105,279518,1,0,0:0:0:0:
58,79,279612,1,0,0:0:0:0:
28,28,279706,5,8,0:0:0:0:
31,75,279799,1,0,0:0:0:0:
35,122,279893,1,0,0:0:0:0:
39,170,279987,1,0,0:0:0:0:
96,188,280081,5,8,0:0:0:0:
93,235,280174,1,0,0:0:0:0:
89,282,280268,1,0,0:0:0:0:
85,330,280362,1,0,0:0:0:0:
40,364,280456,5,8,0:0:0:0:
83,381,280549,1,0,0:0:0:0:
130,381,280643,1,0,0:0:0:0:
174,362,280737,1,0,0:0:0:0:
220,324,280831,5,8,0:0:0:0:
263,306,280924,1,0,0:0:0:0:
310,306,281018,1,0,0:0:0:0:
354,325,281112,1,0,0:0:0:0:
400,360,281206,5,8,0:0:0:0:
419,316,281299,1,0,0:0:0:0:
419,269,281393,1,0,0:0:0:0:
401,226,281487,1,0,0:0:0:0:
352,188,281581,5,8,0:0:0:0:
334,145,281675,1,0,0:0:0:0:
334,98,281769,1,0,0:0:0:0:
353,54,281862,1,0,0:0:0:0:
400,28,281956,6,0,B|464:88|408:200|408:200|364:288|432:372,1,365.750011161805,2|0,0:0|0:0,0:0:0:0:
476,288,282706,5,12,0:1:0:0:
430,264,282799,1,0,0:0:0:0:
378,261,282893,1,0,0:0:0:0:
330,281,282987,1,8,0:0:0:0:
264,328,283081,5,0,0:0:0:0:
218,353,283174,1,0,0:0:0:0:
166,356,283268,1,8,0:0:0:0:
118,336,283362,1,0,0:0:0:0:
72,268,283456,5,12,0:1:0:0:
84,214,283549,1,0,0:0:0:0:
129,181,283643,1,0,0:0:0:0:
184,185,283737,1,8,0:0:0:0:
264,196,283831,5,0,0:0:0:0:
318,184,283924,1,0,0:0:0:0:
351,139,284018,1,8,0:0:0:0:
347,84,284112,1,0,0:0:0:0:
276,48,284206,5,12,0:1:0:0:
278,104,284299,1,0,0:0:0:0:
280,161,284393,1,0,0:0:0:0:
282,218,284487,1,8,0:0:0:0:
328,284,284581,5,0,0:0:0:0:
377,299,284674,1,0,0:0:0:0:
429,293,284768,1,8,0:0:0:0:
472,265,284862,1,0,0:0:0:0:
476,184,284956,5,12,0:1:0:0:
425,157,285049,1,0,0:0:0:0:
371,170,285143,1,0,0:0:0:0:
340,215,285237,1,8,0:0:0:0:
308,288,285331,5,0,0:0:0:0:
259,303,285424,1,0,0:0:0:0:
207,297,285518,1,8,0:0:0:0:
164,269,285612,1,0,0:0:0:0:
103,220,285706,5,12,0:1:0:0:
45,221,285799,1,0,0:0:0:0:
4,259,285893,1,0,0:0:0:0:
0,314,285987,1,8,0:0:0:0:
64,360,286081,5,0,0:0:0:0:
61,300,286174,1,0,0:0:0:0:
59,240,286268,1,8,0:0:0:0:
57,180,286362,1,0,0:0:0:0:
76,97,286456,5,12,0:1:0:0:
129,74,286549,1,0,0:0:0:0:
186,75,286643,1,0,0:0:0:0:
239,100,286737,1,8,0:0:0:0:
309,140,286831,5,0,0:0:0:0:
365,152,286924,1,0,0:0:0:0:
421,142,287018,1,8,0:0:0:0:
468,108,287112,1,8,0:0:0:0:
480,24,287206,6,0,L|388:12,3,61.7499971733095,6|0|0|0,0:0|0:0|0:0|0:0,0:0:0:0:
309,140,287581,2,0,L|401:128,3,61.7499971733095,2|0|0|0,0:0|0:0|0:0|0:0,0:0:0:0:
276,236,287956,6,0,B|303:197|309:142|309:142|347:175|353:219|336:258|325:318|342:351|375:373|375:373|375:324|402:274,1,432.249980213166,4|0,0:1|0:0,0:0:0:0:
404,256,288556,6,0,L|396:161,1,95,4|8,0:1|0:0,0:0:0:0:
352,32,288856,1,2,0:0:0:0:
272,136,289006,1,8,0:0:0:0:
273,162,289081,1,0,0:0:0:0:
274,188,289156,1,2,0:0:0:0:
276,214,289231,1,0,0:0:0:0:
276,240,289306,2,0,B|208:228|208:228|168:248|168:248|84:232,1,190,8|8,0:0|0:0,0:0:0:0:
88,80,289756,5,0,0:0:0:0:
88,80,289831,1,0,0:0:0:0:
88,80,289906,1,8,0:0:0:0:
184,200,290056,1,0,0:0:0:0:
172,32,290206,1,8,0:0:0:0:
89,236,290356,1,0,0:0:0:0:
240,116,290506,1,8,0:0:0:0:
32,144,290656,1,2,0:0:0:0:
264,148,290806,1,8,0:0:0:0:
111,306,290956,6,0,L|108:212,1,95,4|8,0:1|0:0,0:0:0:0:
240,116,291256,2,0,L|236:220,1,95,0|8,0:1|0:0,0:0:0:0:
236,244,291481,1,0,0:0:0:0:
236,244,291556,1,2,0:0:0:0:
136,68,291706,1,8,0:0:0:0:
356,96,291856,2,0,L|261:92,1,95,0|8,0:0|0:0,0:0:0:0:
440,248,292156,6,0,L|444:328,3,47.5,4|0|0|0,0:0|0:0|0:0|0:0,0:0:0:0:
348,184,292456,1,0,0:0:0:0:
304,165,292531,1,0,0:0:0:0:
257,166,292606,1,0,0:0:0:0:
213,184,292681,1,0,0:0:0:0:
176,212,292756,1,0,0:0:0:0:
130,226,292831,1,0,0:0:0:0:
83,221,292906,1,0,0:0:0:0:
41,199,292981,1,0,0:0:0:0:
12,160,293056,2,0,L|16:104,1,47.5
112,36,293206,2,0,L|116:92,1,47.5
200,220,293356,6,0,L|208:116,1,95,4|8,0:1|0:0,0:0:0:0:
264,24,293656,1,0,0:0:0:0:
348,136,293806,1,8,0:0:0:0:
348,136,293881,1,0,0:0:0:0:
348,136,293956,2,0,L|296:132,1,47.5
424,48,294106,1,8,0:0:0:0:
384,240,294256,1,0,0:0:0:0:
340,24,294406,1,8,0:0:0:0:
444,168,294556,5,0,0:0:0:0:
444,168,294631,1,0,0:0:0:0:
444,168,294706,1,8,0:0:0:0:
296,236,294856,1,0,0:0:0:0:
432,324,295006,1,8,0:0:0:0:
432,324,295081,1,0,0:0:0:0:
432,324,295156,1,0,0:0:0:0:
280,136,295306,1,8,0:0:0:0:
148,284,295456,2,0,L|255:274,1,95,2|8,0:0|0:0,0:0:0:0:
444,264,295756,5,0,3:0:0:0:
445,224,295831,1,0,3:0:0:0:
433,188,295906,1,0,3:0:0:0:
413,158,295981,1,0,3:0:0:0:
380,137,296056,1,0,3:0:0:0:
343,130,296131,1,0,3:0:0:0:
306,139,296206,1,0,3:0:0:0:
269,152,296281,1,0,3:0:0:0:
236,164,296356,5,0,3:0:0:0:
194,176,296431,1,0,3:0:0:0:
151,178,296506,1,0,3:0:0:0:
107,169,296581,1,0,3:0:0:0:
73,148,296656,1,0,3:0:0:0:
46,119,296731,1,0,3:0:0:0:
37,81,296806,1,0,3:0:0:0:
44,44,296881,1,0,3:0:0:0:
68,20,296956,6,0,L|113:36,3,47.5,8|0|0|0,3:0|3:0|3:0|3:0,3:0:0:0:
228,140,297256,2,0,L|179:123,3,47.5,2|0|0|0,0:0|0:0|0:0|0:0,0:0:0:0:
136,220,297556,6,0,L|144:272,3,47.5,8|0|0|0,0:0|0:0|0:0|0:0,0:0:0:0:
264,308,297856,2,0,L|256:360,3,47.5,2|0|0|0,0:0|0:0|0:0|0:0,0:0:0:0:
420,344,298156,5,12,0:0:0:0:
377,334,298231,1,0,0:0:0:0:
334,332,298306,1,0,0:0:0:0:
288,340,298381,1,0,0:0:0:0:
247,352,298456,1,10,0:0:0:0:
206,367,298531,1,0,0:0:0:0:
163,367,298606,1,0,0:0:0:0:
124,348,298681,1,0,0:0:0:0:
94,318,298756,1,8,0:0:0:0:
81,278,298831,1,0,0:0:0:0:
81,234,298906,1,0,0:0:0:0:
96,191,298981,1,0,0:0:0:0:
131,162,299056,1,10,0:0:0:0:
172,149,299131,1,0,0:0:0:0:
214,155,299206,1,0,0:0:0:0:
248,173,299281,1,0,0:0:0:0:
276,200,299356,5,12,0:0:0:0:
304,226,299431,1,0,0:0:0:0:
346,229,299506,1,0,0:0:0:0:
389,217,299581,1,0,0:0:0:0:
423,190,299656,1,10,0:0:0:0:
445,153,299731,1,0,0:0:0:0:
452,109,299806,1,0,0:0:0:0:
442,67,299881,1,0,0:0:0:0:
418,30,299956,1,8,0:0:0:0:
380,10,300031,1,0,0:0:0:0:
335,14,300106,1,0,0:0:0:0:
297,31,300181,1,0,0:0:0:0:
270,63,300256,1,10,0:0:0:0:
254,102,300331,1,0,0:0:0:0:
257,143,300406,1,0,0:0:0:0:
273,183,300481,1,0,0:0:0:0:
285,225,300556,5,12,0:0:0:0:
287,269,300631,1,0,0:0:0:0:
274,312,300706,1,0,0:0:0:0:
246,345,300781,1,0,0:0:0:0:
206,367,300856,1,10,0:0:0:0:
161,371,300931,1,0,0:0:0:0:
119,360,301006,1,0,0:0:0:0:
84,333,301081,1,0,0:0:0:0:
60,296,301156,1,10,0:0:0:0:
50,248,301231,1,0,0:0:0:0:
61,203,301306,1,0,0:0:0:0:
89,166,301381,1,0,0:0:0:0:
125,141,301456,1,10,0:0:0:0:
171,129,301531,1,0,0:0:0:0:
217,141,301606,1,0,0:0:0:0:
254,169,301681,1,0,0:0:0:0:
268,212,301756,6,0,L|252:272,3,59.375,12|0|0|0,0:0|0:0|0:0|0:0,0:0:0:0:
336,116,302056,2,0,L|320:56,3,59.375,12|0|0|0,0:0|0:0|0:0|0:0,0:0:0:0:
356,260,302356,2,0,L|337:330,3,59.375,12|0|0|0,0:0|0:0|0:0|0:0,0:0:0:0:
432,92,302656,2,0,L|413:21,3,59.375,12|0|0|0,0:0|0:0|0:0|0:0,0:0:0:0:
304,184,302956,5,12,0:0:0:0:
322,138,303031,1,0,0:0:0:0:
361,108,303106,1,0,0:0:0:0:
410,103,303181,1,0,0:0:0:0:
454,123,303256,1,10,0:0:0:0:
481,164,303331,1,0,0:0:0:0:
482,213,303406,1,0,0:0:0:0:
459,251,303481,1,0,0:0:0:0:
418,278,303556,1,8,0:0:0:0:
370,283,303631,1,0,0:0:0:0:
324,265,303706,1,0,0:0:0:0:
292,228,303781,1,0,0:0:0:0:
279,181,303856,1,10,0:0:0:0:
259,138,303931,1,0,0:0:0:0:
219,109,304006,1,0,0:0:0:0:
171,100,304081,1,0,0:0:0:0:
124,108,304156,5,12,0:0:0:0:
89,142,304231,1,0,0:0:0:0:
72,187,304306,1,0,0:0:0:0:
76,236,304381,1,0,0:0:0:0:
103,273,304456,1,10,0:0:0:0:
146,295,304531,1,0,0:0:0:0:
192,288,304606,1,0,0:0:0:0:
228,254,304681,1,0,0:0:0:0:
239,207,304756,1,8,0:0:0:0:
219,163,304831,1,0,0:0:0:0:
179,135,304906,1,0,0:0:0:0:
132,135,304981,1,0,0:0:0:0:
89,160,305056,1,10,0:0:0:0:
64,201,305131,1,0,0:0:0:0:
60,251,305206,1,0,0:0:0:0:
82,294,305281,1,0,0:0:0:0:
120,320,305356,5,12,0:0:0:0:
170,318,305431,1,0,0:0:0:0:
216,295,305506,1,0,0:0:0:0:
245,254,305581,1,0,0:0:0:0:
256,206,305656,1,10,0:0:0:0:
277,164,305731,1,0,0:0:0:0:
310,131,305806,1,0,0:0:0:0:
355,115,305881,1,0,0:0:0:0:
400,116,305956,1,8,0:0:0:0:
444,135,306031,1,0,0:0:0:0:
472,174,306106,1,0,0:0:0:0:
485,222,306181,1,0,0:0:0:0:
473,269,306256,1,10,0:0:0:0:
444,306,306331,1,0,0:0:0:0:
402,327,306406,1,0,0:0:0:0:
356,324,306481,1,0,0:0:0:0:
316,304,306556,6,0,L|308:224,3,59.375,12|0|0|0,0:0|0:0|0:0|0:0,0:0:0:0:
416,156,306856,2,0,L|408:236,3,59.375,12|0|0|0,0:0|0:0|0:0|0:0,0:0:0:0:
288,104,307156,2,0,L|208:112,3,59.375,12|0|0|0,0:0|0:0|0:0|0:0,0:0:0:0:
448,32,307456,2,0,L|528:40,3,59.375,12|0|0|0,0:0|0:0|0:0|0:0,0:0:0:0:
288,104,307756,5,12,0:0:0:0:
274,153,307831,1,0,0:0:0:0:
274,200,307906,1,0,0:0:0:0:
295,245,307981,1,0,0:0:0:0:
330,278,308056,1,10,0:0:0:0:
375,292,308131,1,0,0:0:0:0:
424,292,308206,1,0,0:0:0:0:
472,276,308281,1,0,0:0:0:0:
500,236,308356,1,8,0:0:0:0:
478,191,308431,1,0,0:0:0:0:
430,174,308506,1,0,0:0:0:0:
381,188,308581,1,0,0:0:0:0:
332,212,308656,1,10,0:0:0:0:
282,216,308731,1,0,0:0:0:0:
236,193,308806,1,0,0:0:0:0:
213,147,308881,1,0,0:0:0:0:
220,96,308956,5,12,0:0:0:0:
249,58,309031,1,0,0:0:0:0:
297,37,309106,1,0,0:0:0:0:
350,46,309181,1,0,0:0:0:0:
388,77,309256,1,10,0:0:0:0:
409,127,309331,1,0,0:0:0:0:
406,177,309406,1,0,0:0:0:0:
380,223,309481,1,0,0:0:0:0:
340,256,309556,1,8,0:0:0:0:
286,253,309631,1,0,0:0:0:0:
238,231,309706,1,0,0:0:0:0:
202,193,309781,1,0,0:0:0:0:
168,152,309856,1,10,0:0:0:0:
137,110,309931,1,0,0:0:0:0:
89,91,310006,1,0,0:0:0:0:
38,101,310081,1,0,0:0:0:0:
8,144,310156,5,12,0:0:0:0:
13,193,310231,1,0,0:0:0:0:
41,236,310306,1,0,0:0:0:0:
92,259,310381,1,0,0:0:0:0:
141,260,310456,1,10,0:0:0:0:
188,238,310531,1,0,0:0:0:0:
205,189,310606,1,0,0:0:0:0:
183,142,310681,1,0,0:0:0:0:
137,123,310756,1,8,0:0:0:0:
84,128,310831,1,0,0:0:0:0:
54,174,310906,1,0,0:0:0:0:
57,229,310981,1,0,0:0:0:0:
96,269,311056,1,10,0:0:0:0:
150,282,311131,1,0,0:0:0:0:
201,263,311206,1,0,0:0:0:0:
230,216,311281,1,0,0:0:0:0:
236,164,311356,6,0,L|220:104,3,59.375,12|0|0|0,0:0|0:0|0:0|0:0,0:0:0:0:
352,264,311656,2,0,L|336:324,3,59.375,12|0|0|0,0:0|0:0|0:0|0:0,0:0:0:0:
376,96,311956,2,0,L|436:108,3,59.375,12|0|0|0,0:0|0:0|0:0|0:0,0:0:0:0:
220,32,312256,2,0,L|163:51,3,59.375,12|0|0|0,0:0|0:0|0:0|0:0,0:0:0:0:
112,168,312556,5,12,0:0:0:0:
125,218,312631,1,0,0:0:0:0:
159,258,312706,1,0,0:0:0:0:
208,278,312781,1,0,0:0:0:0:
261,273,312856,1,10,0:0:0:0:
305,246,312931,1,0,0:0:0:0:
334,200,313006,1,0,0:0:0:0:
375,170,313081,1,0,0:0:0:0:
427,161,313156,1,8,0:0:0:0:
474,184,313231,1,0,0:0:0:0:
503,228,313306,1,0,0:0:0:0:
500,280,313381,1,0,0:0:0:0:
477,327,313456,1,10,0:0:0:0:
430,350,313531,1,0,0:0:0:0:
377,348,313606,1,0,0:0:0:0:
339,308,313681,1,0,0:0:0:0:
308,264,313756,5,12,0:0:0:0:
263,230,313831,1,0,0:0:0:0:
207,236,313906,1,0,0:0:0:0:
165,271,313981,1,0,0:0:0:0:
116,292,314056,1,10,0:0:0:0:
64,270,314131,1,0,0:0:0:0:
32,231,314206,1,0,0:0:0:0:
30,181,314281,1,0,0:0:0:0:
56,140,314356,1,8,0:0:0:0:
106,120,314431,1,0,0:0:0:0:
157,142,314506,1,0,0:0:0:0:
196,180,314581,1,0,0:0:0:0:
239,219,314656,1,10,0:0:0:0:
288,225,314731,1,0,0:0:0:0:
332,200,314806,1,0,0:0:0:0:
365,153,314881,1,0,0:0:0:0:
352,96,314956,5,6,0:0:0:0:
297,68,315031,1,0,0:0:0:0:
240,79,315106,1,0,0:0:0:0:
193,117,315181,1,0,0:0:0:0:
144,156,315256,1,6,0:0:0:0:
83,154,315331,1,0,0:0:0:0:
33,127,315406,1,0,0:0:0:0:
12,73,315481,1,0,0:0:0:0:
40,20,315556,1,6,0:0:0:0:
101,14,315631,1,0,0:0:0:0:
156,48,315706,1,0,0:0:0:0:
178,108,315781,1,0,0:0:0:0:
198,165,315856,1,6,0:0:0:0:
243,210,315931,1,0,0:0:0:0:
306,223,316006,1,0,0:0:0:0:
366,199,316081,1,0,0:0:0:0:
403,147,316156,5,14,0:0:0:0:
256,192,316231,12,0,318481,0:0:0:0:
132,248,318556,5,4,0:1:0:0:
292,196,318856,1,4,0:1:0:0:
40,160,319156,1,0,3:0:0:0:
43,179,319231,1,0,3:0:0:0:
45,198,319306,1,0,3:0:0:0:
48,217,319381,1,0,3:0:0:0:
50,236,319456,1,0,3:0:0:0:
53,255,319531,1,0,3:0:0:0:
55,274,319606,1,0,3:0:0:0:
58,293,319681,1,0,3:0:0:0:
60,308,319756,6,0,L|172:296,1,95,6|0,0:0|0:0,0:0:0:0:
272,288,320056,1,8,0:0:0:0:
152,184,320206,1,0,0:0:0:0:
368,208,320356,1,2,0:0:0:0:
368,208,320431,1,0,0:0:0:0:
368,208,320506,1,0,0:0:0:0:
152,148,320656,1,8,0:0:0:0:
304,316,320806,1,0,0:0:0:0:
260,148,320956,6,0,P|204:136|148:136,1,95,2|0,0:0|0:0,0:0:0:0:
376,240,321256,2,0,P|432:232|485:212,1,95,8|0,0:0|0:0,0:0:0:0:
340,84,321556,1,2,0:0:0:0:
260,256,321706,1,0,0:0:0:0:
452,136,321856,1,8,0:0:0:0:
452,136,321931,1,0,0:0:0:0:
452,136,322006,1,0,0:0:0:0:
248,260,322156,6,0,L|132:252,1,95,6|0,0:0|0:0,0:0:0:0:
24,168,322456,1,8,0:0:0:0:
156,72,322606,1,0,0:0:0:0:
128,252,322756,1,2,0:0:0:0:
80,16,322906,1,0,0:0:0:0:
252,164,323056,2,0,L|152:152,1,95,8|0,0:0|0:0,0:0:0:0:
372,300,323356,5,2,0:0:0:0:
372,300,323431,1,0,0:0:0:0:
372,300,323506,1,0,0:0:0:0:
304,148,323656,1,8,0:0:0:0:
292,360,323806,1,0,0:0:0:0:
400,208,323956,1,2,0:0:0:0:
200,256,324106,1,0,0:0:0:0:
456,284,324256,1,8,0:0:0:0:
456,284,324331,1,0,0:0:0:0:
456,284,324406,1,0,0:0:0:0:
292,124,324556,6,0,P|241:116|175:132,1,95,6|0,0:0|0:0,0:0:0:0:
80,180,324856,1,8,0:0:0:0:
264,232,325006,1,0,0:0:0:0:
96,64,325156,1,2,0:0:0:0:
152,284,325306,1,0,0:0:0:0:
198,122,325456,2,0,L|202:2,1,95,8|0,0:0|0:0,0:0:0:0:
36,196,325756,6,0,L|40:316,1,95,2|0,0:0|0:0,0:0:0:0:
176,360,326056,1,8,0:0:0:0:
160,204,326206,1,0,0:0:0:0:
296,336,326356,2,0,L|201:342,1,95,2|0,0:0|0:0,0:0:0:0:
340,228,326656,2,0,L|435:234,1,95,8|0,0:0|0:0,0:0:0:0:
248,160,326956,6,0,L|242:65,1,95,6|0,0:0|0:0,0:0:0:0:
404,36,327256,1,8,0:0:0:0:
352,168,327406,2,0,P|298:174|258:167,1,95,0|2,0:0|0:0,0:0:0:0:
472,112,327706,1,0,0:0:0:0:
408,292,327856,1,8,0:0:0:0:
336,88,328006,1,0,0:0:0:0:
304,284,328156,6,0,L|404:280,1,95,6|0,0:0|0:0,0:0:0:0:
236,152,328456,1,8,0:0:0:0:
176,280,328606,2,0,L|188:388,1,95,0|2,0:0|0:0,0:0:0:0:
236,152,328906,1,0,0:0:0:0:
380,264,329056,1,8,0:0:0:0:
324,72,329206,1,0,0:0:0:0:
460,304,329356,6,0,L|528:312,3,47.5,4|0|0|0,0:0|0:0|0:0|0:0,0:0:0:0:
360,236,329656,2,0,L|312:231,3,47.5,8|0|0|0,0:0|0:0|0:0|0:0,0:0:0:0:
428,160,329956,1,8,0:0:0:0:
423,126,330031,1,0,0:0:0:0:
407,97,330106,1,0,0:0:0:0:
384,75,330181,1,0,0:0:0:0:
353,59,330256,1,8,0:0:0:0:
317,57,330331,1,0,0:0:0:0:
282,70,330406,1,0,0:0:0:0:
254,93,330481,1,0,0:0:0:0:
228,115,330556,5,12,0:0:0:0:
187,140,330631,1,0,0:0:0:0:
140,150,330706,1,0,0:0:0:0:
93,146,330781,1,0,0:0:0:0:
48,128,330856,1,8,0:0:0:0:
12,97,330931,1,0,0:0:0:0:
17,48,331006,1,0,0:0:0:0:
64,33,331081,1,0,0:0:0:0:
101,63,331156,1,8,0:0:0:0:
115,108,331231,1,0,0:0:0:0:
105,155,331306,1,0,0:0:0:0:
77,196,331381,1,0,0:0:0:0:
70,243,331456,1,8,0:0:0:0:
83,288,331531,1,0,0:0:0:0:
117,321,331606,1,0,0:0:0:0:
163,334,331681,1,0,0:0:0:0:
208,340,331756,6,0,L|308:344,1,95,4|0,0:1|0:0,0:0:0:0:
344,208,332056,1,8,0:0:0:0:
424,348,332206,1,0,0:0:0:0:
256,256,332356,1,2,0:0:0:0:
476,260,332506,1,0,0:0:0:0:
236,248,332656,1,8,0:0:0:0:
464,148,332806,1,0,0:0:0:0:
264,128,332956,6,0,L|268:240,1,95,2|0,0:0|0:0,0:0:0:0:
168,88,333256,1,8,0:0:0:0:
352,68,333406,1,0,0:0:0:0:
152,4,333556,1,2,0:0:0:0:
176,192,333706,1,0,0:0:0:0:
260,36,333856,2,0,L|354:39,1,95,8|0,0:0|0:0,0:0:0:0:
452,192,334156,6,0,P|460:136|448:96,1,95,6|0,0:0|0:0,0:0:0:0:
312,324,334456,2,0,P|299:268|307:228,1,95,8|0,0:0|0:0,0:0:0:0:
360,112,334756,1,2,0:0:0:0:
360,112,334831,1,0,0:0:0:0:
360,112,334906,1,0,0:0:0:0:
484,264,335056,2,0,L|376:268,1,95,8|0,0:0|0:0,0:0:0:0:
240,336,335356,6,0,L|132:332,1,95,2|0,0:0|0:0,0:0:0:0:
60,164,335656,1,8,0:0:0:0:
108,336,335806,1,0,0:0:0:0:
172,176,335956,1,2,0:0:0:0:
0,284,336106,1,0,0:0:0:0:
116,84,336256,1,8,0:0:0:0:
116,84,336331,1,0,0:0:0:0:
116,84,336406,1,0,0:0:0:0:
352,204,336556,6,0,P|408:188|456:148,1,95,6|0,0:0|0:0,0:0:0:0:
228,260,336856,2,0,P|244:316|284:364,1,95,8|0,0:0|0:0,0:0:0:0:
164,152,337156,2,0,P|108:168|60:208,1,95,2|0,0:0|0:0,0:0:0:0:
296,104,337456,1,8,0:0:0:0:
296,104,337606,2,0,P|280:48|240:0,1,95,0|2,0:0|0:0,0:0:0:0:
356,176,337906,5,8,0:0:0:0:
112,148,338056,1,8,0:0:0:0:
332,264,338206,5,8,0:0:0:0:
92,156,338356,1,10,0:0:0:0:
292,344,338506,5,8,0:0:0:0:
80,168,338656,1,8,0:0:0:0:
200,380,338806,1,8,0:0:0:0:
64,184,338956,6,0,P|76:232|72:296,1,95,4|0,0:1|0:0,0:0:0:0:
217,216,339256,2,0,P|222:167|248:108,1,95,8|0,0:0|0:0,0:0:0:0:
128,32,339556,1,2,0:0:0:0:
128,32,339631,1,0,0:0:0:0:
128,32,339706,1,0,0:0:0:0:
200,224,339856,1,8,0:0:0:0:
236,20,340006,1,0,0:0:0:0:
312,136,340156,6,0,P|340:180|348:232,1,95,6|0,0:0|0:0,0:0:0:0:
204,324,340456,2,0,P|241:295|286:281,1,95,8|0,0:0|0:0,0:0:0:0:
464,344,340756,2,0,P|414:328|374:293,1,95
200,96,341056,1,8,0:0:0:0:
228,256,341206,1,0,0:0:0:0:
308,24,341356,5,6,0:0:0:0:
351,29,341431,1,0,0:0:0:0:
387,55,341506,1,2,0:0:0:0:
406,95,341581,1,0,0:0:0:0:
404,140,341656,1,2,0:0:0:0:
380,178,341731,1,0,0:0:0:0:
347,210,341806,1,2,0:0:0:0:
306,228,341881,1,0,0:0:0:0:
261,224,341956,1,2,0:0:0:0:
224,199,342031,1,0,0:0:0:0:
195,164,342106,1,2,0:0:0:0:
159,138,342181,1,0,0:0:0:0:
114,135,342256,1,2,0:0:0:0:
73,152,342331,1,0,0:0:0:0:
45,187,342406,1,2,0:0:0:0:
38,232,342481,1,0,0:0:0:0:
52,272,342556,5,6,0:0:0:0:
92,287,342631,1,0,0:0:0:0:
139,286,342706,1,2,0:0:0:0:
179,265,342781,1,0,0:0:0:0:
209,230,342856,1,2,0:0:0:0:
221,184,342931,1,0,0:0:0:0:
244,144,343006,1,2,0:0:0:0:
277,112,343081,1,0,0:0:0:0:
322,98,343156,1,2,0:0:0:0:
368,103,343231,1,0,0:0:0:0:
408,127,343306,1,2,0:0:0:0:
435,166,343381,1,0,0:0:0:0:
439,211,343456,1,2,0:0:0:0:
431,255,343531,1,0,0:0:0:0:
403,292,343606,1,2,0:0:0:0:
360,312,343681,1,0,0:0:0:0:
315,305,343756,5,14,0:0:0:0:
32,188,344956,5,12,0:0:0:0:
320,104,345406,5,0,0:0:0:0:
320,104,345556,2,0,L|376:112,1,35.625001358986
480,152,345706,2,0,L|424:160,1,35.625001358986
344,200,345856,6,0,L|396:236,4,35.625001358986,4|0|0|0|2,0:0|0:0|0:0|0:0|0:3,0:0:0:0:
168,224,346306,6,0,L|116:228,1,35.625001358986,2|0,0:3|0:0,0:0:0:0:
268,277,346456,2,0,L|320:281,1,35.625001358986,2|0,0:3|0:0,0:0:0:0:
172,200,346606,6,0,L|124:177,1,35.625001358986,2|0,0:3|0:0,0:0:0:0:
252,304,346756,2,0,L|295:333,1,35.625001358986,2|0,0:3|0:0,0:0:0:0:
184,184,346906,6,0,L|147:146,1,35.625001358986,2|0,0:3|0:0,0:0:0:0:
232,324,347056,2,0,L|262:366,1,35.625001358986,2|0,0:3|0:0,0:0:0:0:
208,172,347206,6,0,L|186:124,1,35.625001358986,2|0,0:3|0:0,0:0:0:0:
324,264,347356,5,4,0:0:0:0:
324,264,347506,1,0,0:0:0:0:
192,44,347656,5,8,0:0:0:0:
380,156,347806,1,8,0:0:0:0:
144,116,347956,1,8,0:0:0:0:
408,72,348106,1,8,0:0:0:0:
172,192,348256,1,8,0:0:0:0:
456,260,348556,6,0,L|460:320,2,35.625001358986,2|2|2,0:0|0:0|0:0,0:0:0:0:
380,156,348856,5,0,0:0:0:0:
364,129,348931,1,0,0:0:0:0:
342,110,349006,1,4,0:0:0:0:
316,97,349081,1,0,0:0:0:0:
287,94,349156,1,0,0:0:0:0:
259,100,349231,1,0,0:0:0:0:
232,114,349306,1,0,0:0:0:0:
213,137,349381,1,0,0:0:0:0:
190,163,349456,1,0,0:0:0:0:
164,176,349531,1,0,0:0:0:0:
135,185,349606,1,0,0:0:0:0:
106,184,349681,1,0,0:0:0:0:
78,172,349756,5,4,0:0:0:0:
52,100,350206,5,0,0:0:0:0:
52,100,350281,1,0,0:0:0:0:
52,100,350356,6,0,L|128:92,1,71.2500027179719
224,56,350581,1,0,0:0:0:0:
224,56,350656,2,0,L|217:-10,2,35.625001358986
346,86,350956,6,0,L|352:168,1,71.2500027179719,4|2,0:0|0:0,0:0:0:0:
360,296,351256,1,8,0:0:0:0:
228,176,351406,1,2,0:0:0:0:
272,344,351556,1,2,0:0:0:0:
351,157,351706,1,2,0:0:0:0:
164,288,351856,1,8,0:0:0:0:
224,80,352006,1,2,0:0:0:0:
444,168,352156,5,2,0:0:0:0:
470,190,352231,1,2,0:0:0:0:
482,223,352306,1,2,0:0:0:0:
484,259,352381,1,2,0:0:0:0:
477,294,352456,1,2,0:0:0:0:
458,324,352531,1,2,0:0:0:0:
430,346,352606,1,2,0:0:0:0:
397,356,352681,1,2,0:0:0:0:
363,357,352756,2,0,P|307:344|267:344,1,71.2500027179719,2|0,0:0|0:0,0:0:0:0:
120,216,353056,2,0,P|176:224|237:207,1,106.875004076958,2|0,0:3|0:0,0:0:0:0:
264,144,353356,6,0,L|268:244,1,95,4|0,0:0|0:0,0:0:0:0:
116,310,353656,2,0,L|120:210,1,95,2|0,0:0|0:0,0:0:0:0:
236,104,353956,1,2,0:0:0:0:
104,104,354106,1,0,0:0:0:0:
216,184,354256,1,2,0:0:0:0:
252,24,354406,1,0,0:0:0:0:
104,104,354556,6,0,P|55:104|6:129,1,95,2|0,0:0|0:0,0:0:0:0:
216,184,354856,2,0,P|264:183|313:158,1,95,2|0,0:0|0:0,0:0:0:0:
344,64,355156,1,2,0:0:0:0:
232,84,355306,1,0,0:0:0:0:
412,148,355456,1,0,0:0:0:0:
320,12,355606,1,0,0:0:0:0:
324,192,355756,1,2,0:0:0:0:
324,192,355831,1,0,0:0:0:0:
324,192,355906,1,0,0:0:0:0:
200,48,356056,6,0,L|128:60,2,63.3333333333333,8|0|0,0:0|0:0|0:0,0:0:0:0:
248,132,356356,2,0,L|210:194,2,63.3333333333333,8|0|0,0:0|0:0|0:0,0:0:0:0:
340,144,356656,2,0,L|364:212,2,63.3333333333333,8|0|0,0:0|0:0|0:0,0:0:0:0:
412,88,356956,6,0,L|500:124,1,95,4|0,0:1|0:0,0:0:0:0:
280,48,357256,2,0,L|192:84,1,95,2|0,0:0|0:0,0:0:0:0:
92,160,357556,1,2,0:0:0:0:
92,160,357631,1,0,0:0:0:0:
92,160,357706,1,0,0:0:0:0:
292,188,357856,1,2,0:0:0:0:
164,64,358006,1,0,0:0:0:0:
96,196,358156,6,0,L|-12:188,1,95,2|0,0:0|0:0,0:0:0:0:
184,268,358456,2,0,L|292:260,1,95,2|0,0:0|0:0,0:0:0:0:
408,224,358756,1,0,0:0:0:0:
284,140,358906,1,0,0:0:0:0:
300,356,359056,2,0,L|292:260,1,95,2|0,0:0|0:0,0:0:0:0:
415,129,359356,2,0,L|407:225,1,95,2|0,0:0|0:0,0:0:0:0:
300,356,359656,5,4,0:1:0:0:
280,156,359806,1,2,0:0:0:0:
172,296,359956,1,8,0:0:0:0:
172,296,360031,1,2,0:0:0:0:
172,296,360106,1,10,0:0:0:0:
384,236,360256,1,10,0:0:0:0:
168,112,360406,1,10,0:0:0:0:
384,152,360556,6,0,L|488:144,1,95,4|0,0:1|0:0,0:0:0:0:
290,223,360856,2,0,L|186:215,1,95,2|0,0:0|0:0,0:0:0:0:
76,120,361156,1,2,0:0:0:0:
203,121,361306,1,0,0:0:0:0:
80,200,361456,1,2,0:0:0:0:
100,36,361606,1,0,0:0:0:0:
203,121,361756,6,0,L|195:217,1,95,2|0,0:0|0:0,0:0:0:0:
324,324,362056,2,0,L|316:228,1,95,2|0,0:0|0:0,0:0:0:0:
300,108,362356,1,2,0:0:0:0:
416,200,362506,1,0,0:0:0:0:
356,40,362656,1,2,0:0:0:0:
484,120,362806,1,0,0:0:0:0:
320,188,362956,2,0,L|220:197,1,95,2|0,0:0|0:0,0:0:0:0:
100,200,363256,6,0,P|64:186|39:159,2,63.3333333333333,8|0|0,0:0|0:0|0:0,0:0:0:0:
159,135,363556,2,0,P|147:99|151:63,2,63.3333333333333,8|0|0,0:0|0:0|0:0,0:0:0:0:
246,124,363856,2,0,P|259:88|286:63,2,63.3333333333333,8|0|0,0:0|0:0|0:0,0:0:0:0:
319,175,364156,6,0,P|352:156|416:157,1,95,6|0,0:0|0:0,0:0:0:0:
244,264,364456,2,0,P|206:269|146:246,1,95,2|0,0:0|0:0,0:0:0:0:
324,168,364756,2,0,P|362:168|417:200,1,95,2|0,0:0|0:0,0:0:0:0:
244,236,365056,1,2,0:0:0:0:
244,88,365206,1,0,0:0:0:0:
168,260,365356,1,2,0:0:0:0:
312,184,365506,1,0,0:0:0:0:
140,148,365656,1,2,0:0:0:0:
260,320,365806,1,0,0:0:0:0:
344,168,365956,6,0,L|444:164,1,95,2|0,0:0|0:0,0:0:0:0:
296,36,366256,2,0,L|196:40,1,95,2|0,0:0|0:0,0:0:0:0:
84,148,366556,1,2,0:0:0:0:
84,148,366631,1,0,0:0:0:0:
84,148,366706,1,0,0:0:0:0:
263,99,366856,5,12,0:0:0:0:
78,265,367006,1,8,0:0:0:0:
322,193,367156,5,8,0:0:0:0:
52,257,367306,1,8,0:0:0:0:
325,330,367456,5,8,0:0:0:0:
31,248,367606,1,8,0:0:0:0:
388,184,367756,6,0,L|396:84,1,95,6|0,0:0|0:0,0:0:0:0:
324,244,368056,2,0,P|364:268|420:264,1,95,2|0,0:0|0:0,0:0:0:0:
252,160,368356,2,0,P|205:159|158:190,1,95,2|0,0:0|0:0,0:0:0:0:
108,280,368656,1,10,0:0:0:0:
224,234,368806,1,0,0:0:0:0:
132,164,368956,6,0,L|124:68,1,95,2|0,0:0|0:0,0:0:0:0:
224,234,369256,2,0,L|216:330,1,95,2|0,0:0|0:0,0:0:0:0:
304,156,369556,1,10,0:0:0:0:
176,108,369706,1,0,0:0:0:0:
280,56,369856,6,0,L|396:52,1,95,2|0,0:0|0:0,0:0:0:0:
400,60,370081,1,0,0:0:0:0:
400,60,370156,2,0,P|412:106|391:176,1,95,2|0,0:0|0:0,0:0:0:0:
288,216,370456,1,10,0:0:0:0:
336,116,370606,1,0,0:0:0:0:
208,200,370756,2,0,P|212:246|244:289,1,95,2|0,0:0|0:0,0:0:0:0:
244,112,371056,2,0,P|207:86|152:83,1,95,2|0,0:0|0:0,0:0:0:0:
48,184,371356,5,10,0:0:0:0:
136,84,371506,1,0,0:0:0:0:
4,92,371656,2,0,L|16:196,1,95,2|0,0:0|0:0,0:0:0:0:
128,304,371956,2,0,L|136:200,1,95,2|0,0:0|0:0,0:0:0:0:
168,80,372256,1,10,0:0:0:0:
240,212,372406,1,0,0:0:0:0:
280,48,372556,6,0,P|226:38|187:49,1,95,2|0,0:0|0:0,0:0:0:0:
260,196,372856,2,0,P|316:198|352:180,1,95,2|0,0:0|0:0,0:0:0:0:
224,112,373156,2,0,B|204:164|232:204|232:204|260:244|280:316|236:348|188:348|160:340|120:312|120:256|148:228|168:216,1,380,4|0,0:0|0:0,0:0:0:0:
296,156,373906,5,0,0:0:0:0:
128,160,374056,2,0,L|56:168,2,63.3333333333333,8|0|0,0:0|0:0|0:0,0:0:0:0:
260,92,374356,2,0,L|332:100,2,63.3333333333333,8|0|0,0:0|0:0|0:0,0:0:0:0:
120,48,374656,2,0,L|48:56,2,63.3333333333333,8|0|0,0:0|0:0|0:0,0:0:0:0:
260,92,374956,6,0,L|360:104,1,95,4|0,0:1|0:0,0:0:0:0:
180,36,375256,1,2,0:0:0:0:
176,138,375406,1,0,0:0:0:0:
138,22,375556,1,2,0:0:0:0:
202,158,375706,1,0,0:0:0:0:
100,16,375856,2,0,L|0:28,1,95,8|0,0:0|0:0,0:0:0:0:
228,16,376156,5,2,0:0:0:0:
157,105,376306,1,0,0:0:0:0:
273,33,376456,1,2,0:0:0:0:
120,104,376606,1,0,0:0:0:0:
308,56,376756,2,0,L|412:48,1,95,8|0,0:0|0:0,0:0:0:0:
504,176,377056,1,2,0:0:0:0:
476,24,377206,1,0,0:0:0:0:
408,188,377356,2,0,L|404:88,1,95,2|0,0:0|0:0,0:0:0:0:
324,228,377656,6,0,P|276:216|228:228,1,95,8|0,0:0|0:0,0:0:0:0:
144,280,377956,1,2,0:0:0:0:
80,168,378106,1,0,0:0:0:0:
220,112,378256,2,0,L|224:208,1,95,2|0,0:0|0:0,0:0:0:0:
256,336,378556,6,0,B|302:357|302:357|400:344,1,142.5,8|0,0:0|0:0,0:0:0:0:
420,316,378857,2,0,P|427:274|412:221,1,95,2|0,0:0|0:0,0:0:0:0:
512,132,379156,2,0,P|497:181|512:236,1,95,2|0,0:0|0:0,0:0:0:0:
464,20,379456,1,8,0:0:0:0:
376,136,379606,1,0,0:0:0:0:
304,32,379756,6,0,L|196:40,1,95,2|0,0:0|0:0,0:0:0:0:
328,200,380056,2,0,L|432:192,1,95,2|0,0:0|0:0,0:0:0:0:
188,104,380356,5,12,0:0:0:0:
232,352,380506,1,8,0:0:0:0:
328,200,380656,5,8,0:0:0:0:
88,276,380806,1,8,0:0:0:0:
381,286,380956,5,8,0:0:0:0:
72,184,381106,1,8,0:0:0:0:
428,48,381256,5,4,0:1:0:0:
52,212,393256,6,0,B|72:184|76:144|76:144|104:168|108:200|96:228|88:272|100:296|124:312|124:312|124:276|144:240,1,313.49999043274
160,232,394156,2,0,P|192:220|224:224,1,56.9999982604981
264,284,394456,2,0,L|260:152,1,113.999996520996
352,104,394906,2,0,L|348:236,1,113.999996520996
328,308,395356,2,0,L|264:312,1,56.9999982604981
160,288,395656,6,0,P|140:239|170:171,1,113.999996520996
236,236,396106,2,0,L|100:240,1,113.999996520996
64,180,396556,2,0,L|68:124,1,56.9999982604981
160,88,396856,6,0,L|264:92,2,85.4999973907472
184,16,397456,2,0,P|228:86|192:164,1,170.999994781494
112,208,398056,6,0,P|167:198|218:222,1,113.999996520996
216,364,398506,2,0,P|172:327|158:273,1,113.999996520996
284,260,398956,2,0,P|251:283|227:291,1,56.9999982604981
120,280,399256,6,0,L|60:276,2,56.9999982604981
176,216,399706,2,0,B|230:192|232:236|286:212,1,113.999996520996
364,144,400156,1,0,0:0:0:0:
364,144,400456,6,0,L|372:24,1,113.999996520996
260,28,400906,2,0,L|267:141,1,113.999996520996
168,156,401356,2,0,L|172:76,1,56.9999982604981
140,76,401581,6,0,P|60:80|28:148,1,142.499995651245
168,156,402031,2,0,L|178:14,1,142.499995651245
29,127,402556,1,0,0:0:0:0:
116,224,402706,2,0,L|120:280,1,47.5,2|0,0:0|0:0,0:0:0:0:
168,156,402856,6,0,P|212:136|276:152,1,95,4|0,0:1|0:0,0:0:0:0:
292,300,403156,2,0,P|250:275|226:213,1,95
356,140,403456,2,0,P|343:186|289:225,1,95
188,108,403756,2,0,P|236:112|283:158,1,95
76,168,404056,6,0,L|68:72,1,95,4|0,0:1|0:0,0:0:0:0:
188,220,404356,2,0,L|196:124,1,95
48,304,404656,2,0,L|40:208,1,95
208,356,404956,2,0,L|216:260,1,95
276,108,405256,6,0,P|336:92|376:108,1,95,4|0,0:1|0:0,0:0:0:0:
216,224,405556,2,0,P|154:229|117:206,1,95,0|2,0:0|0:0,0:0:0:0:
188,48,405856,2,0,L|180:148,1,95,8|10,0:0|0:0,0:0:0:0:
288,280,406156,1,0,0:0:0:0:
288,280,406231,1,0,0:0:0:0:
288,280,406306,2,0,L|340:276,1,47.5,2|0,0:0|0:0,0:0:0:0:
444,236,406456,5,0,0:0:0:0:
455,196,406531,1,2,0:0:0:0:
449,156,406606,1,2,0:0:0:0:
429,121,406681,1,2,0:0:0:0:
397,96,406756,1,2,0:0:0:0:
358,86,406831,1,2,0:0:0:0:
318,91,406906,1,2,0:0:0:0:
287,117,406981,1,2,0:0:0:0:
260,148,407056,1,2,0:0:0:0:
224,166,407131,1,2,0:0:0:0:
183,171,407206,1,2,0:0:0:0:
144,161,407281,1,2,0:0:0:0:
116,132,407356,2,0,L|124:64,2,47.5,8|0|6,0:0|0:0|0:0,0:0:0:0:
288,40,407656,6,0,P|336:28|400:40,1,95,2|0,0:0|0:0,0:0:0:0:
440,152,407956,1,0,0:0:0:0:
332,112,408106,1,0,0:0:0:0:
408,240,408256,2,0,L|512:232,1,95,8|0,0:0|0:0,0:0:0:0:
332,112,408556,2,0,L|228:104,1,95
160,236,408856,6,0,B|201:143|121:143|157:51,1,190,2|2,0:0|0:0,0:0:0:0:
92,188,409306,1,0,0:0:0:0:
232,272,409456,2,0,P|276:287|322:279,1,95,8|0,0:0|0:0,0:0:0:0:
92,188,409756,2,0,P|45:180|1:196,1,95,2|0,0:0|0:0,0:0:0:0:
48,296,410056,6,0,L|46:95,1,190,4|0,0:0|0:0,0:0:0:0:
144,16,410506,1,0,0:0:0:0:
240,120,410656,2,0,P|188:108|136:124,1,95,8|0,0:0|0:0,0:0:0:0:
324,200,410956,2,0,P|377:202|425:178,1,95,2|0,0:0|0:0,0:0:0:0:
432,160,411181,1,0,0:0:0:0:
432,160,411256,6,0,L|436:64,1,95
292,12,411556,2,0,L|300:116,1,95
312,236,411856,1,8,0:0:0:0:
196,100,412006,1,8,0:0:0:0:
200,300,412156,1,8,0:0:0:0:
196,100,412306,1,8,0:0:0:0:
211,259,412456,6,0,B|283:323|371:263|371:263|363:215|299:187,1,256.499992172241,4|0,0:0|0:0,0:0:0:0:
240,140,413056,2,0,B|124:96|136:240|-8:172,1,256.499992172241,8|0,0:0|0:0,0:0:0:0:
60,76,413656,2,0,L|76:336,1,256.499992172241,2|0,0:0|0:0,0:0:0:0:
168,368,414256,2,0,P|211:373|251:360,1,85.4999973907472,8|0,0:0|0:0,0:0:0:0:
324,296,414556,2,0,L|320:192,1,85.4999973907472
312,176,414781,1,0,0:0:0:0:
312,176,414856,6,0,P|272:171|221:185,1,85.4999973907472,4|0,0:0|0:0,0:0:0:0:
88,112,415156,2,0,P|130:111|169:95,1,85.4999973907472
276,40,415456,2,0,L|372:48,1,85.4999973907472,8|0,0:0|0:0,0:0:0:0:
472,80,415756,5,0,0:0:0:0:
364,164,415906,1,0,0:0:0:0:
364,164,415981,1,0,0:0:0:0:
364,164,416056,6,0,L|360:64,1,85.4999973907472
456,208,416356,2,0,L|452:308,1,85.4999973907472,2|0,0:0|0:0,0:0:0:0:
296,348,416656,2,0,L|396:344,1,85.4999973907472,8|0,0:0|0:0,0:0:0:0:
248,248,416956,2,0,L|162:251,1,85.4999973907472,2|0,0:0|0:0,0:0:0:0:
100,332,417256,6,0,P|67:255|104:181,1,170.999994781494,4|0,0:0|0:0,0:0:0:0:
204,144,417706,1,2,0:0:0:0:
248,248,417856,2,0,L|162:251,1,85.4999973907472,8|0,0:0|0:0,0:0:0:0:
296,348,418156,2,0,L|396:344,1,85.4999973907472,2|0,0:0|0:0,0:0:0:0:
456,272,418456,6,0,B|492:208|460:132|460:132|396:188|324:136,1,256.499992172241,2|0,0:0|0:0,0:0:0:0:
320,68,419056,2,0,B|231:61|231:61|182:110|182:110|84:105,1,256.499992172241,8|0,0:0|0:0,0:0:0:0:
48,96,419581,1,0,0:0:0:0:
48,96,419656,2,0,B|8:160|44:232|44:232|72:292|40:360,1,256.499992172241
204,164,420256,2,0,L|116:168,1,85.4999973907472,8|0,0:0|0:0,0:0:0:0:
304,264,420556,2,0,L|392:268,1,85.4999973907472
476,228,420856,5,0,0:0:0:0:
490,184,420931,1,0,0:0:0:0:
486,140,421006,1,0,0:0:0:0:
464,101,421081,1,0,0:0:0:0:
427,76,421156,1,0,0:0:0:0:
384,67,421231,1,0,0:0:0:0:
340,77,421306,1,0,0:0:0:0:
305,105,421381,1,0,0:0:0:0:
295,148,421456,1,0,0:0:0:0:
303,191,421531,1,0,0:0:0:0:
335,222,421606,1,0,0:0:0:0:
378,232,421681,1,0,0:0:0:0:
420,217,421756,1,0,0:0:0:0:
447,182,421831,1,0,0:0:0:0:
451,138,421906,1,0,0:0:0:0:
431,99,421981,1,0,0:0:0:0:
412,60,422056,6,0,L|424:0,3,59.375,12|0|0|0,0:0|0:0|0:0|0:0,0:0:0:0:
324,144,422356,2,0,L|330:209,3,59.375,8|0|0|0,0:0|0:0|0:0|0:0,0:0:0:0:
248,56,422656,1,8,0:0:0:0:
223,42,422731,1,0,0:0:0:0:
197,31,422806,1,0,0:0:0:0:
170,18,422881,1,0,0:0:0:0:
148,12,422956,6,0,L|89:19,1,59.375,14|0,0:0|0:0,0:0:0:0:
32,132,423106,1,0,0:0:0:0:
13,152,423181,1,0,0:0:0:0:
0,168,423256,6,0,L|57:181,1,59.375,14|0,0:0|0:0,0:0:0:0:
192,168,423406,1,0,0:0:0:0:
237,145,423481,1,0,0:0:0:0:
287,146,423556,1,8,0:0:0:0:
330,172,423631,1,0,0:0:0:0:
367,205,423706,1,0,0:0:0:0:
410,227,423781,1,0,0:0:0:0:
460,225,423856,1,8,0:0:0:0:
503,199,423931,1,0,0:0:0:0:
490,156,424006,1,0,0:0:0:0:
445,137,424081,1,0,0:0:0:0:
400,158,424156,1,8,0:0:0:0:
367,189,424231,1,0,0:0:0:0:
322,207,424306,1,0,0:0:0:0:
277,187,424381,1,0,0:0:0:0:
240,156,424456,6,0,L|250:97,3,59.375,8|0|0|0,0:0|0:0|0:0|0:0,0:0:0:0:
172,264,424756,2,0,L|182:322,3,59.375,8|0|0|0,0:0|0:0|0:0|0:0,0:0:0:0:
152,148,425056,6,0,L|162:89,3,59.375,8|0|0|0,0:0|0:0|0:0|0:0,0:0:0:0:
88,280,425356,2,0,L|98:338,3,59.375,8|0|0|0,0:0|0:0|0:0|0:0,0:0:0:0:
196,240,425656,6,0,L|256:237,3,59.375,8|0|0|0,0:0|0:0|0:0|0:0,0:0:0:0:
64,152,425956,2,0,L|5:149,3,59.375,8|0|0|0,0:0|0:0|0:0|0:0,0:0:0:0:
292,160,426256,1,8,0:0:0:0:
311,110,426331,1,0,0:0:0:0:
301,58,426406,1,0,0:0:0:0:
263,20,426481,1,0,0:0:0:0:
213,7,426556,1,8,0:0:0:0:
162,24,426631,1,0,0:0:0:0:
133,61,426706,2,0,L|173:103,1,59.375
276,143,426856,5,8,0:0:0:0:
276,194,426931,1,0,0:0:0:0:
257,242,427006,1,2,0:0:0:0:
220,279,427081,1,0,0:0:0:0:
173,301,427156,1,8,0:0:0:0:
122,303,427231,1,0,0:0:0:0:
73,285,427306,1,2,0:0:0:0:
35,252,427381,1,0,0:0:0:0:
5,211,427456,1,8,0:0:0:0:
0,159,427531,1,0,0:0:0:0:
18,111,427606,1,2,0:0:0:0:
57,76,427681,1,0,0:0:0:0:
106,65,427756,1,8,0:0:0:0:
157,75,427831,1,0,0:0:0:0:
197,102,427906,1,2,0:0:0:0:
219,147,427981,1,0,0:0:0:0:
245,185,428056,5,8,0:0:0:0:
279,224,428131,1,0,0:0:0:0:
324,249,428206,1,2,0:0:0:0:
374,255,428281,1,0,0:0:0:0:
424,241,428356,1,8,0:0:0:0:
465,210,428431,1,0,0:0:0:0:
491,166,428506,1,2,0:0:0:0:
496,112,428581,1,0,0:0:0:0:
477,64,428656,1,8,0:0:0:0:
434,34,428731,1,0,0:0:0:0:
385,21,428806,1,2,0:0:0:0:
335,28,428881,1,0,0:0:0:0:
289,54,428956,1,8,0:0:0:0:
258,95,429031,1,0,0:0:0:0:
244,145,429106,1,2,0:0:0:0:
250,197,429181,1,0,0:0:0:0:
260,249,429256,5,8,0:0:0:0:
246,299,429331,1,0,0:0:0:0:
221,344,429406,1,2,0:0:0:0:
178,372,429481,1,0,0:0:0:0:
128,381,429556,1,8,0:0:0:0:
79,367,429631,1,0,0:0:0:0:
38,333,429706,1,2,0:0:0:0:
18,287,429781,1,0,0:0:0:0:
29,232,429856,1,8,0:0:0:0:
76,202,429931,1,0,0:0:0:0:
132,204,430006,1,2,0:0:0:0:
184,227,430081,1,0,0:0:0:0:
237,248,430156,1,8,0:0:0:0:
293,248,430231,1,0,0:0:0:0:
346,226,430306,1,2,0:0:0:0:
393,195,430381,1,0,0:0:0:0:
424,160,430456,6,0,L|412:88,3,47.5,4|0|0|0,0:0|0:0|0:0|0:0,0:0:0:0:
320,56,430756,2,0,L|313:95,3,35.625001358986,4|0|0|0,0:0|0:0|0:0|0:0,0:0:0:0:
444,152,431056,2,0,L|432:100,3,30.8749985866547,4|0|0|0,0:0|0:0|0:0|0:0,0:0:0:0:
300,44,431356,1,2,0:0:0:0:
269,30,431431,1,0,0:0:0:0:
235,28,431506,1,0,0:0:0:0:
203,35,431581,1,0,0:0:0:0:
179,49,431656,6,0,L|184:169,1,113.999996520996,12|0,0:0|0:0,0:0:0:0:
192,304,431956,1,8,0:0:0:0:
336,124,432106,1,0,0:0:0:0:
80,108,432256,1,8,0:0:0:0:
80,108,432331,1,0,0:0:0:0:
80,108,432406,1,0,0:0:0:0:
296,260,432556,1,8,0:0:0:0:
12,196,432706,1,0,0:0:0:0:
328,72,432856,6,0,B|372:60|372:60|464:76,1,113.999996520996,12|0,0:0|0:0,0:0:0:0:
156,208,433156,2,0,B|112:196|112:196|20:212,1,113.999996520996,8|0,0:0|0:0,0:0:0:0:
248,344,433456,1,8,0:0:0:0:
456,248,433606,1,0,0:0:0:0:
163,215,433756,1,8,0:0:0:0:
163,215,433831,1,0,0:0:0:0:
163,215,433906,1,0,0:0:0:0:
352,244,434056,6,0,B|364:288|364:288|348:380,1,113.999996520996,8|0,0:0|0:0,0:0:0:0:
164,104,434356,2,0,B|152:148|152:148|168:240,1,113.999996520996,8|0,0:0|0:0,0:0:0:0:
200,332,434656,1,8,0:0:0:0:
288,76,434806,1,0,0:0:0:0:
408,184,434956,6,0,P|424:232|416:296,1,113.999996520996,8|0,0:0|0:0,0:0:0:0:
163,215,435256,2,0,P|155:164|170:102,1,113.999996520996,8|0,0:0|0:0,0:0:0:0:
288,316,435556,2,0,L|402:330,1,113.999996520996,8|0,0:0|0:0,0:0:0:0:
132,164,435855,2,0,L|20:180,1,113.999996520996,8|0,0:0|0:0,0:0:0:0:
296,324,436156,1,8,0:0:0:0:
296,324,436231,1,0,0:0:0:0:
296,324,436306,1,0,0:0:0:0:
93,86,436456,5,12,0:0:0:0:
387,229,436606,1,0,0:0:0:0:
193,32,436756,5,12,0:0:0:0:
326,331,436906,1,0,0:0:0:0:
309,30,437056,5,12,0:0:0:0:
219,343,437206,1,0,0:0:0:0:
400,101,437356,5,12,0:0:0:0:
129,284,437506,1,0,0:0:0:0:
430,199,437656,5,12,0:0:0:0:
430,199,437731,1,0,0:0:0:0:
430,199,437806,1,0,0:0:0:0:
204,59,437956,5,12,0:0:0:0:
309,338,438106,1,0,0:0:0:0:
61,183,438256,1,12,0:0:0:0:
371,192,438406,5,0,0:0:0:0:
84,83,438556,1,12,0:0:0:0:
201,342,438706,1,0,0:0:0:0:
417,86,438856,5,12,0:0:0:0:
123,229,439006,1,0,0:0:0:0:
317,32,439156,5,12,0:0:0:0:
184,331,439306,1,0,0:0:0:0:
201,30,439456,5,12,0:0:0:0:
291,343,439606,1,0,0:0:0:0:
110,101,439756,5,12,0:0:0:0:
381,284,439906,1,0,0:0:0:0:
148,225,440056,5,12,0:0:0:0:
126,200,440131,1,0,0:0:0:0:
113,171,440206,1,0,0:0:0:0:
109,140,440281,1,0,0:0:0:0:
112,107,440356,1,8,0:0:0:0:
125,79,440431,1,0,0:0:0:0:
145,54,440506,1,0,0:0:0:0:
170,35,440581,1,0,0:0:0:0:
200,25,440656,1,8,0:0:0:0:
232,22,440731,1,0,0:0:0:0:
263,30,440806,1,0,0:0:0:0:
294,48,440881,1,0,0:0:0:0:
317,68,440956,1,8,0:0:0:0:
335,95,441031,1,0,0:0:0:0:
344,125,441106,1,0,0:0:0:0:
345,154,441181,1,0,0:0:0:0:
348,180,441256,6,0,P|419:191|481:156,1,142.500005435944,4|0,0:0|0:0,0:0:0:0:
136,184,441556,2,0,P|63:184|8:230,1,142.500005435944,2|0,0:0|0:0,0:0:0:0:
348,164,441856,2,0,P|415:138|452:76,1,142.500005435944,4|0,0:0|0:0,0:0:0:0:
140,200,442156,2,0,P|72:225|35:287,1,142.500005435944,2|0,0:0|0:0,0:0:0:0:
338,274,442456,6,0,L|480:288,1,142.500005435944,4|0,0:0|0:0,0:0:0:0:
172,132,442756,2,0,L|30:118,1,142.500005435944,2|0,0:0|0:0,0:0:0:0:
336,296,443056,2,0,L|478:309,1,142.500005435944,4|0,0:0|0:0,0:0:0:0:
174,114,443356,2,0,L|33:100,1,142.500005435944,2|0,0:0|0:0,0:0:0:0:
336,160,443656,6,0,B|392:161|392:161|426:181|426:181|478:181,1,142.500005435944,4|0,0:0|0:0,0:0:0:0:
188,272,443956,2,0,B|131:268|131:268|95:285|95:285|44:280,1,142.500005435944,2|0,0:0|0:0,0:0:0:0:
64,52,444256,2,0,L|72:200,1,142.500005435944,4|0,0:0|0:0,0:0:0:0:
292,332,444556,2,0,L|300:184,1,142.500005435944,2|0,0:0|0:0,0:0:0:0:
203,52,444856,6,0,B|132:36|132:36|51:54,1,142.500005435944,4|0,0:0|0:0,0:0:0:0:
324,148,445156,2,0,B|394:163|394:163|463:148,1,142.500005435944,2|0,0:0|0:0,0:0:0:0:
204,64,445456,2,0,B|132:73|132:73|62:117,1,142.500005435944,4|0,0:0|0:0,0:0:0:0:
328,56,445756,2,0,L|400:40,3,47.5
196,96,446056,5,12,0:0:0:0:
162,119,446131,1,0,0:0:0:0:
139,153,446206,1,0,0:0:0:0:
130,194,446281,1,0,0:0:0:0:
137,235,446356,1,8,0:0:0:0:
160,270,446431,1,0,0:0:0:0:
193,294,446506,1,0,0:0:0:0:
234,305,446581,1,0,0:0:0:0:
276,296,446656,1,8,0:0:0:0:
312,266,446731,1,0,0:0:0:0:
328,225,446806,1,0,0:0:0:0:
319,180,446881,1,0,0:0:0:0:
304,138,446956,1,8,0:0:0:0:
304,91,447031,1,0,0:0:0:0:
326,53,447106,1,0,0:0:0:0:
366,31,447181,1,0,0:0:0:0:
408,32,447256,6,0,P|417:70|420:99,3,52.2500015945435,6|0|0|0,0:0|0:0|0:0|0:0,0:0:0:0:
304,100,447556,2,0,P|288:136|280:164,3,52.2500015945435,12|0|0|0,0:0|0:0|0:0|0:0,0:0:0:0:
420,208,447856,2,0,P|436:244|444:272,3,52.2500015945435,6|0|0|0,0:0|0:0|0:0|0:0,0:0:0:0:
268,248,448156,2,0,P|252:284|244:312,3,52.2500015945435,12|0|0|0,0:0|0:0|0:0|0:0,0:0:0:0:
148,352,448456,5,8,0:0:0:0:
112,321,448531,1,0,0:0:0:0:
93,278,448606,1,0,0:0:0:0:
95,231,448681,1,0,0:0:0:0:
118,189,448756,1,8,0:0:0:0:
157,162,448831,1,0,0:0:0:0:
203,155,448906,1,0,0:0:0:0:
248,164,448981,1,0,0:0:0:0:
288,188,449056,1,8,0:0:0:0:
334,198,449131,1,0,0:0:0:0:
378,182,449206,1,0,0:0:0:0:
409,148,449281,1,0,0:0:0:0:
419,102,449356,1,8,0:0:0:0:
406,57,449431,1,0,0:0:0:0:
372,25,449506,1,0,0:0:0:0:
326,14,449581,1,0,0:0:0:0:
288,20,449656,5,6,0:0:0:0:
288,20,449731,1,0,0:0:0:0:
288,20,449806,2,0,L|284:76,1,52.2500015945435
180,132,449956,5,12,0:0:0:0:
180,132,450031,1,0,0:0:0:0:
180,132,450106,2,0,L|184:188,1,52.2500015945435
92,260,450256,5,8,0:0:0:0:
133,293,450331,1,2,0:0:0:0:
184,303,450406,1,8,0:0:0:0:
235,288,450481,1,2,0:0:0:0:
276,252,450556,1,8,0:0:0:0:
320,223,450631,1,2,0:0:0:0:
373,219,450706,1,8,0:0:0:0:
421,240,450781,1,2,0:0:0:0:
460,272,450856,6,0,L|452:332,3,56.9999982604981,12|0|0|0,0:0|0:0|0:0|0:0,0:0:0:0:
373,219,451156,2,0,L|365:159,3,56.9999982604981,8|0|0|0,0:0|0:0|0:0|0:0,0:0:0:0:
272,320,451456,1,8,0:0:0:0:
272,320,451531,1,0,0:0:0:0:
272,320,451606,2,0,L|276:260,1,56.9999982604981
180,196,451756,1,8,0:0:0:0:
180,196,451831,1,0,0:0:0:0:
180,196,451906,2,0,L|176:139,1,56.9999982604981
260,64,452056,6,0,L|373:53,1,113.999996520996,12|0,0:0|0:0,0:0:0:0:
480,188,452281,1,0,0:0:0:0:
480,188,452356,2,0,L|366:177,1,113.999996520996,8|0,0:0|0:0,0:0:0:0:
184,200,452581,1,0,0:0:0:0:
184,200,452656,2,0,L|188:268,3,56.9999982604981,8|0|0|0,0:0|0:0|0:0|0:0,0:0:0:0:
320,300,452956,2,0,L|312:364,3,56.9999982604981,8|0|0|0,0:0|0:0|0:0|0:0,0:0:0:0:
187,256,453256,5,12,0:0:0:0:
143,267,453331,1,0,0:0:0:0:
96,262,453406,1,0,0:0:0:0:
55,240,453481,1,0,0:0:0:0:
24,204,453556,1,8,0:0:0:0:
11,160,453631,1,0,0:0:0:0:
14,114,453706,1,0,0:0:0:0:
34,70,453781,1,0,0:0:0:0:
73,41,453856,1,8,0:0:0:0:
124,32,453931,1,0,0:0:0:0:
171,47,454006,1,0,0:0:0:0:
202,87,454081,1,0,0:0:0:0:
232,128,454156,1,8,0:0:0:0:
277,154,454231,1,0,0:0:0:0:
326,155,454306,1,0,0:0:0:0:
370,129,454381,1,0,0:0:0:0:
396,84,454456,6,0,L|456:80,3,56.9999982604981,12|0|0|0,0:0|0:0|0:0|0:0,0:0:0:0:
277,154,454756,2,0,L|217:150,3,56.9999982604981,8|0|0|0,0:0|0:0|0:0|0:0,0:0:0:0:
436,200,455056,2,0,L|496:196,3,56.9999982604981,8|0|0|0,0:0|0:0|0:0|0:0,0:0:0:0:
256,256,455356,2,0,L|196:252,3,56.9999982604981,8|0|0|0,0:0|0:0|0:0|0:0,0:0:0:0:
412,304,455656,5,12,0:0:0:0:
414,249,455731,1,0,0:0:0:0:
381,203,455806,1,0,0:0:0:0:
328,188,455881,1,0,0:0:0:0:
276,210,455956,1,8,0:0:0:0:
249,259,456031,1,0,0:0:0:0:
232,312,456106,1,0,0:0:0:0:
182,339,456181,1,0,0:0:0:0:
128,328,456256,1,8,0:0:0:0:
90,287,456331,1,0,0:0:0:0:
82,231,456406,1,0,0:0:0:0:
106,180,456481,1,0,0:0:0:0:
160,160,456556,2,0,L|240:180,1,56.9999982604981,8|0,0:0|0:0,0:0:0:0:
356,120,456706,2,0,L|300:104,1,56.9999982604981
188,36,456856,5,12,0:0:0:0:
160,91,456931,1,0,0:0:0:0:
171,148,457006,1,0,0:0:0:0:
209,195,457081,1,0,0:0:0:0:
248,244,457156,1,8,0:0:0:0:
246,305,457231,1,0,0:0:0:0:
219,355,457306,1,0,0:0:0:0:
165,376,457381,1,0,0:0:0:0:
112,348,457456,1,8,0:0:0:0:
106,287,457531,1,0,0:0:0:0:
140,232,457606,1,0,0:0:0:0:
200,210,457681,1,0,0:0:0:0:
260,228,457756,2,0,L|332:248,1,56.9999982604981,8|0,0:0|0:0,0:0:0:0:
384,348,457906,2,0,L|320:332,1,56.9999982604981
140,232,458056,6,0,L|148:304,3,56.9999982604981,12|0|0|0,0:0|0:0|0:0|0:0,0:0:0:0:
240,112,458356,2,0,L|246:41,3,56.9999982604981,8|0|0|0,0:0|0:0|0:0|0:0,0:0:0:0:
140,232,458656,6,0,L|69:238,3,56.9999982604981,12|0|0|0,0:0|0:0|0:0|0:0,0:0:0:0:
240,112,458956,2,0,L|297:116,3,56.9999982604981,8|0|0|0,0:0|0:0|0:0|0:0,0:0:0:0:
180,324,459256,5,12,0:0:0:0:
238,350,459331,1,0,0:0:0:0:
301,352,459406,1,0,0:0:0:0:
364,331,459481,1,0,0:0:0:0:
411,288,459556,1,8,0:0:0:0:
438,229,459631,1,0,0:0:0:0:
444,168,459706,1,0,0:0:0:0:
427,105,459781,1,0,0:0:0:0:
376,64,459856,6,0,L|328:96,3,56.9999982604981,8|0|0|0,0:0|0:0|0:0|0:0,0:0:0:0:
168,120,460156,2,0,L|116:144,1,56.9999982604981,8|0,0:0|0:0,0:0:0:0:
304,72,460306,2,0,L|368:64,1,56.9999982604981
184,216,460456,6,0,B|140:208|116:144|116:144|92:200|116:248|132:280|148:332|92:376|60:372|-40:332|-12:264|-4:228|72:204|100:232|120:260,1,522.500015945435,4|2,0:1|0:0,0:0:0:0:
